  0
SECTION
  2
HEADER
  9
$ACADVER
  1
AC1014
  9
$DWGCODEPAGE
  3
ANSI_949
  9
$EXTMAX
 10
630.0
 20
445.5
 30
0.0
  9
$EXTMIN
 10
0.0
 20
-0.0
 30
0.0
  9
$LIMMIN
 10
0.0
 20
-0.0
  9
$LIMMAX
 10
630.0
 20
445.5
  9
$VIEWCTR
 10
315.0
 20
222.75
  9
$VIEWSIZE
 40
445.5
  9
$CLAYER
  8
0
  9
$LTSCALE
 40
34.65
  9
$CELTYPE
  6
BYLAYER
  9
$DIMSCALE
 40
1.0
  9
$DIMASZ
 40
3.0
  9
$DIMEXO
 40
3.9375
  9
$DIMDLI
 40
23.94
  9
$DIMEXE
 40
11.34
  9
$DIMCEN
 40
5.67
  9
$DIMLFAC
 40
1.0
  9
$DIMBLK
  1
_ARROW_FILLED
  9
$DIMTXT
 40
4.5
  9
$DIMTOL
 70
1
  9
$DIMLIM
 70
0
  9
$DIMTFAC
 40
1.0
  9
$DIMTP
 40
0.016
  9
$DIMTM
 40
0.016
  9
$PDMODE
 70
3
  9
$PDSIZE
 40
1.0
  9
$HANDSEED
  5
99E
  9
$TILEMODE
 70
1
  9
$MEASUREMENT
 70
1
  0
ENDSEC
  0
SECTION
  2
CLASSES
  0
ENDSEC
  0
SECTION
  2
TABLES
  0
TABLE
  2
VPORT
  5
8
100
AcDbSymbolTable
 70
2
  0
VPORT
  5
1F4
100
AcDbSymbolTableRecord
100
AcDbViewportTableRecord
  2
*ACTIVE
 70
0
 10
0.0
 20
0.0
 11
1.0
 21
1.0
 12
315.0
 22
222.75
 13
0.0
 23
0.0
 14
1.0
 24
1.0
 15
0.0
 25
0.0
 16
0.0
 26
0.0
 36
1.0
 17
0.0
 27
0.0
 37
0.0
 40
445.5
 41
1.4141414141
 42
50.0
 43
0.0
 44
0.0
 50
0.0
 51
0.0
 71
0
 72
100
 73
1
 74
1
 75
0
 76
0
 77
0
 78
0
  0
ENDTAB
  0
TABLE
  2
LTYPE
  5
5
100
AcDbSymbolTable
 70
6
  0
LTYPE
  5
14
100
AcDbSymbolTableRecord
100
AcDbLinetypeTableRecord
  2
BYBLOCK
 70
0
  3

 72
65
 73
0
 40
0.0
  0
LTYPE
  5
15
100
AcDbSymbolTableRecord
100
AcDbLinetypeTableRecord
  2
BYLAYER
 70
0
  3

 72
65
 73
0
 40
0.0
  0
LTYPE
  5
16
100
AcDbSymbolTableRecord
100
AcDbLinetypeTableRecord
  2
CONTINUOUS
 70
64
  3
Solid line
 72
65
 73
0
 40
0.0
  0
LTYPE
  5
1F5
100
AcDbSymbolTableRecord
100
AcDbLinetypeTableRecord
  2
CENTER
 70
64
  3
____ _ ____ _ ____ _ ____ _ ____ _ ____ _ ____
 72
65
 73
4
 40
0.6
 49
0.375
 74
0
 49
-0.075
 74
0
 49
0.075
 74
0
 49
-0.075
 74
0
  0
LTYPE
  5
1F6
100
AcDbSymbolTableRecord
100
AcDbLinetypeTableRecord
  2
HIDDEN
 70
64
  3
- - - - - - - - - - - - - - - - - - - -
 72
65
 73
2
 40
0.2
 49
0.1
 74
0
 49
-0.1
 74
0
  0
LTYPE
  5
1F7
100
AcDbSymbolTableRecord
100
AcDbLinetypeTableRecord
  2
PHANTOM
 70
64
  3
_____ _ _ _____ _ _ _____ _ _ _____
 72
65
 73
6
 40
0.8
 49
0.45
 74
0
 49
-0.05
 74
0
 49
0.1
 74
0
 49
-0.05
 74
0
 49
0.1
 74
0
 49
-0.05
 74
0
  0
LTYPE
  5
1F8
100
AcDbSymbolTableRecord
100
AcDbLinetypeTableRecord
  2
DOT
 70
64
  3
. . . . . . . . . . . . . . . . . . . .
 72
65
 73
2
 40
0.2
 49
0.1
 74
0
 49
-0.1
 74
0
  0
LTYPE
  5
1F9
100
AcDbSymbolTableRecord
100
AcDbLinetypeTableRecord
  2
DASHED
 70
64
  3
- - - - - - - - - - - - - - - - - - - -
 72
65
 73
2
 40
0.2
 49
0.1
 74
0
 49
-0.1
 74
0
  0
ENDTAB
  0
TABLE
  2
LAYER
  5
2
100
AcDbSymbolTable
 70
36
  0
LAYER
  5
10
100
AcDbSymbolTableRecord
100
AcDbLayerTableRecord
  2
0
 70
0
 62
7
  6
CONTINUOUS
  0
LAYER
  5
1FA
100
AcDbSymbolTableRecord
100
AcDbLayerTableRecord
  2
DEFAULT_1
 70
0
 62
7
  6
CENTER
  0
LAYER
  5
1FB
100
AcDbSymbolTableRecord
100
AcDbLayerTableRecord
  2
DEFAULT_2
 70
0
 62
8
  6
HIDDEN
  0
LAYER
  5
1FC
100
AcDbSymbolTableRecord
100
AcDbLayerTableRecord
  2
DEFAULT_3
 70
0
 62
7
  6
PHANTOM
  0
LAYER
  5
1FD
100
AcDbSymbolTableRecord
100
AcDbLayerTableRecord
  2
00_PLANE_DEF
 70
0
 62
7
  6
CONTINUOUS
  0
LAYER
  5
1FE
100
AcDbSymbolTableRecord
100
AcDbLayerTableRecord
  2
00_PLANE_DEFAULT
 70
0
 62
7
  6
CONTINUOUS
  0
LAYER
  5
1FF
100
AcDbSymbolTableRecord
100
AcDbLayerTableRecord
  2
01_PLANE_CREATE
 70
0
 62
7
  6
CONTINUOUS
  0
LAYER
  5
200
100
AcDbSymbolTableRecord
100
AcDbLayerTableRecord
  2
02_AXIS
 70
0
 62
7
  6
CONTINUOUS
  0
LAYER
  5
201
100
AcDbSymbolTableRecord
100
AcDbLayerTableRecord
  2
03_CURVE
 70
0
 62
7
  6
CONTINUOUS
  0
LAYER
  5
202
100
AcDbSymbolTableRecord
100
AcDbLayerTableRecord
  2
04_POINT
 70
0
 62
7
  6
CONTINUOUS
  0
LAYER
  5
203
100
AcDbSymbolTableRecord
100
AcDbLayerTableRecord
  2
05_CSYS
 70
0
 62
7
  6
CONTINUOUS
  0
LAYER
  5
204
100
AcDbSymbolTableRecord
100
AcDbLayerTableRecord
  2
06_QUILT
 70
0
 62
7
  6
CONTINUOUS
  0
LAYER
  5
205
100
AcDbSymbolTableRecord
100
AcDbLayerTableRecord
  2
07_COSMETICS
 70
0
 62
7
  6
CONTINUOUS
  0
LAYER
  5
206
100
AcDbSymbolTableRecord
100
AcDbLayerTableRecord
  2
07_SHARED_FEAT
 70
0
 62
7
  6
CONTINUOUS
  0
LAYER
  5
207
100
AcDbSymbolTableRecord
100
AcDbLayerTableRecord
  2
08_COSMETIC
 70
0
 62
7
  6
CONTINUOUS
  0
LAYER
  5
208
100
AcDbSymbolTableRecord
100
AcDbLayerTableRecord
  2
09_ANNOTATION
 70
0
 62
7
  6
CONTINUOUS
  0
LAYER
  5
209
100
AcDbSymbolTableRecord
100
AcDbLayerTableRecord
  2
11_COMPONENT
 70
0
 62
7
  6
CONTINUOUS
  0
LAYER
  5
20A
100
AcDbSymbolTableRecord
100
AcDbLayerTableRecord
  2
12_SKELETON
 70
0
 62
7
  6
CONTINUOUS
  0
LAYER
  5
20B
100
AcDbSymbolTableRecord
100
AcDbLayerTableRecord
  2
22_DIM
 70
0
 62
7
  6
CONTINUOUS
  0
LAYER
  5
20C
100
AcDbSymbolTableRecord
100
AcDbLayerTableRecord
  2
23_NOTE
 70
0
 62
7
  6
CONTINUOUS
  0
LAYER
  5
20D
100
AcDbSymbolTableRecord
100
AcDbLayerTableRecord
  2
AXIS
 70
0
 62
7
  6
CONTINUOUS
  0
LAYER
  5
20E
100
AcDbSymbolTableRecord
100
AcDbLayerTableRecord
  2
DEF_DATUM_PLANE
 70
0
 62
7
  6
CONTINUOUS
  0
LAYER
  5
20F
100
AcDbSymbolTableRecord
100
AcDbLayerTableRecord
  2
DIMS
 70
0
 62
7
  6
CONTINUOUS
  0
LAYER
  5
210
100
AcDbSymbolTableRecord
100
AcDbLayerTableRecord
  2
DTM_PLANE
 70
0
 62
7
  6
CONTINUOUS
  0
LAYER
  5
211
100
AcDbSymbolTableRecord
100
AcDbLayerTableRecord
  2
PARA_DIMS
 70
0
 62
7
  6
CONTINUOUS
  0
ENDTAB
  0
TABLE
  2
STYLE
  5
3
100
AcDbSymbolTable
 70
1
  0
STYLE
  5
11
100
AcDbSymbolTableRecord
100
AcDbTextStyleTableRecord
  2
STANDARD
 70
0
 40
0.0
 41
0.8
 50
0.0
 71
0
 42
0.2
  3
txt
  4

  0
STYLE
  5
212
100
AcDbSymbolTableRecord
100
AcDbTextStyleTableRecord
  2
TEXTSTYLE_1
 70
0
 40
0.0
 41
0.8
 50
0.0
 71
0
 42
0.2
  3
gdt
  4

  0
ENDTAB
  0
TABLE
  2
VIEW
  5
6
100
AcDbSymbolTable
 70
0
  0
ENDTAB
  0
TABLE
  2
UCS
  5
7
100
AcDbSymbolTable
 70
0
  0
ENDTAB
  0
TABLE
  2
APPID
  5
9
100
AcDbSymbolTable
 70
1
  0
APPID
  5
213
100
AcDbSymbolTableRecord
100
AcDbRegAppTableRecord
  2
ACAD
 70
0
  0
ENDTAB
  0
TABLE
  2
BLOCK_RECORD
  5
1
100
AcDbSymbolTable
 70
0
  0
BLOCK_RECORD
  5
1F
100
AcDbSymbolTableRecord
100
AcDbBlockTableRecord
  2
*MODEL_SPACE
  0
BLOCK_RECORD
  5
1B
100
AcDbSymbolTableRecord
100
AcDbBlockTableRecord
  2
*PAPER_SPACE
  0
BLOCK_RECORD
  5
214
100
AcDbSymbolTableRecord
100
AcDbBlockTableRecord
  2
_ARROW_FILLED
  0
BLOCK_RECORD
  5
215
100
AcDbSymbolTableRecord
100
AcDbBlockTableRecord
  2
*D0
  0
BLOCK_RECORD
  5
216
100
AcDbSymbolTableRecord
100
AcDbBlockTableRecord
  2
*D1
  0
BLOCK_RECORD
  5
217
100
AcDbSymbolTableRecord
100
AcDbBlockTableRecord
  2
*D2
  0
BLOCK_RECORD
  5
218
100
AcDbSymbolTableRecord
100
AcDbBlockTableRecord
  2
*D3
  0
BLOCK_RECORD
  5
219
100
AcDbSymbolTableRecord
100
AcDbBlockTableRecord
  2
*D4
  0
ENDTAB
  0
TABLE
  2
DIMSTYLE
  5
A
100
AcDbSymbolTable
 70
1
  0
DIMSTYLE
105
21A
100
AcDbSymbolTableRecord
100
AcDbDimStyleTableRecord
  2
STANDARD
 70
0
  3

  4

  5
_ARROW_FILLED
  6
_ARROW_FILLED
  7
_ARROW_FILLED
 40
1.0
 41
3.0
 42
0.0625
 43
0.38
 44
0.18
 45
0.0
 46
0.0
 47
0.016
 48
0.016
140
4.5
141
0.09
142
0.0
143
25.4
144
1.0
145
0.0
146
1.0
147
0.09
 71
1.0
 72
0.0
 73
0
 74
0
 75
0
 76
0
 77
1
 78
8
170
0
171
2
172
0
173
0
174
0
175
0
176
0
177
0
178
0
270
2
271
2
272
2
273
2
274
2
275
0
280
0
281
0
282
0
283
1
284
8
285
0
286
0
287
3
288
0
340
11
  0
DIMSTYLE
105
21B
100
AcDbSymbolTableRecord
100
AcDbDimStyleTableRecord
  2
DIMSTYLE_1
 70
0
  3

  4

  5
_ARROW_FILLED
  6
_ARROW_FILLED
  7
_ARROW_FILLED
 40
1.0
 41
3.0
 42
0.0625
 43
0.38
 44
0.18
 45
0.0
 46
0.0
 47
0.5
 48
0.5
140
4.5
141
0.09
142
0.0
143
25.4
144
1.0
145
0.0
146
1.0
147
0.09
 71
0.0
 72
0.0
 73
0
 74
0
 75
0
 76
0
 77
1
 78
8
170
0
171
2
172
0
173
0
174
0
175
0
176
0
177
0
178
0
270
2
271
2
272
2
273
2
274
2
275
0
280
0
281
0
282
0
283
1
284
8
285
0
286
0
287
3
288
0
340
11
  0
DIMSTYLE
105
21C
100
AcDbSymbolTableRecord
100
AcDbDimStyleTableRecord
  2
DIMSTYLE_2
 70
0
  3

  4

  5
_ARROW_FILLED
  6
_ARROW_FILLED
  7
_ARROW_FILLED
 40
1.0
 41
3.0
 42
0.0625
 43
0.38
 44
0.18
 45
0.0
 46
0.0
 47
0.5
 48
0.5
140
4.5
141
0.09
142
0.0
143
25.4
144
1.0
145
0.0
146
1.0
147
0.09
 71
0.0
 72
0.0
 73
0
 74
0
 75
0
 76
0
 77
1
 78
8
170
0
171
2
172
0
173
0
174
0
175
0
176
0
177
0
178
0
270
2
271
0
272
0
273
2
274
2
275
0
280
0
281
0
282
0
283
1
284
8
285
0
286
0
287
3
288
0
340
11
  0
DIMSTYLE
105
21D
100
AcDbSymbolTableRecord
100
AcDbDimStyleTableRecord
  2
DIMSTYLE_3
 70
0
  3

  4

  5
_ARROW_FILLED
  6
_ARROW_FILLED
  7
_ARROW_FILLED
 40
1.0
 41
3.0
 42
0.0625
 43
0.38
 44
0.18
 45
0.0
 46
0.0
 47
0.3
 48
0.3
140
4.5
141
0.09
142
0.0
143
25.4
144
1.0
145
0.0
146
1.0
147
0.09
 71
0.0
 72
0.0
 73
0
 74
0
 75
0
 76
0
 77
1
 78
8
170
0
171
2
172
0
173
0
174
0
175
0
176
0
177
0
178
0
270
2
271
2
272
2
273
2
274
2
275
0
280
0
281
0
282
0
283
1
284
8
285
0
286
0
287
3
288
0
340
11
  0
DIMSTYLE
105
21E
100
AcDbSymbolTableRecord
100
AcDbDimStyleTableRecord
  2
DIMSTYLE_4
 70
0
  3

  4

  5
_ARROW_FILLED
  6
_ARROW_FILLED
  7
_ARROW_FILLED
 40
1.0
 41
3.0
 42
0.0625
 43
0.38
 44
0.18
 45
0.0
 46
0.0
 47
0.3
 48
0.3
140
4.5
141
0.09
142
0.0
143
25.4
144
1.0
145
0.0
146
1.0
147
0.09
 71
0.0
 72
0.0
 73
0
 74
0
 75
0
 76
0
 77
1
 78
8
170
0
171
2
172
0
173
0
174
0
175
0
176
0
177
0
178
0
270
2
271
0
272
0
273
2
274
2
275
0
280
0
281
0
282
0
283
1
284
8
285
0
286
0
287
3
288
0
340
11
  0
ENDTAB
  0
ENDSEC
  0
SECTION
  2
BLOCKS
  0
BLOCK
  5
20
100
AcDbEntity
  8
0
100
AcDbBlockBegin
  2
*MODEL_SPACE
 70
0
 10
0.0
 20
0.0
 30
0.0
  3
*MODEL_SPACE
  1

  0
ENDBLK
  5
21
100
AcDbEntity
  8
0
100
AcDbBlockEnd
  0
BLOCK
  5
1C
100
AcDbEntity
  8
0
100
AcDbBlockBegin
  2
*PAPER_SPACE
 70
0
 10
0.0
 20
0.0
 30
0.0
  3
*PAPER_SPACE
  1

  0
ENDBLK
  5
1D
100
AcDbEntity
  8
0
100
AcDbBlockEnd
  0
BLOCK
  5
21F
100
AcDbEntity
  8
0
100
AcDbBlockBegin
  2
_ARROW_FILLED
 70
64
 10
0.0
 20
0.0
  3
_ARROW_FILLED
  1

  0
SOLID
  5
220
100
AcDbEntity
  8
0
  6
BYBLOCK
 62
0
100
AcDbTrace
 10
0.0
 20
0.0
 11
-1.0
 21
0.175
 12
-1.0
 22
-0.175
 13
-1.0
 23
-0.175
  0
ENDBLK
  5
221
100
AcDbEntity
  8
0
  6
BYBLOCK
 62
0
100
AcDbBlockEnd
  0
BLOCK
  5
222
100
AcDbEntity
  8
0
100
AcDbBlockBegin
 62
2
  6
CONTINUOUS
  2
*D0
 70
65
 10
0.0
 20
0.0
  3
*D0
  1

  0
MTEXT
  5
223
100
AcDbEntity
  8
0
100
AcDbMText
 62
2
  6
CONTINUOUS
  7
STANDARD
 71
2
 72
1
 10
330.9572850456
 20
222.7086838942
 30
0.0
 11
0.0
 21
1.0
 31
0.0
  1
128 (5.03")
 40
4.5
 41
39.6
  0
LINE
  5
224
100
AcDbEntity
  8
0
100
AcDbLine
 62
2
  6
CONTINUOUS
 10
311.4496875
 20
286.7086838942
 11
338.0822850456
 21
286.7086838942
  0
LINE
  5
225
100
AcDbEntity
  8
0
100
AcDbLine
 62
2
  6
CONTINUOUS
 10
311.4496875
 20
158.7086838942
 11
338.0822850456
 21
158.7086838942
  0
LINE
  5
226
100
AcDbEntity
  8
0
100
AcDbLine
 62
2
  6
CONTINUOUS
 10
336.5822850456
 20
286.7086838942
 11
336.5822850456
 21
222.7086838942
  0
LINE
  5
227
100
AcDbEntity
  8
0
100
AcDbLine
 62
2
  6
CONTINUOUS
 10
336.5822850456
 20
158.7086838942
 11
336.5822850456
 21
222.7086838942
  0
INSERT
  5
228
100
AcDbEntity
  8
0
100
AcDbBlockReference
 62
2
  6
CONTINUOUS
  2
_ARROW_FILLED
 10
336.5822850456
 20
286.7086838942
 41
3.0
 42
3.0
 43
3.0
 50
90.0
  0
INSERT
  5
229
100
AcDbEntity
  8
0
100
AcDbBlockReference
 62
2
  6
CONTINUOUS
  2
_ARROW_FILLED
 10
336.5822850456
 20
158.7086838942
 41
3.0
 42
3.0
 43
3.0
 50
270.0
  0
ENDBLK
  5
22A
100
AcDbEntity
  8
0
  6
BYBLOCK
 62
0
100
AcDbBlockEnd
  0
BLOCK
  5
22B
100
AcDbEntity
  8
0
100
AcDbBlockBegin
 62
2
  6
CONTINUOUS
  2
*D1
 70
65
 10
0.0
 20
0.0
  3
*D1
  1

  0
MTEXT
  5
22C
100
AcDbEntity
  8
0
100
AcDbMText
 62
2
  6
CONTINUOUS
  7
STANDARD
 71
2
 72
1
 10
224.9296875
 20
123.4435522485
 30
0.0
 11
1.0
 21
0.0
 31
0.0
  1
178 (7.00")
 40
4.5
 41
39.6
  0
LINE
  5
22D
100
AcDbEntity
  8
0
100
AcDbLine
 62
2
  6
CONTINUOUS
 10
135.9096875
 20
161.2086838942
 11
135.9096875
 21
116.3185522485
  0
LINE
  5
22E
100
AcDbEntity
  8
0
100
AcDbLine
 62
2
  6
CONTINUOUS
 10
313.9496875
 20
161.2086838942
 11
313.9496875
 21
116.3185522485
  0
LINE
  5
22F
100
AcDbEntity
  8
0
100
AcDbLine
 62
2
  6
CONTINUOUS
 10
135.9096875
 20
117.8185522485
 11
224.9296875
 21
117.8185522485
  0
LINE
  5
230
100
AcDbEntity
  8
0
100
AcDbLine
 62
2
  6
CONTINUOUS
 10
313.9496875
 20
117.8185522485
 11
224.9296875
 21
117.8185522485
  0
INSERT
  5
231
100
AcDbEntity
  8
0
100
AcDbBlockReference
 62
2
  6
CONTINUOUS
  2
_ARROW_FILLED
 10
135.9096875
 20
117.8185522485
 41
3.0
 42
3.0
 43
3.0
 50
180.0
  0
INSERT
  5
232
100
AcDbEntity
  8
0
100
AcDbBlockReference
 62
2
  6
CONTINUOUS
  2
_ARROW_FILLED
 10
313.9496875
 20
117.8185522485
 41
3.0
 42
3.0
 43
3.0
  0
ENDBLK
  5
233
100
AcDbEntity
  8
0
  6
BYBLOCK
 62
0
100
AcDbBlockEnd
  0
BLOCK
  5
234
100
AcDbEntity
  8
0
100
AcDbBlockBegin
 62
2
  6
CONTINUOUS
  2
*D2
 70
65
 10
0.0
 20
0.0
  3
*D2
  1

  0
MTEXT
  5
235
100
AcDbEntity
  8
0
100
AcDbMText
 62
2
  6
CONTINUOUS
  7
STANDARD
 71
2
 72
1
 10
224.9296875
 20
133.6192305167
 30
0.0
 11
1.0
 21
0.0
 31
0.0
  1
170 (6.69")
 40
4.5
 41
39.6
  0
LINE
  5
236
100
AcDbEntity
  8
0
100
AcDbLine
 62
2
  6
CONTINUOUS
 10
309.9496875
 20
167.2086838942
 11
309.9496875
 21
126.4942305167
  0
LINE
  5
237
100
AcDbEntity
  8
0
100
AcDbLine
 62
2
  6
CONTINUOUS
 10
139.9096875
 20
167.2086838942
 11
139.9096875
 21
126.4942305167
  0
LINE
  5
238
100
AcDbEntity
  8
0
100
AcDbLine
 62
2
  6
CONTINUOUS
 10
309.9496875
 20
127.9942305167
 11
224.9296875
 21
127.9942305167
  0
LINE
  5
239
100
AcDbEntity
  8
0
100
AcDbLine
 62
2
  6
CONTINUOUS
 10
139.9096875
 20
127.9942305167
 11
224.9296875
 21
127.9942305167
  0
INSERT
  5
23A
100
AcDbEntity
  8
0
100
AcDbBlockReference
 62
2
  6
CONTINUOUS
  2
_ARROW_FILLED
 10
309.9496875
 20
127.9942305167
 41
3.0
 42
3.0
 43
3.0
  0
INSERT
  5
23B
100
AcDbEntity
  8
0
100
AcDbBlockReference
 62
2
  6
CONTINUOUS
  2
_ARROW_FILLED
 10
139.9096875
 20
127.9942305167
 41
3.0
 42
3.0
 43
3.0
 50
180.0
  0
ENDBLK
  5
23C
100
AcDbEntity
  8
0
  6
BYBLOCK
 62
0
100
AcDbBlockEnd
  0
BLOCK
  5
23D
100
AcDbEntity
  8
0
100
AcDbBlockBegin
 62
2
  6
CONTINUOUS
  2
*D3
 70
65
 10
0.0
 20
0.0
  3
*D3
  1

  0
MTEXT
  5
23E
100
AcDbEntity
  8
0
100
AcDbMText
 62
2
  6
CONTINUOUS
  7
STANDARD
 71
2
 72
1
 10
321.3072045918
 20
222.2086838942
 30
0.0
 11
0.0
 21
1.0
 31
0.0
  1
107 (4.21")
 40
4.5
 41
39.6
  0
LINE
  5
23F
100
AcDbEntity
  8
0
100
AcDbLine
 62
2
  6
CONTINUOUS
 10
313.6996875
 20
168.7086838942
 11
328.4322045918
 21
168.7086838942
  0
LINE
  5
240
100
AcDbEntity
  8
0
100
AcDbLine
 62
2
  6
CONTINUOUS
 10
313.6996875
 20
275.7086838942
 11
328.4322045918
 21
275.7086838942
  0
LINE
  5
241
100
AcDbEntity
  8
0
100
AcDbLine
 62
2
  6
CONTINUOUS
 10
326.9322045918
 20
168.7086838942
 11
326.9322045918
 21
222.2086838942
  0
LINE
  5
242
100
AcDbEntity
  8
0
100
AcDbLine
 62
2
  6
CONTINUOUS
 10
326.9322045918
 20
275.7086838942
 11
326.9322045918
 21
222.2086838942
  0
INSERT
  5
243
100
AcDbEntity
  8
0
100
AcDbBlockReference
 62
2
  6
CONTINUOUS
  2
_ARROW_FILLED
 10
326.9322045918
 20
168.7086838942
 41
3.0
 42
3.0
 43
3.0
 50
270.0
  0
INSERT
  5
244
100
AcDbEntity
  8
0
100
AcDbBlockReference
 62
2
  6
CONTINUOUS
  2
_ARROW_FILLED
 10
326.9322045918
 20
275.7086838942
 41
3.0
 42
3.0
 43
3.0
 50
90.0
  0
ENDBLK
  5
245
100
AcDbEntity
  8
0
  6
BYBLOCK
 62
0
100
AcDbBlockEnd
  0
BLOCK
  5
246
100
AcDbEntity
  8
0
100
AcDbBlockBegin
 62
2
  6
CONTINUOUS
  2
*D4
 70
65
 10
0.0
 20
0.0
  3
*D4
  1

  0
MTEXT
  5
247
100
AcDbEntity
  8
0
100
AcDbMText
 62
2
  6
CONTINUOUS
  7
STANDARD
 71
1
 72
1
 10
320.6202267039
 20
72.2597676923
 30
0.0
 11
0.0
 21
1.0
 31
0.0
  1
34 (1.33")
 40
4.5
 41
36.0
  0
LINE
  5
248
100
AcDbEntity
  8
0
100
AcDbLine
 62
2
  6
CONTINUOUS
 10
298.1240484275
 20
69.8367307692
 11
327.7452267039
 21
69.8367307692
  0
LINE
  5
249
100
AcDbEntity
  8
0
100
AcDbLine
 62
2
  6
CONTINUOUS
 10
315.4496875
 20
35.8267307692
 11
327.7452267039
 21
35.8267307692
  0
LINE
  5
24A
100
AcDbEntity
  8
0
100
AcDbLine
 62
2
  6
CONTINUOUS
 10
326.2452267039
 20
69.8367307692
 11
326.2452267039
 21
52.8317307692
  0
LINE
  5
24B
100
AcDbEntity
  8
0
100
AcDbLine
 62
2
  6
CONTINUOUS
 10
326.2452267039
 20
52.8317307692
 11
326.2452267039
 21
108.2597676923
  0
LINE
  5
24C
100
AcDbEntity
  8
0
100
AcDbLine
 62
2
  6
CONTINUOUS
 10
326.2452267039
 20
35.8267307692
 11
326.2452267039
 21
52.8317307692
  0
INSERT
  5
24D
100
AcDbEntity
  8
0
100
AcDbBlockReference
 62
2
  6
CONTINUOUS
  2
_ARROW_FILLED
 10
326.2452267039
 20
69.8367307692
 41
3.0
 42
3.0
 43
3.0
 50
90.0
  0
INSERT
  5
24E
100
AcDbEntity
  8
0
100
AcDbBlockReference
 62
2
  6
CONTINUOUS
  2
_ARROW_FILLED
 10
326.2452267039
 20
35.8267307692
 41
3.0
 42
3.0
 43
3.0
 50
270.0
  0
ENDBLK
  5
24F
100
AcDbEntity
  8
0
  6
BYBLOCK
 62
0
100
AcDbBlockEnd
  0
ENDSEC
  0
SECTION
  2
ENTITIES
  0
DIMENSION
  5
250
100
AcDbEntity
  8
0
100
AcDbDimension
 62
2
  6
CONTINUOUS
  2
*D0
 10
336.5822850456
 20
158.7086838942
 11
337.6432138453
 21
213.8581169246
 70
160
  1
<> (5.03")
  3
DIMSTYLE_1
100
AcDbAlignedDimension
 13
311.4496875
 23
286.7086838942
 14
311.4496875
 24
158.7086838942
 50
270.0
100
AcDbRotatedDimension
  0
DIMENSION
  5
251
100
AcDbEntity
  8
0
100
AcDbDimension
 62
2
  6
CONTINUOUS
  2
*D1
 10
313.9496875
 20
117.8185522485
 11
215.0296875
 21
121.1935522485
 70
160
  1
<> (7.00")
  3
DIMSTYLE_2
100
AcDbAlignedDimension
 13
135.9096875
 23
161.2086838942
 14
313.9496875
 24
161.2086838942
100
AcDbRotatedDimension
  0
DIMENSION
  5
252
100
AcDbEntity
  8
0
100
AcDbDimension
 62
2
  6
CONTINUOUS
  2
*D2
 10
139.9096875
 20
127.9942305167
 11
215.0296875
 21
131.3692305167
 70
160
  1
<> (6.69")
  3
DIMSTYLE_2
100
AcDbAlignedDimension
 13
309.9496875
 23
167.2086838942
 14
139.9096875
 24
167.2086838942
 50
180.0
100
AcDbRotatedDimension
  0
DIMENSION
  5
253
100
AcDbEntity
  8
0
100
AcDbDimension
 62
2
  6
CONTINUOUS
  2
*D3
 10
326.9322045918
 20
275.7086838942
 11
327.9931333915
 21
213.3581169246
 70
160
  1
<> (4.21")
  3
DIMSTYLE_3
100
AcDbAlignedDimension
 13
313.6996875
 23
168.7086838942
 14
313.6996875
 24
275.7086838942
 50
90.0
100
AcDbRotatedDimension
  0
DIMENSION
  5
254
100
AcDbEntity
  8
0
100
AcDbDimension
 62
2
  6
CONTINUOUS
  2
*D4
 10
326.2452267039
 20
35.8267307692
 11
322.8702267039
 21
90.2597676923
 70
160
  1
<> (1.33")
  3
DIMSTYLE_4
100
AcDbAlignedDimension
 13
298.1240484275
 23
69.8367307692
 14
315.4496875
 24
35.8267307692
 50
270.0
100
AcDbRotatedDimension
  0
MTEXT
  5
255
100
AcDbEntity
  8
0
100
AcDbMText
 62
2
  6
CONTINUOUS
  7
STANDARD
 71
1
 72
1
 10
413.2408601902
 20
59.2942035732
 30
0.0
 11
1.0
 21
0.0
 31
0.0
  1
UNIT : mm (inch")
 40
12.0
 41
163.2
  0
LINE
  5
256
100
AcDbEntity
  8
0
100
AcDbLine
 62
7
  6
CONTINUOUS
 10
0.0
 20
-0.0
 11
0.0
 21
445.5
  0
LINE
  5
257
100
AcDbEntity
  8
0
100
AcDbLine
 62
7
  6
CONTINUOUS
 10
0.0
 20
-0.0
 11
630.0
 21
-0.0
  0
LINE
  5
258
100
AcDbEntity
  8
0
100
AcDbLine
 62
7
  6
CONTINUOUS
 10
0.0
 20
445.5
 11
630.0
 21
445.5
  0
LINE
  5
259
100
AcDbEntity
  8
0
100
AcDbLine
 62
7
  6
CONTINUOUS
 10
630.0
 20
-0.0
 11
630.0
 21
445.5
  0
LINE
  5
25A
100
AcDbEntity
  8
11_COMPONENT
100
AcDbLine
 62
7
  6
CONTINUOUS
 10
135.9096875
 20
38.1267307692
 11
135.9096875
 21
35.8267307692
  0
LINE
  5
25B
100
AcDbEntity
  8
11_COMPONENT
100
AcDbLine
 62
9
  6
CONTINUOUS
 10
139.9096875
 20
35.8267307692
 11
139.9096875
 21
38.3267307692
  0
LINE
  5
25C
100
AcDbEntity
  8
11_COMPONENT
100
AcDbLine
 62
9
  6
CONTINUOUS
 10
144.861028376
 20
38.1267307692
 11
144.861028376
 21
38.3267307692
  0
LINE
  5
25D
100
AcDbEntity
  8
11_COMPONENT
100
AcDbLine
 62
9
  6
CONTINUOUS
 10
144.9890782362
 20
44.8367307692
 11
144.9890782362
 21
44.6367307692
  0
LINE
  5
25E
100
AcDbEntity
  8
11_COMPONENT
100
AcDbLine
 62
9
  6
CONTINUOUS
 10
145.0596090285
 20
45.8367307692
 11
145.0596090285
 21
46.0367307692
  0
LINE
  5
25F
100
AcDbEntity
  8
11_COMPONENT
100
AcDbLine
 62
9
  6
CONTINUOUS
 10
145.5004264802
 20
47.7367307692
 11
145.5004264802
 21
47.5367307692
  0
LINE
  5
260
100
AcDbEntity
  8
11_COMPONENT
100
AcDbLine
 62
9
  6
CONTINUOUS
 10
145.5709572725
 20
48.7367307692
 11
145.5709572725
 21
48.9367307692
  0
LINE
  5
261
100
AcDbEntity
  8
11_COMPONENT
100
AcDbLine
 62
9
  6
CONTINUOUS
 10
145.7973246436
 20
44.8367307692
 11
145.7973246436
 21
44.6367307692
  0
LINE
  5
262
100
AcDbEntity
  8
11_COMPONENT
100
AcDbLine
 62
9
  6
CONTINUOUS
 10
146.0117747243
 20
50.6367307692
 11
146.0117747243
 21
50.4367307692
  0
LINE
  5
263
100
AcDbEntity
  8
11_COMPONENT
100
AcDbLine
 62
9
  6
CONTINUOUS
 10
146.0823055166
 20
51.6367307692
 11
146.0823055166
 21
51.8367307692
  0
LINE
  5
264
100
AcDbEntity
  8
11_COMPONENT
100
AcDbLine
 62
9
  6
CONTINUOUS
 10
146.2205093973
 20
45.8367307692
 11
146.2205093973
 21
46.0367307692
  0
LINE
  5
265
100
AcDbEntity
  8
11_COMPONENT
100
AcDbLine
 62
9
  6
CONTINUOUS
 10
146.3086728876
 20
47.7367307692
 11
146.3086728876
 21
47.5367307692
  0
LINE
  5
266
100
AcDbEntity
  8
11_COMPONENT
100
AcDbLine
 62
9
  6
CONTINUOUS
 10
146.5231229683
 20
53.5367307692
 11
146.5231229683
 21
53.3367307692
  0
LINE
  5
267
100
AcDbEntity
  8
11_COMPONENT
100
AcDbLine
 62
9
  6
CONTINUOUS
 10
146.5936537606
 20
54.5367307692
 11
146.5936537606
 21
54.7367307692
  0
LINE
  5
268
100
AcDbEntity
  8
11_COMPONENT
100
AcDbLine
 62
9
  6
CONTINUOUS
 10
146.7318576413
 20
48.7367307692
 11
146.7318576413
 21
48.9367307692
  0
LINE
  5
269
100
AcDbEntity
  8
11_COMPONENT
100
AcDbLine
 62
9
  6
CONTINUOUS
 10
146.8200211317
 20
50.6367307692
 11
146.8200211317
 21
50.4367307692
  0
LINE
  5
26A
100
AcDbEntity
  8
11_COMPONENT
100
AcDbLine
 62
9
  6
CONTINUOUS
 10
147.0344712124
 20
56.4367307692
 11
147.0344712124
 21
56.2367307692
  0
LINE
  5
26B
100
AcDbEntity
  8
11_COMPONENT
100
AcDbLine
 62
9
  6
CONTINUOUS
 10
147.1050020047
 20
57.4367307692
 11
147.1050020047
 21
57.6367307692
  0
LINE
  5
26C
100
AcDbEntity
  8
11_COMPONENT
100
AcDbLine
 62
7
  6
CONTINUOUS
 10
146.6125981282
 20
57.2235548581
 11
146.5420673359
 21
56.8235548581
  0
LINE
  5
26D
100
AcDbEntity
  8
11_COMPONENT
100
AcDbLine
 62
7
  6
CONTINUOUS
 10
146.1012498841
 20
54.3235548581
 11
146.0307190918
 21
53.9235548581
  0
LINE
  5
26E
100
AcDbEntity
  8
11_COMPONENT
100
AcDbLine
 62
7
  6
CONTINUOUS
 10
145.5899016401
 20
51.4235548581
 11
145.5193708478
 21
51.0235548581
  0
LINE
  5
26F
100
AcDbEntity
  8
11_COMPONENT
100
AcDbLine
 62
7
  6
CONTINUOUS
 10
145.078553396
 20
48.5235548581
 11
145.0080226037
 21
48.1235548581
  0
LINE
  5
270
100
AcDbEntity
  8
11_COMPONENT
100
AcDbLine
 62
7
  6
CONTINUOUS
 10
144.567205152
 20
45.6235548581
 11
144.4966743597
 21
45.2235548581
  0
LINE
  5
271
100
AcDbEntity
  8
11_COMPONENT
100
AcDbLine
 62
9
  6
CONTINUOUS
 10
147.2432058854
 20
51.6367307692
 11
147.2432058854
 21
51.8367307692
  0
LINE
  5
272
100
AcDbEntity
  8
11_COMPONENT
100
AcDbLine
 62
9
  6
CONTINUOUS
 10
147.3313693757
 20
53.5367307692
 11
147.3313693757
 21
53.3367307692
  0
LINE
  5
273
100
AcDbEntity
  8
11_COMPONENT
100
AcDbLine
 62
9
  6
CONTINUOUS
 10
147.7545541294
 20
54.5367307692
 11
147.7545541294
 21
54.7367307692
  0
LINE
  5
274
100
AcDbEntity
  8
11_COMPONENT
100
AcDbLine
 62
9
  6
CONTINUOUS
 10
147.8427176198
 20
56.4367307692
 11
147.8427176198
 21
56.2367307692
  0
LINE
  5
275
100
AcDbEntity
  8
11_COMPONENT
100
AcDbLine
 62
9
  6
CONTINUOUS
 10
148.2659023735
 20
57.4367307692
 11
148.2659023735
 21
57.6367307692
  0
LINE
  5
276
100
AcDbEntity
  8
11_COMPONENT
100
AcDbLine
 62
9
  6
CONTINUOUS
 10
152.5229631606
 20
54.0394711042
 11
152.5229631606
 21
53.2264330368
  0
LINE
  5
277
100
AcDbEntity
  8
11_COMPONENT
100
AcDbLine
 62
9
  6
CONTINUOUS
 10
152.5229631606
 20
52.7460367183
 11
152.5229631606
 21
51.3867808688
  0
LINE
  5
278
100
AcDbEntity
  8
11_COMPONENT
100
AcDbLine
 62
9
  6
CONTINUOUS
 10
152.5229631606
 20
51.3342876707
 11
152.5229631606
 21
51.3323850972
  0
LINE
  5
279
100
AcDbEntity
  8
11_COMPONENT
100
AcDbLine
 62
9
  6
CONTINUOUS
 10
152.5229631606
 20
54.8339904342
 11
152.5229631606
 21
55.6470285016
  0
LINE
  5
27A
100
AcDbEntity
  8
11_COMPONENT
100
AcDbLine
 62
9
  6
CONTINUOUS
 10
152.5229631606
 20
56.1274247947
 11
152.5229631606
 21
57.4866806696
  0
LINE
  5
27B
100
AcDbEntity
  8
11_COMPONENT
100
AcDbLine
 62
9
  6
CONTINUOUS
 10
152.5229631606
 20
57.5391738677
 11
152.5229631606
 21
57.5410764413
  0
LINE
  5
27C
100
AcDbEntity
  8
11_COMPONENT
100
AcDbLine
 62
9
  6
CONTINUOUS
 10
153.2353265725
 20
69.6367307692
 11
153.2353265721
 21
69.8367307692
  0
LINE
  5
27D
100
AcDbEntity
  8
11_COMPONENT
100
AcDbLine
 62
9
  6
CONTINUOUS
 10
146.8095596788
 20
57.1888252225
 11
146.7390288865
 21
56.7888252225
  0
LINE
  5
27E
100
AcDbEntity
  8
11_COMPONENT
100
AcDbLine
 62
9
  6
CONTINUOUS
 10
146.2982114347
 20
54.2888252225
 11
146.2276806424
 21
53.8888252225
  0
LINE
  5
27F
100
AcDbEntity
  8
11_COMPONENT
100
AcDbLine
 62
9
  6
CONTINUOUS
 10
145.7868631907
 20
51.3888252225
 11
145.7163323984
 21
50.9888252225
  0
LINE
  5
280
100
AcDbEntity
  8
11_COMPONENT
100
AcDbLine
 62
9
  6
CONTINUOUS
 10
145.2755149466
 20
48.4888252225
 11
145.2049841543
 21
48.0888252225
  0
LINE
  5
281
100
AcDbEntity
  8
11_COMPONENT
100
AcDbLine
 62
9
  6
CONTINUOUS
 10
144.7641667026
 20
45.5888252225
 11
144.6936359103
 21
45.1888252225
  0
LINE
  5
282
100
AcDbEntity
  8
11_COMPONENT
100
AcDbLine
 62
7
  6
CONTINUOUS
 10
149.788499437
 20
66.9444993911
 11
149.3286794695
 21
64.3367307692
  0
LINE
  5
283
100
AcDbEntity
  8
11_COMPONENT
100
AcDbLine
 62
9
  6
CONTINUOUS
 10
149.9854609876
 20
66.9097697555
 11
149.5400265061
 21
64.3835852792
  0
LINE
  5
284
100
AcDbEntity
  8
11_COMPONENT
100
AcDbLine
 62
7
  6
CONTINUOUS
 10
149.7226202528
 20
63.5188031529
 11
148.75830625
 21
58.0499066804
  0
LINE
  5
285
100
AcDbEntity
  8
11_COMPONENT
100
AcDbLine
 62
7
  6
CONTINUOUS
 10
148.3351214963
 20
55.6499066804
 11
148.246958006
 21
55.1499066804
  0
LINE
  5
286
100
AcDbEntity
  8
11_COMPONENT
100
AcDbLine
 62
7
  6
CONTINUOUS
 10
147.8237732523
 20
52.7499066804
 11
147.7356097619
 21
52.2499066804
  0
LINE
  5
287
100
AcDbEntity
  8
11_COMPONENT
100
AcDbLine
 62
7
  6
CONTINUOUS
 10
147.3124250082
 20
49.8499066804
 11
147.2242615178
 21
49.3499066804
  0
LINE
  5
288
100
AcDbEntity
  8
11_COMPONENT
100
AcDbLine
 62
7
  6
CONTINUOUS
 10
146.8010767641
 20
46.9499066804
 11
146.7129132738
 21
46.4499066804
  0
LINE
  5
289
100
AcDbEntity
  8
11_COMPONENT
100
AcDbLine
 62
7
  6
CONTINUOUS
 10
146.2897285201
 20
44.0499066804
 11
145.3534322525
 21
38.7399066804
  0
LINE
  5
28A
100
AcDbEntity
  8
11_COMPONENT
100
AcDbLine
 62
9
  6
CONTINUOUS
 10
149.9195818034
 20
63.4840735173
 11
148.9552678006
 21
58.0151770449
  0
LINE
  5
28B
100
AcDbEntity
  8
11_COMPONENT
100
AcDbLine
 62
9
  6
CONTINUOUS
 10
148.5320830469
 20
55.6151770449
 11
148.4439195566
 21
55.1151770449
  0
LINE
  5
28C
100
AcDbEntity
  8
11_COMPONENT
100
AcDbLine
 62
9
  6
CONTINUOUS
 10
148.0207348029
 20
52.7151770449
 11
147.9325713125
 21
52.2151770449
  0
LINE
  5
28D
100
AcDbEntity
  8
11_COMPONENT
100
AcDbLine
 62
9
  6
CONTINUOUS
 10
147.5093865588
 20
49.8151770449
 11
147.4212230684
 21
49.3151770449
  0
LINE
  5
28E
100
AcDbEntity
  8
11_COMPONENT
100
AcDbLine
 62
9
  6
CONTINUOUS
 10
146.9980383147
 20
46.9151770449
 11
146.9098748244
 21
46.4151770449
  0
LINE
  5
28F
100
AcDbEntity
  8
11_COMPONENT
100
AcDbLine
 62
9
  6
CONTINUOUS
 10
146.4866900707
 20
44.0151770449
 11
145.5503938031
 21
38.7051770449
  0
LINE
  5
290
100
AcDbEntity
  8
11_COMPONENT
100
AcDbLine
 62
7
  6
CONTINUOUS
 10
146.8457515311
 20
41.4444993911
 11
151.0775990681
 21
65.4444993911
  0
LINE
  5
291
100
AcDbEntity
  8
11_COMPONENT
100
AcDbLine
 62
7
  6
CONTINUOUS
 10
151.3229631606
 20
65.5097697555
 11
147.0558502275
 21
41.3097697555
  0
LINE
  5
292
100
AcDbEntity
  8
11_COMPONENT
100
AcDbLine
 62
9
  6
CONTINUOUS
 10
157.0913710822
 20
69.6367307692
 11
157.0913710822
 21
69.8367307692
  0
LINE
  5
293
100
AcDbEntity
  8
11_COMPONENT
100
AcDbLine
 62
9
  6
CONTINUOUS
 10
158.0055846446
 20
69.1367307692
 11
158.0055846455
 21
69.3367307692
  0
LINE
  5
294
100
AcDbEntity
  8
11_COMPONENT
100
AcDbLine
 62
9
  6
CONTINUOUS
 10
157.3035031165
 20
69.5488628036
 11
157.4449244728
 21
69.6902841598
  0
LINE
  5
295
100
AcDbEntity
  8
11_COMPONENT
100
AcDbLine
 62
9
  6
CONTINUOUS
 10
157.5106098977
 20
69.3417560224
 11
157.652031254
 21
69.4831773786
  0
LINE
  5
296
100
AcDbEntity
  8
11_COMPONENT
100
AcDbLine
 62
7
  6
CONTINUOUS
 10
149.3286794695
 20
64.3367307692
 11
149.6397923984
 21
63.8924154599
  0
LINE
  5
297
100
AcDbEntity
  8
11_COMPONENT
100
AcDbLine
 62
9
  6
CONTINUOUS
 10
149.5400265061
 20
64.3835852792
 11
149.8036228073
 21
64.0071307471
  0
LINE
  5
298
100
AcDbEntity
  8
11_COMPONENT
100
AcDbLine
 62
7
  6
CONTINUOUS
 10
152.9723496319
 20
54.8861172405
 11
152.9158016841
 21
54.8295692927
  0
LINE
  5
299
100
AcDbEntity
  8
11_COMPONENT
100
AcDbLine
 62
7
  6
CONTINUOUS
 10
152.0735766894
 20
53.987344298
 11
152.1301246372
 21
54.0438922458
  0
LINE
  5
29A
100
AcDbEntity
  8
11_COMPONENT
100
AcDbLine
 62
9
  6
CONTINUOUS
 10
149.8036228073
 20
64.0071307471
 11
149.6397923969
 21
63.8924154621
  0
LINE
  5
29B
100
AcDbEntity
  8
11_COMPONENT
100
AcDbLine
 62
7
  6
CONTINUOUS
 10
152.9723496319
 20
53.987344298
 11
152.9158016841
 21
54.0438922458
  0
LINE
  5
29C
100
AcDbEntity
  8
11_COMPONENT
100
AcDbLine
 62
7
  6
CONTINUOUS
 10
152.0735766894
 20
54.8861172405
 11
152.1301246372
 21
54.8295692927
  0
LINE
  5
29D
100
AcDbEntity
  8
11_COMPONENT
100
AcDbLine
 62
9
  6
CONTINUOUS
 10
151.1125807188
 20
35.8267307692
 11
151.6225807188
 21
36.3367307692
  0
LINE
  5
29E
100
AcDbEntity
  8
11_COMPONENT
100
AcDbLine
 62
7
  6
CONTINUOUS
 10
151.9661341094
 20
35.9731773786
 11
152.3296875
 21
36.3367307692
  0
LINE
  5
29F
100
AcDbEntity
  8
11_COMPONENT
100
AcDbLine
 62
9
  6
CONTINUOUS
 10
157.5106098977
 20
69.3417560224
 11
157.3035031165
 21
69.5488628036
  0
LINE
  5
2A0
100
AcDbEntity
  8
11_COMPONENT
100
AcDbLine
 62
7
  6
CONTINUOUS
 10
157.652031254
 20
69.4831773786
 11
157.4449244728
 21
69.6902841598
  0
LINE
  5
2A1
100
AcDbEntity
  8
11_COMPONENT
100
AcDbLine
 62
7
  6
CONTINUOUS
 10
194.4320333657
 20
54.5232176765
 11
194.4320333657
 21
53.550243862
  0
LINE
  5
2A2
100
AcDbEntity
  8
11_COMPONENT
100
AcDbLine
 62
7
  6
CONTINUOUS
 10
194.5820333657
 20
55.4415296043
 11
194.5820333657
 21
52.8319319342
  0
LINE
  5
2A3
100
AcDbEntity
  8
11_COMPONENT
100
AcDbLine
 62
9
  6
CONTINUOUS
 10
195.2320333657
 20
51.0144261338
 11
195.2320333657
 21
51.2109830016
  0
LINE
  5
2A4
100
AcDbEntity
  8
11_COMPONENT
100
AcDbLine
 62
7
  6
CONTINUOUS
 10
195.5820333657
 20
52.952458841
 11
195.5820333657
 21
55.3210026975
  0
LINE
  5
2A5
100
AcDbEntity
  8
11_COMPONENT
100
AcDbLine
 62
7
  6
CONTINUOUS
 10
197.2320333657
 20
59.0723158409
 11
197.2320333657
 21
59.0851927736
  0
LINE
  5
2A6
100
AcDbEntity
  8
11_COMPONENT
100
AcDbLine
 62
7
  6
CONTINUOUS
 10
199.1820333657
 20
59.6867307692
 11
199.1820333657
 21
58.7805182967
  0
LINE
  5
2A7
100
AcDbEntity
  8
11_COMPONENT
100
AcDbLine
 62
7
  6
CONTINUOUS
 10
199.1820333657
 20
49.493186864
 11
199.1820333657
 21
48.5867307692
  0
LINE
  5
2A8
100
AcDbEntity
  8
11_COMPONENT
100
AcDbLine
 62
7
  6
CONTINUOUS
 10
201.1820333657
 20
59.6867307692
 11
201.1820333657
 21
58.7802746745
  0
LINE
  5
2A9
100
AcDbEntity
  8
11_COMPONENT
100
AcDbLine
 62
7
  6
CONTINUOUS
 10
201.1820333657
 20
49.493186864
 11
201.1820333657
 21
48.5867307692
  0
LINE
  5
2AA
100
AcDbEntity
  8
11_COMPONENT
100
AcDbLine
 62
9
  6
CONTINUOUS
 10
304.3089811969
 20
38.7051770449
 11
304.5059427475
 21
38.7399066804
  0
LINE
  5
2AB
100
AcDbEntity
  8
11_COMPONENT
100
AcDbLine
 62
9
  6
CONTINUOUS
 10
145.5503938031
 20
38.7051770449
 11
145.3534322525
 21
38.7399066804
  0
LINE
  5
2AC
100
AcDbEntity
  8
11_COMPONENT
100
AcDbLine
 62
7
  6
CONTINUOUS
 10
203.1320333657
 20
59.0723158409
 11
203.1320333657
 21
59.1367307692
  0
LINE
  5
2AD
100
AcDbEntity
  8
11_COMPONENT
100
AcDbLine
 62
7
  6
CONTINUOUS
 10
204.7820333657
 20
55.3210026975
 11
204.7820333657
 21
52.952458841
  0
LINE
  5
2AE
100
AcDbEntity
  8
11_COMPONENT
100
AcDbLine
 62
9
  6
CONTINUOUS
 10
205.1320334024
 20
57.4673794641
 11
205.1320333657
 21
57.0624785369
  0
LINE
  5
2AF
100
AcDbEntity
  8
11_COMPONENT
100
AcDbLine
 62
9
  6
CONTINUOUS
 10
205.1320333657
 20
51.2109830016
 11
205.1320333657
 21
50.6060820212
  0
LINE
  5
2B0
100
AcDbEntity
  8
11_COMPONENT
100
AcDbLine
 62
7
  6
CONTINUOUS
 10
205.7820333657
 20
52.8319319342
 11
205.7820333657
 21
55.4415296043
  0
LINE
  5
2B1
100
AcDbEntity
  8
11_COMPONENT
100
AcDbLine
 62
7
  6
CONTINUOUS
 10
205.9320333657
 20
52.1697343545
 11
205.9320333657
 21
55.903727184
  0
LINE
  5
2B2
100
AcDbEntity
  8
11_COMPONENT
100
AcDbLine
 62
9
  6
CONTINUOUS
 10
303.3726849293
 20
44.0151770449
 11
303.5696464799
 21
44.0499066804
  0
LINE
  5
2B3
100
AcDbEntity
  8
11_COMPONENT
100
AcDbLine
 62
9
  6
CONTINUOUS
 10
305.1657390897
 20
45.1888252225
 11
305.3627006403
 21
45.2235548581
  0
LINE
  5
2B4
100
AcDbEntity
  8
11_COMPONENT
100
AcDbLine
 62
9
  6
CONTINUOUS
 10
305.0952082974
 20
45.5888252225
 11
305.292169848
 21
45.6235548581
  0
LINE
  5
2B5
100
AcDbEntity
  8
11_COMPONENT
100
AcDbLine
 62
9
  6
CONTINUOUS
 10
302.9495001756
 20
46.4151770449
 11
303.1464617262
 21
46.4499066804
  0
LINE
  5
2B6
100
AcDbEntity
  8
11_COMPONENT
100
AcDbLine
 62
9
  6
CONTINUOUS
 10
302.8613366853
 20
46.9151770449
 11
303.0582982359
 21
46.9499066804
  0
LINE
  5
2B7
100
AcDbEntity
  8
11_COMPONENT
100
AcDbLine
 62
9
  6
CONTINUOUS
 10
304.6543908457
 20
48.0888252225
 11
304.8513523963
 21
48.1235548581
  0
LINE
  5
2B8
100
AcDbEntity
  8
11_COMPONENT
100
AcDbLine
 62
9
  6
CONTINUOUS
 10
304.5838600534
 20
48.4888252225
 11
304.780821604
 21
48.5235548581
  0
LINE
  5
2B9
100
AcDbEntity
  8
11_COMPONENT
100
AcDbLine
 62
9
  6
CONTINUOUS
 10
146.4866900707
 20
44.0151770449
 11
146.2897285201
 21
44.0499066804
  0
LINE
  5
2BA
100
AcDbEntity
  8
11_COMPONENT
100
AcDbLine
 62
9
  6
CONTINUOUS
 10
144.6936359103
 20
45.1888252225
 11
144.4966743597
 21
45.2235548581
  0
LINE
  5
2BB
100
AcDbEntity
  8
11_COMPONENT
100
AcDbLine
 62
9
  6
CONTINUOUS
 10
144.7641667026
 20
45.5888252225
 11
144.567205152
 21
45.6235548581
  0
LINE
  5
2BC
100
AcDbEntity
  8
11_COMPONENT
100
AcDbLine
 62
9
  6
CONTINUOUS
 10
146.9098748244
 20
46.4151770449
 11
146.7129132738
 21
46.4499066804
  0
LINE
  5
2BD
100
AcDbEntity
  8
11_COMPONENT
100
AcDbLine
 62
9
  6
CONTINUOUS
 10
146.9980383147
 20
46.9151770449
 11
146.8010767641
 21
46.9499066804
  0
LINE
  5
2BE
100
AcDbEntity
  8
11_COMPONENT
100
AcDbLine
 62
9
  6
CONTINUOUS
 10
145.2049841543
 20
48.0888252225
 11
145.0080226037
 21
48.1235548581
  0
LINE
  5
2BF
100
AcDbEntity
  8
11_COMPONENT
100
AcDbLine
 62
9
  6
CONTINUOUS
 10
145.2755149466
 20
48.4888252225
 11
145.078553396
 21
48.5235548581
  0
LINE
  5
2C0
100
AcDbEntity
  8
11_COMPONENT
100
AcDbLine
 62
7
  6
CONTINUOUS
 10
213.4320333657
 20
54.5232176765
 11
213.4320333657
 21
53.550243862
  0
LINE
  5
2C1
100
AcDbEntity
  8
11_COMPONENT
100
AcDbLine
 62
7
  6
CONTINUOUS
 10
213.5820333657
 20
55.4415296043
 11
213.5820333657
 21
52.8319319342
  0
LINE
  5
2C2
100
AcDbEntity
  8
11_COMPONENT
100
AcDbLine
 62
9
  6
CONTINUOUS
 10
302.4381519316
 20
49.3151770449
 11
302.6351134822
 21
49.3499066804
  0
LINE
  5
2C3
100
AcDbEntity
  8
11_COMPONENT
100
AcDbLine
 62
9
  6
CONTINUOUS
 10
302.3499884412
 20
49.8151770449
 11
302.5469499918
 21
49.8499066804
  0
LINE
  5
2C4
100
AcDbEntity
  8
11_COMPONENT
100
AcDbLine
 62
9
  6
CONTINUOUS
 10
304.1430426016
 20
50.9888252225
 11
304.3400041522
 21
51.0235548581
  0
LINE
  5
2C5
100
AcDbEntity
  8
11_COMPONENT
100
AcDbLine
 62
9
  6
CONTINUOUS
 10
304.0725118093
 20
51.3888252225
 11
304.2694733599
 21
51.4235548581
  0
LINE
  5
2C6
100
AcDbEntity
  8
11_COMPONENT
100
AcDbLine
 62
9
  6
CONTINUOUS
 10
301.9268036875
 20
52.2151770449
 11
302.1237652381
 21
52.2499066804
  0
LINE
  5
2C7
100
AcDbEntity
  8
11_COMPONENT
100
AcDbLine
 62
9
  6
CONTINUOUS
 10
301.8386401971
 20
52.7151770449
 11
302.0356017477
 21
52.7499066804
  0
LINE
  5
2C8
100
AcDbEntity
  8
11_COMPONENT
100
AcDbLine
 62
9
  6
CONTINUOUS
 10
303.6316943576
 20
53.8888252225
 11
303.8286559082
 21
53.9235548581
  0
LINE
  5
2C9
100
AcDbEntity
  8
11_COMPONENT
100
AcDbLine
 62
9
  6
CONTINUOUS
 10
303.5611635653
 20
54.2888252225
 11
303.7581251159
 21
54.3235548581
  0
LINE
  5
2CA
100
AcDbEntity
  8
11_COMPONENT
100
AcDbLine
 62
7
  6
CONTINUOUS
 10
135.9096875
 20
35.8267307692
 11
151.6125807188
 21
35.8267307692
  0
LINE
  5
2CB
100
AcDbEntity
  8
11_COMPONENT
100
AcDbLine
 62
7
  6
CONTINUOUS
 10
298.2467942812
 20
35.8267307692
 11
313.9496875
 21
35.8267307692
  0
LINE
  5
2CC
100
AcDbEntity
  8
11_COMPONENT
100
AcDbLine
 62
7
  6
CONTINUOUS
 10
151.6225807188
 20
36.3367307692
 11
297.3225807188
 21
36.3367307692
  0
LINE
  5
2CD
100
AcDbEntity
  8
11_COMPONENT
100
AcDbLine
 62
7
  6
CONTINUOUS
 10
299.5667963333
 20
37.3367307692
 11
150.2925786667
 21
37.3367307692
  0
LINE
  5
2CE
100
AcDbEntity
  8
11_COMPONENT
100
AcDbLine
 62
7
  6
CONTINUOUS
 10
150.3057158124
 20
37.4367307692
 11
299.6057158124
 21
37.4367307692
  0
LINE
  5
2CF
100
AcDbEntity
  8
11_COMPONENT
100
AcDbLine
 62
9
  6
CONTINUOUS
 10
313.9496875
 20
38.1267307692
 11
304.998346624
 21
38.1267307692
  0
LINE
  5
2D0
100
AcDbEntity
  8
11_COMPONENT
100
AcDbLine
 62
9
  6
CONTINUOUS
 10
144.861028376
 20
38.1267307692
 11
135.9096875
 21
38.1267307692
  0
LINE
  5
2D1
100
AcDbEntity
  8
11_COMPONENT
100
AcDbLine
 62
7
  6
CONTINUOUS
 10
313.7496875
 20
38.3267307692
 11
304.998346624
 21
38.3267307692
  0
LINE
  5
2D2
100
AcDbEntity
  8
11_COMPONENT
100
AcDbLine
 62
7
  6
CONTINUOUS
 10
144.861028376
 20
38.3267307692
 11
136.1096875
 21
38.3267307692
  0
LINE
  5
2D3
100
AcDbEntity
  8
11_COMPONENT
100
AcDbLine
 62
9
  6
CONTINUOUS
 10
147.4212230684
 20
49.3151770449
 11
147.2242615178
 21
49.3499066804
  0
LINE
  5
2D4
100
AcDbEntity
  8
11_COMPONENT
100
AcDbLine
 62
9
  6
CONTINUOUS
 10
147.5093865588
 20
49.8151770449
 11
147.3124250082
 21
49.8499066804
  0
LINE
  5
2D5
100
AcDbEntity
  8
11_COMPONENT
100
AcDbLine
 62
9
  6
CONTINUOUS
 10
145.7163323984
 20
50.9888252225
 11
145.5193708478
 21
51.0235548581
  0
LINE
  5
2D6
100
AcDbEntity
  8
11_COMPONENT
100
AcDbLine
 62
9
  6
CONTINUOUS
 10
145.7868631907
 20
51.3888252225
 11
145.5899016401
 21
51.4235548581
  0
LINE
  5
2D7
100
AcDbEntity
  8
11_COMPONENT
100
AcDbLine
 62
9
  6
CONTINUOUS
 10
147.9325713125
 20
52.2151770449
 11
147.7356097619
 21
52.2499066804
  0
LINE
  5
2D8
100
AcDbEntity
  8
11_COMPONENT
100
AcDbLine
 62
9
  6
CONTINUOUS
 10
148.0207348029
 20
52.7151770449
 11
147.8237732523
 21
52.7499066804
  0
LINE
  5
2D9
100
AcDbEntity
  8
11_COMPONENT
100
AcDbLine
 62
9
  6
CONTINUOUS
 10
146.2276806424
 20
53.8888252225
 11
146.0307190918
 21
53.9235548581
  0
LINE
  5
2DA
100
AcDbEntity
  8
11_COMPONENT
100
AcDbLine
 62
9
  6
CONTINUOUS
 10
146.2982114347
 20
54.2888252225
 11
146.1012498841
 21
54.3235548581
  0
LINE
  5
2DB
100
AcDbEntity
  8
11_COMPONENT
100
AcDbLine
 62
9
  6
CONTINUOUS
 10
214.2320333657
 20
51.0144261338
 11
214.2320333657
 21
51.2109830016
  0
LINE
  5
2DC
100
AcDbEntity
  8
11_COMPONENT
100
AcDbLine
 62
7
  6
CONTINUOUS
 10
214.5820333657
 20
52.952458841
 11
214.5820333657
 21
55.3210026975
  0
LINE
  5
2DD
100
AcDbEntity
  8
11_COMPONENT
100
AcDbLine
 62
7
  6
CONTINUOUS
 10
216.2320333657
 20
59.0723158409
 11
216.2320333657
 21
59.0851927736
  0
LINE
  5
2DE
100
AcDbEntity
  8
11_COMPONENT
100
AcDbLine
 62
7
  6
CONTINUOUS
 10
218.1820333657
 20
59.6867307692
 11
218.1820333657
 21
58.7805182967
  0
LINE
  5
2DF
100
AcDbEntity
  8
11_COMPONENT
100
AcDbLine
 62
7
  6
CONTINUOUS
 10
218.1820333657
 20
49.493186864
 11
218.1820333657
 21
48.5867307692
  0
LINE
  5
2E0
100
AcDbEntity
  8
11_COMPONENT
100
AcDbLine
 62
9
  6
CONTINUOUS
 10
301.4154554434
 20
55.1151770449
 11
301.612416994
 21
55.1499066804
  0
LINE
  5
2E1
100
AcDbEntity
  8
11_COMPONENT
100
AcDbLine
 62
9
  6
CONTINUOUS
 10
301.3272919531
 20
55.6151770449
 11
301.5242535037
 21
55.6499066804
  0
LINE
  5
2E2
100
AcDbEntity
  8
11_COMPONENT
100
AcDbLine
 62
9
  6
CONTINUOUS
 10
303.1203461135
 20
56.7888252225
 11
303.3173076641
 21
56.8235548581
  0
LINE
  5
2E3
100
AcDbEntity
  8
11_COMPONENT
100
AcDbLine
 62
9
  6
CONTINUOUS
 10
303.0498153212
 20
57.1888252225
 11
303.2467768718
 21
57.2235548581
  0
LINE
  5
2E4
100
AcDbEntity
  8
11_COMPONENT
100
AcDbLine
 62
9
  6
CONTINUOUS
 10
300.9041071994
 20
58.0151770449
 11
301.10106875
 21
58.0499066804
  0
LINE
  5
2E5
100
AcDbEntity
  8
11_COMPONENT
100
AcDbLine
 62
7
  6
CONTINUOUS
 10
144.9890782362
 20
44.6367307692
 11
145.7973246436
 21
44.6367307692
  0
LINE
  5
2E6
100
AcDbEntity
  8
11_COMPONENT
100
AcDbLine
 62
7
  6
CONTINUOUS
 10
304.0620503564
 20
44.6367307692
 11
304.8702967638
 21
44.6367307692
  0
LINE
  5
2E7
100
AcDbEntity
  8
11_COMPONENT
100
AcDbLine
 62
9
  6
CONTINUOUS
 10
144.9890782362
 20
44.8367307692
 11
145.7973246436
 21
44.8367307692
  0
LINE
  5
2E8
100
AcDbEntity
  8
11_COMPONENT
100
AcDbLine
 62
9
  6
CONTINUOUS
 10
304.0620503564
 20
44.8367307692
 11
304.8702967638
 21
44.8367307692
  0
LINE
  5
2E9
100
AcDbEntity
  8
11_COMPONENT
100
AcDbLine
 62
9
  6
CONTINUOUS
 10
304.7997659715
 20
45.8367307692
 11
303.6388656027
 21
45.8367307692
  0
LINE
  5
2EA
100
AcDbEntity
  8
11_COMPONENT
100
AcDbLine
 62
9
  6
CONTINUOUS
 10
146.2205093973
 20
45.8367307692
 11
145.0596090285
 21
45.8367307692
  0
LINE
  5
2EB
100
AcDbEntity
  8
11_COMPONENT
100
AcDbLine
 62
7
  6
CONTINUOUS
 10
304.7997659715
 20
46.0367307692
 11
303.6388656027
 21
46.0367307692
  0
LINE
  5
2EC
100
AcDbEntity
  8
11_COMPONENT
100
AcDbLine
 62
7
  6
CONTINUOUS
 10
146.2205093973
 20
46.0367307692
 11
145.0596090285
 21
46.0367307692
  0
LINE
  5
2ED
100
AcDbEntity
  8
11_COMPONENT
100
AcDbLine
 62
7
  6
CONTINUOUS
 10
162.4511711104
 20
46.0367307692
 11
164.3947552109
 21
46.0367307692
  0
LINE
  5
2EE
100
AcDbEntity
  8
11_COMPONENT
100
AcDbLine
 62
7
  6
CONTINUOUS
 10
176.4511711104
 20
46.0367307692
 11
178.3947552109
 21
46.0367307692
  0
LINE
  5
2EF
100
AcDbEntity
  8
11_COMPONENT
100
AcDbLine
 62
7
  6
CONTINUOUS
 10
145.5004264802
 20
47.5367307692
 11
146.3086728876
 21
47.5367307692
  0
LINE
  5
2F0
100
AcDbEntity
  8
11_COMPONENT
100
AcDbLine
 62
7
  6
CONTINUOUS
 10
303.5507021124
 20
47.5367307692
 11
304.3589485198
 21
47.5367307692
  0
LINE
  5
2F1
100
AcDbEntity
  8
11_COMPONENT
100
AcDbLine
 62
9
  6
CONTINUOUS
 10
148.4439195566
 20
55.1151770449
 11
148.2469580059
 21
55.1499066804
  0
LINE
  5
2F2
100
AcDbEntity
  8
11_COMPONENT
100
AcDbLine
 62
9
  6
CONTINUOUS
 10
148.5320830469
 20
55.6151770449
 11
148.3351214963
 21
55.6499066804
  0
LINE
  5
2F3
100
AcDbEntity
  8
11_COMPONENT
100
AcDbLine
 62
9
  6
CONTINUOUS
 10
146.7390288865
 20
56.7888252225
 11
146.5420673359
 21
56.8235548581
  0
LINE
  5
2F4
100
AcDbEntity
  8
11_COMPONENT
100
AcDbLine
 62
9
  6
CONTINUOUS
 10
146.8095596788
 20
57.1888252225
 11
146.6125981282
 21
57.2235548581
  0
LINE
  5
2F5
100
AcDbEntity
  8
11_COMPONENT
100
AcDbLine
 62
9
  6
CONTINUOUS
 10
148.9552678006
 20
58.0151770449
 11
148.75830625
 21
58.0499066804
  0
LINE
  5
2F6
100
AcDbEntity
  8
11_COMPONENT
100
AcDbLine
 62
7
  6
CONTINUOUS
 10
220.1820333657
 20
59.6867307692
 11
220.1820333657
 21
58.7802746745
  0
LINE
  5
2F7
100
AcDbEntity
  8
11_COMPONENT
100
AcDbLine
 62
7
  6
CONTINUOUS
 10
220.1820333657
 20
49.493186864
 11
220.1820333657
 21
48.5867307692
  0
LINE
  5
2F8
100
AcDbEntity
  8
11_COMPONENT
100
AcDbLine
 62
7
  6
CONTINUOUS
 10
222.1320333657
 20
59.0723158409
 11
222.1320333657
 21
59.1367307692
  0
LINE
  5
2F9
100
AcDbEntity
  8
11_COMPONENT
100
AcDbLine
 62
7
  6
CONTINUOUS
 10
223.7820333657
 20
55.3210026975
 11
223.7820333657
 21
52.952458841
  0
LINE
  5
2FA
100
AcDbEntity
  8
11_COMPONENT
100
AcDbLine
 62
9
  6
CONTINUOUS
 10
224.1320334024
 20
57.4673794641
 11
224.1320333657
 21
57.0624785369
  0
LINE
  5
2FB
100
AcDbEntity
  8
11_COMPONENT
100
AcDbLine
 62
9
  6
CONTINUOUS
 10
224.1320333657
 20
51.2109830016
 11
224.1320333657
 21
50.6060820212
  0
LINE
  5
2FC
100
AcDbEntity
  8
11_COMPONENT
100
AcDbLine
 62
7
  6
CONTINUOUS
 10
224.7820333657
 20
52.8319319342
 11
224.7820333657
 21
55.4415296043
  0
LINE
  5
2FD
100
AcDbEntity
  8
11_COMPONENT
100
AcDbLine
 62
7
  6
CONTINUOUS
 10
224.9320333657
 20
52.1697343545
 11
224.9320333657
 21
55.903727184
  0
LINE
  5
2FE
100
AcDbEntity
  8
11_COMPONENT
100
AcDbLine
 62
9
  6
CONTINUOUS
 10
299.9397931966
 20
63.4840735173
 11
300.1367547474
 21
63.518803152
  0
LINE
  5
2FF
100
AcDbEntity
  8
11_COMPONENT
100
AcDbLine
 62
9
  6
CONTINUOUS
 10
145.5004264802
 20
47.7367307692
 11
146.3086728876
 21
47.7367307692
  0
LINE
  5
300
100
AcDbEntity
  8
11_COMPONENT
100
AcDbLine
 62
9
  6
CONTINUOUS
 10
303.5507021124
 20
47.7367307692
 11
304.3589485198
 21
47.7367307692
  0
LINE
  5
301
100
AcDbEntity
  8
11_COMPONENT
100
AcDbLine
 62
7
  6
CONTINUOUS
 10
258.1820333657
 20
48.5867307692
 11
256.1820333657
 21
48.5867307692
  0
LINE
  5
302
100
AcDbEntity
  8
11_COMPONENT
100
AcDbLine
 62
7
  6
CONTINUOUS
 10
239.1820333657
 20
48.5867307692
 11
237.1820333657
 21
48.5867307692
  0
LINE
  5
303
100
AcDbEntity
  8
11_COMPONENT
100
AcDbLine
 62
7
  6
CONTINUOUS
 10
220.1820333657
 20
48.5867307692
 11
218.1820333657
 21
48.5867307692
  0
LINE
  5
304
100
AcDbEntity
  8
11_COMPONENT
100
AcDbLine
 62
7
  6
CONTINUOUS
 10
201.1820333657
 20
48.5867307692
 11
199.1820333657
 21
48.5867307692
  0
LINE
  5
305
100
AcDbEntity
  8
11_COMPONENT
100
AcDbLine
 62
9
  6
CONTINUOUS
 10
304.2884177275
 20
48.7367307692
 11
303.1275173587
 21
48.7367307692
  0
LINE
  5
306
100
AcDbEntity
  8
11_COMPONENT
100
AcDbLine
 62
9
  6
CONTINUOUS
 10
146.7318576413
 20
48.7367307692
 11
145.5709572725
 21
48.7367307692
  0
LINE
  5
307
100
AcDbEntity
  8
11_COMPONENT
100
AcDbLine
 62
7
  6
CONTINUOUS
 10
304.2884177275
 20
48.9367307692
 11
303.1275173587
 21
48.9367307692
  0
LINE
  5
308
100
AcDbEntity
  8
11_COMPONENT
100
AcDbLine
 62
7
  6
CONTINUOUS
 10
146.7318576413
 20
48.9367307692
 11
145.5709572725
 21
48.9367307692
  0
LINE
  5
309
100
AcDbEntity
  8
11_COMPONENT
100
AcDbLine
 62
7
  6
CONTINUOUS
 10
146.0117747243
 20
50.4367307692
 11
146.8200211317
 21
50.4367307692
  0
LINE
  5
30A
100
AcDbEntity
  8
11_COMPONENT
100
AcDbLine
 62
7
  6
CONTINUOUS
 10
303.0393538683
 20
50.4367307692
 11
303.8476002757
 21
50.4367307692
  0
LINE
  5
30B
100
AcDbEntity
  8
11_COMPONENT
100
AcDbLine
 62
9
  6
CONTINUOUS
 10
146.0117747243
 20
50.6367307692
 11
146.8200211317
 21
50.6367307692
  0
LINE
  5
30C
100
AcDbEntity
  8
11_COMPONENT
100
AcDbLine
 62
9
  6
CONTINUOUS
 10
303.0393538683
 20
50.6367307692
 11
303.8476002757
 21
50.6367307692
  0
LINE
  5
30D
100
AcDbEntity
  8
11_COMPONENT
100
AcDbLine
 62
7
  6
CONTINUOUS
 10
177.8839021251
 20
51.1867307692
 11
176.9620241962
 21
51.1867307692
  0
LINE
  5
30E
100
AcDbEntity
  8
11_COMPONENT
100
AcDbLine
 62
7
  6
CONTINUOUS
 10
163.8839021251
 20
51.1867307692
 11
162.9620241962
 21
51.1867307692
  0
LINE
  5
30F
100
AcDbEntity
  8
11_COMPONENT
100
AcDbLine
 62
9
  6
CONTINUOUS
 10
303.7770694834
 20
51.6367307692
 11
302.6161691146
 21
51.6367307692
  0
LINE
  5
310
100
AcDbEntity
  8
11_COMPONENT
100
AcDbLine
 62
9
  6
CONTINUOUS
 10
147.2432058854
 20
51.6367307692
 11
146.0823055166
 21
51.6367307692
  0
LINE
  5
311
100
AcDbEntity
  8
11_COMPONENT
100
AcDbLine
 62
7
  6
CONTINUOUS
 10
303.7770694834
 20
51.8367307692
 11
302.6161691146
 21
51.8367307692
  0
LINE
  5
312
100
AcDbEntity
  8
11_COMPONENT
100
AcDbLine
 62
7
  6
CONTINUOUS
 10
147.2432058854
 20
51.8367307692
 11
146.0823055166
 21
51.8367307692
  0
LINE
  5
313
100
AcDbEntity
  8
11_COMPONENT
100
AcDbLine
 62
7
  6
CONTINUOUS
 10
146.5231229683
 20
53.3367307692
 11
147.3313693757
 21
53.3367307692
  0
LINE
  5
314
100
AcDbEntity
  8
11_COMPONENT
100
AcDbLine
 62
7
  6
CONTINUOUS
 10
302.5280056243
 20
53.3367307692
 11
303.3362520317
 21
53.3367307692
  0
LINE
  5
315
100
AcDbEntity
  8
11_COMPONENT
100
AcDbLine
 62
9
  6
CONTINUOUS
 10
146.5231229683
 20
53.5367307692
 11
147.3313693757
 21
53.5367307692
  0
LINE
  5
316
100
AcDbEntity
  8
11_COMPONENT
100
AcDbLine
 62
9
  6
CONTINUOUS
 10
302.5280056243
 20
53.5367307692
 11
303.3362520317
 21
53.5367307692
  0
LINE
  5
317
100
AcDbEntity
  8
11_COMPONENT
100
AcDbLine
 62
9
  6
CONTINUOUS
 10
149.9195818034
 20
63.4840735173
 11
149.7226202528
 21
63.5188031529
  0
LINE
  5
318
100
AcDbEntity
  8
11_COMPONENT
100
AcDbLine
 62
9
  6
CONTINUOUS
 10
299.8739140124
 20
66.9097697555
 11
300.070875563
 21
66.9444993914
  0
LINE
  5
319
100
AcDbEntity
  8
11_COMPONENT
100
AcDbLine
 62
9
  6
CONTINUOUS
 10
303.2657212394
 20
54.5367307692
 11
302.1048208706
 21
54.5367307692
  0
LINE
  5
31A
100
AcDbEntity
  8
11_COMPONENT
100
AcDbLine
 62
9
  6
CONTINUOUS
 10
147.7545541294
 20
54.5367307692
 11
146.5936537606
 21
54.5367307692
  0
LINE
  5
31B
100
AcDbEntity
  8
11_COMPONENT
100
AcDbLine
 62
7
  6
CONTINUOUS
 10
303.2657212394
 20
54.7367307692
 11
302.1048208706
 21
54.7367307692
  0
LINE
  5
31C
100
AcDbEntity
  8
11_COMPONENT
100
AcDbLine
 62
7
  6
CONTINUOUS
 10
147.7545541294
 20
54.7367307692
 11
146.5936537606
 21
54.7367307692
  0
LINE
  5
31D
100
AcDbEntity
  8
11_COMPONENT
100
AcDbLine
 62
7
  6
CONTINUOUS
 10
147.0344712124
 20
56.2367307692
 11
147.8427176198
 21
56.2367307692
  0
LINE
  5
31E
100
AcDbEntity
  8
11_COMPONENT
100
AcDbLine
 62
7
  6
CONTINUOUS
 10
302.0166573802
 20
56.2367307692
 11
302.8249037876
 21
56.2367307692
  0
LINE
  5
31F
100
AcDbEntity
  8
11_COMPONENT
100
AcDbLine
 62
9
  6
CONTINUOUS
 10
147.0344712124
 20
56.4367307692
 11
147.8427176198
 21
56.4367307692
  0
LINE
  5
320
100
AcDbEntity
  8
11_COMPONENT
100
AcDbLine
 62
9
  6
CONTINUOUS
 10
302.0166573802
 20
56.4367307692
 11
302.8249037876
 21
56.4367307692
  0
LINE
  5
321
100
AcDbEntity
  8
11_COMPONENT
100
AcDbLine
 62
9
  6
CONTINUOUS
 10
302.7543729953
 20
57.4367307692
 11
301.5934726265
 21
57.4367307692
  0
LINE
  5
322
100
AcDbEntity
  8
11_COMPONENT
100
AcDbLine
 62
9
  6
CONTINUOUS
 10
148.2659023735
 20
57.4367307692
 11
147.1050020047
 21
57.4367307692
  0
LINE
  5
323
100
AcDbEntity
  8
11_COMPONENT
100
AcDbLine
 62
7
  6
CONTINUOUS
 10
302.7543729953
 20
57.6367307692
 11
301.5934726265
 21
57.6367307692
  0
LINE
  5
324
100
AcDbEntity
  8
11_COMPONENT
100
AcDbLine
 62
7
  6
CONTINUOUS
 10
148.2659023735
 20
57.6367307692
 11
147.1050020047
 21
57.6367307692
  0
LINE
  5
325
100
AcDbEntity
  8
11_COMPONENT
100
AcDbLine
 62
7
  6
CONTINUOUS
 10
203.1320333657
 20
59.1367307692
 11
203.3156955091
 21
59.1367307692
  0
LINE
  5
326
100
AcDbEntity
  8
11_COMPONENT
100
AcDbLine
 62
7
  6
CONTINUOUS
 10
222.1320333657
 20
59.1367307692
 11
222.3156955091
 21
59.1367307692
  0
LINE
  5
327
100
AcDbEntity
  8
11_COMPONENT
100
AcDbLine
 62
7
  6
CONTINUOUS
 10
241.1320333657
 20
59.1367307692
 11
241.3156955091
 21
59.1367307692
  0
LINE
  5
328
100
AcDbEntity
  8
11_COMPONENT
100
AcDbLine
 62
7
  6
CONTINUOUS
 10
260.1320333657
 20
59.1367307692
 11
260.3156955091
 21
59.1367307692
  0
LINE
  5
329
100
AcDbEntity
  8
11_COMPONENT
100
AcDbLine
 62
9
  6
CONTINUOUS
 10
149.9854609876
 20
66.9097697555
 11
149.788499437
 21
66.9444993911
  0
LINE
  5
32A
100
AcDbEntity
  8
11_COMPONENT
100
AcDbLine
 62
7
  6
CONTINUOUS
 10
232.4320333657
 20
54.5232176765
 11
232.4320333657
 21
53.550243862
  0
LINE
  5
32B
100
AcDbEntity
  8
11_COMPONENT
100
AcDbLine
 62
7
  6
CONTINUOUS
 10
232.5820333657
 20
55.4415296043
 11
232.5820333657
 21
52.8319319342
  0
LINE
  5
32C
100
AcDbEntity
  8
11_COMPONENT
100
AcDbLine
 62
9
  6
CONTINUOUS
 10
233.2320333657
 20
51.0144261338
 11
233.2320333657
 21
51.2109830016
  0
LINE
  5
32D
100
AcDbEntity
  8
11_COMPONENT
100
AcDbLine
 62
7
  6
CONTINUOUS
 10
233.5820333657
 20
52.952458841
 11
233.5820333657
 21
55.3210026975
  0
LINE
  5
32E
100
AcDbEntity
  8
11_COMPONENT
100
AcDbLine
 62
7
  6
CONTINUOUS
 10
235.2320333657
 20
59.0723158409
 11
235.2320333657
 21
59.0851927736
  0
LINE
  5
32F
100
AcDbEntity
  8
11_COMPONENT
100
AcDbLine
 62
7
  6
CONTINUOUS
 10
237.1820333657
 20
59.6867307692
 11
237.1820333657
 21
58.7805182967
  0
LINE
  5
330
100
AcDbEntity
  8
11_COMPONENT
100
AcDbLine
 62
7
  6
CONTINUOUS
 10
237.1820333657
 20
49.493186864
 11
237.1820333657
 21
48.5867307692
  0
LINE
  5
331
100
AcDbEntity
  8
11_COMPONENT
100
AcDbLine
 62
7
  6
CONTINUOUS
 10
199.1820333657
 20
59.6867307692
 11
201.1820333657
 21
59.6867307692
  0
LINE
  5
332
100
AcDbEntity
  8
11_COMPONENT
100
AcDbLine
 62
7
  6
CONTINUOUS
 10
218.1820333657
 20
59.6867307692
 11
220.1820333657
 21
59.6867307692
  0
LINE
  5
333
100
AcDbEntity
  8
11_COMPONENT
100
AcDbLine
 62
7
  6
CONTINUOUS
 10
237.1820333657
 20
59.6867307692
 11
239.1820333657
 21
59.6867307692
  0
LINE
  5
334
100
AcDbEntity
  8
11_COMPONENT
100
AcDbLine
 62
7
  6
CONTINUOUS
 10
256.1820333657
 20
59.6867307692
 11
258.1820333657
 21
59.6867307692
  0
LINE
  5
335
100
AcDbEntity
  8
11_COMPONENT
100
AcDbLine
 62
7
  6
CONTINUOUS
 10
239.1820333657
 20
59.6867307692
 11
239.1820333657
 21
58.7802746745
  0
LINE
  5
336
100
AcDbEntity
  8
11_COMPONENT
100
AcDbLine
 62
7
  6
CONTINUOUS
 10
239.1820333657
 20
49.493186864
 11
239.1820333657
 21
48.5867307692
  0
LINE
  5
337
100
AcDbEntity
  8
11_COMPONENT
100
AcDbLine
 62
7
  6
CONTINUOUS
 10
241.1320333657
 20
59.0723158409
 11
241.1320333657
 21
59.1367307692
  0
LINE
  5
338
100
AcDbEntity
  8
11_COMPONENT
100
AcDbLine
 62
7
  6
CONTINUOUS
 10
242.7820333657
 20
55.3210026975
 11
242.7820333657
 21
52.952458841
  0
LINE
  5
339
100
AcDbEntity
  8
11_COMPONENT
100
AcDbLine
 62
9
  6
CONTINUOUS
 10
243.1320334024
 20
57.4673794641
 11
243.1320333657
 21
57.0624785369
  0
LINE
  5
33A
100
AcDbEntity
  8
11_COMPONENT
100
AcDbLine
 62
9
  6
CONTINUOUS
 10
243.1320333657
 20
51.2109830016
 11
243.1320333657
 21
50.6060820212
  0
LINE
  5
33B
100
AcDbEntity
  8
11_COMPONENT
100
AcDbLine
 62
7
  6
CONTINUOUS
 10
243.7820333657
 20
52.8319319342
 11
243.7820333657
 21
55.4415296043
  0
LINE
  5
33C
100
AcDbEntity
  8
11_COMPONENT
100
AcDbLine
 62
7
  6
CONTINUOUS
 10
295.0728287456
 20
68.2367307692
 11
154.5728287456
 21
68.2367307692
  0
LINE
  5
33D
100
AcDbEntity
  8
11_COMPONENT
100
AcDbLine
 62
7
  6
CONTINUOUS
 10
154.5244262037
 20
68.3367307692
 11
295.3349487963
 21
68.3367307692
  0
LINE
  5
33E
100
AcDbEntity
  8
11_COMPONENT
100
AcDbLine
 62
9
  6
CONTINUOUS
 10
291.8537903554
 20
69.1367307692
 11
158.0055846446
 21
69.1367307692
  0
LINE
  5
33F
100
AcDbEntity
  8
11_COMPONENT
100
AcDbLine
 62
7
  6
CONTINUOUS
 10
291.8537903554
 20
69.3367307692
 11
158.0055846446
 21
69.3367307692
  0
LINE
  5
340
100
AcDbEntity
  8
11_COMPONENT
100
AcDbLine
 62
9
  6
CONTINUOUS
 10
296.6240484275
 20
69.6367307692
 11
292.7680039178
 21
69.6367307692
  0
LINE
  5
341
100
AcDbEntity
  8
11_COMPONENT
100
AcDbLine
 62
9
  6
CONTINUOUS
 10
157.0913710822
 20
69.6367307692
 11
153.2353265725
 21
69.6367307692
  0
LINE
  5
342
100
AcDbEntity
  8
11_COMPONENT
100
AcDbLine
 62
7
  6
CONTINUOUS
 10
296.6240484275
 20
69.8367307692
 11
292.7680039178
 21
69.8367307692
  0
LINE
  5
343
100
AcDbEntity
  8
11_COMPONENT
100
AcDbLine
 62
7
  6
CONTINUOUS
 10
157.0913710822
 20
69.8367307692
 11
153.2353265725
 21
69.8367307692
  0
LINE
  5
344
100
AcDbEntity
  8
11_COMPONENT
100
AcDbLine
 62
7
  6
CONTINUOUS
 10
243.9320333657
 20
52.1697343545
 11
243.9320333657
 21
55.903727184
  0
LINE
  5
345
100
AcDbEntity
  8
11_COMPONENT
100
AcDbLine
 62
7
  6
CONTINUOUS
 10
251.4320333657
 20
54.5232176765
 11
251.4320333657
 21
53.550243862
  0
LINE
  5
346
100
AcDbEntity
  8
11_COMPONENT
100
AcDbLine
 62
7
  6
CONTINUOUS
 10
251.5820333657
 20
55.4415296043
 11
251.5820333657
 21
52.8319319342
  0
LINE
  5
347
100
AcDbEntity
  8
11_COMPONENT
100
AcDbLine
 62
9
  6
CONTINUOUS
 10
252.2320333657
 20
51.0144261338
 11
252.2320333657
 21
51.2109830016
  0
LINE
  5
348
100
AcDbEntity
  8
11_COMPONENT
100
AcDbLine
 62
7
  6
CONTINUOUS
 10
252.5820333657
 20
52.952458841
 11
252.5820333657
 21
55.3210026975
  0
LINE
  5
349
100
AcDbEntity
  8
11_COMPONENT
100
AcDbLine
 62
7
  6
CONTINUOUS
 10
254.2320333657
 20
59.0723158409
 11
254.2320333657
 21
59.0851927736
  0
LINE
  5
34A
100
AcDbEntity
  8
11_COMPONENT
100
AcDbLine
 62
7
  6
CONTINUOUS
 10
256.1820333657
 20
59.6867307692
 11
256.1820333657
 21
58.7805182967
  0
LINE
  5
34B
100
AcDbEntity
  8
11_COMPONENT
100
AcDbLine
 62
7
  6
CONTINUOUS
 10
256.1820333657
 20
49.493186864
 11
256.1820333657
 21
48.5867307692
  0
LINE
  5
34C
100
AcDbEntity
  8
11_COMPONENT
100
AcDbLine
 62
7
  6
CONTINUOUS
 10
258.1820333657
 20
59.6867307692
 11
258.1820333657
 21
58.7802746745
  0
LINE
  5
34D
100
AcDbEntity
  8
11_COMPONENT
100
AcDbLine
 62
7
  6
CONTINUOUS
 10
258.1820333657
 20
49.493186864
 11
258.1820333657
 21
48.5867307692
  0
LINE
  5
34E
100
AcDbEntity
  8
11_COMPONENT
100
AcDbLine
 62
7
  6
CONTINUOUS
 10
260.1320333657
 20
59.0723158409
 11
260.1320333657
 21
59.1367307692
  0
LINE
  5
34F
100
AcDbEntity
  8
11_COMPONENT
100
AcDbLine
 62
7
  6
CONTINUOUS
 10
261.7820333657
 20
55.3210026975
 11
261.7820333657
 21
52.952458841
  0
LINE
  5
350
100
AcDbEntity
  8
11_COMPONENT
100
AcDbLine
 62
7
  6
CONTINUOUS
 10
292.4144505272
 20
69.6902841598
 11
292.207343746
 21
69.4831773786
  0
LINE
  5
351
100
AcDbEntity
  8
11_COMPONENT
100
AcDbLine
 62
9
  6
CONTINUOUS
 10
292.5558718835
 20
69.5488628036
 11
292.3487651023
 21
69.3417560224
  0
LINE
  5
352
100
AcDbEntity
  8
11_COMPONENT
100
AcDbLine
 62
9
  6
CONTINUOUS
 10
262.1320334024
 20
57.4673794641
 11
262.1320333657
 21
57.0624785369
  0
LINE
  5
353
100
AcDbEntity
  8
11_COMPONENT
100
AcDbLine
 62
9
  6
CONTINUOUS
 10
262.1320333657
 20
51.2109830016
 11
262.1320333657
 21
50.6060820212
  0
LINE
  5
354
100
AcDbEntity
  8
11_COMPONENT
100
AcDbLine
 62
7
  6
CONTINUOUS
 10
262.7820333657
 20
52.8319319342
 11
262.7820333657
 21
55.4415296043
  0
LINE
  5
355
100
AcDbEntity
  8
11_COMPONENT
100
AcDbLine
 62
7
  6
CONTINUOUS
 10
262.9320333657
 20
52.1697343545
 11
262.9320333657
 21
55.903727184
  0
LINE
  5
356
100
AcDbEntity
  8
11_COMPONENT
100
AcDbLine
 62
7
  6
CONTINUOUS
 10
297.6761341094
 20
36.1902841598
 11
297.8932408906
 21
35.9731773786
  0
LINE
  5
357
100
AcDbEntity
  8
11_COMPONENT
100
AcDbLine
 62
9
  6
CONTINUOUS
 10
300.0557521927
 20
64.0071307471
 11
300.3193484939
 21
64.3835852792
  0
LINE
  5
358
100
AcDbEntity
  8
11_COMPONENT
100
AcDbLine
 62
7
  6
CONTINUOUS
 10
297.7723496319
 20
54.8861172405
 11
297.7158016841
 21
54.8295692927
  0
LINE
  5
359
100
AcDbEntity
  8
11_COMPONENT
100
AcDbLine
 62
7
  6
CONTINUOUS
 10
296.8735766894
 20
53.987344298
 11
296.9301246372
 21
54.0438922458
  0
LINE
  5
35A
100
AcDbEntity
  8
11_COMPONENT
100
AcDbLine
 62
9
  6
CONTINUOUS
 10
300.0557521927
 20
64.0071307471
 11
300.2195826016
 21
63.8924154599
  0
LINE
  5
35B
100
AcDbEntity
  8
11_COMPONENT
100
AcDbLine
 62
7
  6
CONTINUOUS
 10
297.7723496319
 20
53.987344298
 11
297.7158016841
 21
54.0438922458
  0
LINE
  5
35C
100
AcDbEntity
  8
11_COMPONENT
100
AcDbLine
 62
7
  6
CONTINUOUS
 10
296.8735766894
 20
54.8861172405
 11
296.9301246372
 21
54.8295692927
  0
LINE
  5
35D
100
AcDbEntity
  8
11_COMPONENT
100
AcDbLine
 62
7
  6
CONTINUOUS
 10
300.2195826016
 20
63.8924154599
 11
300.5306955305
 21
64.3367307692
  0
LINE
  5
35E
100
AcDbEntity
  8
11_COMPONENT
100
AcDbLine
 62
9
  6
CONTINUOUS
 10
292.3487651023
 20
69.3417560224
 11
292.2073437479
 21
69.4831773806
  0
LINE
  5
35F
100
AcDbEntity
  8
11_COMPONENT
100
AcDbLine
 62
9
  6
CONTINUOUS
 10
292.5558718835
 20
69.5488628036
 11
292.4144505272
 21
69.6902841598
  0
LINE
  5
360
100
AcDbEntity
  8
11_COMPONENT
100
AcDbLine
 62
9
  6
CONTINUOUS
 10
291.8537903554
 20
69.1367307692
 11
291.8537903554
 21
69.3367307692
  0
LINE
  5
361
100
AcDbEntity
  8
11_COMPONENT
100
AcDbLine
 62
9
  6
CONTINUOUS
 10
292.7680039178
 20
69.6367307692
 11
292.7680039178
 21
69.8367307692
  0
LINE
  5
362
100
AcDbEntity
  8
11_COMPONENT
100
AcDbLine
 62
9
  6
CONTINUOUS
 10
296.6240484275
 20
69.6367307692
 11
296.6240484275
 21
69.8367307692
  0
LINE
  5
363
100
AcDbEntity
  8
11_COMPONENT
100
AcDbLine
 62
9
  6
CONTINUOUS
 10
297.3229631606
 20
54.0394711042
 11
297.3229631606
 21
53.2264330368
  0
LINE
  5
364
100
AcDbEntity
  8
11_COMPONENT
100
AcDbLine
 62
9
  6
CONTINUOUS
 10
297.3229631606
 20
52.7460367183
 11
297.3229631606
 21
51.3867808688
  0
LINE
  5
365
100
AcDbEntity
  8
11_COMPONENT
100
AcDbLine
 62
9
  6
CONTINUOUS
 10
297.3229631606
 20
51.3342876707
 11
297.3229631606
 21
51.3323850972
  0
LINE
  5
366
100
AcDbEntity
  8
11_COMPONENT
100
AcDbLine
 62
9
  6
CONTINUOUS
 10
297.3229631606
 20
54.8339904342
 11
297.3229631606
 21
55.6470285016
  0
LINE
  5
367
100
AcDbEntity
  8
11_COMPONENT
100
AcDbLine
 62
9
  6
CONTINUOUS
 10
297.3229631606
 20
56.1274247947
 11
297.3229631606
 21
57.4866806696
  0
LINE
  5
368
100
AcDbEntity
  8
11_COMPONENT
100
AcDbLine
 62
9
  6
CONTINUOUS
 10
297.3229631606
 20
57.5391738677
 11
297.3229631606
 21
57.5410764413
  0
LINE
  5
369
100
AcDbEntity
  8
11_COMPONENT
100
AcDbLine
 62
9
  6
CONTINUOUS
 10
301.5934726265
 20
57.4367307692
 11
301.5934726179
 21
57.6367307692
  0
LINE
  5
36A
100
AcDbEntity
  8
11_COMPONENT
100
AcDbLine
 62
9
  6
CONTINUOUS
 10
302.0166573802
 20
56.4367307692
 11
302.0166573802
 21
56.2367307692
  0
LINE
  5
36B
100
AcDbEntity
  8
11_COMPONENT
100
AcDbLine
 62
9
  6
CONTINUOUS
 10
302.1048208706
 20
54.5367307692
 11
302.104820862
 21
54.7367307692
  0
LINE
  5
36C
100
AcDbEntity
  8
11_COMPONENT
100
AcDbLine
 62
9
  6
CONTINUOUS
 10
302.5280056243
 20
53.5367307692
 11
302.5280056243
 21
53.3367307692
  0
LINE
  5
36D
100
AcDbEntity
  8
11_COMPONENT
100
AcDbLine
 62
9
  6
CONTINUOUS
 10
302.6161691146
 20
51.6367307692
 11
302.6161691061
 21
51.8367307692
  0
LINE
  5
36E
100
AcDbEntity
  8
11_COMPONENT
100
AcDbLine
 62
9
  6
CONTINUOUS
 10
302.7543729953
 20
57.4367307692
 11
302.7543729953
 21
57.6367307692
  0
LINE
  5
36F
100
AcDbEntity
  8
11_COMPONENT
100
AcDbLine
 62
9
  6
CONTINUOUS
 10
302.8249037876
 20
56.4367307692
 11
302.8249037876
 21
56.2367307692
  0
LINE
  5
370
100
AcDbEntity
  8
11_COMPONENT
100
AcDbLine
 62
9
  6
CONTINUOUS
 10
303.0393538683
 20
50.6367307692
 11
303.0393538683
 21
50.4367307692
  0
LINE
  5
371
100
AcDbEntity
  8
11_COMPONENT
100
AcDbLine
 62
9
  6
CONTINUOUS
 10
303.1275173587
 20
48.7367307692
 11
303.1275173501
 21
48.9367307692
  0
LINE
  5
372
100
AcDbEntity
  8
11_COMPONENT
100
AcDbLine
 62
9
  6
CONTINUOUS
 10
303.2657212394
 20
54.5367307692
 11
303.2657212394
 21
54.7367307692
  0
LINE
  5
373
100
AcDbEntity
  8
11_COMPONENT
100
AcDbLine
 62
9
  6
CONTINUOUS
 10
303.3362520317
 20
53.5367307692
 11
303.3362520317
 21
53.3367307692
  0
LINE
  5
374
100
AcDbEntity
  8
11_COMPONENT
100
AcDbLine
 62
9
  6
CONTINUOUS
 10
303.5507021124
 20
47.7367307692
 11
303.5507021124
 21
47.5367307692
  0
LINE
  5
375
100
AcDbEntity
  8
11_COMPONENT
100
AcDbLine
 62
9
  6
CONTINUOUS
 10
303.6388656027
 20
45.8367307692
 11
303.6388655942
 21
46.0367307692
  0
LINE
  5
376
100
AcDbEntity
  8
11_COMPONENT
100
AcDbLine
 62
9
  6
CONTINUOUS
 10
303.7770694834
 20
51.6367307692
 11
303.7770694834
 21
51.8367307692
  0
LINE
  5
377
100
AcDbEntity
  8
11_COMPONENT
100
AcDbLine
 62
9
  6
CONTINUOUS
 10
303.8476002757
 20
50.6367307692
 11
303.8476002757
 21
50.4367307692
  0
LINE
  5
378
100
AcDbEntity
  8
11_COMPONENT
100
AcDbLine
 62
9
  6
CONTINUOUS
 10
304.0620503564
 20
44.8367307692
 11
304.0620503564
 21
44.6367307692
  0
LINE
  5
379
100
AcDbEntity
  8
11_COMPONENT
100
AcDbLine
 62
7
  6
CONTINUOUS
 10
302.8555813974
 20
41.3097697555
 11
298.6346196582
 21
65.2480333281
  0
LINE
  5
37A
100
AcDbEntity
  8
11_COMPONENT
100
AcDbLine
 62
7
  6
CONTINUOUS
 10
298.7817759319
 20
65.4444993911
 11
303.0136234689
 21
41.4444993911
  0
LINE
  5
37B
100
AcDbEntity
  8
11_COMPONENT
100
AcDbLine
 62
9
  6
CONTINUOUS
 10
304.3089811969
 20
38.7051770449
 11
303.3726849293
 21
44.0151770449
  0
LINE
  5
37C
100
AcDbEntity
  8
11_COMPONENT
100
AcDbLine
 62
9
  6
CONTINUOUS
 10
302.9495001756
 20
46.4151770449
 11
302.8613366853
 21
46.9151770449
  0
LINE
  5
37D
100
AcDbEntity
  8
11_COMPONENT
100
AcDbLine
 62
9
  6
CONTINUOUS
 10
302.4381519316
 20
49.3151770449
 11
302.3499884412
 21
49.8151770449
  0
LINE
  5
37E
100
AcDbEntity
  8
11_COMPONENT
100
AcDbLine
 62
9
  6
CONTINUOUS
 10
301.9268036875
 20
52.2151770449
 11
301.8386401971
 21
52.7151770449
  0
LINE
  5
37F
100
AcDbEntity
  8
11_COMPONENT
100
AcDbLine
 62
9
  6
CONTINUOUS
 10
301.4154554434
 20
55.1151770449
 11
301.3272919531
 21
55.6151770449
  0
LINE
  5
380
100
AcDbEntity
  8
11_COMPONENT
100
AcDbLine
 62
9
  6
CONTINUOUS
 10
300.9041071994
 20
58.0151770449
 11
299.9397931966
 21
63.4840735173
  0
LINE
  5
381
100
AcDbEntity
  8
11_COMPONENT
100
AcDbLine
 62
7
  6
CONTINUOUS
 10
304.5059427475
 20
38.7399066804
 11
303.5696464799
 21
44.0499066804
  0
LINE
  5
382
100
AcDbEntity
  8
11_COMPONENT
100
AcDbLine
 62
7
  6
CONTINUOUS
 10
303.1464617262
 20
46.4499066804
 11
303.0582982359
 21
46.9499066804
  0
LINE
  5
383
100
AcDbEntity
  8
11_COMPONENT
100
AcDbLine
 62
7
  6
CONTINUOUS
 10
302.6351134822
 20
49.3499066804
 11
302.5469499918
 21
49.8499066804
  0
LINE
  5
384
100
AcDbEntity
  8
11_COMPONENT
100
AcDbLine
 62
7
  6
CONTINUOUS
 10
302.1237652381
 20
52.2499066804
 11
302.0356017477
 21
52.7499066804
  0
LINE
  5
385
100
AcDbEntity
  8
11_COMPONENT
100
AcDbLine
 62
7
  6
CONTINUOUS
 10
301.612416994
 20
55.1499066804
 11
301.5242535037
 21
55.6499066804
  0
LINE
  5
386
100
AcDbEntity
  8
11_COMPONENT
100
AcDbLine
 62
7
  6
CONTINUOUS
 10
301.10106875
 20
58.0499066804
 11
300.1367547472
 21
63.5188031529
  0
LINE
  5
387
100
AcDbEntity
  8
11_COMPONENT
100
AcDbLine
 62
9
  6
CONTINUOUS
 10
300.3193484939
 20
64.3835852792
 11
299.8739140124
 21
66.9097697555
  0
LINE
  5
388
100
AcDbEntity
  8
11_COMPONENT
100
AcDbLine
 62
7
  6
CONTINUOUS
 10
300.5306955305
 20
64.3367307692
 11
300.070875563
 21
66.9444993911
  0
LINE
  5
389
100
AcDbEntity
  8
11_COMPONENT
100
AcDbLine
 62
9
  6
CONTINUOUS
 10
305.1657390897
 20
45.1888252225
 11
305.0952082974
 21
45.5888252225
  0
LINE
  5
38A
100
AcDbEntity
  8
11_COMPONENT
100
AcDbLine
 62
9
  6
CONTINUOUS
 10
304.6543908457
 20
48.0888252225
 11
304.5838600534
 21
48.4888252225
  0
LINE
  5
38B
100
AcDbEntity
  8
11_COMPONENT
100
AcDbLine
 62
9
  6
CONTINUOUS
 10
304.1430426016
 20
50.9888252225
 11
304.0725118093
 21
51.3888252225
  0
LINE
  5
38C
100
AcDbEntity
  8
11_COMPONENT
100
AcDbLine
 62
9
  6
CONTINUOUS
 10
303.6316943576
 20
53.8888252225
 11
303.5611635653
 21
54.2888252225
  0
LINE
  5
38D
100
AcDbEntity
  8
11_COMPONENT
100
AcDbLine
 62
9
  6
CONTINUOUS
 10
303.1203461135
 20
56.7888252225
 11
303.0498153212
 21
57.1888252225
  0
LINE
  5
38E
100
AcDbEntity
  8
11_COMPONENT
100
AcDbLine
 62
7
  6
CONTINUOUS
 10
305.3627006403
 20
45.2235548581
 11
305.292169848
 21
45.6235548581
  0
LINE
  5
38F
100
AcDbEntity
  8
11_COMPONENT
100
AcDbLine
 62
7
  6
CONTINUOUS
 10
304.8513523963
 20
48.1235548581
 11
304.780821604
 21
48.5235548581
  0
LINE
  5
390
100
AcDbEntity
  8
11_COMPONENT
100
AcDbLine
 62
7
  6
CONTINUOUS
 10
304.3400041522
 20
51.0235548581
 11
304.2694733599
 21
51.4235548581
  0
LINE
  5
391
100
AcDbEntity
  8
11_COMPONENT
100
AcDbLine
 62
7
  6
CONTINUOUS
 10
303.8286559082
 20
53.9235548581
 11
303.7581251159
 21
54.3235548581
  0
LINE
  5
392
100
AcDbEntity
  8
11_COMPONENT
100
AcDbLine
 62
7
  6
CONTINUOUS
 10
303.3173076641
 20
56.8235548581
 11
303.2467768718
 21
57.2235548581
  0
LINE
  5
393
100
AcDbEntity
  8
11_COMPONENT
100
AcDbLine
 62
9
  6
CONTINUOUS
 10
304.2884177275
 20
48.7367307692
 11
304.2884177275
 21
48.9367307692
  0
LINE
  5
394
100
AcDbEntity
  8
11_COMPONENT
100
AcDbLine
 62
9
  6
CONTINUOUS
 10
304.3589485198
 20
47.7367307692
 11
304.3589485198
 21
47.5367307692
  0
LINE
  5
395
100
AcDbEntity
  8
11_COMPONENT
100
AcDbLine
 62
9
  6
CONTINUOUS
 10
304.7997659715
 20
45.8367307692
 11
304.7997659715
 21
46.0367307692
  0
LINE
  5
396
100
AcDbEntity
  8
11_COMPONENT
100
AcDbLine
 62
9
  6
CONTINUOUS
 10
304.8702967638
 20
44.8367307692
 11
304.8702967638
 21
44.6367307692
  0
LINE
  5
397
100
AcDbEntity
  8
11_COMPONENT
100
AcDbLine
 62
9
  6
CONTINUOUS
 10
304.998346624
 20
38.1267307692
 11
304.9983466154
 21
38.3267307692
  0
LINE
  5
398
100
AcDbEntity
  8
11_COMPONENT
100
AcDbLine
 62
9
  6
CONTINUOUS
 10
309.9496875
 20
35.8267307692
 11
309.9496875
 21
38.3267307692
  0
LINE
  5
399
100
AcDbEntity
  8
11_COMPONENT
100
AcDbLine
 62
7
  6
CONTINUOUS
 10
313.9496875
 20
35.8267307692
 11
313.9496875
 21
38.1267307692
  0
LINE
  5
39A
100
AcDbEntity
  8
11_COMPONENT
100
AcDbLine
 62
7
  6
CONTINUOUS
 10
135.9096875
 20
162.7086838942
 11
135.9096875
 21
282.7086838942
  0
LINE
  5
39B
100
AcDbEntity
  8
11_COMPONENT
100
AcDbLine
 62
9
  6
CONTINUOUS
 10
136.1096875
 20
162.7086838942
 11
136.1096875
 21
282.7086838942
  0
LINE
  5
39C
100
AcDbEntity
  8
11_COMPONENT
100
AcDbLine
 62
7
  6
CONTINUOUS
 10
137.6596875
 20
276.7086838942
 11
137.6596875
 21
275.7086838942
  0
LINE
  5
39D
100
AcDbEntity
  8
11_COMPONENT
100
AcDbLine
 62
7
  6
CONTINUOUS
 10
137.6596875
 20
169.7086838942
 11
137.6596875
 21
168.7086838942
  0
LINE
  5
39E
100
AcDbEntity
  8
11_COMPONENT
100
AcDbLine
 62
9
  6
CONTINUOUS
 10
139.9096875
 20
286.7086838942
 11
139.9096875
 21
286.5086838942
  0
LINE
  5
39F
100
AcDbEntity
  8
11_COMPONENT
100
AcDbLine
 62
9
  6
CONTINUOUS
 10
139.9096875
 20
158.7086838942
 11
139.9096875
 21
158.9086838942
  0
LINE
  5
3A0
100
AcDbEntity
  8
11_COMPONENT
100
AcDbLine
 62
7
  6
CONTINUOUS
 10
149.4205200621
 20
158.6651060229
 11
149.4730132603
 21
158.0651060229
  0
LINE
  5
3A1
100
AcDbEntity
  8
11_COMPONENT
100
AcDbLine
 62
7
  6
CONTINUOUS
 10
142.1596875
 20
168.7086838942
 11
142.1596875
 21
169.7086838942
  0
LINE
  5
3A2
100
AcDbEntity
  8
11_COMPONENT
100
AcDbLine
 62
7
  6
CONTINUOUS
 10
142.1596875
 20
275.7086838942
 11
142.1596875
 21
276.7086838942
  0
LINE
  5
3A3
100
AcDbEntity
  8
11_COMPONENT
100
AcDbLine
 62
7
  6
CONTINUOUS
 10
144.4890782362
 20
158.9086838942
 11
144.4890782362
 21
286.5086838942
  0
LINE
  5
3A4
100
AcDbEntity
  8
11_COMPONENT
100
AcDbLine
 62
9
  6
CONTINUOUS
 10
144.4966743597
 20
158.9086838942
 11
144.4966743597
 21
286.5086838942
  0
LINE
  5
3A5
100
AcDbEntity
  8
11_COMPONENT
100
AcDbLine
 62
9
  6
CONTINUOUS
 10
144.567205152
 20
158.9086838942
 11
144.567205152
 21
286.5086838942
  0
LINE
  5
3A6
100
AcDbEntity
  8
11_COMPONENT
100
AcDbLine
 62
7
  6
CONTINUOUS
 10
145.0004264802
 20
158.9086838942
 11
145.0004264802
 21
286.5086838942
  0
LINE
  5
3A7
100
AcDbEntity
  8
11_COMPONENT
100
AcDbLine
 62
9
  6
CONTINUOUS
 10
145.0080226037
 20
158.9086838942
 11
145.0080226037
 21
286.5086838942
  0
LINE
  5
3A8
100
AcDbEntity
  8
11_COMPONENT
100
AcDbLine
 62
9
  6
CONTINUOUS
 10
145.0596090285
 20
286.7086838942
 11
145.0596090285
 21
286.641071244
  0
LINE
  5
3A9
100
AcDbEntity
  8
11_COMPONENT
100
AcDbLine
 62
9
  6
CONTINUOUS
 10
145.0596090285
 20
158.7086838942
 11
145.0596090285
 21
158.7762965593
  0
LINE
  5
3AA
100
AcDbEntity
  8
11_COMPONENT
100
AcDbLine
 62
9
  6
CONTINUOUS
 10
145.078553396
 20
158.9086838942
 11
145.078553396
 21
286.5086838942
  0
LINE
  5
3AB
100
AcDbEntity
  8
11_COMPONENT
100
AcDbLine
 62
7
  6
CONTINUOUS
 10
145.5117747243
 20
158.9086838942
 11
145.5117747243
 21
286.5086838942
  0
LINE
  5
3AC
100
AcDbEntity
  8
11_COMPONENT
100
AcDbLine
 62
9
  6
CONTINUOUS
 10
145.5193708478
 20
158.9086838942
 11
145.5193708478
 21
286.5086838942
  0
LINE
  5
3AD
100
AcDbEntity
  8
11_COMPONENT
100
AcDbLine
 62
9
  6
CONTINUOUS
 10
145.5709572725
 20
286.7086838942
 11
145.5709572725
 21
286.641071244
  0
LINE
  5
3AE
100
AcDbEntity
  8
11_COMPONENT
100
AcDbLine
 62
9
  6
CONTINUOUS
 10
145.5709572725
 20
158.7086838942
 11
145.5709572725
 21
158.7762965593
  0
LINE
  5
3AF
100
AcDbEntity
  8
11_COMPONENT
100
AcDbLine
 62
9
  6
CONTINUOUS
 10
145.5899016401
 20
158.9086838942
 11
145.5899016401
 21
286.5086838942
  0
LINE
  5
3B0
100
AcDbEntity
  8
11_COMPONENT
100
AcDbLine
 62
7
  6
CONTINUOUS
 10
146.0231229683
 20
158.9086838942
 11
146.0231229683
 21
286.5086838942
  0
LINE
  5
3B1
100
AcDbEntity
  8
11_COMPONENT
100
AcDbLine
 62
9
  6
CONTINUOUS
 10
146.0307190918
 20
158.9086838942
 11
146.0307190918
 21
286.5086838942
  0
LINE
  5
3B2
100
AcDbEntity
  8
11_COMPONENT
100
AcDbLine
 62
9
  6
CONTINUOUS
 10
146.0823055166
 20
286.7086838942
 11
146.0823055166
 21
286.641071244
  0
LINE
  5
3B3
100
AcDbEntity
  8
11_COMPONENT
100
AcDbLine
 62
9
  6
CONTINUOUS
 10
146.0823055166
 20
158.7086838942
 11
146.0823055166
 21
158.7762965593
  0
LINE
  5
3B4
100
AcDbEntity
  8
11_COMPONENT
100
AcDbLine
 62
9
  6
CONTINUOUS
 10
146.1012498841
 20
158.9086838942
 11
146.1012498841
 21
286.5086838942
  0
LINE
  5
3B5
100
AcDbEntity
  8
11_COMPONENT
100
AcDbLine
 62
7
  6
CONTINUOUS
 10
146.5344712124
 20
158.9086838942
 11
146.5344712124
 21
286.5086838942
  0
LINE
  5
3B6
100
AcDbEntity
  8
11_COMPONENT
100
AcDbLine
 62
9
  6
CONTINUOUS
 10
146.5420673359
 20
158.9086838942
 11
146.5420673359
 21
286.5086838942
  0
LINE
  5
3B7
100
AcDbEntity
  8
11_COMPONENT
100
AcDbLine
 62
9
  6
CONTINUOUS
 10
146.5936537606
 20
286.7086838942
 11
146.5936537606
 21
286.641071244
  0
LINE
  5
3B8
100
AcDbEntity
  8
11_COMPONENT
100
AcDbLine
 62
9
  6
CONTINUOUS
 10
146.5936537606
 20
158.7086838942
 11
146.5936537606
 21
158.7762965593
  0
LINE
  5
3B9
100
AcDbEntity
  8
11_COMPONENT
100
AcDbLine
 62
9
  6
CONTINUOUS
 10
146.6125981282
 20
158.9086838942
 11
146.6125981282
 21
286.5086838942
  0
LINE
  5
3BA
100
AcDbEntity
  8
11_COMPONENT
100
AcDbLine
 62
9
  6
CONTINUOUS
 10
147.1050020047
 20
158.7086838942
 11
147.1050020047
 21
286.7086838942
  0
LINE
  5
3BB
100
AcDbEntity
  8
11_COMPONENT
100
AcDbLine
 62
9
  6
CONTINUOUS
 10
148.2659023735
 20
158.7086838942
 11
148.2659023735
 21
286.7086838942
  0
LINE
  5
3BC
100
AcDbEntity
  8
11_COMPONENT
100
AcDbLine
 62
9
  6
CONTINUOUS
 10
148.75830625
 20
158.9086838942
 11
148.75830625
 21
286.5086838942
  0
LINE
  5
3BD
100
AcDbEntity
  8
11_COMPONENT
100
AcDbLine
 62
7
  6
CONTINUOUS
 10
149.4730136225
 20
287.3522659059
 11
149.4205200621
 21
286.7522617656
  0
LINE
  5
3BE
100
AcDbEntity
  8
11_COMPONENT
100
AcDbLine
 62
7
  6
CONTINUOUS
 10
299.013630123
 20
157.4336033319
 11
299.9907173401
 21
157.622302546
  0
LINE
  5
3BF
100
AcDbEntity
  8
11_COMPONENT
100
AcDbLine
 62
7
  6
CONTINUOUS
 10
150.8322966225
 20
157.4336032688
 11
149.8552072184
 21
157.6223029662
  0
LINE
  5
3C0
100
AcDbEntity
  8
11_COMPONENT
100
AcDbLine
 62
7
  6
CONTINUOUS
 10
152.9723496319
 20
157.3262530591
 11
152.9686007286
 21
157.4336076047
  0
LINE
  5
3C1
100
AcDbEntity
  8
11_COMPONENT
100
AcDbLine
 62
7
  6
CONTINUOUS
 10
152.0735766894
 20
288.0911147293
 11
152.0773255927
 21
287.9837601838
  0
LINE
  5
3C2
100
AcDbEntity
  8
11_COMPONENT
100
AcDbLine
 62
7
  6
CONTINUOUS
 10
149.3286794695
 20
158.9086838942
 11
149.3286794695
 21
286.5086838942
  0
LINE
  5
3C3
100
AcDbEntity
  8
11_COMPONENT
100
AcDbLine
 62
9
  6
CONTINUOUS
 10
149.788499437
 20
158.9086838942
 11
149.788499437
 21
286.5086838942
  0
LINE
  5
3C4
100
AcDbEntity
  8
11_COMPONENT
100
AcDbLine
 62
9
  6
CONTINUOUS
 10
152.5229631606
 20
287.9837604353
 11
152.5229631606
 21
287.3522617656
  0
LINE
  5
3C5
100
AcDbEntity
  8
11_COMPONENT
100
AcDbLine
 62
9
  6
CONTINUOUS
 10
152.5229631606
 20
286.7522617656
 11
152.5229631606
 21
286.7086838942
  0
LINE
  5
3C6
100
AcDbEntity
  8
11_COMPONENT
100
AcDbLine
 62
9
  6
CONTINUOUS
 10
152.5229631606
 20
157.4336073531
 11
152.5229631606
 21
158.0651060229
  0
LINE
  5
3C7
100
AcDbEntity
  8
11_COMPONENT
100
AcDbLine
 62
9
  6
CONTINUOUS
 10
152.5229631606
 20
158.6651060229
 11
152.5229631606
 21
158.7086838942
  0
LINE
  5
3C8
100
AcDbEntity
  8
11_COMPONENT
100
AcDbLine
 62
9
  6
CONTINUOUS
 10
153.2353265725
 20
158.7086838942
 11
153.2353265725
 21
286.7086838942
  0
LINE
  5
3C9
100
AcDbEntity
  8
11_COMPONENT
100
AcDbLine
 62
7
  6
CONTINUOUS
 10
152.9686007286
 20
287.9837601838
 11
152.9723496319
 21
288.0911147293
  0
LINE
  5
3CA
100
AcDbEntity
  8
11_COMPONENT
100
AcDbLine
 62
7
  6
CONTINUOUS
 10
152.0773255927
 20
157.4336076047
 11
152.0735766894
 21
157.3262530591
  0
LINE
  5
3CB
100
AcDbEntity
  8
11_COMPONENT
100
AcDbLine
 62
7
  6
CONTINUOUS
 10
261.7820333657
 20
147.1586838942
 11
252.5820333657
 21
147.1586838942
  0
LINE
  5
3CC
100
AcDbEntity
  8
11_COMPONENT
100
AcDbLine
 62
7
  6
CONTINUOUS
 10
242.7820333657
 20
147.1586838942
 11
233.5820333657
 21
147.1586838942
  0
LINE
  5
3CD
100
AcDbEntity
  8
11_COMPONENT
100
AcDbLine
 62
7
  6
CONTINUOUS
 10
223.7820333657
 20
147.1586838942
 11
214.5820333657
 21
147.1586838942
  0
LINE
  5
3CE
100
AcDbEntity
  8
11_COMPONENT
100
AcDbLine
 62
7
  6
CONTINUOUS
 10
204.7820333657
 20
147.1586838942
 11
195.5820333657
 21
147.1586838942
  0
LINE
  5
3CF
100
AcDbEntity
  8
11_COMPONENT
100
AcDbLine
 62
7
  6
CONTINUOUS
 10
155.6254062592
 20
286.7522617656
 11
155.572913061
 21
287.3522617656
  0
LINE
  5
3D0
100
AcDbEntity
  8
11_COMPONENT
100
AcDbLine
 62
7
  6
CONTINUOUS
 10
156.7820333657
 20
286.7086838942
 11
156.7820333657
 21
295.3086838942
  0
LINE
  5
3D1
100
AcDbEntity
  8
11_COMPONENT
100
AcDbLine
 62
9
  6
CONTINUOUS
 10
157.0913710822
 20
158.7086838942
 11
157.0913710822
 21
286.7086838942
  0
LINE
  5
3D2
100
AcDbEntity
  8
11_COMPONENT
100
AcDbLine
 62
9
  6
CONTINUOUS
 10
157.4449244728
 20
158.9086838942
 11
157.4449244728
 21
286.5086838942
  0
LINE
  5
3D3
100
AcDbEntity
  8
11_COMPONENT
100
AcDbLine
 62
9
  6
CONTINUOUS
 10
157.652031254
 20
158.9086838942
 11
157.652031254
 21
286.5086838942
  0
LINE
  5
3D4
100
AcDbEntity
  8
11_COMPONENT
100
AcDbLine
 62
9
  6
CONTINUOUS
 10
158.0055846446
 20
158.7086838942
 11
158.0055846446
 21
286.7086838942
  0
LINE
  5
3D5
100
AcDbEntity
  8
11_COMPONENT
100
AcDbLine
 62
7
  6
CONTINUOUS
 10
158.0820333657
 20
295.3086838942
 11
158.0820333657
 21
286.7086838942
  0
LINE
  5
3D6
100
AcDbEntity
  8
11_COMPONENT
100
AcDbLine
 62
7
  6
CONTINUOUS
 10
158.8820333657
 20
288.8086838942
 11
158.8820333657
 21
291.8086838942
  0
LINE
  5
3D7
100
AcDbEntity
  8
11_COMPONENT
100
AcDbLine
 62
7
  6
CONTINUOUS
 10
160.9320333657
 20
158.7086838942
 11
160.9320333657
 21
157.7086838942
  0
LINE
  5
3D8
100
AcDbEntity
  8
11_COMPONENT
100
AcDbLine
 62
7
  6
CONTINUOUS
 10
163.8820333657
 20
288.8086838942
 11
163.8820333657
 21
291.8086838942
  0
LINE
  5
3D9
100
AcDbEntity
  8
11_COMPONENT
100
AcDbLine
 62
7
  6
CONTINUOUS
 10
155.5729126988
 20
158.0651018825
 11
155.6254062592
 21
158.6651060229
  0
LINE
  5
3DA
100
AcDbEntity
  8
11_COMPONENT
100
AcDbLine
 62
7
  6
CONTINUOUS
 10
295.6920745992
 20
157.4336044089
 11
295.6322966017
 21
157.4336032719
  0
LINE
  5
3DB
100
AcDbEntity
  8
11_COMPONENT
100
AcDbLine
 62
7
  6
CONTINUOUS
 10
154.2136302088
 20
157.4336033446
 11
154.1538517752
 21
157.4336044165
  0
LINE
  5
3DC
100
AcDbEntity
  8
11_COMPONENT
100
AcDbLine
 62
7
  6
CONTINUOUS
 10
297.7686123217
 20
157.4336046434
 11
296.8773139967
 21
157.4336046358
  0
LINE
  5
3DD
100
AcDbEntity
  8
11_COMPONENT
100
AcDbLine
 62
7
  6
CONTINUOUS
 10
152.9686123217
 20
157.4336046434
 11
152.0773139967
 21
157.4336046358
  0
LINE
  5
3DE
100
AcDbEntity
  8
11_COMPONENT
100
AcDbLine
 62
7
  6
CONTINUOUS
 10
299.0136302088
 20
157.4336033446
 11
298.9538517752
 21
157.4336044165
  0
LINE
  5
3DF
100
AcDbEntity
  8
11_COMPONENT
100
AcDbLine
 62
7
  6
CONTINUOUS
 10
150.8920745992
 20
157.4336044089
 11
150.8322966017
 21
157.4336032719
  0
LINE
  5
3E0
100
AcDbEntity
  8
11_COMPONENT
100
AcDbLine
 62
9
  6
CONTINUOUS
 10
149.8552044019
 20
157.6223036437
 11
155.1907195986
 21
157.6223030863
  0
LINE
  5
3E1
100
AcDbEntity
  8
11_COMPONENT
100
AcDbLine
 62
9
  6
CONTINUOUS
 10
294.6552044019
 20
157.6223036437
 11
299.9907195986
 21
157.6223030863
  0
LINE
  5
3E2
100
AcDbEntity
  8
11_COMPONENT
100
AcDbLine
 62
7
  6
CONTINUOUS
 10
179.9320333677
 20
157.7086838942
 11
174.9320333637
 21
157.7086838942
  0
LINE
  5
3E3
100
AcDbEntity
  8
11_COMPONENT
100
AcDbLine
 62
7
  6
CONTINUOUS
 10
165.9320333677
 20
157.7086838942
 11
160.9320333637
 21
157.7086838942
  0
LINE
  5
3E4
100
AcDbEntity
  8
11_COMPONENT
100
AcDbLine
 62
9
  6
CONTINUOUS
 10
149.4730136694
 20
158.0651017844
 11
155.5729125007
 21
158.0650996186
  0
LINE
  5
3E5
100
AcDbEntity
  8
11_COMPONENT
100
AcDbLine
 62
9
  6
CONTINUOUS
 10
294.2730136694
 20
158.0651017844
 11
300.3729125007
 21
158.0650996186
  0
LINE
  5
3E6
100
AcDbEntity
  8
11_COMPONENT
100
AcDbLine
 62
7
  6
CONTINUOUS
 10
262.7820333657
 20
158.1586838942
 11
251.5820333657
 21
158.1586838942
  0
LINE
  5
3E7
100
AcDbEntity
  8
11_COMPONENT
100
AcDbLine
 62
7
  6
CONTINUOUS
 10
243.7820333657
 20
158.1586838942
 11
232.5820333657
 21
158.1586838942
  0
LINE
  5
3E8
100
AcDbEntity
  8
11_COMPONENT
100
AcDbLine
 62
7
  6
CONTINUOUS
 10
224.7820333657
 20
158.1586838942
 11
213.5820333657
 21
158.1586838942
  0
LINE
  5
3E9
100
AcDbEntity
  8
11_COMPONENT
100
AcDbLine
 62
7
  6
CONTINUOUS
 10
205.7820333657
 20
158.1586838942
 11
194.5820333657
 21
158.1586838942
  0
LINE
  5
3EA
100
AcDbEntity
  8
11_COMPONENT
100
AcDbLine
 62
9
  6
CONTINUOUS
 10
294.2205204784
 20
158.6651017114
 11
300.4254060472
 21
158.6651036006
  0
LINE
  5
3EB
100
AcDbEntity
  8
11_COMPONENT
100
AcDbLine
 62
9
  6
CONTINUOUS
 10
149.4205204784
 20
158.6651017114
 11
155.6254060472
 21
158.6651036006
  0
LINE
  5
3EC
100
AcDbEntity
  8
11_COMPONENT
100
AcDbLine
 62
7
  6
CONTINUOUS
 10
309.9496875
 20
158.7086838942
 11
139.9096875
 21
158.7086838942
  0
LINE
  5
3ED
100
AcDbEntity
  8
11_COMPONENT
100
AcDbLine
 62
9
  6
CONTINUOUS
 10
309.9496875
 20
158.9086838942
 11
146.5344715788
 21
158.9086838942
  0
LINE
  5
3EE
100
AcDbEntity
  8
11_COMPONENT
100
AcDbLine
 62
9
  6
CONTINUOUS
 10
146.521431897
 20
158.9086838942
 11
146.0231233347
 21
158.9086838942
  0
LINE
  5
3EF
100
AcDbEntity
  8
11_COMPONENT
100
AcDbLine
 62
9
  6
CONTINUOUS
 10
145.4987354088
 20
158.9086838942
 11
145.0004268466
 21
158.9086838942
  0
LINE
  5
3F0
100
AcDbEntity
  8
11_COMPONENT
100
AcDbLine
 62
9
  6
CONTINUOUS
 10
146.0100836529
 20
158.9086838942
 11
145.5117750907
 21
158.9086838942
  0
LINE
  5
3F1
100
AcDbEntity
  8
11_COMPONENT
100
AcDbLine
 62
9
  6
CONTINUOUS
 10
144.9873871648
 20
158.9086838942
 11
139.9096875
 21
158.9086838942
  0
LINE
  5
3F2
100
AcDbEntity
  8
11_COMPONENT
100
AcDbLine
 62
7
  6
CONTINUOUS
 10
164.5320333657
 20
286.7086838942
 11
164.5320333657
 21
295.3086838942
  0
LINE
  5
3F3
100
AcDbEntity
  8
11_COMPONENT
100
AcDbLine
 62
7
  6
CONTINUOUS
 10
165.8320333657
 20
295.3086838942
 11
165.8320333657
 21
286.7086838942
  0
LINE
  5
3F4
100
AcDbEntity
  8
11_COMPONENT
100
AcDbLine
 62
7
  6
CONTINUOUS
 10
165.9320333657
 20
157.7086838942
 11
165.9320333657
 21
158.7086838942
  0
LINE
  5
3F5
100
AcDbEntity
  8
11_COMPONENT
100
AcDbLine
 62
7
  6
CONTINUOUS
 10
166.4820333657
 20
288.8086838942
 11
166.4820333657
 21
291.8086838942
  0
LINE
  5
3F6
100
AcDbEntity
  8
11_COMPONENT
100
AcDbLine
 62
7
  6
CONTINUOUS
 10
171.4820333657
 20
288.8086838942
 11
171.4820333657
 21
291.8086838942
  0
LINE
  5
3F7
100
AcDbEntity
  8
11_COMPONENT
100
AcDbLine
 62
9
  6
CONTINUOUS
 10
313.9496875
 20
162.7086838942
 11
313.7496875
 21
162.7086838942
  0
LINE
  5
3F8
100
AcDbEntity
  8
11_COMPONENT
100
AcDbLine
 62
9
  6
CONTINUOUS
 10
135.9096875
 20
162.7086838942
 11
136.1096875
 21
162.7086838942
  0
LINE
  5
3F9
100
AcDbEntity
  8
11_COMPONENT
100
AcDbLine
 62
7
  6
CONTINUOUS
 10
172.2820333657
 20
286.7086838942
 11
172.2820333657
 21
295.3086838942
  0
LINE
  5
3FA
100
AcDbEntity
  8
11_COMPONENT
100
AcDbLine
 62
7
  6
CONTINUOUS
 10
173.5820333657
 20
286.7086838942
 11
173.5820333657
 21
295.3086838942
  0
LINE
  5
3FB
100
AcDbEntity
  8
11_COMPONENT
100
AcDbLine
 62
7
  6
CONTINUOUS
 10
174.9320333657
 20
158.7086838942
 11
174.9320333657
 21
157.7086838942
  0
LINE
  5
3FC
100
AcDbEntity
  8
11_COMPONENT
100
AcDbLine
 62
7
  6
CONTINUOUS
 10
154.213630123
 20
157.4336033319
 11
155.1907173401
 21
157.622302546
  0
LINE
  5
3FD
100
AcDbEntity
  8
11_COMPONENT
100
AcDbLine
 62
7
  6
CONTINUOUS
 10
295.6322966225
 20
157.4336032688
 11
294.6552072184
 21
157.6223029662
  0
LINE
  5
3FE
100
AcDbEntity
  8
11_COMPONENT
100
AcDbLine
 62
7
  6
CONTINUOUS
 10
179.9320333657
 20
157.7086838942
 11
179.9320333657
 21
158.7086838942
  0
LINE
  5
3FF
100
AcDbEntity
  8
11_COMPONENT
100
AcDbLine
 62
7
  6
CONTINUOUS
 10
183.4229631606
 20
292.5586838942
 11
183.4229631606
 21
286.7086838942
  0
LINE
  5
400
100
AcDbEntity
  8
11_COMPONENT
100
AcDbLine
 62
9
  6
CONTINUOUS
 10
184.4229631606
 20
286.7086838942
 11
184.4229631606
 21
292.7586838942
  0
LINE
  5
401
100
AcDbEntity
  8
11_COMPONENT
100
AcDbLine
 62
7
  6
CONTINUOUS
 10
194.5820333657
 20
158.7086838942
 11
194.5820333657
 21
158.1586838942
  0
LINE
  5
402
100
AcDbEntity
  8
11_COMPONENT
100
AcDbLine
 62
7
  6
CONTINUOUS
 10
195.5820333657
 20
147.1586838942
 11
195.5820333657
 21
158.1586838942
  0
LINE
  5
403
100
AcDbEntity
  8
11_COMPONENT
100
AcDbLine
 62
7
  6
CONTINUOUS
 10
204.7820333657
 20
158.1586838942
 11
204.7820333657
 21
147.1586838942
  0
LINE
  5
404
100
AcDbEntity
  8
11_COMPONENT
100
AcDbLine
 62
7
  6
CONTINUOUS
 10
205.7820333657
 20
158.1586838942
 11
205.7820333657
 21
158.7086838942
  0
LINE
  5
405
100
AcDbEntity
  8
11_COMPONENT
100
AcDbLine
 62
9
  6
CONTINUOUS
 10
211.9229631607
 20
286.7086838942
 11
211.9229631607
 21
292.7586838942
  0
LINE
  5
406
100
AcDbEntity
  8
11_COMPONENT
100
AcDbLine
 62
7
  6
CONTINUOUS
 10
212.9229631607
 20
292.5586838942
 11
212.9229631607
 21
286.7086838942
  0
LINE
  5
407
100
AcDbEntity
  8
11_COMPONENT
100
AcDbLine
 62
7
  6
CONTINUOUS
 10
213.5820333657
 20
158.7086838942
 11
213.5820333657
 21
158.1586838942
  0
LINE
  5
408
100
AcDbEntity
  8
11_COMPONENT
100
AcDbLine
 62
7
  6
CONTINUOUS
 10
214.5820333657
 20
147.1586838942
 11
214.5820333657
 21
158.1586838942
  0
LINE
  5
409
100
AcDbEntity
  8
11_COMPONENT
100
AcDbLine
 62
7
  6
CONTINUOUS
 10
215.4020333657
 20
286.7086838942
 11
215.4020333657
 21
290.6286838942
  0
LINE
  5
40A
100
AcDbEntity
  8
11_COMPONENT
100
AcDbLine
 62
7
  6
CONTINUOUS
 10
223.7820333657
 20
158.1586838942
 11
223.7820333657
 21
147.1586838942
  0
LINE
  5
40B
100
AcDbEntity
  8
11_COMPONENT
100
AcDbLine
 62
7
  6
CONTINUOUS
 10
224.7820333657
 20
158.1586838942
 11
224.7820333657
 21
158.7086838942
  0
LINE
  5
40C
100
AcDbEntity
  8
11_COMPONENT
100
AcDbLine
 62
7
  6
CONTINUOUS
 10
232.5820333657
 20
158.7086838942
 11
232.5820333657
 21
158.1586838942
  0
LINE
  5
40D
100
AcDbEntity
  8
11_COMPONENT
100
AcDbLine
 62
7
  6
CONTINUOUS
 10
233.5820333657
 20
147.1586838942
 11
233.5820333657
 21
158.1586838942
  0
LINE
  5
40E
100
AcDbEntity
  8
11_COMPONENT
100
AcDbLine
 62
7
  6
CONTINUOUS
 10
242.7820333657
 20
158.1586838942
 11
242.7820333657
 21
147.1586838942
  0
LINE
  5
40F
100
AcDbEntity
  8
11_COMPONENT
100
AcDbLine
 62
7
  6
CONTINUOUS
 10
243.7820333657
 20
158.1586838942
 11
243.7820333657
 21
158.7086838942
  0
LINE
  5
410
100
AcDbEntity
  8
11_COMPONENT
100
AcDbLine
 62
7
  6
CONTINUOUS
 10
251.5820333657
 20
158.7086838942
 11
251.5820333657
 21
158.1586838942
  0
LINE
  5
411
100
AcDbEntity
  8
11_COMPONENT
100
AcDbLine
 62
7
  6
CONTINUOUS
 10
252.5820333657
 20
147.1586838942
 11
252.5820333657
 21
158.1586838942
  0
LINE
  5
412
100
AcDbEntity
  8
11_COMPONENT
100
AcDbLine
 62
7
  6
CONTINUOUS
 10
253.9620333657
 20
290.6286838942
 11
253.9620333657
 21
289.6286838942
  0
LINE
  5
413
100
AcDbEntity
  8
11_COMPONENT
100
AcDbLine
 62
7
  6
CONTINUOUS
 10
254.8620333657
 20
289.6286838942
 11
254.8620333657
 21
290.6286838942
  0
LINE
  5
414
100
AcDbEntity
  8
11_COMPONENT
100
AcDbLine
 62
7
  6
CONTINUOUS
 10
256.0020333657
 20
286.7086838942
 11
256.0020333657
 21
290.6286838942
  0
LINE
  5
415
100
AcDbEntity
  8
11_COMPONENT
100
AcDbLine
 62
7
  6
CONTINUOUS
 10
256.0420333657
 20
286.7086838942
 11
256.0420333657
 21
290.6286838942
  0
LINE
  5
416
100
AcDbEntity
  8
11_COMPONENT
100
AcDbLine
 62
7
  6
CONTINUOUS
 10
256.5020333657
 20
290.6286838942
 11
256.5020333657
 21
289.6286838942
  0
LINE
  5
417
100
AcDbEntity
  8
11_COMPONENT
100
AcDbLine
 62
7
  6
CONTINUOUS
 10
257.4020333657
 20
289.6286838942
 11
257.4020333657
 21
290.6286838942
  0
LINE
  5
418
100
AcDbEntity
  8
11_COMPONENT
100
AcDbLine
 62
7
  6
CONTINUOUS
 10
258.5420333657
 20
286.7086838942
 11
258.5420333657
 21
290.6286838942
  0
LINE
  5
419
100
AcDbEntity
  8
11_COMPONENT
100
AcDbLine
 62
7
  6
CONTINUOUS
 10
258.5820333657
 20
286.7086838942
 11
258.5820333657
 21
290.6286838942
  0
LINE
  5
41A
100
AcDbEntity
  8
11_COMPONENT
100
AcDbLine
 62
7
  6
CONTINUOUS
 10
259.0420333657
 20
290.6286838942
 11
259.0420333657
 21
289.6286838942
  0
LINE
  5
41B
100
AcDbEntity
  8
11_COMPONENT
100
AcDbLine
 62
7
  6
CONTINUOUS
 10
259.9420333657
 20
289.6286838942
 11
259.9420333657
 21
290.6286838942
  0
LINE
  5
41C
100
AcDbEntity
  8
11_COMPONENT
100
AcDbLine
 62
7
  6
CONTINUOUS
 10
261.0820333657
 20
286.7086838942
 11
261.0820333657
 21
290.6286838942
  0
LINE
  5
41D
100
AcDbEntity
  8
11_COMPONENT
100
AcDbLine
 62
7
  6
CONTINUOUS
 10
261.1220333657
 20
286.7086838942
 11
261.1220333657
 21
290.6286838942
  0
LINE
  5
41E
100
AcDbEntity
  8
11_COMPONENT
100
AcDbLine
 62
7
  6
CONTINUOUS
 10
261.5820333657
 20
290.6286838942
 11
261.5820333657
 21
289.6286838942
  0
LINE
  5
41F
100
AcDbEntity
  8
11_COMPONENT
100
AcDbLine
 62
7
  6
CONTINUOUS
 10
261.7820333657
 20
158.1586838942
 11
261.7820333657
 21
147.1586838942
  0
LINE
  5
420
100
AcDbEntity
  8
11_COMPONENT
100
AcDbLine
 62
7
  6
CONTINUOUS
 10
262.4820333657
 20
289.6286838942
 11
262.4820333657
 21
290.6286838942
  0
LINE
  5
421
100
AcDbEntity
  8
11_COMPONENT
100
AcDbLine
 62
7
  6
CONTINUOUS
 10
262.7820333657
 20
158.1586838942
 11
262.7820333657
 21
158.7086838942
  0
LINE
  5
422
100
AcDbEntity
  8
11_COMPONENT
100
AcDbLine
 62
7
  6
CONTINUOUS
 10
263.6220333657
 20
286.7086838942
 11
263.6220333657
 21
290.6286838942
  0
LINE
  5
423
100
AcDbEntity
  8
11_COMPONENT
100
AcDbLine
 62
7
  6
CONTINUOUS
 10
263.6620333657
 20
286.7086838942
 11
263.6620333657
 21
290.6286838942
  0
LINE
  5
424
100
AcDbEntity
  8
11_COMPONENT
100
AcDbLine
 62
7
  6
CONTINUOUS
 10
264.1220333657
 20
290.6286838942
 11
264.1220333657
 21
289.6286838942
  0
LINE
  5
425
100
AcDbEntity
  8
11_COMPONENT
100
AcDbLine
 62
7
  6
CONTINUOUS
 10
265.0220333657
 20
289.6286838942
 11
265.0220333657
 21
290.6286838942
  0
LINE
  5
426
100
AcDbEntity
  8
11_COMPONENT
100
AcDbLine
 62
7
  6
CONTINUOUS
 10
266.1620333657
 20
286.7086838942
 11
266.1620333657
 21
290.6286838942
  0
LINE
  5
427
100
AcDbEntity
  8
11_COMPONENT
100
AcDbLine
 62
7
  6
CONTINUOUS
 10
266.2020333657
 20
286.7086838942
 11
266.2020333657
 21
290.6286838942
  0
LINE
  5
428
100
AcDbEntity
  8
11_COMPONENT
100
AcDbLine
 62
7
  6
CONTINUOUS
 10
266.6620333657
 20
290.6286838942
 11
266.6620333657
 21
289.6286838942
  0
LINE
  5
429
100
AcDbEntity
  8
11_COMPONENT
100
AcDbLine
 62
7
  6
CONTINUOUS
 10
267.5620333657
 20
289.6286838942
 11
267.5620333657
 21
290.6286838942
  0
LINE
  5
42A
100
AcDbEntity
  8
11_COMPONENT
100
AcDbLine
 62
7
  6
CONTINUOUS
 10
268.7020333657
 20
286.7086838942
 11
268.7020333657
 21
290.6286838942
  0
LINE
  5
42B
100
AcDbEntity
  8
11_COMPONENT
100
AcDbLine
 62
7
  6
CONTINUOUS
 10
268.7420333657
 20
286.7086838942
 11
268.7420333657
 21
290.6286838942
  0
LINE
  5
42C
100
AcDbEntity
  8
11_COMPONENT
100
AcDbLine
 62
7
  6
CONTINUOUS
 10
269.2020333657
 20
290.6286838942
 11
269.2020333657
 21
289.6286838942
  0
LINE
  5
42D
100
AcDbEntity
  8
11_COMPONENT
100
AcDbLine
 62
7
  6
CONTINUOUS
 10
270.1020333657
 20
289.6286838942
 11
270.1020333657
 21
290.6286838942
  0
LINE
  5
42E
100
AcDbEntity
  8
11_COMPONENT
100
AcDbLine
 62
7
  6
CONTINUOUS
 10
271.2420333657
 20
286.7086838942
 11
271.2420333657
 21
290.6286838942
  0
LINE
  5
42F
100
AcDbEntity
  8
11_COMPONENT
100
AcDbLine
 62
7
  6
CONTINUOUS
 10
271.2820333657
 20
290.6286838942
 11
271.2820333657
 21
286.7086838942
  0
LINE
  5
430
100
AcDbEntity
  8
11_COMPONENT
100
AcDbLine
 62
7
  6
CONTINUOUS
 10
272.7820333657
 20
290.6286838942
 11
272.7820333657
 21
286.7086838942
  0
LINE
  5
431
100
AcDbEntity
  8
11_COMPONENT
100
AcDbLine
 62
7
  6
CONTINUOUS
 10
276.6870333657
 20
289.2486838942
 11
276.6870333657
 21
286.7086838942
  0
LINE
  5
432
100
AcDbEntity
  8
11_COMPONENT
100
AcDbLine
 62
7
  6
CONTINUOUS
 10
295.6322961983
 20
287.9837644566
 11
294.6552089812
 21
287.7950652425
  0
LINE
  5
433
100
AcDbEntity
  8
11_COMPONENT
100
AcDbLine
 62
7
  6
CONTINUOUS
 10
154.2136296988
 20
287.9837645196
 11
155.1907191029
 21
287.7950648222
  0
LINE
  5
434
100
AcDbEntity
  8
11_COMPONENT
100
AcDbLine
 62
9
  6
CONTINUOUS
 10
313.9496875
 20
282.7086838942
 11
313.7496875
 21
282.7086838942
  0
LINE
  5
435
100
AcDbEntity
  8
11_COMPONENT
100
AcDbLine
 62
9
  6
CONTINUOUS
 10
135.9096875
 20
282.7086838942
 11
136.1096875
 21
282.7086838942
  0
LINE
  5
436
100
AcDbEntity
  8
11_COMPONENT
100
AcDbLine
 62
7
  6
CONTINUOUS
 10
294.2205200621
 20
158.6651060229
 11
294.2730132603
 21
158.0651060229
  0
LINE
  5
437
100
AcDbEntity
  8
11_COMPONENT
100
AcDbLine
 62
9
  6
CONTINUOUS
 10
291.8537903554
 20
158.7086838942
 11
291.8537903554
 21
286.7086838942
  0
LINE
  5
438
100
AcDbEntity
  8
11_COMPONENT
100
AcDbLine
 62
9
  6
CONTINUOUS
 10
292.207343746
 20
286.5086838942
 11
292.207343746
 21
158.9086838942
  0
LINE
  5
439
100
AcDbEntity
  8
11_COMPONENT
100
AcDbLine
 62
9
  6
CONTINUOUS
 10
292.4144505272
 20
158.9086838942
 11
292.4144505272
 21
286.5086838942
  0
LINE
  5
43A
100
AcDbEntity
  8
11_COMPONENT
100
AcDbLine
 62
7
  6
CONTINUOUS
 10
292.4370333657
 20
289.2486838942
 11
292.4370333657
 21
286.7086838942
  0
LINE
  5
43B
100
AcDbEntity
  8
11_COMPONENT
100
AcDbLine
 62
9
  6
CONTINUOUS
 10
292.7680039178
 20
158.7086838942
 11
292.7680039178
 21
286.7086838942
  0
LINE
  5
43C
100
AcDbEntity
  8
11_COMPONENT
100
AcDbLine
 62
7
  6
CONTINUOUS
 10
297.7686007286
 20
287.9837601838
 11
297.7723496319
 21
288.0911147293
  0
LINE
  5
43D
100
AcDbEntity
  8
11_COMPONENT
100
AcDbLine
 62
7
  6
CONTINUOUS
 10
294.2730136225
 20
287.3522659059
 11
294.2205200621
 21
286.7522617656
  0
LINE
  5
43E
100
AcDbEntity
  8
11_COMPONENT
100
AcDbLine
 62
9
  6
CONTINUOUS
 10
139.9096875
 20
286.5086838942
 11
144.9890782362
 21
286.5086838942
  0
LINE
  5
43F
100
AcDbEntity
  8
11_COMPONENT
100
AcDbLine
 62
9
  6
CONTINUOUS
 10
145.0004266939
 20
286.5086838942
 11
303.3249036387
 21
286.5086838942
  0
LINE
  5
440
100
AcDbEntity
  8
11_COMPONENT
100
AcDbLine
 62
9
  6
CONTINUOUS
 10
303.3329475452
 20
286.5086838942
 11
303.8362518827
 21
286.5086838942
  0
LINE
  5
441
100
AcDbEntity
  8
11_COMPONENT
100
AcDbLine
 62
9
  6
CONTINUOUS
 10
304.3556440333
 20
286.5086838942
 11
304.8589483708
 21
286.5086838942
  0
LINE
  5
442
100
AcDbEntity
  8
11_COMPONENT
100
AcDbLine
 62
9
  6
CONTINUOUS
 10
303.8442957893
 20
286.5086838942
 11
304.3476001268
 21
286.5086838942
  0
LINE
  5
443
100
AcDbEntity
  8
11_COMPONENT
100
AcDbLine
 62
9
  6
CONTINUOUS
 10
304.8669922774
 20
286.5086838942
 11
309.9496875
 21
286.5086838942
  0
LINE
  5
444
100
AcDbEntity
  8
11_COMPONENT
100
AcDbLine
 62
7
  6
CONTINUOUS
 10
139.9096875
 20
286.7086838942
 11
309.9496875
 21
286.7086838942
  0
LINE
  5
445
100
AcDbEntity
  8
11_COMPONENT
100
AcDbLine
 62
9
  6
CONTINUOUS
 10
300.4254058429
 20
286.752266077
 11
294.2205202741
 21
286.7522641878
  0
LINE
  5
446
100
AcDbEntity
  8
11_COMPONENT
100
AcDbLine
 62
9
  6
CONTINUOUS
 10
155.6254058429
 20
286.752266077
 11
149.4205202741
 21
286.7522641878
  0
LINE
  5
447
100
AcDbEntity
  8
11_COMPONENT
100
AcDbLine
 62
9
  6
CONTINUOUS
 10
155.5729126519
 20
287.3522660041
 11
149.4730138206
 21
287.3522681699
  0
LINE
  5
448
100
AcDbEntity
  8
11_COMPONENT
100
AcDbLine
 62
9
  6
CONTINUOUS
 10
300.3729126519
 20
287.3522660041
 11
294.2730138206
 21
287.3522681699
  0
LINE
  5
449
100
AcDbEntity
  8
11_COMPONENT
100
AcDbLine
 62
9
  6
CONTINUOUS
 10
155.1907219194
 20
287.7950641447
 11
149.8552067227
 21
287.7950647021
  0
LINE
  5
44A
100
AcDbEntity
  8
11_COMPONENT
100
AcDbLine
 62
9
  6
CONTINUOUS
 10
299.9907219194
 20
287.7950641447
 11
294.6552067227
 21
287.7950647021
  0
LINE
  5
44B
100
AcDbEntity
  8
11_COMPONENT
100
AcDbLine
 62
7
  6
CONTINUOUS
 10
298.9538517221
 20
287.9837633796
 11
299.0136297196
 21
287.9837645165
  0
LINE
  5
44C
100
AcDbEntity
  8
11_COMPONENT
100
AcDbLine
 62
7
  6
CONTINUOUS
 10
150.8322961125
 20
287.9837644438
 11
150.8920745461
 21
287.983763372
  0
LINE
  5
44D
100
AcDbEntity
  8
11_COMPONENT
100
AcDbLine
 62
7
  6
CONTINUOUS
 10
152.0773139996
 20
287.9837631451
 11
152.9686123246
 21
287.9837631527
  0
LINE
  5
44E
100
AcDbEntity
  8
11_COMPONENT
100
AcDbLine
 62
7
  6
CONTINUOUS
 10
296.8773139996
 20
287.9837631451
 11
297.7686123246
 21
287.9837631527
  0
LINE
  5
44F
100
AcDbEntity
  8
11_COMPONENT
100
AcDbLine
 62
7
  6
CONTINUOUS
 10
295.6322961125
 20
287.9837644438
 11
295.6920745461
 21
287.983763372
  0
LINE
  5
450
100
AcDbEntity
  8
11_COMPONENT
100
AcDbLine
 62
7
  6
CONTINUOUS
 10
154.1538517221
 20
287.9837633796
 11
154.2136297196
 21
287.9837645165
  0
LINE
  5
451
100
AcDbEntity
  8
11_COMPONENT
100
AcDbLine
 62
7
  6
CONTINUOUS
 10
172.2820333657
 20
288.8086838942
 11
165.8320333657
 21
288.8086838942
  0
LINE
  5
452
100
AcDbEntity
  8
11_COMPONENT
100
AcDbLine
 62
7
  6
CONTINUOUS
 10
164.5320333657
 20
288.8086838942
 11
158.0820333657
 21
288.8086838942
  0
LINE
  5
453
100
AcDbEntity
  8
11_COMPONENT
100
AcDbLine
 62
7
  6
CONTINUOUS
 10
276.6870333657
 20
289.2486838942
 11
292.4370333657
 21
289.2486838942
  0
LINE
  5
454
100
AcDbEntity
  8
11_COMPONENT
100
AcDbLine
 62
7
  6
CONTINUOUS
 10
253.9620333657
 20
289.6286838942
 11
254.8620333657
 21
289.6286838942
  0
LINE
  5
455
100
AcDbEntity
  8
11_COMPONENT
100
AcDbLine
 62
7
  6
CONTINUOUS
 10
256.5020333657
 20
289.6286838942
 11
257.4020333657
 21
289.6286838942
  0
LINE
  5
456
100
AcDbEntity
  8
11_COMPONENT
100
AcDbLine
 62
7
  6
CONTINUOUS
 10
259.0420333657
 20
289.6286838942
 11
259.9420333657
 21
289.6286838942
  0
LINE
  5
457
100
AcDbEntity
  8
11_COMPONENT
100
AcDbLine
 62
7
  6
CONTINUOUS
 10
261.5820333657
 20
289.6286838942
 11
262.4820333657
 21
289.6286838942
  0
LINE
  5
458
100
AcDbEntity
  8
11_COMPONENT
100
AcDbLine
 62
7
  6
CONTINUOUS
 10
264.1220333657
 20
289.6286838942
 11
265.0220333657
 21
289.6286838942
  0
LINE
  5
459
100
AcDbEntity
  8
11_COMPONENT
100
AcDbLine
 62
7
  6
CONTINUOUS
 10
266.6620333657
 20
289.6286838942
 11
267.5620333657
 21
289.6286838942
  0
LINE
  5
45A
100
AcDbEntity
  8
11_COMPONENT
100
AcDbLine
 62
7
  6
CONTINUOUS
 10
269.2020333657
 20
289.6286838942
 11
270.1020333657
 21
289.6286838942
  0
LINE
  5
45B
100
AcDbEntity
  8
11_COMPONENT
100
AcDbLine
 62
7
  6
CONTINUOUS
 10
215.4020333657
 20
290.6286838942
 11
256.0020333657
 21
290.6286838942
  0
LINE
  5
45C
100
AcDbEntity
  8
11_COMPONENT
100
AcDbLine
 62
7
  6
CONTINUOUS
 10
256.0420333657
 20
290.6286838942
 11
258.5420333657
 21
290.6286838942
  0
LINE
  5
45D
100
AcDbEntity
  8
11_COMPONENT
100
AcDbLine
 62
7
  6
CONTINUOUS
 10
258.5820333657
 20
290.6286838942
 11
261.0820333657
 21
290.6286838942
  0
LINE
  5
45E
100
AcDbEntity
  8
11_COMPONENT
100
AcDbLine
 62
7
  6
CONTINUOUS
 10
261.1220333657
 20
290.6286838942
 11
263.6220333657
 21
290.6286838942
  0
LINE
  5
45F
100
AcDbEntity
  8
11_COMPONENT
100
AcDbLine
 62
7
  6
CONTINUOUS
 10
263.6620333657
 20
290.6286838942
 11
266.1620333657
 21
290.6286838942
  0
LINE
  5
460
100
AcDbEntity
  8
11_COMPONENT
100
AcDbLine
 62
7
  6
CONTINUOUS
 10
266.2020333657
 20
290.6286838942
 11
268.7020333657
 21
290.6286838942
  0
LINE
  5
461
100
AcDbEntity
  8
11_COMPONENT
100
AcDbLine
 62
7
  6
CONTINUOUS
 10
268.7420333657
 20
290.6286838942
 11
271.2420333657
 21
290.6286838942
  0
LINE
  5
462
100
AcDbEntity
  8
11_COMPONENT
100
AcDbLine
 62
7
  6
CONTINUOUS
 10
271.2820333657
 20
290.6286838942
 11
272.7820333657
 21
290.6286838942
  0
LINE
  5
463
100
AcDbEntity
  8
11_COMPONENT
100
AcDbLine
 62
7
  6
CONTINUOUS
 10
297.7723496319
 20
157.3262530591
 11
297.7686007286
 21
157.4336076047
  0
LINE
  5
464
100
AcDbEntity
  8
11_COMPONENT
100
AcDbLine
 62
7
  6
CONTINUOUS
 10
296.8735766894
 20
288.0911147293
 11
296.8773255927
 21
287.9837601838
  0
LINE
  5
465
100
AcDbEntity
  8
11_COMPONENT
100
AcDbLine
 62
9
  6
CONTINUOUS
 10
296.6240484275
 20
158.7086838942
 11
296.6240484275
 21
286.7086838942
  0
LINE
  5
466
100
AcDbEntity
  8
11_COMPONENT
100
AcDbLine
 62
9
  6
CONTINUOUS
 10
297.3229631606
 20
287.9837604353
 11
297.3229631606
 21
287.3522617656
  0
LINE
  5
467
100
AcDbEntity
  8
11_COMPONENT
100
AcDbLine
 62
9
  6
CONTINUOUS
 10
297.3229631606
 20
286.7522617656
 11
297.3229631606
 21
286.7086838942
  0
LINE
  5
468
100
AcDbEntity
  8
11_COMPONENT
100
AcDbLine
 62
9
  6
CONTINUOUS
 10
297.3229631606
 20
157.4336073531
 11
297.3229631606
 21
158.0651060229
  0
LINE
  5
469
100
AcDbEntity
  8
11_COMPONENT
100
AcDbLine
 62
9
  6
CONTINUOUS
 10
297.3229631606
 20
158.6651060229
 11
297.3229631606
 21
158.7086838942
  0
LINE
  5
46A
100
AcDbEntity
  8
11_COMPONENT
100
AcDbLine
 62
9
  6
CONTINUOUS
 10
300.070875563
 20
158.9086838942
 11
300.070875563
 21
286.5086838942
  0
LINE
  5
46B
100
AcDbEntity
  8
11_COMPONENT
100
AcDbLine
 62
7
  6
CONTINUOUS
 10
300.5306955305
 20
158.9086838942
 11
300.5306955305
 21
286.5086838942
  0
LINE
  5
46C
100
AcDbEntity
  8
11_COMPONENT
100
AcDbLine
 62
9
  6
CONTINUOUS
 10
301.10106875
 20
286.5086838942
 11
301.10106875
 21
158.9086838942
  0
LINE
  5
46D
100
AcDbEntity
  8
11_COMPONENT
100
AcDbLine
 62
9
  6
CONTINUOUS
 10
301.5934726265
 20
158.7086838942
 11
301.5934726265
 21
286.7086838942
  0
LINE
  5
46E
100
AcDbEntity
  8
11_COMPONENT
100
AcDbLine
 62
9
  6
CONTINUOUS
 10
302.7543729953
 20
158.7086838942
 11
302.7543729953
 21
286.7086838942
  0
LINE
  5
46F
100
AcDbEntity
  8
11_COMPONENT
100
AcDbLine
 62
7
  6
CONTINUOUS
 10
296.8773255927
 20
157.4336076047
 11
296.8735766894
 21
157.3262530591
  0
LINE
  5
470
100
AcDbEntity
  8
11_COMPONENT
100
AcDbLine
 62
7
  6
CONTINUOUS
 10
158.8820333657
 20
291.8086838942
 11
163.8820333657
 21
291.8086838942
  0
LINE
  5
471
100
AcDbEntity
  8
11_COMPONENT
100
AcDbLine
 62
7
  6
CONTINUOUS
 10
166.4820333657
 20
291.8086838942
 11
171.4820333657
 21
291.8086838942
  0
LINE
  5
472
100
AcDbEntity
  8
11_COMPONENT
100
AcDbLine
 62
9
  6
CONTINUOUS
 10
183.4229631606
 20
292.558683895
 11
212.9229631607
 21
292.558683895
  0
LINE
  5
473
100
AcDbEntity
  8
11_COMPONENT
100
AcDbLine
 62
7
  6
CONTINUOUS
 10
183.6229631606
 20
292.7586838942
 11
212.7229631607
 21
292.7586838946
  0
LINE
  5
474
100
AcDbEntity
  8
11_COMPONENT
100
AcDbLine
 62
9
  6
CONTINUOUS
 10
156.7820333657
 20
294.5586838942
 11
158.0820333657
 21
294.5586838942
  0
LINE
  5
475
100
AcDbEntity
  8
11_COMPONENT
100
AcDbLine
 62
9
  6
CONTINUOUS
 10
164.5320333657
 20
294.5586838942
 11
165.8320333657
 21
294.5586838942
  0
LINE
  5
476
100
AcDbEntity
  8
11_COMPONENT
100
AcDbLine
 62
9
  6
CONTINUOUS
 10
172.2820333657
 20
294.5586838942
 11
173.5820333657
 21
294.5586838942
  0
LINE
  5
477
100
AcDbEntity
  8
11_COMPONENT
100
AcDbLine
 62
7
  6
CONTINUOUS
 10
156.7820333657
 20
295.3086838942
 11
158.0820333657
 21
295.3086838942
  0
LINE
  5
478
100
AcDbEntity
  8
11_COMPONENT
100
AcDbLine
 62
7
  6
CONTINUOUS
 10
164.5320333657
 20
295.3086838942
 11
165.8320333657
 21
295.3086838942
  0
LINE
  5
479
100
AcDbEntity
  8
11_COMPONENT
100
AcDbLine
 62
7
  6
CONTINUOUS
 10
172.2820333657
 20
295.3086838942
 11
173.5820333657
 21
295.3086838942
  0
LINE
  5
47A
100
AcDbEntity
  8
11_COMPONENT
100
AcDbLine
 62
7
  6
CONTINUOUS
 10
300.4254062592
 20
286.7522617656
 11
300.372913061
 21
287.3522617656
  0
LINE
  5
47B
100
AcDbEntity
  8
11_COMPONENT
100
AcDbLine
 62
9
  6
CONTINUOUS
 10
303.2467768718
 20
158.9086838942
 11
303.2467768718
 21
286.5086838942
  0
LINE
  5
47C
100
AcDbEntity
  8
11_COMPONENT
100
AcDbLine
 62
9
  6
CONTINUOUS
 10
303.2657212394
 20
286.7086838942
 11
303.2657212394
 21
286.641071244
  0
LINE
  5
47D
100
AcDbEntity
  8
11_COMPONENT
100
AcDbLine
 62
9
  6
CONTINUOUS
 10
303.2657212394
 20
158.7086838942
 11
303.2657212394
 21
158.7762965593
  0
LINE
  5
47E
100
AcDbEntity
  8
11_COMPONENT
100
AcDbLine
 62
9
  6
CONTINUOUS
 10
303.3173076641
 20
158.9086838942
 11
303.3173076641
 21
286.5086838942
  0
LINE
  5
47F
100
AcDbEntity
  8
11_COMPONENT
100
AcDbLine
 62
7
  6
CONTINUOUS
 10
303.3249037876
 20
158.9086838942
 11
303.3249037876
 21
286.5086838942
  0
LINE
  5
480
100
AcDbEntity
  8
11_COMPONENT
100
AcDbLine
 62
9
  6
CONTINUOUS
 10
303.7581251159
 20
158.9086838942
 11
303.7581251159
 21
286.5086838942
  0
LINE
  5
481
100
AcDbEntity
  8
11_COMPONENT
100
AcDbLine
 62
9
  6
CONTINUOUS
 10
303.7770694834
 20
286.7086838942
 11
303.7770694834
 21
286.641071244
  0
LINE
  5
482
100
AcDbEntity
  8
11_COMPONENT
100
AcDbLine
 62
9
  6
CONTINUOUS
 10
303.7770694834
 20
158.7086838942
 11
303.7770694834
 21
158.7762965593
  0
LINE
  5
483
100
AcDbEntity
  8
11_COMPONENT
100
AcDbLine
 62
9
  6
CONTINUOUS
 10
303.8286559082
 20
158.9086838942
 11
303.8286559082
 21
286.5086838942
  0
LINE
  5
484
100
AcDbEntity
  8
11_COMPONENT
100
AcDbLine
 62
7
  6
CONTINUOUS
 10
303.8362520317
 20
158.9086838942
 11
303.8362520317
 21
286.5086838942
  0
LINE
  5
485
100
AcDbEntity
  8
11_COMPONENT
100
AcDbLine
 62
9
  6
CONTINUOUS
 10
304.2694733599
 20
158.9086838942
 11
304.2694733599
 21
286.5086838942
  0
LINE
  5
486
100
AcDbEntity
  8
11_COMPONENT
100
AcDbLine
 62
9
  6
CONTINUOUS
 10
304.2884177275
 20
286.7086838942
 11
304.2884177275
 21
286.641071244
  0
LINE
  5
487
100
AcDbEntity
  8
11_COMPONENT
100
AcDbLine
 62
9
  6
CONTINUOUS
 10
304.2884177275
 20
158.7086838942
 11
304.2884177275
 21
158.7762965593
  0
LINE
  5
488
100
AcDbEntity
  8
11_COMPONENT
100
AcDbLine
 62
9
  6
CONTINUOUS
 10
304.3400041522
 20
158.9086838942
 11
304.3400041522
 21
286.5086838942
  0
LINE
  5
489
100
AcDbEntity
  8
11_COMPONENT
100
AcDbLine
 62
7
  6
CONTINUOUS
 10
304.3476002757
 20
158.9086838942
 11
304.3476002757
 21
286.5086838942
  0
LINE
  5
48A
100
AcDbEntity
  8
11_COMPONENT
100
AcDbLine
 62
9
  6
CONTINUOUS
 10
304.780821604
 20
158.9086838942
 11
304.780821604
 21
286.5086838942
  0
LINE
  5
48B
100
AcDbEntity
  8
11_COMPONENT
100
AcDbLine
 62
9
  6
CONTINUOUS
 10
304.7997659715
 20
286.7086838942
 11
304.7997659715
 21
286.641071244
  0
LINE
  5
48C
100
AcDbEntity
  8
11_COMPONENT
100
AcDbLine
 62
9
  6
CONTINUOUS
 10
304.7997659715
 20
158.7086838942
 11
304.7997659715
 21
158.7762965593
  0
LINE
  5
48D
100
AcDbEntity
  8
11_COMPONENT
100
AcDbLine
 62
9
  6
CONTINUOUS
 10
304.8513523963
 20
158.9086838942
 11
304.8513523963
 21
286.5086838942
  0
LINE
  5
48E
100
AcDbEntity
  8
11_COMPONENT
100
AcDbLine
 62
7
  6
CONTINUOUS
 10
304.8589485198
 20
158.9086838942
 11
304.8589485198
 21
286.5086838942
  0
LINE
  5
48F
100
AcDbEntity
  8
11_COMPONENT
100
AcDbLine
 62
9
  6
CONTINUOUS
 10
305.292169848
 20
158.9086838942
 11
305.292169848
 21
286.5086838942
  0
LINE
  5
490
100
AcDbEntity
  8
11_COMPONENT
100
AcDbLine
 62
9
  6
CONTINUOUS
 10
305.3627006403
 20
158.9086838942
 11
305.3627006403
 21
286.5086838942
  0
LINE
  5
491
100
AcDbEntity
  8
11_COMPONENT
100
AcDbLine
 62
7
  6
CONTINUOUS
 10
305.3702967638
 20
158.9086838942
 11
305.3702967638
 21
286.5086838942
  0
LINE
  5
492
100
AcDbEntity
  8
11_COMPONENT
100
AcDbLine
 62
7
  6
CONTINUOUS
 10
307.6996875
 20
276.7086838942
 11
307.6996875
 21
275.7086838942
  0
LINE
  5
493
100
AcDbEntity
  8
11_COMPONENT
100
AcDbLine
 62
7
  6
CONTINUOUS
 10
307.6996875
 20
169.7086838942
 11
307.6996875
 21
168.7086838942
  0
LINE
  5
494
100
AcDbEntity
  8
11_COMPONENT
100
AcDbLine
 62
9
  6
CONTINUOUS
 10
309.9496875
 20
286.7086838942
 11
309.9496875
 21
286.5086838942
  0
LINE
  5
495
100
AcDbEntity
  8
11_COMPONENT
100
AcDbLine
 62
9
  6
CONTINUOUS
 10
309.9496875
 20
158.7086838942
 11
309.9496875
 21
158.9086838942
  0
LINE
  5
496
100
AcDbEntity
  8
11_COMPONENT
100
AcDbLine
 62
7
  6
CONTINUOUS
 10
300.3729126988
 20
158.0651018825
 11
300.4254062592
 21
158.6651060229
  0
LINE
  5
497
100
AcDbEntity
  8
11_COMPONENT
100
AcDbLine
 62
7
  6
CONTINUOUS
 10
150.8322961983
 20
287.9837644566
 11
149.8552089812
 21
287.7950652425
  0
LINE
  5
498
100
AcDbEntity
  8
11_COMPONENT
100
AcDbLine
 62
7
  6
CONTINUOUS
 10
299.0136296988
 20
287.9837645196
 11
299.9907191029
 21
287.7950648222
  0
LINE
  5
499
100
AcDbEntity
  8
11_COMPONENT
100
AcDbLine
 62
7
  6
CONTINUOUS
 10
312.1996875
 20
168.7086838942
 11
312.1996875
 21
169.7086838942
  0
LINE
  5
49A
100
AcDbEntity
  8
11_COMPONENT
100
AcDbLine
 62
7
  6
CONTINUOUS
 10
312.1996875
 20
275.7086838942
 11
312.1996875
 21
276.7086838942
  0
LINE
  5
49B
100
AcDbEntity
  8
11_COMPONENT
100
AcDbLine
 62
9
  6
CONTINUOUS
 10
313.7496875
 20
282.7086838942
 11
313.7496875
 21
162.7086838942
  0
LINE
  5
49C
100
AcDbEntity
  8
11_COMPONENT
100
AcDbLine
 62
7
  6
CONTINUOUS
 10
313.9496875
 20
282.7086838942
 11
313.9496875
 21
162.7086838942
  0
LINE
  5
49D
100
AcDbEntity
  8
11_COMPONENT
100
AcDbLine
 62
7
  6
CONTINUOUS
 10
135.9096875
 20
413.2397355769
 11
135.9096875
 21
410.9397355769
  0
LINE
  5
49E
100
AcDbEntity
  8
11_COMPONENT
100
AcDbLine
 62
9
  6
CONTINUOUS
 10
139.9096875
 20
413.2397355769
 11
139.9096875
 21
410.7397355769
  0
LINE
  5
49F
100
AcDbEntity
  8
11_COMPONENT
100
AcDbLine
 62
9
  6
CONTINUOUS
 10
144.861028376
 20
410.9397355769
 11
144.8610283846
 21
410.7397355769
  0
LINE
  5
4A0
100
AcDbEntity
  8
11_COMPONENT
100
AcDbLine
 62
9
  6
CONTINUOUS
 10
144.9890782362
 20
404.2297355769
 11
144.9890782362
 21
404.4297355769
  0
LINE
  5
4A1
100
AcDbEntity
  8
11_COMPONENT
100
AcDbLine
 62
9
  6
CONTINUOUS
 10
145.0596090285
 20
403.2297355769
 11
145.0596090285
 21
403.0297355769
  0
LINE
  5
4A2
100
AcDbEntity
  8
11_COMPONENT
100
AcDbLine
 62
9
  6
CONTINUOUS
 10
145.5004264802
 20
401.3297355769
 11
145.5004264802
 21
401.5297355769
  0
LINE
  5
4A3
100
AcDbEntity
  8
11_COMPONENT
100
AcDbLine
 62
9
  6
CONTINUOUS
 10
145.5709572725
 20
400.3297355769
 11
145.5709572725
 21
400.1297355769
  0
LINE
  5
4A4
100
AcDbEntity
  8
11_COMPONENT
100
AcDbLine
 62
9
  6
CONTINUOUS
 10
145.7973246436
 20
404.2297355769
 11
145.7973246436
 21
404.4297355769
  0
LINE
  5
4A5
100
AcDbEntity
  8
11_COMPONENT
100
AcDbLine
 62
9
  6
CONTINUOUS
 10
146.0117747243
 20
398.4297355769
 11
146.0117747243
 21
398.6297355769
  0
LINE
  5
4A6
100
AcDbEntity
  8
11_COMPONENT
100
AcDbLine
 62
9
  6
CONTINUOUS
 10
146.0823055166
 20
397.4297355769
 11
146.0823055166
 21
397.2297355769
  0
LINE
  5
4A7
100
AcDbEntity
  8
11_COMPONENT
100
AcDbLine
 62
9
  6
CONTINUOUS
 10
146.2205093973
 20
403.2297355769
 11
146.2205094058
 21
403.0297355769
  0
LINE
  5
4A8
100
AcDbEntity
  8
11_COMPONENT
100
AcDbLine
 62
9
  6
CONTINUOUS
 10
146.3086728876
 20
401.3297355769
 11
146.3086728876
 21
401.5297355769
  0
LINE
  5
4A9
100
AcDbEntity
  8
11_COMPONENT
100
AcDbLine
 62
9
  6
CONTINUOUS
 10
146.5231229683
 20
395.5297355769
 11
146.5231229683
 21
395.7297355769
  0
LINE
  5
4AA
100
AcDbEntity
  8
11_COMPONENT
100
AcDbLine
 62
9
  6
CONTINUOUS
 10
146.5936537606
 20
394.5297355769
 11
146.5936537606
 21
394.3297355769
  0
LINE
  5
4AB
100
AcDbEntity
  8
11_COMPONENT
100
AcDbLine
 62
9
  6
CONTINUOUS
 10
146.7318576413
 20
400.3297355769
 11
146.7318576499
 21
400.1297355769
  0
LINE
  5
4AC
100
AcDbEntity
  8
11_COMPONENT
100
AcDbLine
 62
9
  6
CONTINUOUS
 10
146.8200211317
 20
398.4297355769
 11
146.8200211317
 21
398.6297355769
  0
LINE
  5
4AD
100
AcDbEntity
  8
11_COMPONENT
100
AcDbLine
 62
9
  6
CONTINUOUS
 10
147.0344712124
 20
392.6297355769
 11
147.0344712124
 21
392.8297355769
  0
LINE
  5
4AE
100
AcDbEntity
  8
11_COMPONENT
100
AcDbLine
 62
9
  6
CONTINUOUS
 10
147.1050020047
 20
391.6297355769
 11
147.1050020047
 21
391.4297355769
  0
LINE
  5
4AF
100
AcDbEntity
  8
11_COMPONENT
100
AcDbLine
 62
7
  6
CONTINUOUS
 10
144.4966743597
 20
403.8429114881
 11
144.567205152
 21
403.4429114881
  0
LINE
  5
4B0
100
AcDbEntity
  8
11_COMPONENT
100
AcDbLine
 62
7
  6
CONTINUOUS
 10
145.0080226037
 20
400.9429114881
 11
145.078553396
 21
400.5429114881
  0
LINE
  5
4B1
100
AcDbEntity
  8
11_COMPONENT
100
AcDbLine
 62
7
  6
CONTINUOUS
 10
145.5193708478
 20
398.0429114881
 11
145.5899016401
 21
397.6429114881
  0
LINE
  5
4B2
100
AcDbEntity
  8
11_COMPONENT
100
AcDbLine
 62
7
  6
CONTINUOUS
 10
146.0307190918
 20
395.1429114881
 11
146.1012498841
 21
394.7429114881
  0
LINE
  5
4B3
100
AcDbEntity
  8
11_COMPONENT
100
AcDbLine
 62
7
  6
CONTINUOUS
 10
146.5420673359
 20
392.2429114881
 11
146.6125981282
 21
391.8429114881
  0
LINE
  5
4B4
100
AcDbEntity
  8
11_COMPONENT
100
AcDbLine
 62
9
  6
CONTINUOUS
 10
147.2432058854
 20
397.4297355769
 11
147.2432058939
 21
397.2297355769
  0
LINE
  5
4B5
100
AcDbEntity
  8
11_COMPONENT
100
AcDbLine
 62
9
  6
CONTINUOUS
 10
147.3313693757
 20
395.5297355769
 11
147.3313693757
 21
395.7297355769
  0
LINE
  5
4B6
100
AcDbEntity
  8
11_COMPONENT
100
AcDbLine
 62
9
  6
CONTINUOUS
 10
147.7545541294
 20
394.5297355769
 11
147.754554138
 21
394.3297355769
  0
LINE
  5
4B7
100
AcDbEntity
  8
11_COMPONENT
100
AcDbLine
 62
9
  6
CONTINUOUS
 10
147.8427176198
 20
392.6297355769
 11
147.8427176198
 21
392.8297355769
  0
LINE
  5
4B8
100
AcDbEntity
  8
11_COMPONENT
100
AcDbLine
 62
9
  6
CONTINUOUS
 10
148.2659023735
 20
391.6297355769
 11
148.2659023821
 21
391.4297355769
  0
LINE
  5
4B9
100
AcDbEntity
  8
11_COMPONENT
100
AcDbLine
 62
9
  6
CONTINUOUS
 10
152.5229631606
 20
394.2324759119
 11
152.5229631606
 21
393.4194378445
  0
LINE
  5
4BA
100
AcDbEntity
  8
11_COMPONENT
100
AcDbLine
 62
9
  6
CONTINUOUS
 10
152.5229631606
 20
392.9390415515
 11
152.5229631606
 21
391.5797856765
  0
LINE
  5
4BB
100
AcDbEntity
  8
11_COMPONENT
100
AcDbLine
 62
9
  6
CONTINUOUS
 10
152.5229631606
 20
391.5272924784
 11
152.5229631606
 21
391.5253899049
  0
LINE
  5
4BC
100
AcDbEntity
  8
11_COMPONENT
100
AcDbLine
 62
9
  6
CONTINUOUS
 10
152.5229631606
 20
395.0269952419
 11
152.5229631606
 21
395.8400333093
  0
LINE
  5
4BD
100
AcDbEntity
  8
11_COMPONENT
100
AcDbLine
 62
9
  6
CONTINUOUS
 10
152.5229631606
 20
396.3204296278
 11
152.5229631606
 21
397.6796854773
  0
LINE
  5
4BE
100
AcDbEntity
  8
11_COMPONENT
100
AcDbLine
 62
9
  6
CONTINUOUS
 10
152.5229631606
 20
397.7321786754
 11
152.5229631606
 21
397.734081249
  0
LINE
  5
4BF
100
AcDbEntity
  8
11_COMPONENT
100
AcDbLine
 62
9
  6
CONTINUOUS
 10
153.2353265725
 20
379.4297355769
 11
153.2353265725
 21
379.2297355769
  0
LINE
  5
4C0
100
AcDbEntity
  8
11_COMPONENT
100
AcDbLine
 62
9
  6
CONTINUOUS
 10
144.6936359103
 20
403.8776411236
 11
144.7641667026
 21
403.4776411236
  0
LINE
  5
4C1
100
AcDbEntity
  8
11_COMPONENT
100
AcDbLine
 62
9
  6
CONTINUOUS
 10
145.2049841543
 20
400.9776411236
 11
145.2755149466
 21
400.5776411236
  0
LINE
  5
4C2
100
AcDbEntity
  8
11_COMPONENT
100
AcDbLine
 62
9
  6
CONTINUOUS
 10
145.7163323984
 20
398.0776411236
 11
145.7868631907
 21
397.6776411236
  0
LINE
  5
4C3
100
AcDbEntity
  8
11_COMPONENT
100
AcDbLine
 62
9
  6
CONTINUOUS
 10
146.2276806424
 20
395.1776411236
 11
146.2982114347
 21
394.7776411236
  0
LINE
  5
4C4
100
AcDbEntity
  8
11_COMPONENT
100
AcDbLine
 62
9
  6
CONTINUOUS
 10
146.7390288865
 20
392.2776411236
 11
146.8095596788
 21
391.8776411236
  0
LINE
  5
4C5
100
AcDbEntity
  8
11_COMPONENT
100
AcDbLine
 62
7
  6
CONTINUOUS
 10
149.3286794695
 20
384.7297355769
 11
149.788499437
 21
382.1219669551
  0
LINE
  5
4C6
100
AcDbEntity
  8
11_COMPONENT
100
AcDbLine
 62
9
  6
CONTINUOUS
 10
149.5400265061
 20
384.6828810669
 11
149.9854609876
 21
382.1566965906
  0
LINE
  5
4C7
100
AcDbEntity
  8
11_COMPONENT
100
AcDbLine
 62
7
  6
CONTINUOUS
 10
145.3534322525
 20
410.3265596658
 11
146.2897285201
 21
405.0165596658
  0
LINE
  5
4C8
100
AcDbEntity
  8
11_COMPONENT
100
AcDbLine
 62
7
  6
CONTINUOUS
 10
146.7129132738
 20
402.6165596658
 11
146.8010767641
 21
402.1165596658
  0
LINE
  5
4C9
100
AcDbEntity
  8
11_COMPONENT
100
AcDbLine
 62
7
  6
CONTINUOUS
 10
147.2242615178
 20
399.7165596658
 11
147.3124250082
 21
399.2165596658
  0
LINE
  5
4CA
100
AcDbEntity
  8
11_COMPONENT
100
AcDbLine
 62
7
  6
CONTINUOUS
 10
147.7356097619
 20
396.8165596658
 11
147.8237732523
 21
396.3165596658
  0
LINE
  5
4CB
100
AcDbEntity
  8
11_COMPONENT
100
AcDbLine
 62
7
  6
CONTINUOUS
 10
148.246958006
 20
393.9165596658
 11
148.3351214963
 21
393.4165596657
  0
LINE
  5
4CC
100
AcDbEntity
  8
11_COMPONENT
100
AcDbLine
 62
7
  6
CONTINUOUS
 10
148.75830625
 20
391.0165596658
 11
149.7226202526
 21
385.5476631942
  0
LINE
  5
4CD
100
AcDbEntity
  8
11_COMPONENT
100
AcDbLine
 62
9
  6
CONTINUOUS
 10
145.5503938031
 20
410.3612893013
 11
146.4866900707
 21
405.0512893013
  0
LINE
  5
4CE
100
AcDbEntity
  8
11_COMPONENT
100
AcDbLine
 62
9
  6
CONTINUOUS
 10
146.9098748244
 20
402.6512893013
 11
146.9980383147
 21
402.1512893013
  0
LINE
  5
4CF
100
AcDbEntity
  8
11_COMPONENT
100
AcDbLine
 62
9
  6
CONTINUOUS
 10
147.4212230684
 20
399.7512893013
 11
147.5093865588
 21
399.2512893013
  0
LINE
  5
4D0
100
AcDbEntity
  8
11_COMPONENT
100
AcDbLine
 62
9
  6
CONTINUOUS
 10
147.9325713125
 20
396.8512893013
 11
148.0207348029
 21
396.3512893013
  0
LINE
  5
4D1
100
AcDbEntity
  8
11_COMPONENT
100
AcDbLine
 62
9
  6
CONTINUOUS
 10
148.4439195566
 20
393.9512893013
 11
148.5320830469
 21
393.4512893013
  0
LINE
  5
4D2
100
AcDbEntity
  8
11_COMPONENT
100
AcDbLine
 62
9
  6
CONTINUOUS
 10
148.9552678006
 20
391.0512893013
 11
149.9195818034
 21
385.5823928288
  0
LINE
  5
4D3
100
AcDbEntity
  8
11_COMPONENT
100
AcDbLine
 62
7
  6
CONTINUOUS
 10
146.8457515311
 20
407.6219669551
 11
151.0775990681
 21
383.6219669551
  0
LINE
  5
4D4
100
AcDbEntity
  8
11_COMPONENT
100
AcDbLine
 62
7
  6
CONTINUOUS
 10
146.9903449239
 20
407.7566965906
 11
151.2113066631
 21
383.8184330181
  0
LINE
  5
4D5
100
AcDbEntity
  8
11_COMPONENT
100
AcDbLine
 62
7
  6
CONTINUOUS
 10
156.6229631606
 20
403.3297355769
 11
156.6229631606
 21
389.1297355769
  0
LINE
  5
4D6
100
AcDbEntity
  8
11_COMPONENT
100
AcDbLine
 62
7
  6
CONTINUOUS
 10
156.7820333657
 20
389.2297355769
 11
156.7820333657
 21
403.0297355769
  0
LINE
  5
4D7
100
AcDbEntity
  8
11_COMPONENT
100
AcDbLine
 62
9
  6
CONTINUOUS
 10
157.0913710822
 20
379.4297355769
 11
157.0913710822
 21
379.2297355769
  0
LINE
  5
4D8
100
AcDbEntity
  8
11_COMPONENT
100
AcDbLine
 62
9
  6
CONTINUOUS
 10
158.0055846446
 20
379.9297355769
 11
158.0055846446
 21
379.7297355769
  0
LINE
  5
4D9
100
AcDbEntity
  8
11_COMPONENT
100
AcDbLine
 62
7
  6
CONTINUOUS
 10
158.0820333657
 20
389.2297355769
 11
158.0820333657
 21
403.0297355769
  0
LINE
  5
4DA
100
AcDbEntity
  8
11_COMPONENT
100
AcDbLine
 62
7
  6
CONTINUOUS
 10
164.5320333657
 20
389.2297355769
 11
164.5320333657
 21
403.0297355769
  0
LINE
  5
4DB
100
AcDbEntity
  8
11_COMPONENT
100
AcDbLine
 62
9
  6
CONTINUOUS
 10
157.3035031165
 20
379.5176035426
 11
157.4449244728
 21
379.3761821863
  0
LINE
  5
4DC
100
AcDbEntity
  8
11_COMPONENT
100
AcDbLine
 62
7
  6
CONTINUOUS
 10
165.8320333657
 20
389.2297355769
 11
165.8320333657
 21
403.0297355769
  0
LINE
  5
4DD
100
AcDbEntity
  8
11_COMPONENT
100
AcDbLine
 62
7
  6
CONTINUOUS
 10
149.6397923984
 20
385.1740508863
 11
149.3286794695
 21
384.7297355769
  0
LINE
  5
4DE
100
AcDbEntity
  8
11_COMPONENT
100
AcDbLine
 62
9
  6
CONTINUOUS
 10
149.8036228073
 20
385.059335599
 11
149.5400265061
 21
384.6828810669
  0
LINE
  5
4DF
100
AcDbEntity
  8
11_COMPONENT
100
AcDbLine
 62
9
  6
CONTINUOUS
 10
157.5106098977
 20
379.7247103238
 11
157.6520312521
 21
379.5832889656
  0
LINE
  5
4E0
100
AcDbEntity
  8
11_COMPONENT
100
AcDbLine
 62
7
  6
CONTINUOUS
 10
172.2820333657
 20
389.2297355769
 11
172.2820333657
 21
403.0297355769
  0
LINE
  5
4E1
100
AcDbEntity
  8
11_COMPONENT
100
AcDbLine
 62
7
  6
CONTINUOUS
 10
173.5820333657
 20
389.2297355769
 11
173.5820333657
 21
403.0297355769
  0
LINE
  5
4E2
100
AcDbEntity
  8
11_COMPONENT
100
AcDbLine
 62
7
  6
CONTINUOUS
 10
173.8229631606
 20
389.1297355769
 11
173.8229631606
 21
403.3297355769
  0
LINE
  5
4E3
100
AcDbEntity
  8
11_COMPONENT
100
AcDbLine
 62
7
  6
CONTINUOUS
 10
152.9723496319
 20
395.0791220482
 11
152.9158016841
 21
395.0225741004
  0
LINE
  5
4E4
100
AcDbEntity
  8
11_COMPONENT
100
AcDbLine
 62
7
  6
CONTINUOUS
 10
152.0735766894
 20
394.1803491057
 11
152.1301246372
 21
394.2368970535
  0
LINE
  5
4E5
100
AcDbEntity
  8
11_COMPONENT
100
AcDbLine
 62
9
  6
CONTINUOUS
 10
149.8036228073
 20
385.059335599
 11
149.6397923984
 21
385.1740508863
  0
LINE
  5
4E6
100
AcDbEntity
  8
11_COMPONENT
100
AcDbLine
 62
7
  6
CONTINUOUS
 10
152.0735766894
 20
395.0791220482
 11
152.1301246372
 21
395.0225741004
  0
LINE
  5
4E7
100
AcDbEntity
  8
11_COMPONENT
100
AcDbLine
 62
7
  6
CONTINUOUS
 10
152.9723496319
 20
394.1803491057
 11
152.9158016841
 21
394.2368970535
  0
LINE
  5
4E8
100
AcDbEntity
  8
11_COMPONENT
100
AcDbLine
 62
7
  6
CONTINUOUS
 10
183.4229631606
 20
402.8297355771
 11
183.4229631606
 21
391.6297355751
  0
LINE
  5
4E9
100
AcDbEntity
  8
11_COMPONENT
100
AcDbLine
 62
9
  6
CONTINUOUS
 10
183.6229631606
 20
391.6297355769
 11
183.6229631606
 21
402.8297355769
  0
LINE
  5
4EA
100
AcDbEntity
  8
11_COMPONENT
100
AcDbLine
 62
9
  6
CONTINUOUS
 10
184.4229631606
 20
390.6297355769
 11
184.4229631606
 21
390.8297355769
  0
LINE
  5
4EB
100
AcDbEntity
  8
11_COMPONENT
100
AcDbLine
 62
9
  6
CONTINUOUS
 10
184.4229631616
 20
403.6297355769
 11
184.4229631616
 21
403.8297355769
  0
LINE
  5
4EC
100
AcDbEntity
  8
11_COMPONENT
100
AcDbLine
 62
9
  6
CONTINUOUS
 10
157.3035031165
 20
379.5176035426
 11
157.5106098977
 21
379.7247103238
  0
LINE
  5
4ED
100
AcDbEntity
  8
11_COMPONENT
100
AcDbLine
 62
7
  6
CONTINUOUS
 10
157.4449244728
 20
379.3761821863
 11
157.652031254
 21
379.5832889675
  0
LINE
  5
4EE
100
AcDbEntity
  8
11_COMPONENT
100
AcDbLine
 62
7
  6
CONTINUOUS
 10
151.9661341094
 20
413.0932889675
 11
152.3296875
 21
412.7297355769
  0
LINE
  5
4EF
100
AcDbEntity
  8
11_COMPONENT
100
AcDbLine
 62
7
  6
CONTINUOUS
 10
197.3573665804
 20
394.1243449813
 11
198.0885597409
 21
396.1351261725
  0
LINE
  5
4F0
100
AcDbEntity
  8
11_COMPONENT
100
AcDbLine
 62
7
  6
CONTINUOUS
 10
198.0885597409
 20
394.1243449813
 11
197.3573665804
 21
396.1351261725
  0
LINE
  5
4F1
100
AcDbEntity
  8
11_COMPONENT
100
AcDbLine
 62
9
  6
CONTINUOUS
 10
197.3373673424
 20
394.5513418495
 11
198.1085589789
 21
395.7081293044
  0
LINE
  5
4F2
100
AcDbEntity
  8
11_COMPONENT
100
AcDbLine
 62
9
  6
CONTINUOUS
 10
198.1085589789
 20
394.5513418495
 11
197.3373673424
 21
395.7081293044
  0
LINE
  5
4F3
100
AcDbEntity
  8
11_COMPONENT
100
AcDbLine
 62
9
  6
CONTINUOUS
 10
211.9229631579
 20
403.8297355769
 11
211.9229631579
 21
403.6297355769
  0
LINE
  5
4F4
100
AcDbEntity
  8
11_COMPONENT
100
AcDbLine
 62
9
  6
CONTINUOUS
 10
211.9229631607
 20
390.8297355769
 11
211.9229631607
 21
390.6297355769
  0
LINE
  5
4F5
100
AcDbEntity
  8
11_COMPONENT
100
AcDbLine
 62
9
  6
CONTINUOUS
 10
212.7229631607
 20
402.8297355769
 11
212.7229631607
 21
391.6297355769
  0
LINE
  5
4F6
100
AcDbEntity
  8
11_COMPONENT
100
AcDbLine
 62
7
  6
CONTINUOUS
 10
212.9229631607
 20
391.6297355769
 11
212.9229631607
 21
402.829735578
  0
LINE
  5
4F7
100
AcDbEntity
  8
11_COMPONENT
100
AcDbLine
 62
9
  6
CONTINUOUS
 10
197.1445694332
 20
394.7441397586
 11
198.3013568881
 21
395.5153313952
  0
LINE
  5
4F8
100
AcDbEntity
  8
11_COMPONENT
100
AcDbLine
 62
7
  6
CONTINUOUS
 10
153.2353265725
 20
379.2297355769
 11
157.0913710822
 21
379.2297355769
  0
LINE
  5
4F9
100
AcDbEntity
  8
11_COMPONENT
100
AcDbLine
 62
7
  6
CONTINUOUS
 10
292.7680039178
 20
379.2297355769
 11
296.6240484275
 21
379.2297355769
  0
LINE
  5
4FA
100
AcDbEntity
  8
11_COMPONENT
100
AcDbLine
 62
9
  6
CONTINUOUS
 10
153.2353265725
 20
379.4297355769
 11
157.0913710822
 21
379.4297355769
  0
LINE
  5
4FB
100
AcDbEntity
  8
11_COMPONENT
100
AcDbLine
 62
9
  6
CONTINUOUS
 10
292.7680039178
 20
379.4297355769
 11
296.6240484275
 21
379.4297355769
  0
LINE
  5
4FC
100
AcDbEntity
  8
11_COMPONENT
100
AcDbLine
 62
7
  6
CONTINUOUS
 10
158.0055846446
 20
379.7297355769
 11
291.8537903554
 21
379.7297355769
  0
LINE
  5
4FD
100
AcDbEntity
  8
11_COMPONENT
100
AcDbLine
 62
9
  6
CONTINUOUS
 10
158.0055846446
 20
379.9297355769
 11
291.8537903554
 21
379.9297355769
  0
LINE
  5
4FE
100
AcDbEntity
  8
11_COMPONENT
100
AcDbLine
 62
7
  6
CONTINUOUS
 10
154.5244262037
 20
380.7297355769
 11
221.4801977572
 21
380.7297355769
  0
LINE
  5
4FF
100
AcDbEntity
  8
11_COMPONENT
100
AcDbLine
 62
7
  6
CONTINUOUS
 10
228.3791772428
 20
380.7297355769
 11
295.3349487963
 21
380.7297355769
  0
LINE
  5
500
100
AcDbEntity
  8
11_COMPONENT
100
AcDbLine
 62
7
  6
CONTINUOUS
 10
154.7730975757
 20
380.8297355769
 11
220.9851409871
 21
380.8297355769
  0
LINE
  5
501
100
AcDbEntity
  8
11_COMPONENT
100
AcDbLine
 62
7
  6
CONTINUOUS
 10
228.8712971108
 20
380.8297355769
 11
295.2730975757
 21
380.8297355769
  0
LINE
  5
502
100
AcDbEntity
  8
11_COMPONENT
100
AcDbLine
 62
7
  6
CONTINUOUS
 10
225.9296875
 20
381.7297355769
 11
223.9296875
 21
381.7297355769
  0
LINE
  5
503
100
AcDbEntity
  8
11_COMPONENT
100
AcDbLine
 62
7
  6
CONTINUOUS
 10
225.0903968755
 20
381.9297355769
 11
224.7660412225
 21
381.9297355769
  0
LINE
  5
504
100
AcDbEntity
  8
11_COMPONENT
100
AcDbLine
 62
7
  6
CONTINUOUS
 10
227.1212971108
 20
381.2986466637
 11
226.8403968755
 21
381.4608244902
  0
LINE
  5
505
100
AcDbEntity
  8
11_COMPONENT
100
AcDbLine
 62
9
  6
CONTINUOUS
 10
198.3013568881
 20
394.7441397586
 11
197.1445694332
 21
395.5153313952
  0
LINE
  5
506
100
AcDbEntity
  8
11_COMPONENT
100
AcDbLine
 62
7
  6
CONTINUOUS
 10
215.0229631606
 20
403.3297355769
 11
215.0229631606
 21
392.9297355769
  0
LINE
  5
507
100
AcDbEntity
  8
11_COMPONENT
100
AcDbLine
 62
7
  6
CONTINUOUS
 10
215.1820333657
 20
403.0297355769
 11
215.1820333657
 21
398.9297355769
  0
LINE
  5
508
100
AcDbEntity
  8
11_COMPONENT
100
AcDbLine
 62
7
  6
CONTINUOUS
 10
215.4020333657
 20
393.0297355769
 11
215.4020333657
 21
403.0297355769
  0
LINE
  5
509
100
AcDbEntity
  8
11_COMPONENT
100
AcDbLine
 62
7
  6
CONTINUOUS
 10
196.7175725651
 20
394.7641389967
 11
198.7283537562
 21
395.4953321571
  0
LINE
  5
50A
100
AcDbEntity
  8
11_COMPONENT
100
AcDbLine
 62
7
  6
CONTINUOUS
 10
156.6229631606
 20
389.1297355769
 11
173.8229631606
 21
389.1297355769
  0
LINE
  5
50B
100
AcDbEntity
  8
11_COMPONENT
100
AcDbLine
 62
7
  6
CONTINUOUS
 10
156.7820333657
 20
389.2297355769
 11
173.5820333657
 21
389.2297355769
  0
LINE
  5
50C
100
AcDbEntity
  8
11_COMPONENT
100
AcDbLine
 62
7
  6
CONTINUOUS
 10
276.3229631606
 20
389.2297355769
 11
292.4729631606
 21
389.2297355769
  0
LINE
  5
50D
100
AcDbEntity
  8
11_COMPONENT
100
AcDbLine
 62
7
  6
CONTINUOUS
 10
276.6870333657
 20
389.3297355769
 11
292.4370333657
 21
389.3297355769
  0
LINE
  5
50E
100
AcDbEntity
  8
11_COMPONENT
100
AcDbLine
 62
9
  6
CONTINUOUS
 10
156.7820333657
 20
389.9797355769
 11
158.0820333657
 21
389.9797355769
  0
LINE
  5
50F
100
AcDbEntity
  8
11_COMPONENT
100
AcDbLine
 62
9
  6
CONTINUOUS
 10
164.5320333657
 20
389.9797355769
 11
165.8320333657
 21
389.9797355769
  0
LINE
  5
510
100
AcDbEntity
  8
11_COMPONENT
100
AcDbLine
 62
9
  6
CONTINUOUS
 10
172.2820333657
 20
389.9797355769
 11
173.5820333657
 21
389.9797355769
  0
LINE
  5
511
100
AcDbEntity
  8
11_COMPONENT
100
AcDbLine
 62
7
  6
CONTINUOUS
 10
184.4229631606
 20
390.6297355769
 11
211.9229631607
 21
390.6297355769
  0
LINE
  5
512
100
AcDbEntity
  8
11_COMPONENT
100
AcDbLine
 62
7
  6
CONTINUOUS
 10
172.2820333657
 20
390.7297355769
 11
165.8320333657
 21
390.7297355769
  0
LINE
  5
513
100
AcDbEntity
  8
11_COMPONENT
100
AcDbLine
 62
7
  6
CONTINUOUS
 10
164.5320333657
 20
390.7297355769
 11
158.0820333657
 21
390.7297355769
  0
LINE
  5
514
100
AcDbEntity
  8
11_COMPONENT
100
AcDbLine
 62
9
  6
CONTINUOUS
 10
211.9229631607
 20
390.8297355769
 11
184.4229631606
 21
390.8297355769
  0
LINE
  5
515
100
AcDbEntity
  8
11_COMPONENT
100
AcDbLine
 62
7
  6
CONTINUOUS
 10
196.7175725651
 20
395.4953321571
 11
198.7283537562
 21
394.7641389967
  0
LINE
  5
516
100
AcDbEntity
  8
11_COMPONENT
100
AcDbLine
 62
7
  6
CONTINUOUS
 10
224.1320333657
 20
392.9297355769
 11
224.1320333657
 21
393.0297355769
  0
LINE
  5
517
100
AcDbEntity
  8
11_COMPONENT
100
AcDbLine
 62
7
  6
CONTINUOUS
 10
224.9320333657
 20
393.0297355769
 11
224.9320333657
 21
392.9297355769
  0
LINE
  5
518
100
AcDbEntity
  8
11_COMPONENT
100
AcDbLine
 62
9
  6
CONTINUOUS
 10
149.9854609876
 20
382.1566965906
 11
149.7884994333
 21
382.1219669759
  0
LINE
  5
519
100
AcDbEntity
  8
11_COMPONENT
100
AcDbLine
 62
7
  6
CONTINUOUS
 10
147.1050020047
 20
391.4297355769
 11
148.2659023735
 21
391.4297355769
  0
LINE
  5
51A
100
AcDbEntity
  8
11_COMPONENT
100
AcDbLine
 62
7
  6
CONTINUOUS
 10
301.5934726265
 20
391.4297355769
 11
302.7543729953
 21
391.4297355769
  0
LINE
  5
51B
100
AcDbEntity
  8
11_COMPONENT
100
AcDbLine
 62
9
  6
CONTINUOUS
 10
212.9229631607
 20
391.6297355769
 11
212.7229631607
 21
391.6297355769
  0
LINE
  5
51C
100
AcDbEntity
  8
11_COMPONENT
100
AcDbLine
 62
9
  6
CONTINUOUS
 10
183.6229631606
 20
391.6297355751
 11
183.4229631606
 21
391.6297355751
  0
LINE
  5
51D
100
AcDbEntity
  8
11_COMPONENT
100
AcDbLine
 62
9
  6
CONTINUOUS
 10
147.1050020047
 20
391.6297355769
 11
148.2659023735
 21
391.6297355769
  0
LINE
  5
51E
100
AcDbEntity
  8
11_COMPONENT
100
AcDbLine
 62
9
  6
CONTINUOUS
 10
301.5934726265
 20
391.6297355769
 11
302.7543729953
 21
391.6297355769
  0
LINE
  5
51F
100
AcDbEntity
  8
11_COMPONENT
100
AcDbLine
 62
9
  6
CONTINUOUS
 10
302.8249037876
 20
392.6297355769
 11
302.0166573802
 21
392.6297355769
  0
LINE
  5
520
100
AcDbEntity
  8
11_COMPONENT
100
AcDbLine
 62
9
  6
CONTINUOUS
 10
147.8427176198
 20
392.6297355769
 11
147.0344712124
 21
392.6297355769
  0
LINE
  5
521
100
AcDbEntity
  8
11_COMPONENT
100
AcDbLine
 62
7
  6
CONTINUOUS
 10
302.8249037876
 20
392.8297355769
 11
302.0166573802
 21
392.8297355769
  0
LINE
  5
522
100
AcDbEntity
  8
11_COMPONENT
100
AcDbLine
 62
7
  6
CONTINUOUS
 10
147.8427176198
 20
392.8297355769
 11
147.0344712124
 21
392.8297355769
  0
LINE
  5
523
100
AcDbEntity
  8
11_COMPONENT
100
AcDbLine
 62
7
  6
CONTINUOUS
 10
215.0229631606
 20
392.9297355769
 11
273.0229631606
 21
392.9297355769
  0
LINE
  5
524
100
AcDbEntity
  8
11_COMPONENT
100
AcDbLine
 62
7
  6
CONTINUOUS
 10
215.4020333657
 20
393.0297355769
 11
256.0020333657
 21
393.0297355769
  0
LINE
  5
525
100
AcDbEntity
  8
11_COMPONENT
100
AcDbLine
 62
7
  6
CONTINUOUS
 10
256.0420333657
 20
393.0297355769
 11
258.5420333657
 21
393.0297355769
  0
LINE
  5
526
100
AcDbEntity
  8
11_COMPONENT
100
AcDbLine
 62
7
  6
CONTINUOUS
 10
258.5820333657
 20
393.0297355769
 11
261.0820333657
 21
393.0297355769
  0
LINE
  5
527
100
AcDbEntity
  8
11_COMPONENT
100
AcDbLine
 62
7
  6
CONTINUOUS
 10
261.1220333657
 20
393.0297355769
 11
263.6220333657
 21
393.0297355769
  0
LINE
  5
528
100
AcDbEntity
  8
11_COMPONENT
100
AcDbLine
 62
7
  6
CONTINUOUS
 10
263.6620333657
 20
393.0297355769
 11
266.1620333657
 21
393.0297355769
  0
LINE
  5
529
100
AcDbEntity
  8
11_COMPONENT
100
AcDbLine
 62
7
  6
CONTINUOUS
 10
266.2020333657
 20
393.0297355769
 11
268.7020333657
 21
393.0297355769
  0
LINE
  5
52A
100
AcDbEntity
  8
11_COMPONENT
100
AcDbLine
 62
7
  6
CONTINUOUS
 10
268.7420333657
 20
393.0297355769
 11
271.2420333657
 21
393.0297355769
  0
LINE
  5
52B
100
AcDbEntity
  8
11_COMPONENT
100
AcDbLine
 62
7
  6
CONTINUOUS
 10
271.2820333657
 20
393.0297355769
 11
272.7820333657
 21
393.0297355769
  0
LINE
  5
52C
100
AcDbEntity
  8
11_COMPONENT
100
AcDbLine
 62
7
  6
CONTINUOUS
 10
290.7170333657
 20
393.0997355768
 11
278.9170333657
 21
393.0997355768
  0
LINE
  5
52D
100
AcDbEntity
  8
11_COMPONENT
100
AcDbLine
 62
7
  6
CONTINUOUS
 10
272.7820333657
 20
393.3797355769
 11
273.0229631606
 21
393.3797355769
  0
LINE
  5
52E
100
AcDbEntity
  8
11_COMPONENT
100
AcDbLine
 62
7
  6
CONTINUOUS
 10
276.3229631606
 20
393.3797355769
 11
276.4720333657
 21
393.3797355769
  0
LINE
  5
52F
100
AcDbEntity
  8
11_COMPONENT
100
AcDbLine
 62
7
  6
CONTINUOUS
 10
253.9620333657
 20
393.8297355769
 11
254.8620333657
 21
393.8297355769
  0
LINE
  5
530
100
AcDbEntity
  8
11_COMPONENT
100
AcDbLine
 62
7
  6
CONTINUOUS
 10
256.5020333657
 20
393.8297355769
 11
257.4020333657
 21
393.8297355769
  0
LINE
  5
531
100
AcDbEntity
  8
11_COMPONENT
100
AcDbLine
 62
7
  6
CONTINUOUS
 10
259.0420333657
 20
393.8297355769
 11
259.9420333657
 21
393.8297355769
  0
LINE
  5
532
100
AcDbEntity
  8
11_COMPONENT
100
AcDbLine
 62
7
  6
CONTINUOUS
 10
261.5820333657
 20
393.8297355769
 11
262.4820333657
 21
393.8297355769
  0
LINE
  5
533
100
AcDbEntity
  8
11_COMPONENT
100
AcDbLine
 62
7
  6
CONTINUOUS
 10
264.1220333657
 20
393.8297355769
 11
265.0220333657
 21
393.8297355769
  0
LINE
  5
534
100
AcDbEntity
  8
11_COMPONENT
100
AcDbLine
 62
7
  6
CONTINUOUS
 10
266.6620333657
 20
393.8297355769
 11
267.5620333657
 21
393.8297355769
  0
LINE
  5
535
100
AcDbEntity
  8
11_COMPONENT
100
AcDbLine
 62
7
  6
CONTINUOUS
 10
269.2020333657
 20
393.8297355769
 11
270.1020333657
 21
393.8297355769
  0
LINE
  5
536
100
AcDbEntity
  8
11_COMPONENT
100
AcDbLine
 62
7
  6
CONTINUOUS
 10
146.5936537606
 20
394.3297355769
 11
147.7545541294
 21
394.3297355769
  0
LINE
  5
537
100
AcDbEntity
  8
11_COMPONENT
100
AcDbLine
 62
7
  6
CONTINUOUS
 10
302.1048208706
 20
394.3297355769
 11
303.2657212394
 21
394.3297355769
  0
LINE
  5
538
100
AcDbEntity
  8
11_COMPONENT
100
AcDbLine
 62
9
  6
CONTINUOUS
 10
146.5936537606
 20
394.5297355769
 11
147.7545541294
 21
394.5297355769
  0
LINE
  5
539
100
AcDbEntity
  8
11_COMPONENT
100
AcDbLine
 62
9
  6
CONTINUOUS
 10
302.1048208706
 20
394.5297355769
 11
303.2657212394
 21
394.5297355769
  0
LINE
  5
53A
100
AcDbEntity
  8
11_COMPONENT
100
AcDbLine
 62
9
  6
CONTINUOUS
 10
303.3362520317
 20
395.5297355769
 11
302.5280056243
 21
395.5297355769
  0
LINE
  5
53B
100
AcDbEntity
  8
11_COMPONENT
100
AcDbLine
 62
9
  6
CONTINUOUS
 10
147.3313693757
 20
395.5297355769
 11
146.5231229683
 21
395.5297355769
  0
LINE
  5
53C
100
AcDbEntity
  8
11_COMPONENT
100
AcDbLine
 62
7
  6
CONTINUOUS
 10
303.3362520317
 20
395.7297355769
 11
302.5280056243
 21
395.7297355769
  0
LINE
  5
53D
100
AcDbEntity
  8
11_COMPONENT
100
AcDbLine
 62
7
  6
CONTINUOUS
 10
147.3313693757
 20
395.7297355769
 11
146.5231229683
 21
395.7297355769
  0
LINE
  5
53E
100
AcDbEntity
  8
11_COMPONENT
100
AcDbLine
 62
7
  6
CONTINUOUS
 10
292.4729631606
 20
396.0297355769
 11
292.4370333657
 21
396.0297355769
  0
LINE
  5
53F
100
AcDbEntity
  8
11_COMPONENT
100
AcDbLine
 62
9
  6
CONTINUOUS
 10
299.8739140124
 20
382.1566965906
 11
300.070875563
 21
382.1219669551
  0
LINE
  5
540
100
AcDbEntity
  8
11_COMPONENT
100
AcDbLine
 62
9
  6
CONTINUOUS
 10
149.9195818034
 20
385.5823928288
 11
149.7226202526
 21
385.5476631942
  0
LINE
  5
541
100
AcDbEntity
  8
11_COMPONENT
100
AcDbLine
 62
7
  6
CONTINUOUS
 10
146.0823055166
 20
397.2297355769
 11
147.2432058854
 21
397.2297355769
  0
LINE
  5
542
100
AcDbEntity
  8
11_COMPONENT
100
AcDbLine
 62
7
  6
CONTINUOUS
 10
302.6161691146
 20
397.2297355769
 11
303.7770694834
 21
397.2297355769
  0
LINE
  5
543
100
AcDbEntity
  8
11_COMPONENT
100
AcDbLine
 62
9
  6
CONTINUOUS
 10
146.0823055166
 20
397.4297355769
 11
147.2432058854
 21
397.4297355769
  0
LINE
  5
544
100
AcDbEntity
  8
11_COMPONENT
100
AcDbLine
 62
9
  6
CONTINUOUS
 10
302.6161691146
 20
397.4297355769
 11
303.7770694834
 21
397.4297355769
  0
LINE
  5
545
100
AcDbEntity
  8
11_COMPONENT
100
AcDbLine
 62
9
  6
CONTINUOUS
 10
303.8476002757
 20
398.4297355769
 11
303.0393538683
 21
398.4297355769
  0
LINE
  5
546
100
AcDbEntity
  8
11_COMPONENT
100
AcDbLine
 62
9
  6
CONTINUOUS
 10
146.8200211317
 20
398.4297355769
 11
146.0117747243
 21
398.4297355769
  0
LINE
  5
547
100
AcDbEntity
  8
11_COMPONENT
100
AcDbLine
 62
7
  6
CONTINUOUS
 10
303.8476002757
 20
398.6297355769
 11
303.0393538683
 21
398.6297355769
  0
LINE
  5
548
100
AcDbEntity
  8
11_COMPONENT
100
AcDbLine
 62
7
  6
CONTINUOUS
 10
146.8200211317
 20
398.6297355769
 11
146.0117747243
 21
398.6297355769
  0
LINE
  5
549
100
AcDbEntity
  8
11_COMPONENT
100
AcDbLine
 62
7
  6
CONTINUOUS
 10
215.4020333657
 20
398.9297355769
 11
215.1820333657
 21
398.9297355769
  0
LINE
  5
54A
100
AcDbEntity
  8
11_COMPONENT
100
AcDbLine
 62
7
  6
CONTINUOUS
 10
292.4729631606
 20
399.5297355769
 11
292.4370333657
 21
399.5297355769
  0
LINE
  5
54B
100
AcDbEntity
  8
11_COMPONENT
100
AcDbLine
 62
7
  6
CONTINUOUS
 10
278.9170333657
 20
399.8497355768
 11
281.6670333657
 21
399.8497355768
  0
LINE
  5
54C
100
AcDbEntity
  8
11_COMPONENT
100
AcDbLine
 62
7
  6
CONTINUOUS
 10
287.9670333657
 20
399.8497355768
 11
290.7170333657
 21
399.8497355768
  0
LINE
  5
54D
100
AcDbEntity
  8
11_COMPONENT
100
AcDbLine
 62
7
  6
CONTINUOUS
 10
145.5709572725
 20
400.1297355769
 11
146.7318576413
 21
400.1297355769
  0
LINE
  5
54E
100
AcDbEntity
  8
11_COMPONENT
100
AcDbLine
 62
7
  6
CONTINUOUS
 10
303.1275173587
 20
400.1297355769
 11
304.2884177275
 21
400.1297355769
  0
LINE
  5
54F
100
AcDbEntity
  8
11_COMPONENT
100
AcDbLine
 62
9
  6
CONTINUOUS
 10
145.5709572725
 20
400.3297355769
 11
146.7318576413
 21
400.3297355769
  0
LINE
  5
550
100
AcDbEntity
  8
11_COMPONENT
100
AcDbLine
 62
9
  6
CONTINUOUS
 10
303.1275173587
 20
400.3297355769
 11
304.2884177275
 21
400.3297355769
  0
LINE
  5
551
100
AcDbEntity
  8
11_COMPONENT
100
AcDbLine
 62
9
  6
CONTINUOUS
 10
304.3589485198
 20
401.3297355769
 11
303.5507021124
 21
401.3297355769
  0
LINE
  5
552
100
AcDbEntity
  8
11_COMPONENT
100
AcDbLine
 62
9
  6
CONTINUOUS
 10
146.3086728876
 20
401.3297355769
 11
145.5004264802
 21
401.3297355769
  0
LINE
  5
553
100
AcDbEntity
  8
11_COMPONENT
100
AcDbLine
 62
7
  6
CONTINUOUS
 10
304.3589485198
 20
401.5297355769
 11
303.5507021124
 21
401.5297355769
  0
LINE
  5
554
100
AcDbEntity
  8
11_COMPONENT
100
AcDbLine
 62
7
  6
CONTINUOUS
 10
172.2820333657
 20
401.5297355769
 11
165.8320333657
 21
401.5297355769
  0
LINE
  5
555
100
AcDbEntity
  8
11_COMPONENT
100
AcDbLine
 62
7
  6
CONTINUOUS
 10
164.5320333657
 20
401.5297355769
 11
158.0820333657
 21
401.5297355769
  0
LINE
  5
556
100
AcDbEntity
  8
11_COMPONENT
100
AcDbLine
 62
7
  6
CONTINUOUS
 10
146.3086728876
 20
401.5297355769
 11
145.5004264802
 21
401.5297355769
  0
LINE
  5
557
100
AcDbEntity
  8
11_COMPONENT
100
AcDbLine
 62
7
  6
CONTINUOUS
 10
281.6670333657
 20
401.5997355768
 11
282.7670333657
 21
401.5997355768
  0
LINE
  5
558
100
AcDbEntity
  8
11_COMPONENT
100
AcDbLine
 62
7
  6
CONTINUOUS
 10
286.8670333657
 20
401.5997355768
 11
287.9670333657
 21
401.5997355768
  0
LINE
  5
559
100
AcDbEntity
  8
11_COMPONENT
100
AcDbLine
 62
7
  6
CONTINUOUS
 10
256.0020333657
 20
401.8297355769
 11
256.0420333657
 21
401.8297355769
  0
LINE
  5
55A
100
AcDbEntity
  8
11_COMPONENT
100
AcDbLine
 62
7
  6
CONTINUOUS
 10
258.5420333657
 20
401.8297355769
 11
258.5820333657
 21
401.8297355769
  0
LINE
  5
55B
100
AcDbEntity
  8
11_COMPONENT
100
AcDbLine
 62
7
  6
CONTINUOUS
 10
261.0820333657
 20
401.8297355769
 11
261.1220333657
 21
401.8297355769
  0
LINE
  5
55C
100
AcDbEntity
  8
11_COMPONENT
100
AcDbLine
 62
9
  6
CONTINUOUS
 10
173.5820333657
 20
402.2797355769
 11
172.2820333657
 21
402.2797355769
  0
LINE
  5
55D
100
AcDbEntity
  8
11_COMPONENT
100
AcDbLine
 62
9
  6
CONTINUOUS
 10
165.8320333657
 20
402.2797355769
 11
164.5320333657
 21
402.2797355769
  0
LINE
  5
55E
100
AcDbEntity
  8
11_COMPONENT
100
AcDbLine
 62
9
  6
CONTINUOUS
 10
158.0820333657
 20
402.2797355769
 11
156.7820333657
 21
402.2797355769
  0
LINE
  5
55F
100
AcDbEntity
  8
11_COMPONENT
100
AcDbLine
 62
7
  6
CONTINUOUS
 10
273.0229631606
 20
402.5297355769
 11
272.7820333657
 21
402.5297355769
  0
LINE
  5
560
100
AcDbEntity
  8
11_COMPONENT
100
AcDbLine
 62
7
  6
CONTINUOUS
 10
282.7670333657
 20
402.5297355768
 11
286.8670333657
 21
402.5297355768
  0
LINE
  5
561
100
AcDbEntity
  8
11_COMPONENT
100
AcDbLine
 62
9
  6
CONTINUOUS
 10
183.4229631606
 20
402.8297355771
 11
183.6229631606
 21
402.8297355771
  0
LINE
  5
562
100
AcDbEntity
  8
11_COMPONENT
100
AcDbLine
 62
9
  6
CONTINUOUS
 10
212.7229631607
 20
402.829735578
 11
212.9229631607
 21
402.829735578
  0
LINE
  5
563
100
AcDbEntity
  8
11_COMPONENT
100
AcDbLine
 62
7
  6
CONTINUOUS
 10
215.0229631606
 20
402.8297355769
 11
215.1820333657
 21
402.8297355769
  0
LINE
  5
564
100
AcDbEntity
  8
11_COMPONENT
100
AcDbLine
 62
7
  6
CONTINUOUS
 10
292.4729631606
 20
403.0297355769
 11
276.3229631606
 21
403.0297355769
  0
LINE
  5
565
100
AcDbEntity
  8
11_COMPONENT
100
AcDbLine
 62
7
  6
CONTINUOUS
 10
273.0229631606
 20
403.0297355769
 11
215.0229631606
 21
403.0297355769
  0
LINE
  5
566
100
AcDbEntity
  8
11_COMPONENT
100
AcDbLine
 62
7
  6
CONTINUOUS
 10
173.8229631606
 20
403.0297355769
 11
156.6229631606
 21
403.0297355769
  0
LINE
  5
567
100
AcDbEntity
  8
11_COMPONENT
100
AcDbLine
 62
7
  6
CONTINUOUS
 10
145.0596090285
 20
403.0297355769
 11
146.2205093973
 21
403.0297355769
  0
LINE
  5
568
100
AcDbEntity
  8
11_COMPONENT
100
AcDbLine
 62
7
  6
CONTINUOUS
 10
303.6388656027
 20
403.0297355769
 11
304.7997659715
 21
403.0297355769
  0
LINE
  5
569
100
AcDbEntity
  8
11_COMPONENT
100
AcDbLine
 62
9
  6
CONTINUOUS
 10
299.9397931966
 20
385.5823928288
 11
300.1367547472
 21
385.5476631933
  0
LINE
  5
56A
100
AcDbEntity
  8
11_COMPONENT
100
AcDbLine
 62
7
  6
CONTINUOUS
 10
232.4320333657
 20
392.9297355769
 11
232.4320333657
 21
393.0297355769
  0
LINE
  5
56B
100
AcDbEntity
  8
11_COMPONENT
100
AcDbLine
 62
7
  6
CONTINUOUS
 10
233.2320333657
 20
393.0297355769
 11
233.2320333657
 21
392.9297355769
  0
LINE
  5
56C
100
AcDbEntity
  8
11_COMPONENT
100
AcDbLine
 62
7
  6
CONTINUOUS
 10
223.0160412225
 20
381.4608244902
 11
222.7351409871
 21
381.2986466637
  0
LINE
  5
56D
100
AcDbEntity
  8
11_COMPONENT
100
AcDbLine
 62
9
  6
CONTINUOUS
 10
148.9552678006
 20
391.0512893013
 11
148.75830625
 21
391.0165596658
  0
LINE
  5
56E
100
AcDbEntity
  8
11_COMPONENT
100
AcDbLine
 62
9
  6
CONTINUOUS
 10
146.8095596788
 20
391.8776411236
 11
146.6125981282
 21
391.8429114881
  0
LINE
  5
56F
100
AcDbEntity
  8
11_COMPONENT
100
AcDbLine
 62
9
  6
CONTINUOUS
 10
146.7390288865
 20
392.2776411236
 11
146.5420673359
 21
392.2429114881
  0
LINE
  5
570
100
AcDbEntity
  8
11_COMPONENT
100
AcDbLine
 62
9
  6
CONTINUOUS
 10
148.5320830469
 20
393.4512893013
 11
148.3351214963
 21
393.4165596657
  0
LINE
  5
571
100
AcDbEntity
  8
11_COMPONENT
100
AcDbLine
 62
9
  6
CONTINUOUS
 10
148.4439195566
 20
393.9512893013
 11
148.246958006
 21
393.9165596658
  0
LINE
  5
572
100
AcDbEntity
  8
11_COMPONENT
100
AcDbLine
 62
9
  6
CONTINUOUS
 10
146.2982114347
 20
394.7776411236
 11
146.1012498841
 21
394.7429114881
  0
LINE
  5
573
100
AcDbEntity
  8
11_COMPONENT
100
AcDbLine
 62
9
  6
CONTINUOUS
 10
146.2276806424
 20
395.1776411236
 11
146.0307190918
 21
395.1429114881
  0
LINE
  5
574
100
AcDbEntity
  8
11_COMPONENT
100
AcDbLine
 62
9
  6
CONTINUOUS
 10
145.0596090285
 20
403.2297355769
 11
146.2205093973
 21
403.2297355769
  0
LINE
  5
575
100
AcDbEntity
  8
11_COMPONENT
100
AcDbLine
 62
9
  6
CONTINUOUS
 10
303.6388656027
 20
403.2297355769
 11
304.7997659715
 21
403.2297355769
  0
LINE
  5
576
100
AcDbEntity
  8
11_COMPONENT
100
AcDbLine
 62
7
  6
CONTINUOUS
 10
292.4729631606
 20
403.3297355769
 11
276.3229631606
 21
403.3297355769
  0
LINE
  5
577
100
AcDbEntity
  8
11_COMPONENT
100
AcDbLine
 62
7
  6
CONTINUOUS
 10
273.0229631606
 20
403.3297355769
 11
215.0229631606
 21
403.3297355769
  0
LINE
  5
578
100
AcDbEntity
  8
11_COMPONENT
100
AcDbLine
 62
7
  6
CONTINUOUS
 10
173.8229631606
 20
403.3297355769
 11
156.6229631606
 21
403.3297355769
  0
LINE
  5
579
100
AcDbEntity
  8
11_COMPONENT
100
AcDbLine
 62
9
  6
CONTINUOUS
 10
184.4229631606
 20
403.6297355769
 11
211.9229631607
 21
403.6297355769
  0
LINE
  5
57A
100
AcDbEntity
  8
11_COMPONENT
100
AcDbLine
 62
7
  6
CONTINUOUS
 10
211.9229631579
 20
403.8297355769
 11
184.4229631616
 21
403.8297355769
  0
LINE
  5
57B
100
AcDbEntity
  8
11_COMPONENT
100
AcDbLine
 62
9
  6
CONTINUOUS
 10
304.8702967638
 20
404.2297355769
 11
304.0620503564
 21
404.2297355769
  0
LINE
  5
57C
100
AcDbEntity
  8
11_COMPONENT
100
AcDbLine
 62
9
  6
CONTINUOUS
 10
145.7973246436
 20
404.2297355769
 11
144.9890782362
 21
404.2297355769
  0
LINE
  5
57D
100
AcDbEntity
  8
11_COMPONENT
100
AcDbLine
 62
7
  6
CONTINUOUS
 10
304.8702967638
 20
404.4297355769
 11
304.0620503564
 21
404.4297355769
  0
LINE
  5
57E
100
AcDbEntity
  8
11_COMPONENT
100
AcDbLine
 62
7
  6
CONTINUOUS
 10
145.7973246436
 20
404.4297355769
 11
144.9890782362
 21
404.4297355769
  0
LINE
  5
57F
100
AcDbEntity
  8
11_COMPONENT
100
AcDbLine
 62
9
  6
CONTINUOUS
 10
300.9041071994
 20
391.0512893013
 11
301.10106875
 21
391.0165596658
  0
LINE
  5
580
100
AcDbEntity
  8
11_COMPONENT
100
AcDbLine
 62
9
  6
CONTINUOUS
 10
303.0498153212
 20
391.8776411236
 11
303.2467768718
 21
391.8429114881
  0
LINE
  5
581
100
AcDbEntity
  8
11_COMPONENT
100
AcDbLine
 62
9
  6
CONTINUOUS
 10
303.1203461135
 20
392.2776411236
 11
303.3173076641
 21
392.2429114881
  0
LINE
  5
582
100
AcDbEntity
  8
11_COMPONENT
100
AcDbLine
 62
9
  6
CONTINUOUS
 10
301.3272919531
 20
393.4512893013
 11
301.5242535037
 21
393.4165596658
  0
LINE
  5
583
100
AcDbEntity
  8
11_COMPONENT
100
AcDbLine
 62
9
  6
CONTINUOUS
 10
301.4154554434
 20
393.9512893013
 11
301.6124169941
 21
393.9165596658
  0
LINE
  5
584
100
AcDbEntity
  8
11_COMPONENT
100
AcDbLine
 62
9
  6
CONTINUOUS
 10
303.5611635653
 20
394.7776411236
 11
303.7581251159
 21
394.7429114881
  0
LINE
  5
585
100
AcDbEntity
  8
11_COMPONENT
100
AcDbLine
 62
9
  6
CONTINUOUS
 10
303.6316943576
 20
395.1776411236
 11
303.8286559082
 21
395.1429114881
  0
LINE
  5
586
100
AcDbEntity
  8
11_COMPONENT
100
AcDbLine
 62
7
  6
CONTINUOUS
 10
243.1320333657
 20
392.9297355769
 11
243.1320333657
 21
393.0297355769
  0
LINE
  5
587
100
AcDbEntity
  8
11_COMPONENT
100
AcDbLine
 62
9
  6
CONTINUOUS
 10
148.0207348029
 20
396.3512893013
 11
147.8237732523
 21
396.3165596657
  0
LINE
  5
588
100
AcDbEntity
  8
11_COMPONENT
100
AcDbLine
 62
9
  6
CONTINUOUS
 10
147.9325713125
 20
396.8512893013
 11
147.7356097619
 21
396.8165596658
  0
LINE
  5
589
100
AcDbEntity
  8
11_COMPONENT
100
AcDbLine
 62
9
  6
CONTINUOUS
 10
145.7868631907
 20
397.6776411236
 11
145.5899016401
 21
397.6429114881
  0
LINE
  5
58A
100
AcDbEntity
  8
11_COMPONENT
100
AcDbLine
 62
9
  6
CONTINUOUS
 10
145.7163323984
 20
398.0776411236
 11
145.5193708478
 21
398.0429114881
  0
LINE
  5
58B
100
AcDbEntity
  8
11_COMPONENT
100
AcDbLine
 62
9
  6
CONTINUOUS
 10
147.5093865588
 20
399.2512893013
 11
147.3124250082
 21
399.2165596657
  0
LINE
  5
58C
100
AcDbEntity
  8
11_COMPONENT
100
AcDbLine
 62
9
  6
CONTINUOUS
 10
147.4212230684
 20
399.7512893013
 11
147.2242615178
 21
399.7165596658
  0
LINE
  5
58D
100
AcDbEntity
  8
11_COMPONENT
100
AcDbLine
 62
9
  6
CONTINUOUS
 10
145.2755149466
 20
400.5776411236
 11
145.078553396
 21
400.5429114881
  0
LINE
  5
58E
100
AcDbEntity
  8
11_COMPONENT
100
AcDbLine
 62
9
  6
CONTINUOUS
 10
145.2049841543
 20
400.9776411236
 11
145.0080226037
 21
400.9429114881
  0
LINE
  5
58F
100
AcDbEntity
  8
11_COMPONENT
100
AcDbLine
 62
7
  6
CONTINUOUS
 10
136.1096875
 20
410.7397355769
 11
144.861028376
 21
410.7397355769
  0
LINE
  5
590
100
AcDbEntity
  8
11_COMPONENT
100
AcDbLine
 62
7
  6
CONTINUOUS
 10
304.998346624
 20
410.7397355769
 11
313.7496875
 21
410.7397355769
  0
LINE
  5
591
100
AcDbEntity
  8
11_COMPONENT
100
AcDbLine
 62
9
  6
CONTINUOUS
 10
135.9096875
 20
410.9397355769
 11
144.861028376
 21
410.9397355769
  0
LINE
  5
592
100
AcDbEntity
  8
11_COMPONENT
100
AcDbLine
 62
9
  6
CONTINUOUS
 10
304.998346624
 20
410.9397355769
 11
313.9496875
 21
410.9397355769
  0
LINE
  5
593
100
AcDbEntity
  8
11_COMPONENT
100
AcDbLine
 62
7
  6
CONTINUOUS
 10
299.5402105089
 20
411.6297355769
 11
150.2402105089
 21
411.6297355769
  0
LINE
  5
594
100
AcDbEntity
  8
11_COMPONENT
100
AcDbLine
 62
7
  6
CONTINUOUS
 10
299.5667963333
 20
411.7297355769
 11
150.2925786667
 21
411.7297355769
  0
LINE
  5
595
100
AcDbEntity
  8
11_COMPONENT
100
AcDbLine
 62
7
  6
CONTINUOUS
 10
152.3296875
 20
412.7297355769
 11
297.3225807188
 21
412.7297355769
  0
LINE
  5
596
100
AcDbEntity
  8
11_COMPONENT
100
AcDbLine
 62
7
  6
CONTINUOUS
 10
135.9096875
 20
413.2397355769
 11
151.6125807188
 21
413.2397355769
  0
LINE
  5
597
100
AcDbEntity
  8
11_COMPONENT
100
AcDbLine
 62
7
  6
CONTINUOUS
 10
298.2467942812
 20
413.2397355769
 11
313.9496875
 21
413.2397355769
  0
LINE
  5
598
100
AcDbEntity
  8
11_COMPONENT
100
AcDbLine
 62
9
  6
CONTINUOUS
 10
301.8386401971
 20
396.3512893013
 11
302.0356017477
 21
396.3165596658
  0
LINE
  5
599
100
AcDbEntity
  8
11_COMPONENT
100
AcDbLine
 62
9
  6
CONTINUOUS
 10
301.9268036875
 20
396.8512893013
 11
302.1237652381
 21
396.8165596658
  0
LINE
  5
59A
100
AcDbEntity
  8
11_COMPONENT
100
AcDbLine
 62
9
  6
CONTINUOUS
 10
304.0725118093
 20
397.6776411236
 11
304.2694733599
 21
397.6429114881
  0
LINE
  5
59B
100
AcDbEntity
  8
11_COMPONENT
100
AcDbLine
 62
9
  6
CONTINUOUS
 10
304.1430426016
 20
398.0776411236
 11
304.3400041522
 21
398.0429114881
  0
LINE
  5
59C
100
AcDbEntity
  8
11_COMPONENT
100
AcDbLine
 62
9
  6
CONTINUOUS
 10
302.3499884412
 20
399.2512893013
 11
302.5469499918
 21
399.2165596658
  0
LINE
  5
59D
100
AcDbEntity
  8
11_COMPONENT
100
AcDbLine
 62
9
  6
CONTINUOUS
 10
302.4381519316
 20
399.7512893013
 11
302.6351134822
 21
399.7165596658
  0
LINE
  5
59E
100
AcDbEntity
  8
11_COMPONENT
100
AcDbLine
 62
9
  6
CONTINUOUS
 10
304.5838600534
 20
400.5776411236
 11
304.780821604
 21
400.5429114881
  0
LINE
  5
59F
100
AcDbEntity
  8
11_COMPONENT
100
AcDbLine
 62
9
  6
CONTINUOUS
 10
304.6543908457
 20
400.9776411236
 11
304.8513523963
 21
400.9429114881
  0
LINE
  5
5A0
100
AcDbEntity
  8
11_COMPONENT
100
AcDbLine
 62
7
  6
CONTINUOUS
 10
243.9320333657
 20
393.0297355769
 11
243.9320333657
 21
392.9297355769
  0
LINE
  5
5A1
100
AcDbEntity
  8
11_COMPONENT
100
AcDbLine
 62
9
  6
CONTINUOUS
 10
146.9980383147
 20
402.1512893013
 11
146.8010767641
 21
402.1165596657
  0
LINE
  5
5A2
100
AcDbEntity
  8
11_COMPONENT
100
AcDbLine
 62
9
  6
CONTINUOUS
 10
146.9098748244
 20
402.6512893013
 11
146.7129132738
 21
402.6165596658
  0
LINE
  5
5A3
100
AcDbEntity
  8
11_COMPONENT
100
AcDbLine
 62
9
  6
CONTINUOUS
 10
144.7641667026
 20
403.4776411236
 11
144.567205152
 21
403.4429114881
  0
LINE
  5
5A4
100
AcDbEntity
  8
11_COMPONENT
100
AcDbLine
 62
9
  6
CONTINUOUS
 10
144.6936359103
 20
403.8776411236
 11
144.4966743597
 21
403.8429114881
  0
LINE
  5
5A5
100
AcDbEntity
  8
11_COMPONENT
100
AcDbLine
 62
9
  6
CONTINUOUS
 10
146.4866900707
 20
405.0512893013
 11
146.2897285201
 21
405.0165596657
  0
LINE
  5
5A6
100
AcDbEntity
  8
11_COMPONENT
100
AcDbLine
 62
9
  6
CONTINUOUS
 10
302.8613366853
 20
402.1512893013
 11
303.0582982359
 21
402.1165596658
  0
LINE
  5
5A7
100
AcDbEntity
  8
11_COMPONENT
100
AcDbLine
 62
9
  6
CONTINUOUS
 10
302.9495001756
 20
402.6512893013
 11
303.1464617262
 21
402.6165596658
  0
LINE
  5
5A8
100
AcDbEntity
  8
11_COMPONENT
100
AcDbLine
 62
9
  6
CONTINUOUS
 10
305.0952082974
 20
403.4776411236
 11
305.292169848
 21
403.4429114881
  0
LINE
  5
5A9
100
AcDbEntity
  8
11_COMPONENT
100
AcDbLine
 62
9
  6
CONTINUOUS
 10
305.1657390897
 20
403.8776411236
 11
305.3627006403
 21
403.8429114881
  0
LINE
  5
5AA
100
AcDbEntity
  8
11_COMPONENT
100
AcDbLine
 62
9
  6
CONTINUOUS
 10
303.3726849293
 20
405.0512893013
 11
303.5696464799
 21
405.0165596658
  0
LINE
  5
5AB
100
AcDbEntity
  8
11_COMPONENT
100
AcDbLine
 62
7
  6
CONTINUOUS
 10
251.4320333657
 20
392.9297355769
 11
251.4320333657
 21
393.0297355769
  0
LINE
  5
5AC
100
AcDbEntity
  8
11_COMPONENT
100
AcDbLine
 62
7
  6
CONTINUOUS
 10
252.2320333657
 20
393.0297355769
 11
252.2320333657
 21
392.9297355769
  0
LINE
  5
5AD
100
AcDbEntity
  8
11_COMPONENT
100
AcDbLine
 62
7
  6
CONTINUOUS
 10
253.9620333657
 20
393.0297355769
 11
253.9620333657
 21
393.8297355769
  0
LINE
  5
5AE
100
AcDbEntity
  8
11_COMPONENT
100
AcDbLine
 62
7
  6
CONTINUOUS
 10
254.8620333657
 20
393.8297355769
 11
254.8620333657
 21
393.0297355769
  0
LINE
  5
5AF
100
AcDbEntity
  8
11_COMPONENT
100
AcDbLine
 62
9
  6
CONTINUOUS
 10
145.5503938031
 20
410.3612893013
 11
145.3534322525
 21
410.3265596658
  0
LINE
  5
5B0
100
AcDbEntity
  8
11_COMPONENT
100
AcDbLine
 62
9
  6
CONTINUOUS
 10
304.3089811969
 20
410.3612893013
 11
304.5059427475
 21
410.3265596658
  0
LINE
  5
5B1
100
AcDbEntity
  8
11_COMPONENT
100
AcDbLine
 62
7
  6
CONTINUOUS
 10
256.0020333657
 20
393.0297355769
 11
256.0020333657
 21
403.0297355769
  0
LINE
  5
5B2
100
AcDbEntity
  8
11_COMPONENT
100
AcDbLine
 62
7
  6
CONTINUOUS
 10
256.0420333657
 20
393.0297355769
 11
256.0420333657
 21
403.0297355769
  0
LINE
  5
5B3
100
AcDbEntity
  8
11_COMPONENT
100
AcDbLine
 62
7
  6
CONTINUOUS
 10
256.5020333657
 20
393.0297355769
 11
256.5020333657
 21
393.8297355769
  0
LINE
  5
5B4
100
AcDbEntity
  8
11_COMPONENT
100
AcDbLine
 62
7
  6
CONTINUOUS
 10
257.4020333657
 20
393.8297355769
 11
257.4020333657
 21
393.0297355769
  0
LINE
  5
5B5
100
AcDbEntity
  8
11_COMPONENT
100
AcDbLine
 62
7
  6
CONTINUOUS
 10
258.5420333657
 20
393.0297355769
 11
258.5420333657
 21
403.0297355769
  0
LINE
  5
5B6
100
AcDbEntity
  8
11_COMPONENT
100
AcDbLine
 62
7
  6
CONTINUOUS
 10
258.5820333657
 20
393.0297355769
 11
258.5820333657
 21
403.0297355769
  0
LINE
  5
5B7
100
AcDbEntity
  8
11_COMPONENT
100
AcDbLine
 62
7
  6
CONTINUOUS
 10
259.0420333657
 20
393.0297355769
 11
259.0420333657
 21
393.8297355769
  0
LINE
  5
5B8
100
AcDbEntity
  8
11_COMPONENT
100
AcDbLine
 62
7
  6
CONTINUOUS
 10
259.9420333657
 20
393.8297355769
 11
259.9420333657
 21
393.0297355769
  0
LINE
  5
5B9
100
AcDbEntity
  8
11_COMPONENT
100
AcDbLine
 62
7
  6
CONTINUOUS
 10
261.0820333657
 20
393.0297355769
 11
261.0820333657
 21
403.0297355769
  0
LINE
  5
5BA
100
AcDbEntity
  8
11_COMPONENT
100
AcDbLine
 62
7
  6
CONTINUOUS
 10
261.1220333657
 20
393.0297355769
 11
261.1220333657
 21
403.0297355769
  0
LINE
  5
5BB
100
AcDbEntity
  8
11_COMPONENT
100
AcDbLine
 62
7
  6
CONTINUOUS
 10
261.5820333657
 20
393.0297355769
 11
261.5820333657
 21
393.8297355769
  0
LINE
  5
5BC
100
AcDbEntity
  8
11_COMPONENT
100
AcDbLine
 62
7
  6
CONTINUOUS
 10
292.207343746
 20
379.5832889675
 11
292.4144505272
 21
379.3761821863
  0
LINE
  5
5BD
100
AcDbEntity
  8
11_COMPONENT
100
AcDbLine
 62
9
  6
CONTINUOUS
 10
292.3487651023
 20
379.7247103238
 11
292.5558718835
 21
379.5176035426
  0
LINE
  5
5BE
100
AcDbEntity
  8
11_COMPONENT
100
AcDbLine
 62
7
  6
CONTINUOUS
 10
262.1320333657
 20
392.9297355769
 11
262.1320333657
 21
393.0297355769
  0
LINE
  5
5BF
100
AcDbEntity
  8
11_COMPONENT
100
AcDbLine
 62
7
  6
CONTINUOUS
 10
262.4820333657
 20
393.8297355769
 11
262.4820333657
 21
393.0297355769
  0
LINE
  5
5C0
100
AcDbEntity
  8
11_COMPONENT
100
AcDbLine
 62
7
  6
CONTINUOUS
 10
262.9320333657
 20
393.0297355769
 11
262.9320333657
 21
392.9297355769
  0
LINE
  5
5C1
100
AcDbEntity
  8
11_COMPONENT
100
AcDbLine
 62
7
  6
CONTINUOUS
 10
263.6220333657
 20
393.0297355769
 11
263.6220333657
 21
403.0297355769
  0
LINE
  5
5C2
100
AcDbEntity
  8
11_COMPONENT
100
AcDbLine
 62
7
  6
CONTINUOUS
 10
263.6620333657
 20
393.0297355769
 11
263.6620333657
 21
403.0297355769
  0
LINE
  5
5C3
100
AcDbEntity
  8
11_COMPONENT
100
AcDbLine
 62
7
  6
CONTINUOUS
 10
264.1220333657
 20
393.0297355769
 11
264.1220333657
 21
393.8297355769
  0
LINE
  5
5C4
100
AcDbEntity
  8
11_COMPONENT
100
AcDbLine
 62
7
  6
CONTINUOUS
 10
265.0220333657
 20
393.8297355769
 11
265.0220333657
 21
393.0297355769
  0
LINE
  5
5C5
100
AcDbEntity
  8
11_COMPONENT
100
AcDbLine
 62
7
  6
CONTINUOUS
 10
266.1620333657
 20
393.0297355769
 11
266.1620333657
 21
403.0297355769
  0
LINE
  5
5C6
100
AcDbEntity
  8
11_COMPONENT
100
AcDbLine
 62
7
  6
CONTINUOUS
 10
266.2020333657
 20
393.0297355769
 11
266.2020333657
 21
403.0297355769
  0
LINE
  5
5C7
100
AcDbEntity
  8
11_COMPONENT
100
AcDbLine
 62
7
  6
CONTINUOUS
 10
266.6620333657
 20
393.0297355769
 11
266.6620333657
 21
393.8297355769
  0
LINE
  5
5C8
100
AcDbEntity
  8
11_COMPONENT
100
AcDbLine
 62
7
  6
CONTINUOUS
 10
267.5620333657
 20
393.8297355769
 11
267.5620333657
 21
393.0297355769
  0
LINE
  5
5C9
100
AcDbEntity
  8
11_COMPONENT
100
AcDbLine
 62
7
  6
CONTINUOUS
 10
297.6761341094
 20
412.8761821863
 11
297.8932408906
 21
413.0932889675
  0
LINE
  5
5CA
100
AcDbEntity
  8
11_COMPONENT
100
AcDbLine
 62
7
  6
CONTINUOUS
 10
268.7020333657
 20
393.0297355769
 11
268.7020333657
 21
403.0297355769
  0
LINE
  5
5CB
100
AcDbEntity
  8
11_COMPONENT
100
AcDbLine
 62
7
  6
CONTINUOUS
 10
268.7420333657
 20
393.0297355769
 11
268.7420333657
 21
403.0297355769
  0
LINE
  5
5CC
100
AcDbEntity
  8
11_COMPONENT
100
AcDbLine
 62
7
  6
CONTINUOUS
 10
269.2020333657
 20
393.0297355769
 11
269.2020333657
 21
393.8297355769
  0
LINE
  5
5CD
100
AcDbEntity
  8
11_COMPONENT
100
AcDbLine
 62
7
  6
CONTINUOUS
 10
270.1020333657
 20
393.8297355769
 11
270.1020333657
 21
393.0297355769
  0
LINE
  5
5CE
100
AcDbEntity
  8
11_COMPONENT
100
AcDbLine
 62
7
  6
CONTINUOUS
 10
271.2420333657
 20
393.0297355769
 11
271.2420333657
 21
403.0297355769
  0
LINE
  5
5CF
100
AcDbEntity
  8
11_COMPONENT
100
AcDbLine
 62
7
  6
CONTINUOUS
 10
271.2820333657
 20
403.0297355769
 11
271.2820333657
 21
393.0297355769
  0
LINE
  5
5D0
100
AcDbEntity
  8
11_COMPONENT
100
AcDbLine
 62
7
  6
CONTINUOUS
 10
272.7820333657
 20
393.0297355769
 11
272.7820333657
 21
403.0297355769
  0
LINE
  5
5D1
100
AcDbEntity
  8
11_COMPONENT
100
AcDbLine
 62
7
  6
CONTINUOUS
 10
273.0229631606
 20
392.9297355769
 11
273.0229631606
 21
403.3297355769
  0
LINE
  5
5D2
100
AcDbEntity
  8
11_COMPONENT
100
AcDbLine
 62
7
  6
CONTINUOUS
 10
276.3229631606
 20
403.3297355769
 11
276.3229631606
 21
389.2297355769
  0
LINE
  5
5D3
100
AcDbEntity
  8
11_COMPONENT
100
AcDbLine
 62
7
  6
CONTINUOUS
 10
276.4720333657
 20
393.3797355769
 11
276.4720333657
 21
403.0297355769
  0
LINE
  5
5D4
100
AcDbEntity
  8
11_COMPONENT
100
AcDbLine
 62
7
  6
CONTINUOUS
 10
276.6870333657
 20
403.0297355769
 11
276.6870333657
 21
389.3297355769
  0
LINE
  5
5D5
100
AcDbEntity
  8
11_COMPONENT
100
AcDbLine
 62
7
  6
CONTINUOUS
 10
278.9170333657
 20
393.0997355768
 11
278.9170333657
 21
399.8497355768
  0
LINE
  5
5D6
100
AcDbEntity
  8
11_COMPONENT
100
AcDbLine
 62
7
  6
CONTINUOUS
 10
297.7723496319
 20
395.0791220482
 11
297.7158016841
 21
395.0225741004
  0
LINE
  5
5D7
100
AcDbEntity
  8
11_COMPONENT
100
AcDbLine
 62
7
  6
CONTINUOUS
 10
296.8735766894
 20
394.1803491057
 11
296.9301246372
 21
394.2368970535
  0
LINE
  5
5D8
100
AcDbEntity
  8
11_COMPONENT
100
AcDbLine
 62
9
  6
CONTINUOUS
 10
300.0557521927
 20
385.059335599
 11
300.2195826031
 21
385.1740508841
  0
LINE
  5
5D9
100
AcDbEntity
  8
11_COMPONENT
100
AcDbLine
 62
7
  6
CONTINUOUS
 10
296.8735766894
 20
395.0791220482
 11
296.9301246372
 21
395.0225741004
  0
LINE
  5
5DA
100
AcDbEntity
  8
11_COMPONENT
100
AcDbLine
 62
7
  6
CONTINUOUS
 10
297.7723496319
 20
394.1803491057
 11
297.7158016841
 21
394.2368970535
  0
LINE
  5
5DB
100
AcDbEntity
  8
11_COMPONENT
100
AcDbLine
 62
9
  6
CONTINUOUS
 10
300.3193484939
 20
384.6828810669
 11
300.0557521927
 21
385.059335599
  0
LINE
  5
5DC
100
AcDbEntity
  8
11_COMPONENT
100
AcDbLine
 62
7
  6
CONTINUOUS
 10
281.6670333657
 20
399.8497355768
 11
281.6670333657
 21
401.5997355768
  0
LINE
  5
5DD
100
AcDbEntity
  8
11_COMPONENT
100
AcDbLine
 62
7
  6
CONTINUOUS
 10
282.7670333657
 20
402.5297355768
 11
282.7670333657
 21
401.5997355768
  0
LINE
  5
5DE
100
AcDbEntity
  8
11_COMPONENT
100
AcDbLine
 62
9
  6
CONTINUOUS
 10
292.3487651023
 20
379.7247103238
 11
292.207343746
 21
379.5832889675
  0
LINE
  5
5DF
100
AcDbEntity
  8
11_COMPONENT
100
AcDbLine
 62
9
  6
CONTINUOUS
 10
292.5558718835
 20
379.5176035426
 11
292.4144505272
 21
379.3761821863
  0
LINE
  5
5E0
100
AcDbEntity
  8
11_COMPONENT
100
AcDbLine
 62
7
  6
CONTINUOUS
 10
300.5306955305
 20
384.7297355769
 11
300.2195826016
 21
385.1740508863
  0
LINE
  5
5E1
100
AcDbEntity
  8
11_COMPONENT
100
AcDbLine
 62
7
  6
CONTINUOUS
 10
286.8670333657
 20
402.5297355768
 11
286.8670333657
 21
401.5997355768
  0
LINE
  5
5E2
100
AcDbEntity
  8
11_COMPONENT
100
AcDbLine
 62
7
  6
CONTINUOUS
 10
287.9670333657
 20
401.5997355768
 11
287.9670333657
 21
399.8497355768
  0
LINE
  5
5E3
100
AcDbEntity
  8
11_COMPONENT
100
AcDbLine
 62
7
  6
CONTINUOUS
 10
290.7170333657
 20
399.8497355768
 11
290.7170333657
 21
393.0997355768
  0
LINE
  5
5E4
100
AcDbEntity
  8
11_COMPONENT
100
AcDbLine
 62
9
  6
CONTINUOUS
 10
291.8537903554
 20
379.9297355769
 11
291.8537903545
 21
379.7297355769
  0
LINE
  5
5E5
100
AcDbEntity
  8
11_COMPONENT
100
AcDbLine
 62
7
  6
CONTINUOUS
 10
292.4370333657
 20
389.3297355769
 11
292.4370333657
 21
403.0297355769
  0
LINE
  5
5E6
100
AcDbEntity
  8
11_COMPONENT
100
AcDbLine
 62
7
  6
CONTINUOUS
 10
292.4729631606
 20
389.2297355769
 11
292.4729631606
 21
403.3297355769
  0
LINE
  5
5E7
100
AcDbEntity
  8
11_COMPONENT
100
AcDbLine
 62
9
  6
CONTINUOUS
 10
292.7680039178
 20
379.4297355769
 11
292.7680039178
 21
379.2297355769
  0
LINE
  5
5E8
100
AcDbEntity
  8
11_COMPONENT
100
AcDbLine
 62
9
  6
CONTINUOUS
 10
296.6240484275
 20
379.4297355769
 11
296.6240484063
 21
379.2297355769
  0
LINE
  5
5E9
100
AcDbEntity
  8
11_COMPONENT
100
AcDbLine
 62
9
  6
CONTINUOUS
 10
297.3229631606
 20
394.2324759119
 11
297.3229631606
 21
393.4194378445
  0
LINE
  5
5EA
100
AcDbEntity
  8
11_COMPONENT
100
AcDbLine
 62
9
  6
CONTINUOUS
 10
297.3229631606
 20
392.9390415515
 11
297.3229631606
 21
391.5797856765
  0
LINE
  5
5EB
100
AcDbEntity
  8
11_COMPONENT
100
AcDbLine
 62
9
  6
CONTINUOUS
 10
297.3229631606
 20
391.5272924784
 11
297.3229631606
 21
391.5253899049
  0
LINE
  5
5EC
100
AcDbEntity
  8
11_COMPONENT
100
AcDbLine
 62
9
  6
CONTINUOUS
 10
297.3229631606
 20
395.0269952419
 11
297.3229631606
 21
395.8400333093
  0
LINE
  5
5ED
100
AcDbEntity
  8
11_COMPONENT
100
AcDbLine
 62
9
  6
CONTINUOUS
 10
297.3229631606
 20
396.3204296278
 11
297.3229631606
 21
397.6796854773
  0
LINE
  5
5EE
100
AcDbEntity
  8
11_COMPONENT
100
AcDbLine
 62
9
  6
CONTINUOUS
 10
297.3229631606
 20
397.7321786754
 11
297.3229631606
 21
397.734081249
  0
LINE
  5
5EF
100
AcDbEntity
  8
11_COMPONENT
100
AcDbLine
 62
9
  6
CONTINUOUS
 10
301.5934726265
 20
391.6297355769
 11
301.5934726265
 21
391.4297355769
  0
LINE
  5
5F0
100
AcDbEntity
  8
11_COMPONENT
100
AcDbLine
 62
9
  6
CONTINUOUS
 10
302.0166573802
 20
392.6297355769
 11
302.0166573802
 21
392.8297355769
  0
LINE
  5
5F1
100
AcDbEntity
  8
11_COMPONENT
100
AcDbLine
 62
9
  6
CONTINUOUS
 10
302.1048208706
 20
394.5297355769
 11
302.1048208706
 21
394.3297355769
  0
LINE
  5
5F2
100
AcDbEntity
  8
11_COMPONENT
100
AcDbLine
 62
9
  6
CONTINUOUS
 10
302.5280056243
 20
395.5297355769
 11
302.5280056243
 21
395.7297355769
  0
LINE
  5
5F3
100
AcDbEntity
  8
11_COMPONENT
100
AcDbLine
 62
9
  6
CONTINUOUS
 10
302.6161691146
 20
397.4297355769
 11
302.6161691146
 21
397.2297355769
  0
LINE
  5
5F4
100
AcDbEntity
  8
11_COMPONENT
100
AcDbLine
 62
9
  6
CONTINUOUS
 10
302.7543729953
 20
391.6297355769
 11
302.7543729953
 21
391.4297355769
  0
LINE
  5
5F5
100
AcDbEntity
  8
11_COMPONENT
100
AcDbLine
 62
9
  6
CONTINUOUS
 10
302.8249037876
 20
392.6297355769
 11
302.8249037876
 21
392.8297355769
  0
LINE
  5
5F6
100
AcDbEntity
  8
11_COMPONENT
100
AcDbLine
 62
9
  6
CONTINUOUS
 10
303.0393538683
 20
398.4297355769
 11
303.0393538683
 21
398.6297355769
  0
LINE
  5
5F7
100
AcDbEntity
  8
11_COMPONENT
100
AcDbLine
 62
9
  6
CONTINUOUS
 10
303.1275173587
 20
400.3297355769
 11
303.1275173587
 21
400.1297355769
  0
LINE
  5
5F8
100
AcDbEntity
  8
11_COMPONENT
100
AcDbLine
 62
9
  6
CONTINUOUS
 10
303.2657212394
 20
394.5297355769
 11
303.2657212394
 21
394.3297355769
  0
LINE
  5
5F9
100
AcDbEntity
  8
11_COMPONENT
100
AcDbLine
 62
9
  6
CONTINUOUS
 10
303.3362520317
 20
395.5297355769
 11
303.3362520317
 21
395.7297355769
  0
LINE
  5
5FA
100
AcDbEntity
  8
11_COMPONENT
100
AcDbLine
 62
9
  6
CONTINUOUS
 10
303.5507021124
 20
401.3297355769
 11
303.5507021124
 21
401.5297355769
  0
LINE
  5
5FB
100
AcDbEntity
  8
11_COMPONENT
100
AcDbLine
 62
9
  6
CONTINUOUS
 10
303.6388656027
 20
403.2297355769
 11
303.6388656027
 21
403.0297355769
  0
LINE
  5
5FC
100
AcDbEntity
  8
11_COMPONENT
100
AcDbLine
 62
9
  6
CONTINUOUS
 10
303.7770694834
 20
397.4297355769
 11
303.7770694834
 21
397.2297355769
  0
LINE
  5
5FD
100
AcDbEntity
  8
11_COMPONENT
100
AcDbLine
 62
9
  6
CONTINUOUS
 10
303.8476002757
 20
398.4297355769
 11
303.8476002757
 21
398.6297355769
  0
LINE
  5
5FE
100
AcDbEntity
  8
11_COMPONENT
100
AcDbLine
 62
9
  6
CONTINUOUS
 10
304.0620503564
 20
404.2297355769
 11
304.0620503564
 21
404.4297355769
  0
LINE
  5
5FF
100
AcDbEntity
  8
11_COMPONENT
100
AcDbLine
 62
7
  6
CONTINUOUS
 10
298.5229631606
 20
383.5566965906
 11
302.7900760938
 21
407.7566965906
  0
LINE
  5
600
100
AcDbEntity
  8
11_COMPONENT
100
AcDbLine
 62
7
  6
CONTINUOUS
 10
298.7817759319
 20
383.6219669551
 11
303.0136234689
 21
407.6219669551
  0
LINE
  5
601
100
AcDbEntity
  8
11_COMPONENT
100
AcDbLine
 62
9
  6
CONTINUOUS
 10
299.9397931966
 20
385.5823928288
 11
300.9041071994
 21
391.0512893013
  0
LINE
  5
602
100
AcDbEntity
  8
11_COMPONENT
100
AcDbLine
 62
9
  6
CONTINUOUS
 10
301.3272919531
 20
393.4512893013
 11
301.4154554434
 21
393.9512893013
  0
LINE
  5
603
100
AcDbEntity
  8
11_COMPONENT
100
AcDbLine
 62
9
  6
CONTINUOUS
 10
301.8386401971
 20
396.3512893013
 11
301.9268036875
 21
396.8512893013
  0
LINE
  5
604
100
AcDbEntity
  8
11_COMPONENT
100
AcDbLine
 62
9
  6
CONTINUOUS
 10
302.3499884412
 20
399.2512893013
 11
302.4381519316
 21
399.7512893013
  0
LINE
  5
605
100
AcDbEntity
  8
11_COMPONENT
100
AcDbLine
 62
9
  6
CONTINUOUS
 10
302.8613366853
 20
402.1512893013
 11
302.9495001756
 21
402.6512893013
  0
LINE
  5
606
100
AcDbEntity
  8
11_COMPONENT
100
AcDbLine
 62
9
  6
CONTINUOUS
 10
303.3726849293
 20
405.0512893013
 11
304.3089811969
 21
410.3612893013
  0
LINE
  5
607
100
AcDbEntity
  8
11_COMPONENT
100
AcDbLine
 62
7
  6
CONTINUOUS
 10
300.1367547472
 20
385.5476631933
 11
301.10106875
 21
391.0165596658
  0
LINE
  5
608
100
AcDbEntity
  8
11_COMPONENT
100
AcDbLine
 62
7
  6
CONTINUOUS
 10
301.5242535037
 20
393.4165596658
 11
301.612416994
 21
393.9165596658
  0
LINE
  5
609
100
AcDbEntity
  8
11_COMPONENT
100
AcDbLine
 62
7
  6
CONTINUOUS
 10
302.0356017477
 20
396.3165596658
 11
302.1237652381
 21
396.8165596658
  0
LINE
  5
60A
100
AcDbEntity
  8
11_COMPONENT
100
AcDbLine
 62
7
  6
CONTINUOUS
 10
302.5469499918
 20
399.2165596658
 11
302.6351134822
 21
399.7165596658
  0
LINE
  5
60B
100
AcDbEntity
  8
11_COMPONENT
100
AcDbLine
 62
7
  6
CONTINUOUS
 10
303.0582982359
 20
402.1165596658
 11
303.1464617262
 21
402.6165596658
  0
LINE
  5
60C
100
AcDbEntity
  8
11_COMPONENT
100
AcDbLine
 62
7
  6
CONTINUOUS
 10
303.5696464799
 20
405.0165596658
 11
304.5059427475
 21
410.3265596658
  0
LINE
  5
60D
100
AcDbEntity
  8
11_COMPONENT
100
AcDbLine
 62
9
  6
CONTINUOUS
 10
299.8739140124
 20
382.1566965906
 11
300.3193484939
 21
384.6828810669
  0
LINE
  5
60E
100
AcDbEntity
  8
11_COMPONENT
100
AcDbLine
 62
7
  6
CONTINUOUS
 10
300.070875563
 20
382.1219669551
 11
300.5306955305
 21
384.7297355769
  0
LINE
  5
60F
100
AcDbEntity
  8
11_COMPONENT
100
AcDbLine
 62
9
  6
CONTINUOUS
 10
303.0498153212
 20
391.8776411236
 11
303.1203461135
 21
392.2776411236
  0
LINE
  5
610
100
AcDbEntity
  8
11_COMPONENT
100
AcDbLine
 62
9
  6
CONTINUOUS
 10
303.5611635653
 20
394.7776411236
 11
303.6316943576
 21
395.1776411236
  0
LINE
  5
611
100
AcDbEntity
  8
11_COMPONENT
100
AcDbLine
 62
9
  6
CONTINUOUS
 10
304.0725118093
 20
397.6776411236
 11
304.1430426016
 21
398.0776411236
  0
LINE
  5
612
100
AcDbEntity
  8
11_COMPONENT
100
AcDbLine
 62
9
  6
CONTINUOUS
 10
304.5838600534
 20
400.5776411236
 11
304.6543908457
 21
400.9776411236
  0
LINE
  5
613
100
AcDbEntity
  8
11_COMPONENT
100
AcDbLine
 62
9
  6
CONTINUOUS
 10
305.0952082974
 20
403.4776411236
 11
305.1657390897
 21
403.8776411236
  0
LINE
  5
614
100
AcDbEntity
  8
11_COMPONENT
100
AcDbLine
 62
7
  6
CONTINUOUS
 10
303.2467768718
 20
391.8429114881
 11
303.3173076641
 21
392.2429114881
  0
LINE
  5
615
100
AcDbEntity
  8
11_COMPONENT
100
AcDbLine
 62
7
  6
CONTINUOUS
 10
303.7581251159
 20
394.7429114881
 11
303.8286559082
 21
395.1429114881
  0
LINE
  5
616
100
AcDbEntity
  8
11_COMPONENT
100
AcDbLine
 62
7
  6
CONTINUOUS
 10
304.2694733599
 20
397.6429114881
 11
304.3400041522
 21
398.0429114881
  0
LINE
  5
617
100
AcDbEntity
  8
11_COMPONENT
100
AcDbLine
 62
7
  6
CONTINUOUS
 10
304.780821604
 20
400.5429114881
 11
304.8513523963
 21
400.9429114881
  0
LINE
  5
618
100
AcDbEntity
  8
11_COMPONENT
100
AcDbLine
 62
7
  6
CONTINUOUS
 10
305.292169848
 20
403.4429114881
 11
305.3627006403
 21
403.8429114881
  0
LINE
  5
619
100
AcDbEntity
  8
11_COMPONENT
100
AcDbLine
 62
9
  6
CONTINUOUS
 10
304.2884177275
 20
400.3297355769
 11
304.2884177275
 21
400.1297355769
  0
LINE
  5
61A
100
AcDbEntity
  8
11_COMPONENT
100
AcDbLine
 62
9
  6
CONTINUOUS
 10
304.3589485198
 20
401.3297355769
 11
304.3589485198
 21
401.5297355769
  0
LINE
  5
61B
100
AcDbEntity
  8
11_COMPONENT
100
AcDbLine
 62
9
  6
CONTINUOUS
 10
304.7997659715
 20
403.2297355769
 11
304.7997659715
 21
403.0297355769
  0
LINE
  5
61C
100
AcDbEntity
  8
11_COMPONENT
100
AcDbLine
 62
9
  6
CONTINUOUS
 10
304.8702967638
 20
404.2297355769
 11
304.8702967638
 21
404.4297355769
  0
LINE
  5
61D
100
AcDbEntity
  8
11_COMPONENT
100
AcDbLine
 62
9
  6
CONTINUOUS
 10
304.998346624
 20
410.9397355769
 11
304.998346624
 21
410.7397355769
  0
LINE
  5
61E
100
AcDbEntity
  8
11_COMPONENT
100
AcDbLine
 62
9
  6
CONTINUOUS
 10
309.9496875
 20
410.7397355769
 11
309.9496875
 21
413.2397355769
  0
LINE
  5
61F
100
AcDbEntity
  8
11_COMPONENT
100
AcDbLine
 62
7
  6
CONTINUOUS
 10
313.9496875
 20
410.9397355769
 11
313.9496875
 21
413.2397355769
  0
LINE
  5
620
100
AcDbEntity
  8
11_COMPONENT
100
AcDbLine
 62
7
  6
CONTINUOUS
 10
477.2164264432
 20
147.1586838942
 11
486.716241826
 21
147.1586838942
  0
LINE
  5
621
100
AcDbEntity
  8
11_COMPONENT
100
AcDbLine
 62
7
  6
CONTINUOUS
 10
476.4163341346
 20
150.3986838942
 11
477.2163341346
 21
150.3986838942
  0
LINE
  5
622
100
AcDbEntity
  8
11_COMPONENT
100
AcDbLine
 62
7
  6
CONTINUOUS
 10
486.7163341346
 20
150.3986838942
 11
487.5163341346
 21
150.3986838942
  0
LINE
  5
623
100
AcDbEntity
  8
11_COMPONENT
100
AcDbLine
 62
7
  6
CONTINUOUS
 10
487.5163341346
 20
152.3986838942
 11
486.7163341346
 21
152.3986838942
  0
LINE
  5
624
100
AcDbEntity
  8
11_COMPONENT
100
AcDbLine
 62
7
  6
CONTINUOUS
 10
477.2163341346
 20
152.3986838942
 11
476.4163341346
 21
152.3986838942
  0
LINE
  5
625
100
AcDbEntity
  8
11_COMPONENT
100
AcDbLine
 62
7
  6
CONTINUOUS
 10
483.3570281855
 20
157.4336073569
 11
484.3341457043
 21
157.6223162287
  0
LINE
  5
626
100
AcDbEntity
  8
11_COMPONENT
100
AcDbLine
 62
7
  6
CONTINUOUS
 10
483.3570281855
 20
157.4336073569
 11
483.2972278728
 21
157.4336056905
  0
LINE
  5
627
100
AcDbEntity
  8
11_COMPONENT
100
AcDbLine
 62
7
  6
CONTINUOUS
 10
482.1119565241
 20
157.4336053978
 11
481.2207089714
 21
157.4336044165
  0
LINE
  5
628
100
AcDbEntity
  8
11_COMPONENT
100
AcDbLine
 62
9
  6
CONTINUOUS
 10
478.998522565
 20
157.6223162287
 11
484.3341457043
 21
157.6223162287
  0
LINE
  5
629
100
AcDbEntity
  8
11_COMPONENT
100
AcDbLine
 62
7
  6
CONTINUOUS
 10
490.0663341346
 20
157.7086838942
 11
486.7163341346
 21
157.7086838942
  0
LINE
  5
62A
100
AcDbEntity
  8
11_COMPONENT
100
AcDbLine
 62
9
  6
CONTINUOUS
 10
478.6163842342
 20
158.0651060229
 11
484.716284035
 21
158.0651060229
  0
LINE
  5
62B
100
AcDbEntity
  8
11_COMPONENT
100
AcDbLine
 62
7
  6
CONTINUOUS
 10
487.7163282032
 20
158.1586838942
 11
484.7244710379
 21
158.1586838942
  0
LINE
  5
62C
100
AcDbEntity
  8
11_COMPONENT
100
AcDbLine
 62
7
  6
CONTINUOUS
 10
478.6081972313
 20
158.1586838942
 11
476.2163400661
 21
158.1586838942
  0
LINE
  5
62D
100
AcDbEntity
  8
11_COMPONENT
100
AcDbLine
 62
9
  6
CONTINUOUS
 10
478.5638910361
 20
158.6651060229
 11
484.7687772331
 21
158.6651060229
  0
LINE
  5
62E
100
AcDbEntity
  8
11_COMPONENT
100
AcDbLine
 62
7
  6
CONTINUOUS
 10
500.2763341346
 20
158.7086838942
 11
466.4663341346
 21
158.7086838942
  0
LINE
  5
62F
100
AcDbEntity
  8
11_COMPONENT
100
AcDbLine
 62
9
  6
CONTINUOUS
 10
497.7763341346
 20
158.9086838942
 11
466.2663341346
 21
158.9086838942
  0
LINE
  5
630
100
AcDbEntity
  8
11_COMPONENT
100
AcDbLine
 62
7
  6
CONTINUOUS
 10
480.0354504944
 20
157.4336046434
 11
479.9756400582
 21
157.4336073607
  0
LINE
  5
631
100
AcDbEntity
  8
11_COMPONENT
100
AcDbLine
 62
7
  6
CONTINUOUS
 10
479.9756401092
 20
157.4336073531
 11
478.998522565
 21
157.6223162287
  0
LINE
  5
632
100
AcDbEntity
  8
11_COMPONENT
100
AcDbLine
 62
9
  6
CONTINUOUS
 10
500.2763341346
 20
162.7086838942
 11
497.7763341346
 21
162.7086838942
  0
LINE
  5
633
100
AcDbEntity
  8
11_COMPONENT
100
AcDbLine
 62
7
  6
CONTINUOUS
 10
466.2663341346
 20
158.9086838942
 11
466.2663341346
 21
286.5086838942
  0
LINE
  5
634
100
AcDbEntity
  8
11_COMPONENT
100
AcDbLine
 62
7
  6
CONTINUOUS
 10
478.6163842342
 20
158.0651060229
 11
478.5638910361
 21
158.6651060229
  0
LINE
  5
635
100
AcDbEntity
  8
11_COMPONENT
100
AcDbLine
 62
9
  6
CONTINUOUS
 10
469.1585655128
 20
158.9086838942
 11
469.1585655128
 21
286.5086838942
  0
LINE
  5
636
100
AcDbEntity
  8
11_COMPONENT
100
AcDbLine
 62
7
  6
CONTINUOUS
 10
471.7663341346
 20
158.9086838942
 11
471.7663341346
 21
286.5086838942
  0
LINE
  5
637
100
AcDbEntity
  8
11_COMPONENT
100
AcDbLine
 62
9
  6
CONTINUOUS
 10
472.210649444
 20
158.9086838942
 11
472.210649444
 21
286.5086838942
  0
LINE
  5
638
100
AcDbEntity
  8
11_COMPONENT
100
AcDbLine
 62
9
  6
CONTINUOUS
 10
472.584261751
 20
158.9086838942
 11
472.584261751
 21
286.5086838942
  0
LINE
  5
639
100
AcDbEntity
  8
11_COMPONENT
100
AcDbLine
 62
7
  6
CONTINUOUS
 10
478.6163842342
 20
287.3522617656
 11
478.5638910361
 21
286.7522617656
  0
LINE
  5
63A
100
AcDbEntity
  8
11_COMPONENT
100
AcDbLine
 62
7
  6
CONTINUOUS
 10
476.2163341346
 20
158.1586838942
 11
476.2163341346
 21
158.7086838942
  0
LINE
  5
63B
100
AcDbEntity
  8
11_COMPONENT
100
AcDbLine
 62
7
  6
CONTINUOUS
 10
476.2663341346
 20
286.7086838942
 11
476.2663341346
 21
294.5586838942
  0
LINE
  5
63C
100
AcDbEntity
  8
11_COMPONENT
100
AcDbLine
 62
7
  6
CONTINUOUS
 10
476.3663341346
 20
289.2486838942
 11
476.3663341346
 21
286.7086838942
  0
LINE
  5
63D
100
AcDbEntity
  8
11_COMPONENT
100
AcDbLine
 62
7
  6
CONTINUOUS
 10
476.4163341346
 20
150.3987614785
 11
476.4163341346
 21
152.39860631
  0
LINE
  5
63E
100
AcDbEntity
  8
11_COMPONENT
100
AcDbLine
 62
7
  6
CONTINUOUS
 10
477.2163341346
 20
158.1586838942
 11
477.2163341346
 21
152.3986838942
  0
LINE
  5
63F
100
AcDbEntity
  8
11_COMPONENT
100
AcDbLine
 62
7
  6
CONTINUOUS
 10
477.2163341346
 20
150.3994518105
 11
477.2163341346
 21
147.1586838942
  0
LINE
  5
640
100
AcDbEntity
  8
11_COMPONENT
100
AcDbLine
 62
7
  6
CONTINUOUS
 10
477.6663341346
 20
289.2486838942
 11
477.6663341346
 21
292.5586838942
  0
LINE
  5
641
100
AcDbEntity
  8
11_COMPONENT
100
AcDbLine
 62
9
  6
CONTINUOUS
 10
478.0531582234
 20
286.5086838942
 11
478.0531582234
 21
158.9086838942
  0
LINE
  5
642
100
AcDbEntity
  8
11_COMPONENT
100
AcDbLine
 62
7
  6
CONTINUOUS
 10
478.4663341346
 20
158.9086838942
 11
478.4663341346
 21
286.5086838942
  0
LINE
  5
643
100
AcDbEntity
  8
11_COMPONENT
100
AcDbLine
 62
9
  6
CONTINUOUS
 10
478.6663341346
 20
289.2486838942
 11
478.6663341346
 21
292.7586838942
  0
LINE
  5
644
100
AcDbEntity
  8
11_COMPONENT
100
AcDbLine
 62
9
  6
CONTINUOUS
 10
478.8795100458
 20
158.9086838942
 11
478.8795100458
 21
286.5086838942
  0
LINE
  5
645
100
AcDbEntity
  8
11_COMPONENT
100
AcDbLine
 62
7
  6
CONTINUOUS
 10
482.1157206059
 20
157.3262530591
 11
482.1119717025
 21
157.4336076047
  0
LINE
  5
646
100
AcDbEntity
  8
11_COMPONENT
100
AcDbLine
 62
7
  6
CONTINUOUS
 10
481.2169476634
 20
288.0911147293
 11
481.2206965667
 21
287.9837601838
  0
LINE
  5
647
100
AcDbEntity
  8
11_COMPONENT
100
AcDbLine
 62
9
  6
CONTINUOUS
 10
479.2795100458
 20
158.9086838942
 11
479.2795100458
 21
286.5086838942
  0
LINE
  5
648
100
AcDbEntity
  8
11_COMPONENT
100
AcDbLine
 62
7
  6
CONTINUOUS
 10
479.8663341346
 20
158.9086838942
 11
479.8663341346
 21
286.5086838942
  0
LINE
  5
649
100
AcDbEntity
  8
11_COMPONENT
100
AcDbLine
 62
7
  6
CONTINUOUS
 10
480.0663341346
 20
290.6286838942
 11
480.0663341346
 21
289.2486838942
  0
LINE
  5
64A
100
AcDbEntity
  8
11_COMPONENT
100
AcDbLine
 62
9
  6
CONTINUOUS
 10
480.4531582234
 20
158.9086838942
 11
480.4531582234
 21
286.5086838942
  0
LINE
  5
64B
100
AcDbEntity
  8
11_COMPONENT
100
AcDbLine
 62
7
  6
CONTINUOUS
 10
480.7820622064
 20
157.3515549226
 11
480.7820622064
 21
147.1586838942
  0
LINE
  5
64C
100
AcDbEntity
  8
11_COMPONENT
100
AcDbLine
 62
9
  6
CONTINUOUS
 10
480.9531582234
 20
286.5086838942
 11
480.9531582234
 21
158.9086838942
  0
LINE
  5
64D
100
AcDbEntity
  8
11_COMPONENT
100
AcDbLine
 62
7
  6
CONTINUOUS
 10
481.3663341346
 20
158.9086838942
 11
481.3663341346
 21
286.5086838942
  0
LINE
  5
64E
100
AcDbEntity
  8
11_COMPONENT
100
AcDbLine
 62
9
  6
CONTINUOUS
 10
481.7795100458
 20
158.9086838942
 11
481.7795100458
 21
286.5086838942
  0
LINE
  5
64F
100
AcDbEntity
  8
11_COMPONENT
100
AcDbLine
 62
9
  6
CONTINUOUS
 10
482.1795100458
 20
158.9086838942
 11
482.1795100458
 21
286.5086838942
  0
LINE
  5
650
100
AcDbEntity
  8
11_COMPONENT
100
AcDbLine
 62
7
  6
CONTINUOUS
 10
482.7663341346
 20
158.9086838942
 11
482.7663341346
 21
286.5086838942
  0
LINE
  5
651
100
AcDbEntity
  8
11_COMPONENT
100
AcDbLine
 62
7
  6
CONTINUOUS
 10
483.1506060628
 20
157.4137724459
 11
483.1506060628
 21
147.1586838942
  0
LINE
  5
652
100
AcDbEntity
  8
11_COMPONENT
100
AcDbLine
 62
9
  6
CONTINUOUS
 10
483.3531582234
 20
158.9086838942
 11
483.3531582234
 21
286.5086838942
  0
LINE
  5
653
100
AcDbEntity
  8
11_COMPONENT
100
AcDbLine
 62
9
  6
CONTINUOUS
 10
483.8531582234
 20
286.5086838942
 11
483.8531582234
 21
158.9086838942
  0
LINE
  5
654
100
AcDbEntity
  8
11_COMPONENT
100
AcDbLine
 62
7
  6
CONTINUOUS
 10
482.1119717025
 20
287.9837601838
 11
482.1157206059
 21
288.0911147293
  0
LINE
  5
655
100
AcDbEntity
  8
11_COMPONENT
100
AcDbLine
 62
7
  6
CONTINUOUS
 10
481.2206965667
 20
157.4336076047
 11
481.2169476634
 21
157.3262530591
  0
LINE
  5
656
100
AcDbEntity
  8
11_COMPONENT
100
AcDbLine
 62
7
  6
CONTINUOUS
 10
484.2663341346
 20
158.9086838942
 11
484.2663341346
 21
286.5086838942
  0
LINE
  5
657
100
AcDbEntity
  8
11_COMPONENT
100
AcDbLine
 62
9
  6
CONTINUOUS
 10
484.6795100458
 20
158.9086838942
 11
484.6795100458
 21
286.5086838942
  0
LINE
  5
658
100
AcDbEntity
  8
11_COMPONENT
100
AcDbLine
 62
9
  6
CONTINUOUS
 10
485.0795100458
 20
158.9086838942
 11
485.0795100458
 21
286.5086838942
  0
LINE
  5
659
100
AcDbEntity
  8
11_COMPONENT
100
AcDbLine
 62
7
  6
CONTINUOUS
 10
485.6663341346
 20
158.9086838942
 11
485.6663341346
 21
286.5086838942
  0
LINE
  5
65A
100
AcDbEntity
  8
11_COMPONENT
100
AcDbLine
 62
9
  6
CONTINUOUS
 10
486.2531582234
 20
158.9086838942
 11
486.2531582234
 21
286.5086838942
  0
LINE
  5
65B
100
AcDbEntity
  8
11_COMPONENT
100
AcDbLine
 62
7
  6
CONTINUOUS
 10
486.7163341346
 20
158.1586838942
 11
486.7163341346
 21
152.3979159779
  0
LINE
  5
65C
100
AcDbEntity
  8
11_COMPONENT
100
AcDbLine
 62
7
  6
CONTINUOUS
 10
486.7163341346
 20
150.3986838942
 11
486.7163341346
 21
147.1586838942
  0
LINE
  5
65D
100
AcDbEntity
  8
11_COMPONENT
100
AcDbLine
 62
9
  6
CONTINUOUS
 10
486.7531582234
 20
286.5086838942
 11
486.7531582234
 21
158.9086838942
  0
LINE
  5
65E
100
AcDbEntity
  8
11_COMPONENT
100
AcDbLine
 62
7
  6
CONTINUOUS
 10
487.1663341346
 20
158.9086838942
 11
487.1663341346
 21
286.5086838942
  0
LINE
  5
65F
100
AcDbEntity
  8
11_COMPONENT
100
AcDbLine
 62
7
  6
CONTINUOUS
 10
487.5163341346
 20
152.39860631
 11
487.5163341346
 21
150.3988153075
  0
LINE
  5
660
100
AcDbEntity
  8
11_COMPONENT
100
AcDbLine
 62
9
  6
CONTINUOUS
 10
487.5795100458
 20
158.9086838942
 11
487.5795100458
 21
286.5086838942
  0
LINE
  5
661
100
AcDbEntity
  8
11_COMPONENT
100
AcDbLine
 62
7
  6
CONTINUOUS
 10
487.7163341346
 20
158.1586838942
 11
487.7163341346
 21
158.7086838942
  0
LINE
  5
662
100
AcDbEntity
  8
11_COMPONENT
100
AcDbLine
 62
9
  6
CONTINUOUS
 10
487.9795100458
 20
158.9086838942
 11
487.9795100458
 21
286.5086838942
  0
LINE
  5
663
100
AcDbEntity
  8
11_COMPONENT
100
AcDbLine
 62
7
  6
CONTINUOUS
 10
488.5663341346
 20
158.9086838942
 11
488.5663341346
 21
286.5086838942
  0
LINE
  5
664
100
AcDbEntity
  8
11_COMPONENT
100
AcDbLine
 62
7
  6
CONTINUOUS
 10
484.716284035
 20
287.3522617656
 11
484.7687772331
 21
286.7522617656
  0
LINE
  5
665
100
AcDbEntity
  8
11_COMPONENT
100
AcDbLine
 62
9
  6
CONTINUOUS
 10
489.1531582234
 20
158.9086838942
 11
489.1531582234
 21
286.5086838942
  0
LINE
  5
666
100
AcDbEntity
  8
11_COMPONENT
100
AcDbLine
 62
9
  6
CONTINUOUS
 10
489.6531582234
 20
286.5086838942
 11
489.6531582234
 21
158.9086838942
  0
LINE
  5
667
100
AcDbEntity
  8
11_COMPONENT
100
AcDbLine
 62
9
  6
CONTINUOUS
 10
489.8663341357
 20
292.7586838942
 11
489.8663341346
 21
290.6286838942
  0
LINE
  5
668
100
AcDbEntity
  8
11_COMPONENT
100
AcDbLine
 62
7
  6
CONTINUOUS
 10
490.0663341346
 20
158.7086838942
 11
490.0663341346
 21
157.7086838942
  0
LINE
  5
669
100
AcDbEntity
  8
11_COMPONENT
100
AcDbLine
 62
7
  6
CONTINUOUS
 10
490.0663341346
 20
158.9086838942
 11
490.0663341346
 21
286.5086838942
  0
LINE
  5
66A
100
AcDbEntity
  8
11_COMPONENT
100
AcDbLine
 62
7
  6
CONTINUOUS
 10
490.0663341346
 20
286.7086838942
 11
490.0663341346
 21
290.6286838942
  0
LINE
  5
66B
100
AcDbEntity
  8
11_COMPONENT
100
AcDbLine
 62
7
  6
CONTINUOUS
 10
490.0663341346
 20
292.7586838942
 11
490.0663341346
 21
294.5586838942
  0
LINE
  5
66C
100
AcDbEntity
  8
11_COMPONENT
100
AcDbLine
 62
9
  6
CONTINUOUS
 10
490.4795100458
 20
158.9086838942
 11
490.4795100458
 21
286.5086838942
  0
LINE
  5
66D
100
AcDbEntity
  8
11_COMPONENT
100
AcDbLine
 62
7
  6
CONTINUOUS
 10
490.8663341346
 20
292.5586838942
 11
490.8663341346
 21
286.7086838942
  0
LINE
  5
66E
100
AcDbEntity
  8
11_COMPONENT
100
AcDbLine
 62
9
  6
CONTINUOUS
 10
490.8795100458
 20
158.9086838942
 11
490.8795100458
 21
286.5086838942
  0
LINE
  5
66F
100
AcDbEntity
  8
11_COMPONENT
100
AcDbLine
 62
7
  6
CONTINUOUS
 10
491.4663341346
 20
158.9086838942
 11
491.4663341346
 21
286.5086838942
  0
LINE
  5
670
100
AcDbEntity
  8
11_COMPONENT
100
AcDbLine
 62
9
  6
CONTINUOUS
 10
492.0531582234
 20
158.9086838942
 11
492.0531582234
 21
286.5086838942
  0
LINE
  5
671
100
AcDbEntity
  8
11_COMPONENT
100
AcDbLine
 62
7
  6
CONTINUOUS
 10
484.716284035
 20
158.0651060229
 11
484.7687772331
 21
158.6651060229
  0
LINE
  5
672
100
AcDbEntity
  8
11_COMPONENT
100
AcDbLine
 62
9
  6
CONTINUOUS
 10
497.3631582234
 20
286.5086838942
 11
497.3631582234
 21
158.9086838942
  0
LINE
  5
673
100
AcDbEntity
  8
11_COMPONENT
100
AcDbLine
 62
7
  6
CONTINUOUS
 10
497.7763341346
 20
286.5086838942
 11
497.7763341346
 21
158.9086838942
  0
LINE
  5
674
100
AcDbEntity
  8
11_COMPONENT
100
AcDbLine
 62
9
  6
CONTINUOUS
 10
497.9763341346
 20
286.7086838942
 11
497.9763341346
 21
158.7086838942
  0
LINE
  5
675
100
AcDbEntity
  8
11_COMPONENT
100
AcDbLine
 62
7
  6
CONTINUOUS
 10
500.2763341346
 20
158.7086838942
 11
500.2763341346
 21
286.7086838942
  0
LINE
  5
676
100
AcDbEntity
  8
11_COMPONENT
100
AcDbLine
 62
9
  6
CONTINUOUS
 10
497.7763341346
 20
282.7086838942
 11
500.2763341346
 21
282.7086838942
  0
LINE
  5
677
100
AcDbEntity
  8
11_COMPONENT
100
AcDbLine
 62
7
  6
CONTINUOUS
 10
479.9756401092
 20
287.9837604353
 11
478.998522565
 21
287.7950515598
  0
LINE
  5
678
100
AcDbEntity
  8
11_COMPONENT
100
AcDbLine
 62
9
  6
CONTINUOUS
 10
466.2663341346
 20
286.5086838942
 11
478.435642212
 21
286.5086838942
  0
LINE
  5
679
100
AcDbEntity
  8
11_COMPONENT
100
AcDbLine
 62
9
  6
CONTINUOUS
 10
478.4663341346
 20
286.5086838942
 11
479.8663341346
 21
286.5086838942
  0
LINE
  5
67A
100
AcDbEntity
  8
11_COMPONENT
100
AcDbLine
 62
9
  6
CONTINUOUS
 10
479.8751730099
 20
286.5086838942
 11
481.335642212
 21
286.5086838942
  0
LINE
  5
67B
100
AcDbEntity
  8
11_COMPONENT
100
AcDbLine
 62
9
  6
CONTINUOUS
 10
481.3663341346
 20
286.5086838942
 11
482.7663341346
 21
286.5086838942
  0
LINE
  5
67C
100
AcDbEntity
  8
11_COMPONENT
100
AcDbLine
 62
9
  6
CONTINUOUS
 10
482.7751730099
 20
286.5086838942
 11
484.235642212
 21
286.5086838942
  0
LINE
  5
67D
100
AcDbEntity
  8
11_COMPONENT
100
AcDbLine
 62
9
  6
CONTINUOUS
 10
484.2663341346
 20
286.5086838942
 11
485.6663341346
 21
286.5086838942
  0
LINE
  5
67E
100
AcDbEntity
  8
11_COMPONENT
100
AcDbLine
 62
9
  6
CONTINUOUS
 10
485.6751730099
 20
286.5086838942
 11
487.135642212
 21
286.5086838942
  0
LINE
  5
67F
100
AcDbEntity
  8
11_COMPONENT
100
AcDbLine
 62
9
  6
CONTINUOUS
 10
487.1663341346
 20
286.5086838942
 11
488.5663341346
 21
286.5086838942
  0
LINE
  5
680
100
AcDbEntity
  8
11_COMPONENT
100
AcDbLine
 62
9
  6
CONTINUOUS
 10
488.5751730099
 20
286.5086838942
 11
490.035642212
 21
286.5086838942
  0
LINE
  5
681
100
AcDbEntity
  8
11_COMPONENT
100
AcDbLine
 62
9
  6
CONTINUOUS
 10
490.0663341346
 20
286.5086838942
 11
491.4663341346
 21
286.5086838942
  0
LINE
  5
682
100
AcDbEntity
  8
11_COMPONENT
100
AcDbLine
 62
9
  6
CONTINUOUS
 10
491.4751730099
 20
286.5086838942
 11
497.7763341346
 21
286.5086838942
  0
LINE
  5
683
100
AcDbEntity
  8
11_COMPONENT
100
AcDbLine
 62
7
  6
CONTINUOUS
 10
466.4663341346
 20
286.7086838942
 11
497.9334866724
 21
286.7086838942
  0
LINE
  5
684
100
AcDbEntity
  8
11_COMPONENT
100
AcDbLine
 62
7
  6
CONTINUOUS
 10
497.9763341346
 20
286.7086838942
 11
500.2763341346
 21
286.7086838942
  0
LINE
  5
685
100
AcDbEntity
  8
11_COMPONENT
100
AcDbLine
 62
9
  6
CONTINUOUS
 10
484.7687772331
 20
286.7522617656
 11
478.5638910361
 21
286.7522617656
  0
LINE
  5
686
100
AcDbEntity
  8
11_COMPONENT
100
AcDbLine
 62
9
  6
CONTINUOUS
 10
484.716284035
 20
287.3522617656
 11
478.6163842342
 21
287.3522617656
  0
LINE
  5
687
100
AcDbEntity
  8
11_COMPONENT
100
AcDbLine
 62
7
  6
CONTINUOUS
 10
483.3570281855
 20
287.9837604316
 11
484.3341457043
 21
287.7950515598
  0
LINE
  5
688
100
AcDbEntity
  8
11_COMPONENT
100
AcDbLine
 62
9
  6
CONTINUOUS
 10
484.3341457043
 20
287.7950515598
 11
478.998522565
 21
287.7950515598
  0
LINE
  5
689
100
AcDbEntity
  8
11_COMPONENT
100
AcDbLine
 62
7
  6
CONTINUOUS
 10
481.2207089706
 20
287.9837633796
 11
482.1119565272
 21
287.9837623982
  0
LINE
  5
68A
100
AcDbEntity
  8
11_COMPONENT
100
AcDbLine
 62
7
  6
CONTINUOUS
 10
479.9756401092
 20
287.9837604353
 11
480.0354505481
 21
287.9837631527
  0
LINE
  5
68B
100
AcDbEntity
  8
11_COMPONENT
100
AcDbLine
 62
7
  6
CONTINUOUS
 10
476.3663341346
 20
289.2486838942
 11
490.0663341346
 21
289.2486838942
  0
LINE
  5
68C
100
AcDbEntity
  8
11_COMPONENT
100
AcDbLine
 62
7
  6
CONTINUOUS
 10
480.0663341346
 20
290.6286838942
 11
490.0663341346
 21
290.6286838942
  0
LINE
  5
68D
100
AcDbEntity
  8
11_COMPONENT
100
AcDbLine
 62
9
  6
CONTINUOUS
 10
477.6663341346
 20
292.558683895
 11
490.8663341346
 21
292.558683894
  0
LINE
  5
68E
100
AcDbEntity
  8
11_COMPONENT
100
AcDbLine
 62
7
  6
CONTINUOUS
 10
477.8663341346
 20
292.7586838942
 11
490.6663341346
 21
292.7586838942
  0
LINE
  5
68F
100
AcDbEntity
  8
11_COMPONENT
100
AcDbLine
 62
7
  6
CONTINUOUS
 10
477.0163341346
 20
295.3086838942
 11
489.3163341346
 21
295.3086838942
  0
LINE
  5
690
100
AcDbEntity
  8
11_COMPONENT
100
AcDbLine
 62
7
  6
CONTINUOUS
 10
483.2972278197
 20
287.9837621056
 11
483.3570281855
 21
287.9837604316
  0
ARC
  5
691
100
AcDbEntity
  8
11_COMPONENT
100
AcDbCircle
 62
7
  6
CONTINUOUS
 10
-171.5609143726
 20
54.4263046533
 40
324.533560871
100
AcDbArc
 50
359.7139059275
 51
359.9225023651
  0
ARC
  5
692
100
AcDbEntity
  8
11_COMPONENT
100
AcDbCircle
 62
7
  6
CONTINUOUS
 10
-26.7609143474
 20
54.4263046532
 40
324.5335608457
100
AcDbArc
 50
359.7139059274
 51
359.9225023651
  0
ARC
  5
693
100
AcDbEntity
  8
11_COMPONENT
100
AcDbCircle
 62
7
  6
CONTINUOUS
 10
152.5173762502
 20
-271.1722922297
 40
326.0587114988
100
AcDbArc
 50
90.0779854938
 51
90.2856062136
  0
ARC
  5
694
100
AcDbEntity
  8
11_COMPONENT
100
AcDbCircle
 62
7
  6
CONTINUOUS
 10
152.5333893577
 20
-269.6471212085
 40
324.5335353154
100
AcDbArc
 50
89.7139059192
 51
89.9225023733
  0
ARC
  5
695
100
AcDbEntity
  8
11_COMPONENT
100
AcDbCircle
 62
7
  6
CONTINUOUS
 10
136.1096875
 20
38.1267307692
 40
0.2
100
AcDbArc
 50
90.0000000012
 51
180.0
  0
ARC
  5
696
100
AcDbEntity
  8
11_COMPONENT
100
AcDbCircle
 62
9
  6
CONTINUOUS
 10
144.861028376
 20
38.8267307692
 40
0.6999571137
100
AcDbArc
 50
270.0
 51
350.0
  0
ARC
  5
697
100
AcDbEntity
  8
11_COMPONENT
100
AcDbCircle
 62
7
  6
CONTINUOUS
 10
151.6125807188
 20
36.3267307692
 40
0.5
100
AcDbArc
 50
270.0
 51
315.0
  0
ARC
  5
698
100
AcDbEntity
  8
11_COMPONENT
100
AcDbCircle
 62
7
  6
CONTINUOUS
 10
144.861028376
 20
38.8267307692
 40
0.5
100
AcDbArc
 50
270.0
 51
350.0
  0
ARC
  5
699
100
AcDbEntity
  8
11_COMPONENT
100
AcDbCircle
 62
7
  6
CONTINUOUS
 10
150.2925786667
 20
40.8367307692
 40
3.5
100
AcDbArc
 50
170.0
 51
270.0
  0
ARC
  5
69A
100
AcDbEntity
  8
11_COMPONENT
100
AcDbCircle
 62
7
  6
CONTINUOUS
 10
150.3057158124
 20
40.7367307692
 40
3.3
100
AcDbArc
 50
170.0
 51
270.0
  0
ARC
  5
69B
100
AcDbEntity
  8
11_COMPONENT
100
AcDbCircle
 62
9
  6
CONTINUOUS
 10
145.7973246436
 20
44.1367307692
 40
0.6999998815
100
AcDbArc
 50
350.0
 51
90.0
  0
ARC
  5
69C
100
AcDbEntity
  8
11_COMPONENT
100
AcDbCircle
 62
7
  6
CONTINUOUS
 10
145.7973246436
 20
44.1367307692
 40
0.5
100
AcDbArc
 50
350.0
 51
90.0
  0
ARC
  5
69D
100
AcDbEntity
  8
11_COMPONENT
100
AcDbCircle
 62
7
  6
CONTINUOUS
 10
144.9890782362
 20
45.1367307692
 40
0.5
100
AcDbArc
 50
170.0
 51
270.0
  0
ARC
  5
69E
100
AcDbEntity
  8
11_COMPONENT
100
AcDbCircle
 62
9
  6
CONTINUOUS
 10
144.9890782362
 20
45.1367307692
 40
0.2999959169
100
AcDbArc
 50
170.0
 51
270.0
  0
ARC
  5
69F
100
AcDbEntity
  8
11_COMPONENT
100
AcDbCircle
 62
7
  6
CONTINUOUS
 10
145.0596090285
 20
45.5367307692
 40
0.5
100
AcDbArc
 50
90.0
 51
170.0
  0
ARC
  5
6A0
100
AcDbEntity
  8
11_COMPONENT
100
AcDbCircle
 62
9
  6
CONTINUOUS
 10
145.0596090285
 20
45.5367307692
 40
0.2999994813
100
AcDbArc
 50
90.0
 51
170.0
  0
ARC
  5
6A1
100
AcDbEntity
  8
11_COMPONENT
100
AcDbCircle
 62
7
  6
CONTINUOUS
 10
145.5709572725
 20
48.4367307692
 40
0.5
100
AcDbArc
 50
90.0
 51
170.0
  0
ARC
  5
6A2
100
AcDbEntity
  8
11_COMPONENT
100
AcDbCircle
 62
7
  6
CONTINUOUS
 10
145.5004264802
 20
48.0367307692
 40
0.5
100
AcDbArc
 50
170.0
 51
270.0
  0
ARC
  5
6A3
100
AcDbEntity
  8
11_COMPONENT
100
AcDbCircle
 62
9
  6
CONTINUOUS
 10
145.5709572725
 20
48.4367307692
 40
0.2999994813
100
AcDbArc
 50
90.0
 51
170.0
  0
ARC
  5
6A4
100
AcDbEntity
  8
11_COMPONENT
100
AcDbCircle
 62
9
  6
CONTINUOUS
 10
145.5004264802
 20
48.0367307692
 40
0.2999959169
100
AcDbArc
 50
170.0
 51
270.0
  0
ARC
  5
6A5
100
AcDbEntity
  8
11_COMPONENT
100
AcDbCircle
 62
9
  6
CONTINUOUS
 10
146.3086728876
 20
47.0367307692
 40
0.6999998815
100
AcDbArc
 50
350.0
 51
90.0
  0
ARC
  5
6A6
100
AcDbEntity
  8
11_COMPONENT
100
AcDbCircle
 62
9
  6
CONTINUOUS
 10
146.2205093973
 20
46.5367307692
 40
0.6999571137
100
AcDbArc
 50
270.0
 51
350.0
  0
ARC
  5
6A7
100
AcDbEntity
  8
11_COMPONENT
100
AcDbCircle
 62
7
  6
CONTINUOUS
 10
146.2205093973
 20
46.5367307692
 40
0.5
100
AcDbArc
 50
270.0
 51
350.0
  0
ARC
  5
6A8
100
AcDbEntity
  8
11_COMPONENT
100
AcDbCircle
 62
7
  6
CONTINUOUS
 10
146.3086728876
 20
47.0367307692
 40
0.5
100
AcDbArc
 50
350.0
 51
90.0
  0
ARC
  5
6A9
100
AcDbEntity
  8
11_COMPONENT
100
AcDbCircle
 62
9
  6
CONTINUOUS
 10
146.7318576413
 20
49.4367307692
 40
0.6999571137
100
AcDbArc
 50
270.0
 51
350.0
  0
ARC
  5
6AA
100
AcDbEntity
  8
11_COMPONENT
100
AcDbCircle
 62
7
  6
CONTINUOUS
 10
146.7318576413
 20
49.4367307692
 40
0.5
100
AcDbArc
 50
270.0
 51
350.0
  0
ARC
  5
6AB
100
AcDbEntity
  8
11_COMPONENT
100
AcDbCircle
 62
7
  6
CONTINUOUS
 10
146.0823055166
 20
51.3367307692
 40
0.5
100
AcDbArc
 50
90.0
 51
170.0
  0
ARC
  5
6AC
100
AcDbEntity
  8
11_COMPONENT
100
AcDbCircle
 62
7
  6
CONTINUOUS
 10
146.0117747243
 20
50.9367307692
 40
0.5
100
AcDbArc
 50
170.0
 51
270.0
  0
ARC
  5
6AD
100
AcDbEntity
  8
11_COMPONENT
100
AcDbCircle
 62
9
  6
CONTINUOUS
 10
146.0823055166
 20
51.3367307692
 40
0.2999994813
100
AcDbArc
 50
90.0
 51
170.0
  0
ARC
  5
6AE
100
AcDbEntity
  8
11_COMPONENT
100
AcDbCircle
 62
9
  6
CONTINUOUS
 10
146.0117747243
 20
50.9367307692
 40
0.2999959169
100
AcDbArc
 50
170.0
 51
270.0
  0
ARC
  5
6AF
100
AcDbEntity
  8
11_COMPONENT
100
AcDbCircle
 62
7
  6
CONTINUOUS
 10
146.5936537606
 20
54.2367307692
 40
0.5
100
AcDbArc
 50
90.0
 51
170.0
  0
ARC
  5
6B0
100
AcDbEntity
  8
11_COMPONENT
100
AcDbCircle
 62
7
  6
CONTINUOUS
 10
146.5231229683
 20
53.8367307692
 40
0.5
100
AcDbArc
 50
170.0
 51
270.0
  0
ARC
  5
6B1
100
AcDbEntity
  8
11_COMPONENT
100
AcDbCircle
 62
9
  6
CONTINUOUS
 10
146.5936537606
 20
54.2367307692
 40
0.2999994813
100
AcDbArc
 50
90.0
 51
170.0
  0
ARC
  5
6B2
100
AcDbEntity
  8
11_COMPONENT
100
AcDbCircle
 62
9
  6
CONTINUOUS
 10
146.5231229683
 20
53.8367307692
 40
0.2999959169
100
AcDbArc
 50
170.0
 51
270.0
  0
ARC
  5
6B3
100
AcDbEntity
  8
11_COMPONENT
100
AcDbCircle
 62
9
  6
CONTINUOUS
 10
146.8200211317
 20
49.9367307692
 40
0.6999998815
100
AcDbArc
 50
350.0
 51
90.0
  0
ARC
  5
6B4
100
AcDbEntity
  8
11_COMPONENT
100
AcDbCircle
 62
7
  6
CONTINUOUS
 10
146.8200211317
 20
49.9367307692
 40
0.5
100
AcDbArc
 50
350.0
 51
90.0
  0
ARC
  5
6B5
100
AcDbEntity
  8
11_COMPONENT
100
AcDbCircle
 62
9
  6
CONTINUOUS
 10
147.3313693757
 20
52.8367307692
 40
0.6999998815
100
AcDbArc
 50
350.0
 51
90.0
  0
ARC
  5
6B6
100
AcDbEntity
  8
11_COMPONENT
100
AcDbCircle
 62
9
  6
CONTINUOUS
 10
147.2432058854
 20
52.3367307692
 40
0.6999571137
100
AcDbArc
 50
270.0
 51
350.0
  0
ARC
  5
6B7
100
AcDbEntity
  8
11_COMPONENT
100
AcDbCircle
 62
7
  6
CONTINUOUS
 10
147.2432058854
 20
52.3367307692
 40
0.5
100
AcDbArc
 50
270.0
 51
350.0
  0
ARC
  5
6B8
100
AcDbEntity
  8
11_COMPONENT
100
AcDbCircle
 62
7
  6
CONTINUOUS
 10
147.3313693757
 20
52.8367307692
 40
0.5
100
AcDbArc
 50
350.0
 51
90.0
  0
CIRCLE
  5
6B9
100
AcDbEntity
  8
11_COMPONENT
100
AcDbCircle
 62
7
  6
CONTINUOUS
 10
177.4229631606
 20
48.5367307692
 40
2.7
  0
CIRCLE
  5
6BA
100
AcDbEntity
  8
11_COMPONENT
100
AcDbCircle
 62
7
  6
CONTINUOUS
 10
163.4229631606
 20
48.5367307692
 40
2.7
  0
CIRCLE
  5
6BB
100
AcDbEntity
  8
11_COMPONENT
100
AcDbCircle
 62
7
  6
CONTINUOUS
 10
163.4320333657
 20
48.5367307692
 40
2.5
  0
CIRCLE
  5
6BC
100
AcDbEntity
  8
11_COMPONENT
100
AcDbCircle
 62
7
  6
CONTINUOUS
 10
177.4320333657
 20
48.5367307692
 40
2.5
  0
CIRCLE
  5
6BD
100
AcDbEntity
  8
11_COMPONENT
100
AcDbCircle
 62
7
  6
CONTINUOUS
 10
163.4320333657
 20
48.5367307692
 40
1.8
  0
CIRCLE
  5
6BE
100
AcDbEntity
  8
11_COMPONENT
100
AcDbCircle
 62
7
  6
CONTINUOUS
 10
177.4320333657
 20
48.5367307692
 40
1.8
  0
CIRCLE
  5
6BF
100
AcDbEntity
  8
11_COMPONENT
100
AcDbCircle
 62
7
  6
CONTINUOUS
 10
200.3229631606
 20
54.0367307692
 40
5.95
  0
ARC
  5
6C0
100
AcDbEntity
  8
11_COMPONENT
100
AcDbCircle
 62
7
  6
CONTINUOUS
 10
200.1820333657
 20
54.1367307692
 40
5.75
100
AcDbArc
 50
13.115897196
 51
166.884102804
  0
ARC
  5
6C1
100
AcDbEntity
  8
11_COMPONENT
100
AcDbCircle
 62
7
  6
CONTINUOUS
 10
200.1820333657
 20
54.1367307692
 40
5.75
100
AcDbArc
 50
193.115897196
 51
346.884102804
  0
ARC
  5
6C2
100
AcDbEntity
  8
11_COMPONENT
100
AcDbCircle
 62
7
  6
CONTINUOUS
 10
200.1820333657
 20
54.1367307692
 40
4.75
100
AcDbArc
 50
194.4373009655
 51
345.5626990345
  0
ARC
  5
6C3
100
AcDbEntity
  8
11_COMPONENT
100
AcDbCircle
 62
7
  6
CONTINUOUS
 10
200.1820333657
 20
54.1367307692
 40
4.75
100
AcDbArc
 50
14.4373009655
 51
165.5626990345
  0
CIRCLE
  5
6C4
100
AcDbEntity
  8
11_COMPONENT
100
AcDbCircle
 62
7
  6
CONTINUOUS
 10
200.1820333657
 20
54.1367307692
 40
4.15
  0
CIRCLE
  5
6C5
100
AcDbEntity
  8
11_COMPONENT
100
AcDbCircle
 62
7
  6
CONTINUOUS
 10
200.1820333657
 20
54.1367307692
 40
2.5
  0
CIRCLE
  5
6C6
100
AcDbEntity
  8
11_COMPONENT
100
AcDbCircle
 62
7
  6
CONTINUOUS
 10
200.1820333657
 20
54.1367307692
 40
0.75
  0
CIRCLE
  5
6C7
100
AcDbEntity
  8
11_COMPONENT
100
AcDbCircle
 62
7
  6
CONTINUOUS
 10
219.3229631606
 20
54.0367307692
 40
5.95
  0
ARC
  5
6C8
100
AcDbEntity
  8
11_COMPONENT
100
AcDbCircle
 62
7
  6
CONTINUOUS
 10
219.1820333657
 20
54.1367307692
 40
5.75
100
AcDbArc
 50
13.115897196
 51
166.884102804
  0
ARC
  5
6C9
100
AcDbEntity
  8
11_COMPONENT
100
AcDbCircle
 62
7
  6
CONTINUOUS
 10
219.1820333657
 20
54.1367307692
 40
5.75
100
AcDbArc
 50
193.115897196
 51
346.884102804
  0
ARC
  5
6CA
100
AcDbEntity
  8
11_COMPONENT
100
AcDbCircle
 62
7
  6
CONTINUOUS
 10
219.1820333657
 20
54.1367307692
 40
4.75
100
AcDbArc
 50
194.4373009655
 51
345.5626990345
  0
ARC
  5
6CB
100
AcDbEntity
  8
11_COMPONENT
100
AcDbCircle
 62
7
  6
CONTINUOUS
 10
219.1820333657
 20
54.1367307692
 40
4.75
100
AcDbArc
 50
14.4373009655
 51
165.5626990345
  0
CIRCLE
  5
6CC
100
AcDbEntity
  8
11_COMPONENT
100
AcDbCircle
 62
7
  6
CONTINUOUS
 10
219.1820333657
 20
54.1367307692
 40
4.15
  0
CIRCLE
  5
6CD
100
AcDbEntity
  8
11_COMPONENT
100
AcDbCircle
 62
7
  6
CONTINUOUS
 10
219.1820333657
 20
54.1367307692
 40
2.5
  0
CIRCLE
  5
6CE
100
AcDbEntity
  8
11_COMPONENT
100
AcDbCircle
 62
7
  6
CONTINUOUS
 10
219.1820333657
 20
54.1367307692
 40
0.75
  0
ARC
  5
6CF
100
AcDbEntity
  8
11_COMPONENT
100
AcDbCircle
 62
7
  6
CONTINUOUS
 10
-28.286062701
 20
54.4423176705
 40
326.0587143615
100
AcDbArc
 50
0.0779854948
 51
0.2856062127
  0
ARC
  5
6D0
100
AcDbEntity
  8
11_COMPONENT
100
AcDbCircle
 62
7
  6
CONTINUOUS
 10
-173.086062701
 20
54.4423176705
 40
326.0587143615
100
AcDbArc
 50
0.0779854948
 51
0.2856062127
  0
ARC
  5
6D1
100
AcDbEntity
  8
11_COMPONENT
100
AcDbCircle
 62
7
  6
CONTINUOUS
 10
147.1050020047
 20
57.1367307692
 40
0.5
100
AcDbArc
 50
90.0
 51
170.0
  0
ARC
  5
6D2
100
AcDbEntity
  8
11_COMPONENT
100
AcDbCircle
 62
7
  6
CONTINUOUS
 10
147.0344712124
 20
56.7367307692
 40
0.5
100
AcDbArc
 50
170.0
 51
270.0
  0
ARC
  5
6D3
100
AcDbEntity
  8
11_COMPONENT
100
AcDbCircle
 62
9
  6
CONTINUOUS
 10
147.1050020047
 20
57.1367307692
 40
0.2999994813
100
AcDbArc
 50
90.0
 51
170.0
  0
ARC
  5
6D4
100
AcDbEntity
  8
11_COMPONENT
100
AcDbCircle
 62
9
  6
CONTINUOUS
 10
147.0344712124
 20
56.7367307692
 40
0.2999959169
100
AcDbArc
 50
170.0
 51
270.0
  0
ARC
  5
6D5
100
AcDbEntity
  8
11_COMPONENT
100
AcDbCircle
 62
9
  6
CONTINUOUS
 10
147.8427176198
 20
55.7367307692
 40
0.6999998815
100
AcDbArc
 50
350.0
 51
90.0
  0
ARC
  5
6D6
100
AcDbEntity
  8
11_COMPONENT
100
AcDbCircle
 62
9
  6
CONTINUOUS
 10
147.7545541294
 20
55.2367307692
 40
0.6999571137
100
AcDbArc
 50
270.0
 51
350.0
  0
ARC
  5
6D7
100
AcDbEntity
  8
11_COMPONENT
100
AcDbCircle
 62
7
  6
CONTINUOUS
 10
147.7545541294
 20
55.2367307692
 40
0.5
100
AcDbArc
 50
270.0
 51
350.0
  0
ARC
  5
6D8
100
AcDbEntity
  8
11_COMPONENT
100
AcDbCircle
 62
7
  6
CONTINUOUS
 10
147.8427176198
 20
55.7367307692
 40
0.5
100
AcDbArc
 50
350.0
 51
90.0
  0
ARC
  5
6D9
100
AcDbEntity
  8
11_COMPONENT
100
AcDbCircle
 62
9
  6
CONTINUOUS
 10
148.2659023735
 20
58.1367307692
 40
0.6999571137
100
AcDbArc
 50
270.0
 51
350.0
  0
ARC
  5
6DA
100
AcDbEntity
  8
11_COMPONENT
100
AcDbCircle
 62
7
  6
CONTINUOUS
 10
148.2659023735
 20
58.1367307692
 40
0.5
100
AcDbArc
 50
270.0
 51
350.0
  0
ARC
  5
6DB
100
AcDbEntity
  8
11_COMPONENT
100
AcDbCircle
 62
9
  6
CONTINUOUS
 10
149.2302163763
 20
63.6056272417
 40
0.6999958018
100
AcDbArc
 50
350.0
 51
35.0
  0
ARC
  5
6DC
100
AcDbEntity
  8
11_COMPONENT
100
AcDbCircle
 62
7
  6
CONTINUOUS
 10
149.2302163763
 20
63.6056272417
 40
0.5
100
AcDbArc
 50
350.0
 51
35.0
  0
CIRCLE
  5
6DD
100
AcDbEntity
  8
11_COMPONENT
100
AcDbCircle
 62
7
  6
CONTINUOUS
 10
152.5229631607
 20
54.4367307692
 40
3.1043457495
  0
CIRCLE
  5
6DE
100
AcDbEntity
  8
11_COMPONENT
100
AcDbCircle
 62
9
  6
CONTINUOUS
 10
152.5229631607
 20
54.4367307692
 40
3.1024427169
  0
CIRCLE
  5
6DF
100
AcDbEntity
  8
11_COMPONENT
100
AcDbCircle
 62
9
  6
CONTINUOUS
 10
152.5229631607
 20
54.4367307692
 40
3.0499495253
  0
CIRCLE
  5
6E0
100
AcDbEntity
  8
11_COMPONENT
100
AcDbCircle
 62
9
  6
CONTINUOUS
 10
152.5229631606
 20
54.4367307692
 40
2.6677474886
  0
ARC
  5
6E1
100
AcDbEntity
  8
11_COMPONENT
100
AcDbCircle
 62
7
  6
CONTINUOUS
 10
152.5229631606
 20
54.4367307692
 40
1.6906957911
100
AcDbArc
 50
74.7166747417
 51
105.2833258305
  0
ARC
  5
6E2
100
AcDbEntity
  8
11_COMPONENT
100
AcDbCircle
 62
7
  6
CONTINUOUS
 10
152.5229631606
 20
54.4367307692
 40
1.6906588003
100
AcDbArc
 50
164.7175031869
 51
195.2823382937
  0
ARC
  5
6E3
100
AcDbEntity
  8
11_COMPONENT
100
AcDbCircle
 62
7
  6
CONTINUOUS
 10
152.5229631606
 20
54.4367307692
 40
1.690658709
100
AcDbArc
 50
344.7176622885
 51
15.2824963121
  0
ARC
  5
6E4
100
AcDbEntity
  8
11_COMPONENT
100
AcDbCircle
 62
7
  6
CONTINUOUS
 10
152.5229631606
 20
54.4367307692
 40
1.6906107389
100
AcDbArc
 50
254.7170985318
 51
285.2829009674
  0
ARC
  5
6E5
100
AcDbEntity
  8
11_COMPONENT
100
AcDbCircle
 62
9
  6
CONTINUOUS
 10
152.5229631606
 20
54.4367307692
 40
1.2102977505
100
AcDbArc
 50
250.1813224771
 51
289.8186775229
  0
ARC
  5
6E6
100
AcDbEntity
  8
11_COMPONENT
100
AcDbCircle
 62
9
  6
CONTINUOUS
 10
152.5229631606
 20
54.4367307692
 40
1.2102938939
100
AcDbArc
 50
160.1842718039
 51
199.8168329286
  0
ARC
  5
6E7
100
AcDbEntity
  8
11_COMPONENT
100
AcDbCircle
 62
9
  6
CONTINUOUS
 10
152.5229631606
 20
54.4367307692
 40
1.2102938913
100
AcDbArc
 50
340.1831670714
 51
19.8157281961
  0
ARC
  5
6E8
100
AcDbEntity
  8
11_COMPONENT
100
AcDbCircle
 62
9
  6
CONTINUOUS
 10
152.5229631606
 20
54.4367307692
 40
1.2102884435
100
AcDbArc
 50
70.1849193512
 51
109.8150806488
  0
CIRCLE
  5
6E9
100
AcDbEntity
  8
11_COMPONENT
100
AcDbCircle
 62
9
  6
CONTINUOUS
 10
152.5229631606
 20
54.4367307692
 40
0.3972512605
  0
ARC
  5
6EA
100
AcDbEntity
  8
11_COMPONENT
100
AcDbCircle
 62
7
  6
CONTINUOUS
 10
153.2353265725
 20
66.3367307692
 40
3.5
100
AcDbArc
 50
90.0
 51
170.0
  0
ARC
  5
6EB
100
AcDbEntity
  8
11_COMPONENT
100
AcDbCircle
 62
7
  6
CONTINUOUS
 10
154.5244262037
 20
64.8367307692
 40
3.5
100
AcDbArc
 50
90.0
 51
170.0
  0
ARC
  5
6EC
100
AcDbEntity
  8
11_COMPONENT
100
AcDbCircle
 62
7
  6
CONTINUOUS
 10
154.5728287456
 20
64.9367307692
 40
3.3
100
AcDbArc
 50
90.0
 51
170.0
  0
ARC
  5
6ED
100
AcDbEntity
  8
11_COMPONENT
100
AcDbCircle
 62
9
  6
CONTINUOUS
 10
153.2353265725
 20
66.3367307692
 40
3.2999914047
100
AcDbArc
 50
90.0
 51
170.0
  0
ARC
  5
6EE
100
AcDbEntity
  8
11_COMPONENT
100
AcDbCircle
 62
9
  6
CONTINUOUS
 10
158.0055846446
 20
69.8367307692
 40
0.6999945067
100
AcDbArc
 50
225.0
 51
270.0
  0
ARC
  5
6EF
100
AcDbEntity
  8
11_COMPONENT
100
AcDbCircle
 62
7
  6
CONTINUOUS
 10
157.0913710822
 20
69.3367307692
 40
0.5
100
AcDbArc
 50
45.0
 51
90.0
  0
ARC
  5
6F0
100
AcDbEntity
  8
11_COMPONENT
100
AcDbCircle
 62
7
  6
CONTINUOUS
 10
158.0055846446
 20
69.8367307692
 40
0.5
100
AcDbArc
 50
225.0
 51
270.0
  0
ARC
  5
6F1
100
AcDbEntity
  8
11_COMPONENT
100
AcDbCircle
 62
9
  6
CONTINUOUS
 10
157.0913710822
 20
69.3367307692
 40
0.2999999094
100
AcDbArc
 50
45.0
 51
90.0
  0
ARC
  5
6F2
100
AcDbEntity
  8
11_COMPONENT
100
AcDbCircle
 62
7
  6
CONTINUOUS
 10
152.5285901458
 20
380.0331236323
 40
326.0460813201
100
AcDbArc
 50
270.0779814725
 51
270.2856102349
  0
ARC
  5
6F3
100
AcDbEntity
  8
11_COMPONENT
100
AcDbCircle
 62
7
  6
CONTINUOUS
 10
152.5125019482
 20
378.5095471255
 40
324.5224996566
100
AcDbArc
 50
269.7139023725
 51
269.9225059201
  0
CIRCLE
  5
6F4
100
AcDbEntity
  8
11_COMPONENT
100
AcDbCircle
 62
7
  6
CONTINUOUS
 10
238.3229631606
 20
54.0367307692
 40
5.95
  0
ARC
  5
6F5
100
AcDbEntity
  8
11_COMPONENT
100
AcDbCircle
 62
7
  6
CONTINUOUS
 10
238.1820333657
 20
54.1367307692
 40
5.75
100
AcDbArc
 50
13.115897196
 51
166.884102804
  0
ARC
  5
6F6
100
AcDbEntity
  8
11_COMPONENT
100
AcDbCircle
 62
7
  6
CONTINUOUS
 10
238.1820333657
 20
54.1367307692
 40
5.75
100
AcDbArc
 50
193.115897196
 51
346.884102804
  0
ARC
  5
6F7
100
AcDbEntity
  8
11_COMPONENT
100
AcDbCircle
 62
7
  6
CONTINUOUS
 10
238.1820333657
 20
54.1367307692
 40
4.75
100
AcDbArc
 50
194.4373009655
 51
345.5626990345
  0
ARC
  5
6F8
100
AcDbEntity
  8
11_COMPONENT
100
AcDbCircle
 62
7
  6
CONTINUOUS
 10
238.1820333657
 20
54.1367307692
 40
4.75
100
AcDbArc
 50
14.4373009655
 51
165.5626990345
  0
CIRCLE
  5
6F9
100
AcDbEntity
  8
11_COMPONENT
100
AcDbCircle
 62
7
  6
CONTINUOUS
 10
238.1820333657
 20
54.1367307692
 40
4.15
  0
CIRCLE
  5
6FA
100
AcDbEntity
  8
11_COMPONENT
100
AcDbCircle
 62
7
  6
CONTINUOUS
 10
238.1820333657
 20
54.1367307692
 40
2.5
  0
CIRCLE
  5
6FB
100
AcDbEntity
  8
11_COMPONENT
100
AcDbCircle
 62
7
  6
CONTINUOUS
 10
238.1820333657
 20
54.1367307692
 40
0.75
  0
CIRCLE
  5
6FC
100
AcDbEntity
  8
11_COMPONENT
100
AcDbCircle
 62
7
  6
CONTINUOUS
 10
274.3229631606
 20
48.6367307692
 40
1.6
  0
CIRCLE
  5
6FD
100
AcDbEntity
  8
11_COMPONENT
100
AcDbCircle
 62
7
  6
CONTINUOUS
 10
274.3120333657
 20
48.5767307692
 40
1.5
  0
CIRCLE
  5
6FE
100
AcDbEntity
  8
11_COMPONENT
100
AcDbCircle
 62
7
  6
CONTINUOUS
 10
257.3229631606
 20
54.0367307692
 40
5.95
  0
ARC
  5
6FF
100
AcDbEntity
  8
11_COMPONENT
100
AcDbCircle
 62
7
  6
CONTINUOUS
 10
257.1820333657
 20
54.1367307692
 40
5.75
100
AcDbArc
 50
13.115897196
 51
166.884102804
  0
ARC
  5
700
100
AcDbEntity
  8
11_COMPONENT
100
AcDbCircle
 62
7
  6
CONTINUOUS
 10
257.1820333657
 20
54.1367307692
 40
5.75
100
AcDbArc
 50
193.115897196
 51
346.884102804
  0
ARC
  5
701
100
AcDbEntity
  8
11_COMPONENT
100
AcDbCircle
 62
7
  6
CONTINUOUS
 10
257.1820333657
 20
54.1367307692
 40
4.75
100
AcDbArc
 50
194.4373009655
 51
345.5626990345
  0
ARC
  5
702
100
AcDbEntity
  8
11_COMPONENT
100
AcDbCircle
 62
7
  6
CONTINUOUS
 10
257.1820333657
 20
54.1367307692
 40
4.75
100
AcDbArc
 50
14.4373009655
 51
165.5626990345
  0
CIRCLE
  5
703
100
AcDbEntity
  8
11_COMPONENT
100
AcDbCircle
 62
7
  6
CONTINUOUS
 10
257.1820333657
 20
54.1367307692
 40
4.15
  0
CIRCLE
  5
704
100
AcDbEntity
  8
11_COMPONENT
100
AcDbCircle
 62
7
  6
CONTINUOUS
 10
257.1820333657
 20
54.1367307692
 40
2.5
  0
CIRCLE
  5
705
100
AcDbEntity
  8
11_COMPONENT
100
AcDbCircle
 62
7
  6
CONTINUOUS
 10
274.3229631606
 20
53.6367307692
 40
1.6
  0
CIRCLE
  5
706
100
AcDbEntity
  8
11_COMPONENT
100
AcDbCircle
 62
7
  6
CONTINUOUS
 10
274.3120333657
 20
53.6567307692
 40
1.5
  0
CIRCLE
  5
707
100
AcDbEntity
  8
11_COMPONENT
100
AcDbCircle
 62
7
  6
CONTINUOUS
 10
257.1820333657
 20
54.1367307692
 40
0.75
  0
ARC
  5
708
100
AcDbEntity
  8
11_COMPONENT
100
AcDbCircle
 62
7
  6
CONTINUOUS
 10
297.3173762502
 20
-271.1722922297
 40
326.0587114988
100
AcDbArc
 50
90.0779854938
 51
90.2856062136
  0
ARC
  5
709
100
AcDbEntity
  8
11_COMPONENT
100
AcDbCircle
 62
7
  6
CONTINUOUS
 10
297.3333893576
 20
-269.647121223
 40
324.5335353299
100
AcDbArc
 50
89.7139059193
 51
89.9225023733
  0
ARC
  5
70A
100
AcDbEntity
  8
11_COMPONENT
100
AcDbCircle
 62
7
  6
CONTINUOUS
 10
297.3225807188
 20
35.8367307692
 40
0.5
100
AcDbArc
 50
45.0
 51
90.0
  0
CIRCLE
  5
70B
100
AcDbEntity
  8
11_COMPONENT
100
AcDbCircle
 62
7
  6
CONTINUOUS
 10
281.3229631606
 20
48.6367307692
 40
1.6
  0
CIRCLE
  5
70C
100
AcDbEntity
  8
11_COMPONENT
100
AcDbCircle
 62
7
  6
CONTINUOUS
 10
281.3229631606
 20
53.6367307692
 40
1.6
  0
CIRCLE
  5
70D
100
AcDbEntity
  8
11_COMPONENT
100
AcDbCircle
 62
7
  6
CONTINUOUS
 10
281.3120333657
 20
48.5767307692
 40
1.5
  0
CIRCLE
  5
70E
100
AcDbEntity
  8
11_COMPONENT
100
AcDbCircle
 62
7
  6
CONTINUOUS
 10
281.3120333657
 20
53.6567307692
 40
1.5
  0
CIRCLE
  5
70F
100
AcDbEntity
  8
11_COMPONENT
100
AcDbCircle
 62
7
  6
CONTINUOUS
 10
290.3229631606
 20
50.0367307692
 40
1.3
  0
ARC
  5
710
100
AcDbEntity
  8
11_COMPONENT
100
AcDbCircle
 62
7
  6
CONTINUOUS
 10
299.5667963333
 20
40.8367307692
 40
3.5
100
AcDbArc
 50
270.0
 51
10.0
  0
ARC
  5
711
100
AcDbEntity
  8
11_COMPONENT
100
AcDbCircle
 62
7
  6
CONTINUOUS
 10
299.6057158124
 20
40.7367307692
 40
3.3
100
AcDbArc
 50
270.0
 51
10.0
  0
ARC
  5
712
100
AcDbEntity
  8
11_COMPONENT
100
AcDbCircle
 62
9
  6
CONTINUOUS
 10
304.0620503564
 20
44.1367307692
 40
0.6999987745
100
AcDbArc
 50
90.0
 51
190.0
  0
ARC
  5
713
100
AcDbEntity
  8
11_COMPONENT
100
AcDbCircle
 62
9
  6
CONTINUOUS
 10
304.998346624
 20
38.8267307692
 40
0.6999536373
100
AcDbArc
 50
190.0
 51
270.0
  0
ARC
  5
714
100
AcDbEntity
  8
11_COMPONENT
100
AcDbCircle
 62
7
  6
CONTINUOUS
 10
298.2467942812
 20
36.3267307692
 40
0.5
100
AcDbArc
 50
225.0
 51
270.0
  0
ARC
  5
715
100
AcDbEntity
  8
11_COMPONENT
100
AcDbCircle
 62
7
  6
CONTINUOUS
 10
304.0620503564
 20
44.1367307692
 40
0.5
100
AcDbArc
 50
90.0
 51
190.0
  0
ARC
  5
716
100
AcDbEntity
  8
11_COMPONENT
100
AcDbCircle
 62
7
  6
CONTINUOUS
 10
304.998346624
 20
38.8267307692
 40
0.5
100
AcDbArc
 50
190.0
 51
270.0
  0
ARC
  5
717
100
AcDbEntity
  8
11_COMPONENT
100
AcDbCircle
 62
7
  6
CONTINUOUS
 10
313.7496875
 20
38.1267307692
 40
0.2
100
AcDbArc
 50
0.0
 51
90.0
  0
ARC
  5
718
100
AcDbEntity
  8
11_COMPONENT
100
AcDbCircle
 62
9
  6
CONTINUOUS
 10
303.5507021124
 20
47.0367307692
 40
0.6999987745
100
AcDbArc
 50
90.0
 51
190.0
  0
ARC
  5
719
100
AcDbEntity
  8
11_COMPONENT
100
AcDbCircle
 62
9
  6
CONTINUOUS
 10
303.1275173587
 20
49.4367307692
 40
0.6999536373
100
AcDbArc
 50
190.0
 51
270.0
  0
ARC
  5
71A
100
AcDbEntity
  8
11_COMPONENT
100
AcDbCircle
 62
9
  6
CONTINUOUS
 10
303.6388656027
 20
46.5367307692
 40
0.6999536373
100
AcDbArc
 50
190.0
 51
270.0
  0
ARC
  5
71B
100
AcDbEntity
  8
11_COMPONENT
100
AcDbCircle
 62
7
  6
CONTINUOUS
 10
303.6388656027
 20
46.5367307692
 40
0.5
100
AcDbArc
 50
190.0
 51
270.0
  0
ARC
  5
71C
100
AcDbEntity
  8
11_COMPONENT
100
AcDbCircle
 62
7
  6
CONTINUOUS
 10
303.1275173587
 20
49.4367307692
 40
0.5
100
AcDbArc
 50
190.0
 51
270.0
  0
ARC
  5
71D
100
AcDbEntity
  8
11_COMPONENT
100
AcDbCircle
 62
7
  6
CONTINUOUS
 10
303.5507021124
 20
47.0367307692
 40
0.5
100
AcDbArc
 50
90.0
 51
190.0
  0
ARC
  5
71E
100
AcDbEntity
  8
11_COMPONENT
100
AcDbCircle
 62
9
  6
CONTINUOUS
 10
302.5280056243
 20
52.8367307692
 40
0.6999987745
100
AcDbArc
 50
90.0
 51
190.0
  0
ARC
  5
71F
100
AcDbEntity
  8
11_COMPONENT
100
AcDbCircle
 62
9
  6
CONTINUOUS
 10
302.6161691146
 20
52.3367307692
 40
0.6999536373
100
AcDbArc
 50
190.0
 51
270.0
  0
ARC
  5
720
100
AcDbEntity
  8
11_COMPONENT
100
AcDbCircle
 62
7
  6
CONTINUOUS
 10
302.6161691146
 20
52.3367307692
 40
0.5
100
AcDbArc
 50
190.0
 51
270.0
  0
ARC
  5
721
100
AcDbEntity
  8
11_COMPONENT
100
AcDbCircle
 62
7
  6
CONTINUOUS
 10
302.5280056243
 20
52.8367307692
 40
0.5
100
AcDbArc
 50
90.0
 51
190.0
  0
ARC
  5
722
100
AcDbEntity
  8
11_COMPONENT
100
AcDbCircle
 62
9
  6
CONTINUOUS
 10
303.0393538683
 20
49.9367307692
 40
0.6999987745
100
AcDbArc
 50
90.0
 51
190.0
  0
ARC
  5
723
100
AcDbEntity
  8
11_COMPONENT
100
AcDbCircle
 62
7
  6
CONTINUOUS
 10
303.0393538683
 20
49.9367307692
 40
0.5
100
AcDbArc
 50
90.0
 51
190.0
  0
ARC
  5
724
100
AcDbEntity
  8
11_COMPONENT
100
AcDbCircle
 62
7
  6
CONTINUOUS
 10
303.2657212394
 20
54.2367307692
 40
0.5
100
AcDbArc
 50
10.0
 51
90.0
  0
ARC
  5
725
100
AcDbEntity
  8
11_COMPONENT
100
AcDbCircle
 62
7
  6
CONTINUOUS
 10
303.3362520317
 20
53.8367307692
 40
0.5
100
AcDbArc
 50
270.0
 51
10.0
  0
ARC
  5
726
100
AcDbEntity
  8
11_COMPONENT
100
AcDbCircle
 62
9
  6
CONTINUOUS
 10
303.2657212394
 20
54.2367307692
 40
0.2999994813
100
AcDbArc
 50
10.0
 51
90.0
  0
ARC
  5
727
100
AcDbEntity
  8
11_COMPONENT
100
AcDbCircle
 62
9
  6
CONTINUOUS
 10
303.3362520317
 20
53.8367307692
 40
0.2999959169
100
AcDbArc
 50
270.0
 51
10.0
  0
ARC
  5
728
100
AcDbEntity
  8
11_COMPONENT
100
AcDbCircle
 62
7
  6
CONTINUOUS
 10
304.8702967638
 20
45.1367307692
 40
0.5
100
AcDbArc
 50
270.0
 51
10.0
  0
ARC
  5
729
100
AcDbEntity
  8
11_COMPONENT
100
AcDbCircle
 62
7
  6
CONTINUOUS
 10
304.7997659715
 20
45.5367307692
 40
0.5
100
AcDbArc
 50
10.0
 51
90.0
  0
ARC
  5
72A
100
AcDbEntity
  8
11_COMPONENT
100
AcDbCircle
 62
7
  6
CONTINUOUS
 10
304.2884177275
 20
48.4367307692
 40
0.5
100
AcDbArc
 50
10.0
 51
90.0
  0
ARC
  5
72B
100
AcDbEntity
  8
11_COMPONENT
100
AcDbCircle
 62
7
  6
CONTINUOUS
 10
304.3589485198
 20
48.0367307692
 40
0.5
100
AcDbArc
 50
270.0
 51
10.0
  0
ARC
  5
72C
100
AcDbEntity
  8
11_COMPONENT
100
AcDbCircle
 62
9
  6
CONTINUOUS
 10
304.2884177275
 20
48.4367307692
 40
0.2999994813
100
AcDbArc
 50
10.0
 51
90.0
  0
ARC
  5
72D
100
AcDbEntity
  8
11_COMPONENT
100
AcDbCircle
 62
9
  6
CONTINUOUS
 10
304.7997659715
 20
45.5367307692
 40
0.2999994813
100
AcDbArc
 50
10.0
 51
90.0
  0
ARC
  5
72E
100
AcDbEntity
  8
11_COMPONENT
100
AcDbCircle
 62
9
  6
CONTINUOUS
 10
304.3589485198
 20
48.0367307692
 40
0.2999959169
100
AcDbArc
 50
270.0
 51
10.0
  0
ARC
  5
72F
100
AcDbEntity
  8
11_COMPONENT
100
AcDbCircle
 62
9
  6
CONTINUOUS
 10
304.8702967638
 20
45.1367307692
 40
0.2999959169
100
AcDbArc
 50
270.0
 51
10.0
  0
ARC
  5
730
100
AcDbEntity
  8
11_COMPONENT
100
AcDbCircle
 62
7
  6
CONTINUOUS
 10
303.7770694834
 20
51.3367307692
 40
0.5
100
AcDbArc
 50
10.0
 51
90.0
  0
ARC
  5
731
100
AcDbEntity
  8
11_COMPONENT
100
AcDbCircle
 62
7
  6
CONTINUOUS
 10
303.8476002757
 20
50.9367307692
 40
0.5
100
AcDbArc
 50
270.0
 51
10.0
  0
ARC
  5
732
100
AcDbEntity
  8
11_COMPONENT
100
AcDbCircle
 62
9
  6
CONTINUOUS
 10
303.7770694834
 20
51.3367307692
 40
0.2999994813
100
AcDbArc
 50
10.0
 51
90.0
  0
ARC
  5
733
100
AcDbEntity
  8
11_COMPONENT
100
AcDbCircle
 62
9
  6
CONTINUOUS
 10
303.8476002757
 20
50.9367307692
 40
0.2999959169
100
AcDbArc
 50
270.0
 51
10.0
  0
CIRCLE
  5
734
100
AcDbEntity
  8
11_COMPONENT
100
AcDbCircle
 62
7
  6
CONTINUOUS
 10
297.3229631607
 20
54.4367307692
 40
3.1043457495
  0
CIRCLE
  5
735
100
AcDbEntity
  8
11_COMPONENT
100
AcDbCircle
 62
9
  6
CONTINUOUS
 10
297.3229631607
 20
54.4367307692
 40
3.1024427169
  0
CIRCLE
  5
736
100
AcDbEntity
  8
11_COMPONENT
100
AcDbCircle
 62
9
  6
CONTINUOUS
 10
297.3229631607
 20
54.4367307692
 40
3.0499495253
  0
CIRCLE
  5
737
100
AcDbEntity
  8
11_COMPONENT
100
AcDbCircle
 62
9
  6
CONTINUOUS
 10
297.3229631606
 20
54.4367307692
 40
2.6677474886
  0
ARC
  5
738
100
AcDbEntity
  8
11_COMPONENT
100
AcDbCircle
 62
7
  6
CONTINUOUS
 10
297.3229631606
 20
54.4367307692
 40
1.6906957911
100
AcDbArc
 50
74.7166747417
 51
105.2833258305
  0
ARC
  5
739
100
AcDbEntity
  8
11_COMPONENT
100
AcDbCircle
 62
7
  6
CONTINUOUS
 10
297.3229631606
 20
54.4367307692
 40
1.6906588003
100
AcDbArc
 50
164.7175031869
 51
195.2823382937
  0
ARC
  5
73A
100
AcDbEntity
  8
11_COMPONENT
100
AcDbCircle
 62
7
  6
CONTINUOUS
 10
297.3229631606
 20
54.4367307692
 40
1.690658709
100
AcDbArc
 50
344.7176622885
 51
15.2824963121
  0
ARC
  5
73B
100
AcDbEntity
  8
11_COMPONENT
100
AcDbCircle
 62
7
  6
CONTINUOUS
 10
297.3229631606
 20
54.4367307692
 40
1.6906107389
100
AcDbArc
 50
254.7170985318
 51
285.2829009674
  0
ARC
  5
73C
100
AcDbEntity
  8
11_COMPONENT
100
AcDbCircle
 62
9
  6
CONTINUOUS
 10
297.3229631606
 20
54.4367307692
 40
1.2102977505
100
AcDbArc
 50
250.1813224771
 51
289.8186775229
  0
ARC
  5
73D
100
AcDbEntity
  8
11_COMPONENT
100
AcDbCircle
 62
9
  6
CONTINUOUS
 10
297.3229631606
 20
54.4367307692
 40
1.2102938939
100
AcDbArc
 50
160.1842718039
 51
199.8168329286
  0
ARC
  5
73E
100
AcDbEntity
  8
11_COMPONENT
100
AcDbCircle
 62
9
  6
CONTINUOUS
 10
297.3229631606
 20
54.4367307692
 40
1.2102938913
100
AcDbArc
 50
340.1831670714
 51
19.8157281961
  0
ARC
  5
73F
100
AcDbEntity
  8
11_COMPONENT
100
AcDbCircle
 62
9
  6
CONTINUOUS
 10
297.3229631606
 20
54.4367307692
 40
1.2102884435
100
AcDbArc
 50
70.1849193512
 51
109.8150806488
  0
CIRCLE
  5
740
100
AcDbEntity
  8
11_COMPONENT
100
AcDbCircle
 62
9
  6
CONTINUOUS
 10
297.3229631606
 20
54.4367307692
 40
0.3972512605
  0
ARC
  5
741
100
AcDbEntity
  8
11_COMPONENT
100
AcDbCircle
 62
7
  6
CONTINUOUS
 10
295.0728287456
 20
64.6199934906
 40
3.6167372787
100
AcDbArc
 50
10.0
 51
90.0
  0
ARC
  5
742
100
AcDbEntity
  8
11_COMPONENT
100
AcDbCircle
 62
7
  6
CONTINUOUS
 10
296.6240484275
 20
66.3367307692
 40
3.5
100
AcDbArc
 50
10.0
 51
90.0
  0
ARC
  5
743
100
AcDbEntity
  8
11_COMPONENT
100
AcDbCircle
 62
7
  6
CONTINUOUS
 10
295.3349487963
 20
64.8367307692
 40
3.5
100
AcDbArc
 50
10.0
 51
90.0
  0
ARC
  5
744
100
AcDbEntity
  8
11_COMPONENT
100
AcDbCircle
 62
9
  6
CONTINUOUS
 10
296.6240484275
 20
66.3367307692
 40
3.2999914012
100
AcDbArc
 50
10.0
 51
90.0
  0
ARC
  5
745
100
AcDbEntity
  8
11_COMPONENT
100
AcDbCircle
 62
9
  6
CONTINUOUS
 10
291.8537903554
 20
69.8367307692
 40
0.6999958018
100
AcDbArc
 50
270.0
 51
315.0
  0
ARC
  5
746
100
AcDbEntity
  8
11_COMPONENT
100
AcDbCircle
 62
7
  6
CONTINUOUS
 10
292.7680039178
 20
69.3367307692
 40
0.5
100
AcDbArc
 50
90.0
 51
135.0
  0
ARC
  5
747
100
AcDbEntity
  8
11_COMPONENT
100
AcDbCircle
 62
7
  6
CONTINUOUS
 10
291.8537903554
 20
69.8367307692
 40
0.5
100
AcDbArc
 50
270.0
 51
315.0
  0
ARC
  5
748
100
AcDbEntity
  8
11_COMPONENT
100
AcDbCircle
 62
9
  6
CONTINUOUS
 10
292.7680039178
 20
69.3367307692
 40
0.2999999094
100
AcDbArc
 50
90.0
 51
135.0
  0
ARC
  5
749
100
AcDbEntity
  8
11_COMPONENT
100
AcDbCircle
 62
9
  6
CONTINUOUS
 10
302.0166573802
 20
55.7367307692
 40
0.6999987745
100
AcDbArc
 50
90.0
 51
190.0
  0
ARC
  5
74A
100
AcDbEntity
  8
11_COMPONENT
100
AcDbCircle
 62
9
  6
CONTINUOUS
 10
302.1048208706
 20
55.2367307692
 40
0.6999536373
100
AcDbArc
 50
190.0
 51
270.0
  0
ARC
  5
74B
100
AcDbEntity
  8
11_COMPONENT
100
AcDbCircle
 62
7
  6
CONTINUOUS
 10
302.1048208706
 20
55.2367307692
 40
0.5
100
AcDbArc
 50
190.0
 51
270.0
  0
ARC
  5
74C
100
AcDbEntity
  8
11_COMPONENT
100
AcDbCircle
 62
7
  6
CONTINUOUS
 10
302.0166573802
 20
55.7367307692
 40
0.5
100
AcDbArc
 50
90.0
 51
190.0
  0
ARC
  5
74D
100
AcDbEntity
  8
11_COMPONENT
100
AcDbCircle
 62
9
  6
CONTINUOUS
 10
301.5934726265
 20
58.1367307692
 40
0.6999536373
100
AcDbArc
 50
190.0
 51
270.0
  0
ARC
  5
74E
100
AcDbEntity
  8
11_COMPONENT
100
AcDbCircle
 62
7
  6
CONTINUOUS
 10
301.5934726265
 20
58.1367307692
 40
0.5
100
AcDbArc
 50
190.0
 51
270.0
  0
ARC
  5
74F
100
AcDbEntity
  8
11_COMPONENT
100
AcDbCircle
 62
7
  6
CONTINUOUS
 10
302.7543729953
 20
57.1367307692
 40
0.5
100
AcDbArc
 50
10.0
 51
90.0
  0
ARC
  5
750
100
AcDbEntity
  8
11_COMPONENT
100
AcDbCircle
 62
7
  6
CONTINUOUS
 10
302.8249037876
 20
56.7367307692
 40
0.5
100
AcDbArc
 50
270.0
 51
10.0
  0
ARC
  5
751
100
AcDbEntity
  8
11_COMPONENT
100
AcDbCircle
 62
9
  6
CONTINUOUS
 10
302.7543729953
 20
57.1367307692
 40
0.2999994813
100
AcDbArc
 50
10.0
 51
90.0
  0
ARC
  5
752
100
AcDbEntity
  8
11_COMPONENT
100
AcDbCircle
 62
9
  6
CONTINUOUS
 10
302.8249037876
 20
56.7367307692
 40
0.2999959169
100
AcDbArc
 50
270.0
 51
10.0
  0
ARC
  5
753
100
AcDbEntity
  8
11_COMPONENT
100
AcDbCircle
 62
9
  6
CONTINUOUS
 10
300.6291586237
 20
63.6056272417
 40
0.6999945067
100
AcDbArc
 50
145.0
 51
190.0
  0
ARC
  5
754
100
AcDbEntity
  8
11_COMPONENT
100
AcDbCircle
 62
7
  6
CONTINUOUS
 10
300.6291586237
 20
63.6056272417
 40
0.5
100
AcDbArc
 50
145.0
 51
190.0
  0
ARC
  5
755
100
AcDbEntity
  8
11_COMPONENT
100
AcDbCircle
 62
7
  6
CONTINUOUS
 10
297.3285901458
 20
380.0331236322
 40
326.04608132
100
AcDbArc
 50
270.0779814725
 51
270.2856102349
  0
ARC
  5
756
100
AcDbEntity
  8
11_COMPONENT
100
AcDbCircle
 62
7
  6
CONTINUOUS
 10
297.3125019482
 20
378.5095471255
 40
324.5224996566
100
AcDbArc
 50
269.7139023725
 51
269.9225059201
  0
ARC
  5
757
100
AcDbEntity
  8
11_COMPONENT
100
AcDbCircle
 62
7
  6
CONTINUOUS
 10
622.9319873401
 20
54.4311438626
 40
326.0587126794
100
AcDbArc
 50
180.0779854942
 51
180.2856062132
  0
ARC
  5
758
100
AcDbEntity
  8
11_COMPONENT
100
AcDbCircle
 62
7
  6
CONTINUOUS
 10
478.1319873365
 20
54.4311438626
 40
326.0587126757
100
AcDbArc
 50
180.0779854942
 51
180.2856062132
  0
ARC
  5
759
100
AcDbEntity
  8
11_COMPONENT
100
AcDbCircle
 62
7
  6
CONTINUOUS
 10
621.4066433446
 20
54.4471575113
 40
324.533363521
100
AcDbArc
 50
179.713905864
 51
179.9225024286
  0
ARC
  5
75A
100
AcDbEntity
  8
11_COMPONENT
100
AcDbCircle
 62
7
  6
CONTINUOUS
 10
476.6066432904
 20
54.4471575115
 40
324.5333634668
100
AcDbArc
 50
179.713905864
 51
179.9225024286
  0
ARC
  5
75B
100
AcDbEntity
  8
11_COMPONENT
100
AcDbCircle
 62
7
  6
CONTINUOUS
 10
152.5236569783
 20
168.8351997726
 40
11.5177439943
100
AcDbArc
 50
261.856097008
 51
267.7604756117
  0
ARC
  5
75C
100
AcDbEntity
  8
11_COMPONENT
100
AcDbCircle
 62
7
  6
CONTINUOUS
 10
152.52226939
 20
168.8351992547
 40
11.517743475
100
AcDbArc
 50
272.2395242551
 51
278.1439031252
  0
ARC
  5
75D
100
AcDbEntity
  8
11_COMPONENT
100
AcDbCircle
 62
7
  6
CONTINUOUS
 10
152.52293255
 20
168.828136771
 40
11.5106580876
100
AcDbArc
 50
266.8265026345
 51
267.7627049584
  0
ARC
  5
75E
100
AcDbEntity
  8
11_COMPONENT
100
AcDbCircle
 62
7
  6
CONTINUOUS
 10
152.5229947662
 20
168.8281146814
 40
11.510635976
100
AcDbArc
 50
272.2372943857
 51
273.1748212996
  0
ARC
  5
75F
100
AcDbEntity
  8
11_COMPONENT
100
AcDbCircle
 62
7
  6
CONTINUOUS
 10
139.9096875
 20
162.7086838942
 40
4.0
100
AcDbArc
 50
180.0
 51
270.0
  0
ARC
  5
760
100
AcDbEntity
  8
11_COMPONENT
100
AcDbCircle
 62
9
  6
CONTINUOUS
 10
139.9096875
 20
162.7086838942
 40
3.7999957027
100
AcDbArc
 50
180.0
 51
270.0
  0
ARC
  5
761
100
AcDbEntity
  8
11_COMPONENT
100
AcDbCircle
 62
7
  6
CONTINUOUS
 10
139.9096875
 20
168.7086838942
 40
2.25
100
AcDbArc
 50
180.0
 51
360.0
  0
ARC
  5
762
100
AcDbEntity
  8
11_COMPONENT
100
AcDbCircle
 62
7
  6
CONTINUOUS
 10
139.9096875
 20
169.7086838942
 40
2.25
100
AcDbArc
 50
0.0
 51
180.0
  0
CIRCLE
  5
763
100
AcDbEntity
  8
11_COMPONENT
100
AcDbCircle
 62
7
  6
CONTINUOUS
 10
200.1820333657
 20
151.3986838942
 40
1.0
  0
CIRCLE
  5
764
100
AcDbEntity
  8
11_COMPONENT
100
AcDbCircle
 62
7
  6
CONTINUOUS
 10
219.1820333657
 20
151.3986838942
 40
1.0
  0
ARC
  5
765
100
AcDbEntity
  8
11_COMPONENT
100
AcDbCircle
 62
7
  6
CONTINUOUS
 10
155.1273089101
 20
158.7086838942
 40
0.5
100
AcDbArc
 50
354.9997003677
 51
0.0032749195
  0
ARC
  5
766
100
AcDbEntity
  8
11_COMPONENT
100
AcDbCircle
 62
7
  6
CONTINUOUS
 10
155.074815712
 20
158.1086838942
 40
0.5
100
AcDbArc
 50
283.4071458635
 51
354.9992880758
  0
ARC
  5
767
100
AcDbEntity
  8
11_COMPONENT
100
AcDbCircle
 62
7
  6
CONTINUOUS
 10
149.9711106093
 20
158.1086838942
 40
0.5
100
AcDbArc
 50
185.0004873164
 51
256.5929687088
  0
ARC
  5
768
100
AcDbEntity
  8
11_COMPONENT
100
AcDbCircle
 62
7
  6
CONTINUOUS
 10
149.9186174112
 20
158.7086838942
 40
0.5
100
AcDbArc
 50
179.9967252886
 51
185.0004957039
  0
ARC
  5
769
100
AcDbEntity
  8
11_COMPONENT
100
AcDbCircle
 62
7
  6
CONTINUOUS
 10
144.6890782362
 20
158.9086838942
 40
0.2
100
AcDbArc
 50
180.0
 51
270.0000969476
  0
ARC
  5
76A
100
AcDbEntity
  8
11_COMPONENT
100
AcDbCircle
 62
7
  6
CONTINUOUS
 10
145.2004264802
 20
158.9086838942
 40
0.2
100
AcDbArc
 50
180.0
 51
270.0000969476
  0
ARC
  5
76B
100
AcDbEntity
  8
11_COMPONENT
100
AcDbCircle
 62
7
  6
CONTINUOUS
 10
145.7117747243
 20
158.9086838942
 40
0.2
100
AcDbArc
 50
180.0
 51
270.0000969476
  0
ARC
  5
76C
100
AcDbEntity
  8
11_COMPONENT
100
AcDbCircle
 62
7
  6
CONTINUOUS
 10
146.2231229683
 20
158.9086838942
 40
0.2
100
AcDbArc
 50
180.0
 51
270.0000969476
  0
ARC
  5
76D
100
AcDbEntity
  8
11_COMPONENT
100
AcDbCircle
 62
7
  6
CONTINUOUS
 10
146.7344712124
 20
158.9086838942
 40
0.2
100
AcDbArc
 50
180.0
 51
270.0000969476
  0
ARC
  5
76E
100
AcDbEntity
  8
11_COMPONENT
100
AcDbCircle
 62
7
  6
CONTINUOUS
 10
152.522269343
 20
276.5821680159
 40
11.5177439944
100
AcDbArc
 50
81.856097008
 51
87.7604756117
  0
ARC
  5
76F
100
AcDbEntity
  8
11_COMPONENT
100
AcDbCircle
 62
7
  6
CONTINUOUS
 10
152.5236569313
 20
276.5821685338
 40
11.517743475
100
AcDbArc
 50
92.2395242551
 51
98.1439031253
  0
ARC
  5
770
100
AcDbEntity
  8
11_COMPONENT
100
AcDbCircle
 62
7
  6
CONTINUOUS
 10
152.5229937714
 20
276.589231019
 40
11.5106580861
100
AcDbArc
 50
86.8265026344
 51
87.7627049584
  0
ARC
  5
771
100
AcDbEntity
  8
11_COMPONENT
100
AcDbCircle
 62
7
  6
CONTINUOUS
 10
152.522931555
 20
276.5892531087
 40
11.5106359745
100
AcDbArc
 50
92.2372943857
 51
93.1748212997
  0
ARC
  5
772
100
AcDbEntity
  8
11_COMPONENT
100
AcDbCircle
 62
7
  6
CONTINUOUS
 10
139.9096875
 20
282.7086838942
 40
4.0
100
AcDbArc
 50
90.0
 51
180.0
  0
ARC
  5
773
100
AcDbEntity
  8
11_COMPONENT
100
AcDbCircle
 62
9
  6
CONTINUOUS
 10
139.9096875
 20
282.7086838942
 40
3.7999957095
100
AcDbArc
 50
90.0
 51
180.0
  0
ARC
  5
774
100
AcDbEntity
  8
11_COMPONENT
100
AcDbCircle
 62
7
  6
CONTINUOUS
 10
139.9096875
 20
275.7086838942
 40
2.25
100
AcDbArc
 50
180.0
 51
360.0
  0
ARC
  5
775
100
AcDbEntity
  8
11_COMPONENT
100
AcDbCircle
 62
7
  6
CONTINUOUS
 10
139.9096875
 20
276.7086838942
 40
2.25
100
AcDbArc
 50
0.0
 51
180.0
  0
ARC
  5
776
100
AcDbEntity
  8
11_COMPONENT
100
AcDbCircle
 62
7
  6
CONTINUOUS
 10
149.9186174112
 20
286.7086838942
 40
0.5
100
AcDbArc
 50
174.9997003677
 51
180.0032749195
  0
ARC
  5
777
100
AcDbEntity
  8
11_COMPONENT
100
AcDbCircle
 62
7
  6
CONTINUOUS
 10
149.9711106093
 20
287.3086838942
 40
0.5
100
AcDbArc
 50
103.4071458635
 51
174.9992880758
  0
ARC
  5
778
100
AcDbEntity
  8
11_COMPONENT
100
AcDbCircle
 62
7
  6
CONTINUOUS
 10
155.074815712
 20
287.3086838942
 40
0.5
100
AcDbArc
 50
5.0004873164
 51
76.5929687088
  0
ARC
  5
779
100
AcDbEntity
  8
11_COMPONENT
100
AcDbCircle
 62
7
  6
CONTINUOUS
 10
155.1273089101
 20
286.7086838942
 40
0.5
100
AcDbArc
 50
359.9967252886
 51
5.0004957039
  0
ARC
  5
77A
100
AcDbEntity
  8
11_COMPONENT
100
AcDbCircle
 62
7
  6
CONTINUOUS
 10
144.6890782362
 20
286.5086838942
 40
0.2
100
AcDbArc
 50
89.998974046
 51
180.0
  0
ARC
  5
77B
100
AcDbEntity
  8
11_COMPONENT
100
AcDbCircle
 62
7
  6
CONTINUOUS
 10
146.7344712124
 20
286.5086838942
 40
0.2
100
AcDbArc
 50
89.998974046
 51
180.0
  0
ARC
  5
77C
100
AcDbEntity
  8
11_COMPONENT
100
AcDbCircle
 62
7
  6
CONTINUOUS
 10
146.2231229683
 20
286.5086838942
 40
0.2
100
AcDbArc
 50
89.998974046
 51
180.0
  0
ARC
  5
77D
100
AcDbEntity
  8
11_COMPONENT
100
AcDbCircle
 62
7
  6
CONTINUOUS
 10
145.7117747243
 20
286.5086838942
 40
0.2
100
AcDbArc
 50
89.998974046
 51
180.0
  0
ARC
  5
77E
100
AcDbEntity
  8
11_COMPONENT
100
AcDbCircle
 62
7
  6
CONTINUOUS
 10
145.2004264802
 20
286.5086838942
 40
0.2
100
AcDbArc
 50
89.998974046
 51
180.0
  0
ARC
  5
77F
100
AcDbEntity
  8
11_COMPONENT
100
AcDbCircle
 62
7
  6
CONTINUOUS
 10
183.6229631606
 20
292.5586838946
 40
0.2
100
AcDbArc
 50
90.0
 51
180.0000001197
  0
ARC
  5
780
100
AcDbEntity
  8
11_COMPONENT
100
AcDbCircle
 62
7
  6
CONTINUOUS
 10
212.7229631607
 20
292.5586838946
 40
0.2
100
AcDbArc
 50
359.9999998803
 51
90.0
  0
CIRCLE
  5
781
100
AcDbEntity
  8
11_COMPONENT
100
AcDbCircle
 62
7
  6
CONTINUOUS
 10
238.1820333657
 20
151.3986838942
 40
1.0
  0
CIRCLE
  5
782
100
AcDbEntity
  8
11_COMPONENT
100
AcDbCircle
 62
7
  6
CONTINUOUS
 10
257.1820333657
 20
151.3986838942
 40
1.0
  0
ARC
  5
783
100
AcDbEntity
  8
11_COMPONENT
100
AcDbCircle
 62
7
  6
CONTINUOUS
 10
299.9273089101
 20
158.7086838942
 40
0.5
100
AcDbArc
 50
354.9997003677
 51
0.0032749195
  0
ARC
  5
784
100
AcDbEntity
  8
11_COMPONENT
100
AcDbCircle
 62
7
  6
CONTINUOUS
 10
299.874815712
 20
158.1086838942
 40
0.5
100
AcDbArc
 50
283.4071458635
 51
354.9992880758
  0
ARC
  5
785
100
AcDbEntity
  8
11_COMPONENT
100
AcDbCircle
 62
7
  6
CONTINUOUS
 10
294.7711106093
 20
158.1086838942
 40
0.5
100
AcDbArc
 50
185.0004873164
 51
256.5929687088
  0
ARC
  5
786
100
AcDbEntity
  8
11_COMPONENT
100
AcDbCircle
 62
7
  6
CONTINUOUS
 10
294.7186174112
 20
158.7086838942
 40
0.5
100
AcDbArc
 50
179.9967252886
 51
185.0004957039
  0
ARC
  5
787
100
AcDbEntity
  8
11_COMPONENT
100
AcDbCircle
 62
7
  6
CONTINUOUS
 10
305.1702967638
 20
158.9086838942
 40
0.2
100
AcDbArc
 50
269.9993684879
 51
360.0
  0
ARC
  5
788
100
AcDbEntity
  8
11_COMPONENT
100
AcDbCircle
 62
7
  6
CONTINUOUS
 10
304.6589485198
 20
158.9086838942
 40
0.2
100
AcDbArc
 50
269.9993684879
 51
360.0
  0
ARC
  5
789
100
AcDbEntity
  8
11_COMPONENT
100
AcDbCircle
 62
7
  6
CONTINUOUS
 10
304.1476002757
 20
158.9086838942
 40
0.2
100
AcDbArc
 50
269.9993684879
 51
360.0
  0
ARC
  5
78A
100
AcDbEntity
  8
11_COMPONENT
100
AcDbCircle
 62
7
  6
CONTINUOUS
 10
303.6362520317
 20
158.9086838942
 40
0.2
100
AcDbArc
 50
269.9993684879
 51
360.0
  0
ARC
  5
78B
100
AcDbEntity
  8
11_COMPONENT
100
AcDbCircle
 62
7
  6
CONTINUOUS
 10
303.1249037876
 20
158.9086838942
 40
0.2
100
AcDbArc
 50
269.9993684879
 51
360.0
  0
ARC
  5
78C
100
AcDbEntity
  8
11_COMPONENT
100
AcDbCircle
 62
7
  6
CONTINUOUS
 10
297.3236569783
 20
168.8351997726
 40
11.5177439943
100
AcDbArc
 50
261.856097008
 51
267.7604756117
  0
ARC
  5
78D
100
AcDbEntity
  8
11_COMPONENT
100
AcDbCircle
 62
7
  6
CONTINUOUS
 10
297.32226939
 20
168.8351992547
 40
11.517743475
100
AcDbArc
 50
272.2395242551
 51
278.1439031252
  0
ARC
  5
78E
100
AcDbEntity
  8
11_COMPONENT
100
AcDbCircle
 62
7
  6
CONTINUOUS
 10
297.32293255
 20
168.828136771
 40
11.5106580876
100
AcDbArc
 50
266.8265026345
 51
267.7627049584
  0
ARC
  5
78F
100
AcDbEntity
  8
11_COMPONENT
100
AcDbCircle
 62
7
  6
CONTINUOUS
 10
297.3229947662
 20
168.8281146813
 40
11.510635976
100
AcDbArc
 50
272.2372943857
 51
273.1748212996
  0
ARC
  5
790
100
AcDbEntity
  8
11_COMPONENT
100
AcDbCircle
 62
7
  6
CONTINUOUS
 10
309.9496875
 20
162.7086838942
 40
4.0
100
AcDbArc
 50
270.0
 51
360.0
  0
ARC
  5
791
100
AcDbEntity
  8
11_COMPONENT
100
AcDbCircle
 62
9
  6
CONTINUOUS
 10
309.9496875
 20
162.7086838942
 40
3.7999957095
100
AcDbArc
 50
270.0
 51
360.0
  0
ARC
  5
792
100
AcDbEntity
  8
11_COMPONENT
100
AcDbCircle
 62
7
  6
CONTINUOUS
 10
309.9496875
 20
169.7086838942
 40
2.25
100
AcDbArc
 50
0.0
 51
180.0
  0
ARC
  5
793
100
AcDbEntity
  8
11_COMPONENT
100
AcDbCircle
 62
7
  6
CONTINUOUS
 10
309.9496875
 20
168.7086838942
 40
2.25
100
AcDbArc
 50
180.0
 51
360.0
  0
ARC
  5
794
100
AcDbEntity
  8
11_COMPONENT
100
AcDbCircle
 62
7
  6
CONTINUOUS
 10
297.322269343
 20
276.5821680159
 40
11.5177439944
100
AcDbArc
 50
81.856097008
 51
87.7604756117
  0
ARC
  5
795
100
AcDbEntity
  8
11_COMPONENT
100
AcDbCircle
 62
7
  6
CONTINUOUS
 10
297.3236569313
 20
276.5821685338
 40
11.517743475
100
AcDbArc
 50
92.2395242551
 51
98.1439031253
  0
ARC
  5
796
100
AcDbEntity
  8
11_COMPONENT
100
AcDbCircle
 62
7
  6
CONTINUOUS
 10
297.3229937714
 20
276.589231019
 40
11.5106580861
100
AcDbArc
 50
86.8265026344
 51
87.7627049584
  0
ARC
  5
797
100
AcDbEntity
  8
11_COMPONENT
100
AcDbCircle
 62
7
  6
CONTINUOUS
 10
297.322931555
 20
276.5892531087
 40
11.5106359744
100
AcDbArc
 50
92.2372943857
 51
93.1748212997
  0
ARC
  5
798
100
AcDbEntity
  8
11_COMPONENT
100
AcDbCircle
 62
7
  6
CONTINUOUS
 10
309.9496875
 20
282.7086838942
 40
4.0
100
AcDbArc
 50
0.0
 51
90.0
  0
ARC
  5
799
100
AcDbEntity
  8
11_COMPONENT
100
AcDbCircle
 62
9
  6
CONTINUOUS
 10
309.9496875
 20
282.7086838942
 40
3.7999957027
100
AcDbArc
 50
0.0
 51
90.0
  0
ARC
  5
79A
100
AcDbEntity
  8
11_COMPONENT
100
AcDbCircle
 62
7
  6
CONTINUOUS
 10
309.9496875
 20
276.7086838942
 40
2.25
100
AcDbArc
 50
0.0
 51
180.0
  0
ARC
  5
79B
100
AcDbEntity
  8
11_COMPONENT
100
AcDbCircle
 62
7
  6
CONTINUOUS
 10
309.9496875
 20
275.7086838942
 40
2.25
100
AcDbArc
 50
180.0
 51
360.0
  0
ARC
  5
79C
100
AcDbEntity
  8
11_COMPONENT
100
AcDbCircle
 62
7
  6
CONTINUOUS
 10
294.7186174112
 20
286.7086838942
 40
0.5
100
AcDbArc
 50
174.9997003677
 51
180.0032749195
  0
ARC
  5
79D
100
AcDbEntity
  8
11_COMPONENT
100
AcDbCircle
 62
7
  6
CONTINUOUS
 10
294.7711106093
 20
287.3086838942
 40
0.5
100
AcDbArc
 50
103.4071458635
 51
174.9992880758
  0
ARC
  5
79E
100
AcDbEntity
  8
11_COMPONENT
100
AcDbCircle
 62
7
  6
CONTINUOUS
 10
299.874815712
 20
287.3086838942
 40
0.5
100
AcDbArc
 50
5.0004873164
 51
76.5929687088
  0
ARC
  5
79F
100
AcDbEntity
  8
11_COMPONENT
100
AcDbCircle
 62
7
  6
CONTINUOUS
 10
299.9273089101
 20
286.7086838942
 40
0.5
100
AcDbArc
 50
359.9967252886
 51
5.0004957039
  0
ARC
  5
7A0
100
AcDbEntity
  8
11_COMPONENT
100
AcDbCircle
 62
7
  6
CONTINUOUS
 10
305.1702967638
 20
286.5086838942
 40
0.2
100
AcDbArc
 50
0.0
 51
90.0002521236
  0
ARC
  5
7A1
100
AcDbEntity
  8
11_COMPONENT
100
AcDbCircle
 62
7
  6
CONTINUOUS
 10
303.1249037876
 20
286.5086838942
 40
0.2
100
AcDbArc
 50
0.0
 51
90.0002521236
  0
ARC
  5
7A2
100
AcDbEntity
  8
11_COMPONENT
100
AcDbCircle
 62
7
  6
CONTINUOUS
 10
303.6362520317
 20
286.5086838942
 40
0.2
100
AcDbArc
 50
0.0
 51
90.0002521236
  0
ARC
  5
7A3
100
AcDbEntity
  8
11_COMPONENT
100
AcDbCircle
 62
7
  6
CONTINUOUS
 10
304.1476002757
 20
286.5086838942
 40
0.2
100
AcDbArc
 50
0.0
 51
90.0002521236
  0
ARC
  5
7A4
100
AcDbEntity
  8
11_COMPONENT
100
AcDbCircle
 62
7
  6
CONTINUOUS
 10
304.6589485198
 20
286.5086838942
 40
0.2
100
AcDbArc
 50
0.0
 51
90.0002521236
  0
ARC
  5
7A5
100
AcDbEntity
  8
11_COMPONENT
100
AcDbCircle
 62
7
  6
CONTINUOUS
 10
-28.2860610478
 20
394.6353224835
 40
326.0587127084
100
AcDbArc
 50
0.0779854942
 51
0.2856062132
  0
ARC
  5
7A6
100
AcDbEntity
  8
11_COMPONENT
100
AcDbCircle
 62
7
  6
CONTINUOUS
 10
-173.0860610007
 20
394.6353224836
 40
326.0587126612
100
AcDbArc
 50
0.0779854942
 51
0.2856062132
  0
ARC
  5
7A7
100
AcDbEntity
  8
11_COMPONENT
100
AcDbCircle
 62
7
  6
CONTINUOUS
 10
-26.7607169944
 20
394.6193088347
 40
324.5333634922
100
AcDbArc
 50
359.713905864
 51
359.9225024286
  0
ARC
  5
7A8
100
AcDbEntity
  8
11_COMPONENT
100
AcDbCircle
 62
7
  6
CONTINUOUS
 10
-171.5607169692
 20
394.6193088346
 40
324.5333634669
100
AcDbArc
 50
359.713905864
 51
359.9225024286
  0
ARC
  5
7A9
100
AcDbEntity
  8
11_COMPONENT
100
AcDbCircle
 62
7
  6
CONTINUOUS
 10
152.5173361757
 20
69.0333426595
 40
326.0460813745
100
AcDbArc
 50
90.0779814725
 51
90.2856102349
  0
ARC
  5
7AA
100
AcDbEntity
  8
11_COMPONENT
100
AcDbCircle
 62
7
  6
CONTINUOUS
 10
152.533424373
 20
70.5569191882
 40
324.5224996891
100
AcDbArc
 50
89.7139023725
 51
89.9225059201
  0
ARC
  5
7AB
100
AcDbEntity
  8
11_COMPONENT
100
AcDbCircle
 62
9
  6
CONTINUOUS
 10
149.2302163763
 20
385.4608391045
 40
0.6999945067
100
AcDbArc
 50
325.0
 51
10.0
  0
ARC
  5
7AC
100
AcDbEntity
  8
11_COMPONENT
100
AcDbCircle
 62
7
  6
CONTINUOUS
 10
149.2302163763
 20
385.4608391045
 40
0.5
100
AcDbArc
 50
325.0
 51
10.0
  0
ARC
  5
7AD
100
AcDbEntity
  8
11_COMPONENT
100
AcDbCircle
 62
7
  6
CONTINUOUS
 10
153.2353265725
 20
382.7297355769
 40
3.5
100
AcDbArc
 50
190.0
 51
270.0
  0
ARC
  5
7AE
100
AcDbEntity
  8
11_COMPONENT
100
AcDbCircle
 62
9
  6
CONTINUOUS
 10
153.2353265725
 20
382.7297355769
 40
3.2999914667
100
AcDbArc
 50
190.0
 51
270.0
  0
ARC
  5
7AF
100
AcDbEntity
  8
11_COMPONENT
100
AcDbCircle
 62
9
  6
CONTINUOUS
 10
158.0055846446
 20
379.2297355769
 40
0.6999958018
100
AcDbArc
 50
90.0
 51
135.0
  0
ARC
  5
7B0
100
AcDbEntity
  8
11_COMPONENT
100
AcDbCircle
 62
7
  6
CONTINUOUS
 10
157.0913710822
 20
379.7297355769
 40
0.5
100
AcDbArc
 50
270.0
 51
315.0
  0
ARC
  5
7B1
100
AcDbEntity
  8
11_COMPONENT
100
AcDbCircle
 62
7
  6
CONTINUOUS
 10
158.0055846446
 20
379.2297355769
 40
0.5
100
AcDbArc
 50
90.0
 51
135.0
  0
ARC
  5
7B2
100
AcDbEntity
  8
11_COMPONENT
100
AcDbCircle
 62
9
  6
CONTINUOUS
 10
157.0913710822
 20
379.7297355769
 40
0.2999995122
100
AcDbArc
 50
270.0
 51
315.0
  0
ARC
  5
7B3
100
AcDbEntity
  8
11_COMPONENT
100
AcDbCircle
 62
7
  6
CONTINUOUS
 10
154.7730975757
 20
384.4464728556
 40
3.6167372787
100
AcDbArc
 50
190.0
 51
270.0
  0
ARC
  5
7B4
100
AcDbEntity
  8
11_COMPONENT
100
AcDbCircle
 62
7
  6
CONTINUOUS
 10
154.5244262037
 20
384.2297355769
 40
3.5
100
AcDbArc
 50
190.0
 51
270.0
  0
ARC
  5
7B5
100
AcDbEntity
  8
11_COMPONENT
100
AcDbCircle
 62
7
  6
CONTINUOUS
 10
147.0344712124
 20
392.3297355769
 40
0.5
100
AcDbArc
 50
90.0
 51
190.0
  0
ARC
  5
7B6
100
AcDbEntity
  8
11_COMPONENT
100
AcDbCircle
 62
9
  6
CONTINUOUS
 10
147.0344712124
 20
392.3297355769
 40
0.2999957892
100
AcDbArc
 50
90.0
 51
190.0
  0
ARC
  5
7B7
100
AcDbEntity
  8
11_COMPONENT
100
AcDbCircle
 62
7
  6
CONTINUOUS
 10
147.1050020047
 20
391.9297355769
 40
0.5
100
AcDbArc
 50
190.0
 51
270.0
  0
ARC
  5
7B8
100
AcDbEntity
  8
11_COMPONENT
100
AcDbCircle
 62
9
  6
CONTINUOUS
 10
147.1050020047
 20
391.9297355769
 40
0.299999355
100
AcDbArc
 50
190.0
 51
270.0
  0
ARC
  5
7B9
100
AcDbEntity
  8
11_COMPONENT
100
AcDbCircle
 62
9
  6
CONTINUOUS
 10
148.2659023735
 20
390.9297355769
 40
0.6999536373
100
AcDbArc
 50
10.0
 51
90.0
  0
ARC
  5
7BA
100
AcDbEntity
  8
11_COMPONENT
100
AcDbCircle
 62
7
  6
CONTINUOUS
 10
148.2659023735
 20
390.9297355769
 40
0.5
100
AcDbArc
 50
10.0
 51
90.0
  0
ARC
  5
7BB
100
AcDbEntity
  8
11_COMPONENT
100
AcDbCircle
 62
9
  6
CONTINUOUS
 10
147.8427176198
 20
393.3297355769
 40
0.6999987745
100
AcDbArc
 50
270.0
 51
10.0
  0
ARC
  5
7BC
100
AcDbEntity
  8
11_COMPONENT
100
AcDbCircle
 62
9
  6
CONTINUOUS
 10
147.7545541294
 20
393.8297355769
 40
0.6999536373
100
AcDbArc
 50
10.0
 51
90.0
  0
ARC
  5
7BD
100
AcDbEntity
  8
11_COMPONENT
100
AcDbCircle
 62
7
  6
CONTINUOUS
 10
147.7545541294
 20
393.8297355769
 40
0.5
100
AcDbArc
 50
10.0
 51
90.0
  0
ARC
  5
7BE
100
AcDbEntity
  8
11_COMPONENT
100
AcDbCircle
 62
7
  6
CONTINUOUS
 10
147.8427176198
 20
393.3297355769
 40
0.5
100
AcDbArc
 50
270.0
 51
10.0
  0
CIRCLE
  5
7BF
100
AcDbEntity
  8
11_COMPONENT
100
AcDbCircle
 62
7
  6
CONTINUOUS
 10
152.5229631606
 20
394.6297355769
 40
3.1043457495
  0
CIRCLE
  5
7C0
100
AcDbEntity
  8
11_COMPONENT
100
AcDbCircle
 62
9
  6
CONTINUOUS
 10
152.5229631606
 20
394.6297355769
 40
3.1024427169
  0
CIRCLE
  5
7C1
100
AcDbEntity
  8
11_COMPONENT
100
AcDbCircle
 62
9
  6
CONTINUOUS
 10
152.5229631606
 20
394.6297355769
 40
3.0499495253
  0
CIRCLE
  5
7C2
100
AcDbEntity
  8
11_COMPONENT
100
AcDbCircle
 62
9
  6
CONTINUOUS
 10
152.5229631606
 20
394.6297355769
 40
2.6677474886
  0
ARC
  5
7C3
100
AcDbEntity
  8
11_COMPONENT
100
AcDbCircle
 62
7
  6
CONTINUOUS
 10
152.5229631606
 20
394.6297355769
 40
1.6906957911
100
AcDbArc
 50
254.7166747417
 51
285.2833258305
  0
ARC
  5
7C4
100
AcDbEntity
  8
11_COMPONENT
100
AcDbCircle
 62
7
  6
CONTINUOUS
 10
152.5229631606
 20
394.6297355769
 40
1.6906588003
100
AcDbArc
 50
344.7175031869
 51
15.2823382937
  0
ARC
  5
7C5
100
AcDbEntity
  8
11_COMPONENT
100
AcDbCircle
 62
7
  6
CONTINUOUS
 10
152.5229631606
 20
394.6297355769
 40
1.690658709
100
AcDbArc
 50
164.7176622885
 51
195.2824963121
  0
ARC
  5
7C6
100
AcDbEntity
  8
11_COMPONENT
100
AcDbCircle
 62
7
  6
CONTINUOUS
 10
152.5229631606
 20
394.6297355769
 40
1.6906107389
100
AcDbArc
 50
74.7170985319
 51
105.2829009674
  0
ARC
  5
7C7
100
AcDbEntity
  8
11_COMPONENT
100
AcDbCircle
 62
9
  6
CONTINUOUS
 10
152.5229631606
 20
394.6297355769
 40
1.2102977505
100
AcDbArc
 50
70.1813224771
 51
109.8186775229
  0
ARC
  5
7C8
100
AcDbEntity
  8
11_COMPONENT
100
AcDbCircle
 62
9
  6
CONTINUOUS
 10
152.5229631606
 20
394.6297355769
 40
1.2102938939
100
AcDbArc
 50
340.1842718039
 51
19.8168329286
  0
ARC
  5
7C9
100
AcDbEntity
  8
11_COMPONENT
100
AcDbCircle
 62
9
  6
CONTINUOUS
 10
152.5229631606
 20
394.6297355769
 40
1.2102938913
100
AcDbArc
 50
160.1831670714
 51
199.8157281961
  0
ARC
  5
7CA
100
AcDbEntity
  8
11_COMPONENT
100
AcDbCircle
 62
9
  6
CONTINUOUS
 10
152.5229631606
 20
394.6297355769
 40
1.2102884435
100
AcDbArc
 50
250.1849193512
 51
289.8150806488
  0
CIRCLE
  5
7CB
100
AcDbEntity
  8
11_COMPONENT
100
AcDbCircle
 62
9
  6
CONTINUOUS
 10
152.5229631606
 20
394.6297355769
 40
0.3972512605
  0
ARC
  5
7CC
100
AcDbEntity
  8
11_COMPONENT
100
AcDbCircle
 62
7
  6
CONTINUOUS
 10
184.4229631606
 20
391.6297355769
 40
1.0
100
AcDbArc
 50
180.0
 51
270.0
  0
ARC
  5
7CD
100
AcDbEntity
  8
11_COMPONENT
100
AcDbCircle
 62
9
  6
CONTINUOUS
 10
184.4229631606
 20
391.6297355769
 40
0.8
100
AcDbArc
 50
180.0
 51
270.0
  0
ARC
  5
7CE
100
AcDbEntity
  8
11_COMPONENT
100
AcDbCircle
 62
7
  6
CONTINUOUS
 10
224.7660412225
 20
378.4297355769
 40
3.5
100
AcDbArc
 50
90.0
 51
120.0
  0
ARC
  5
7CF
100
AcDbEntity
  8
11_COMPONENT
100
AcDbCircle
 62
7
  6
CONTINUOUS
 10
220.9851409871
 20
384.3297355769
 40
3.5
100
AcDbArc
 50
270.0
 51
300.0
  0
ARC
  5
7D0
100
AcDbEntity
  8
11_COMPONENT
100
AcDbCircle
 62
7
  6
CONTINUOUS
 10
221.4801977572
 20
384.2297355769
 40
3.5
100
AcDbArc
 50
270.0
 51
314.4153085972
  0
ARC
  5
7D1
100
AcDbEntity
  8
11_COMPONENT
100
AcDbCircle
 62
7
  6
CONTINUOUS
 10
197.7229631606
 20
389.1626224836
 40
6.982081964
100
AcDbArc
 50
86.9984991436
 51
93.0015008564
  0
ARC
  5
7D2
100
AcDbEntity
  8
11_COMPONENT
100
AcDbCircle
 62
7
  6
CONTINUOUS
 10
211.9229631607
 20
391.6297355769
 40
1.0
100
AcDbArc
 50
270.0
 51
360.0
  0
ARC
  5
7D3
100
AcDbEntity
  8
11_COMPONENT
100
AcDbCircle
 62
9
  6
CONTINUOUS
 10
211.9229631607
 20
391.6297355769
 40
0.8
100
AcDbArc
 50
270.0
 51
360.0
  0
ARC
  5
7D4
100
AcDbEntity
  8
11_COMPONENT
100
AcDbCircle
 62
7
  6
CONTINUOUS
 10
146.0117747243
 20
398.1297355769
 40
0.5
100
AcDbArc
 50
90.0
 51
190.0
  0
ARC
  5
7D5
100
AcDbEntity
  8
11_COMPONENT
100
AcDbCircle
 62
9
  6
CONTINUOUS
 10
146.0117747243
 20
398.1297355769
 40
0.2999957892
100
AcDbArc
 50
90.0
 51
190.0
  0
ARC
  5
7D6
100
AcDbEntity
  8
11_COMPONENT
100
AcDbCircle
 62
7
  6
CONTINUOUS
 10
146.0823055166
 20
397.7297355769
 40
0.5
100
AcDbArc
 50
190.0
 51
270.0
  0
ARC
  5
7D7
100
AcDbEntity
  8
11_COMPONENT
100
AcDbCircle
 62
9
  6
CONTINUOUS
 10
146.0823055166
 20
397.7297355769
 40
0.299999355
100
AcDbArc
 50
190.0
 51
270.0
  0
ARC
  5
7D8
100
AcDbEntity
  8
11_COMPONENT
100
AcDbCircle
 62
7
  6
CONTINUOUS
 10
145.0596090285
 20
403.5297355769
 40
0.5
100
AcDbArc
 50
190.0
 51
270.0
  0
ARC
  5
7D9
100
AcDbEntity
  8
11_COMPONENT
100
AcDbCircle
 62
9
  6
CONTINUOUS
 10
145.0596090285
 20
403.5297355769
 40
0.299999355
100
AcDbArc
 50
190.0
 51
270.0
  0
ARC
  5
7DA
100
AcDbEntity
  8
11_COMPONENT
100
AcDbCircle
 62
7
  6
CONTINUOUS
 10
145.5004264802
 20
401.0297355769
 40
0.5
100
AcDbArc
 50
90.0
 51
190.0
  0
ARC
  5
7DB
100
AcDbEntity
  8
11_COMPONENT
100
AcDbCircle
 62
9
  6
CONTINUOUS
 10
145.5004264802
 20
401.0297355769
 40
0.2999957892
100
AcDbArc
 50
90.0
 51
190.0
  0
ARC
  5
7DC
100
AcDbEntity
  8
11_COMPONENT
100
AcDbCircle
 62
7
  6
CONTINUOUS
 10
145.5709572725
 20
400.6297355769
 40
0.5
100
AcDbArc
 50
190.0
 51
270.0
  0
ARC
  5
7DD
100
AcDbEntity
  8
11_COMPONENT
100
AcDbCircle
 62
9
  6
CONTINUOUS
 10
145.5709572725
 20
400.6297355769
 40
0.299999355
100
AcDbArc
 50
190.0
 51
270.0
  0
ARC
  5
7DE
100
AcDbEntity
  8
11_COMPONENT
100
AcDbCircle
 62
7
  6
CONTINUOUS
 10
146.5231229683
 20
395.2297355769
 40
0.5
100
AcDbArc
 50
90.0
 51
190.0
  0
ARC
  5
7DF
100
AcDbEntity
  8
11_COMPONENT
100
AcDbCircle
 62
9
  6
CONTINUOUS
 10
146.5231229683
 20
395.2297355769
 40
0.2999957892
100
AcDbArc
 50
90.0
 51
190.0
  0
ARC
  5
7E0
100
AcDbEntity
  8
11_COMPONENT
100
AcDbCircle
 62
7
  6
CONTINUOUS
 10
146.5936537606
 20
394.8297355769
 40
0.5
100
AcDbArc
 50
190.0
 51
270.0
  0
ARC
  5
7E1
100
AcDbEntity
  8
11_COMPONENT
100
AcDbCircle
 62
9
  6
CONTINUOUS
 10
146.5936537606
 20
394.8297355769
 40
0.299999355
100
AcDbArc
 50
190.0
 51
270.0
  0
ARC
  5
7E2
100
AcDbEntity
  8
11_COMPONENT
100
AcDbCircle
 62
9
  6
CONTINUOUS
 10
146.8200211317
 20
399.1297355769
 40
0.6999987745
100
AcDbArc
 50
270.0
 51
10.0
  0
ARC
  5
7E3
100
AcDbEntity
  8
11_COMPONENT
100
AcDbCircle
 62
7
  6
CONTINUOUS
 10
146.8200211317
 20
399.1297355769
 40
0.5
100
AcDbArc
 50
270.0
 51
10.0
  0
ARC
  5
7E4
100
AcDbEntity
  8
11_COMPONENT
100
AcDbCircle
 62
9
  6
CONTINUOUS
 10
147.3313693757
 20
396.2297355769
 40
0.6999987745
100
AcDbArc
 50
270.0
 51
10.0
  0
ARC
  5
7E5
100
AcDbEntity
  8
11_COMPONENT
100
AcDbCircle
 62
9
  6
CONTINUOUS
 10
147.2432058854
 20
396.7297355769
 40
0.6999536373
100
AcDbArc
 50
10.0
 51
90.0
  0
ARC
  5
7E6
100
AcDbEntity
  8
11_COMPONENT
100
AcDbCircle
 62
7
  6
CONTINUOUS
 10
147.2432058854
 20
396.7297355769
 40
0.5
100
AcDbArc
 50
10.0
 51
90.0
  0
ARC
  5
7E7
100
AcDbEntity
  8
11_COMPONENT
100
AcDbCircle
 62
7
  6
CONTINUOUS
 10
147.3313693757
 20
396.2297355769
 40
0.5
100
AcDbArc
 50
270.0
 51
10.0
  0
ARC
  5
7E8
100
AcDbEntity
  8
11_COMPONENT
100
AcDbCircle
 62
9
  6
CONTINUOUS
 10
146.3086728876
 20
402.0297355769
 40
0.6999987745
100
AcDbArc
 50
270.0
 51
10.0
  0
ARC
  5
7E9
100
AcDbEntity
  8
11_COMPONENT
100
AcDbCircle
 62
9
  6
CONTINUOUS
 10
146.7318576413
 20
399.6297355769
 40
0.6999536373
100
AcDbArc
 50
10.0
 51
90.0
  0
ARC
  5
7EA
100
AcDbEntity
  8
11_COMPONENT
100
AcDbCircle
 62
9
  6
CONTINUOUS
 10
146.2205093973
 20
402.5297355769
 40
0.6999536373
100
AcDbArc
 50
10.0
 51
90.0
  0
ARC
  5
7EB
100
AcDbEntity
  8
11_COMPONENT
100
AcDbCircle
 62
7
  6
CONTINUOUS
 10
146.2205093973
 20
402.5297355769
 40
0.5
100
AcDbArc
 50
10.0
 51
90.0
  0
ARC
  5
7EC
100
AcDbEntity
  8
11_COMPONENT
100
AcDbCircle
 62
7
  6
CONTINUOUS
 10
146.7318576413
 20
399.6297355769
 40
0.5
100
AcDbArc
 50
10.0
 51
90.0
  0
ARC
  5
7ED
100
AcDbEntity
  8
11_COMPONENT
100
AcDbCircle
 62
7
  6
CONTINUOUS
 10
146.3086728876
 20
402.0297355769
 40
0.5
100
AcDbArc
 50
270.0
 51
10.0
  0
ARC
  5
7EE
100
AcDbEntity
  8
11_COMPONENT
100
AcDbCircle
 62
7
  6
CONTINUOUS
 10
136.1096875
 20
410.9397355769
 40
0.2
100
AcDbArc
 50
180.0
 51
270.0
  0
ARC
  5
7EF
100
AcDbEntity
  8
11_COMPONENT
100
AcDbCircle
 62
9
  6
CONTINUOUS
 10
145.7973246436
 20
404.9297355769
 40
0.6999987745
100
AcDbArc
 50
270.0
 51
10.0
  0
ARC
  5
7F0
100
AcDbEntity
  8
11_COMPONENT
100
AcDbCircle
 62
7
  6
CONTINUOUS
 10
145.7973246436
 20
404.9297355769
 40
0.5
100
AcDbArc
 50
270.0
 51
10.0
  0
ARC
  5
7F1
100
AcDbEntity
  8
11_COMPONENT
100
AcDbCircle
 62
7
  6
CONTINUOUS
 10
144.9890782362
 20
403.9297355769
 40
0.5
100
AcDbArc
 50
90.0
 51
190.0
  0
ARC
  5
7F2
100
AcDbEntity
  8
11_COMPONENT
100
AcDbCircle
 62
9
  6
CONTINUOUS
 10
144.9890782362
 20
403.9297355769
 40
0.2999957892
100
AcDbArc
 50
90.0
 51
190.0
  0
ARC
  5
7F3
100
AcDbEntity
  8
11_COMPONENT
100
AcDbCircle
 62
7
  6
CONTINUOUS
 10
150.2925786667
 20
408.2297355769
 40
3.5
100
AcDbArc
 50
90.0
 51
190.0
  0
ARC
  5
7F4
100
AcDbEntity
  8
11_COMPONENT
100
AcDbCircle
 62
7
  6
CONTINUOUS
 10
150.2402105089
 20
408.3297355769
 40
3.3
100
AcDbArc
 50
90.0
 51
190.0
  0
ARC
  5
7F5
100
AcDbEntity
  8
11_COMPONENT
100
AcDbCircle
 62
9
  6
CONTINUOUS
 10
144.861028376
 20
410.2397355769
 40
0.6999536373
100
AcDbArc
 50
10.0
 51
90.0
  0
ARC
  5
7F6
100
AcDbEntity
  8
11_COMPONENT
100
AcDbCircle
 62
7
  6
CONTINUOUS
 10
151.6125807188
 20
412.7397355769
 40
0.5
100
AcDbArc
 50
45.0
 51
90.0
  0
ARC
  5
7F7
100
AcDbEntity
  8
11_COMPONENT
100
AcDbCircle
 62
7
  6
CONTINUOUS
 10
144.861028376
 20
410.2397355769
 40
0.5
100
AcDbArc
 50
10.0
 51
90.0
  0
CIRCLE
  5
7F8
100
AcDbEntity
  8
11_COMPONENT
100
AcDbCircle
 62
7
  6
CONTINUOUS
 10
168.9820333657
 20
396.1297355769
 40
2.5
  0
CIRCLE
  5
7F9
100
AcDbEntity
  8
11_COMPONENT
100
AcDbCircle
 62
7
  6
CONTINUOUS
 10
161.3820333657
 20
396.1297355769
 40
2.5
  0
ARC
  5
7FA
100
AcDbEntity
  8
11_COMPONENT
100
AcDbCircle
 62
7
  6
CONTINUOUS
 10
152.5285500711
 20
720.2387585758
 40
326.0587114988
100
AcDbArc
 50
270.0779854938
 51
270.2856062136
  0
ARC
  5
7FB
100
AcDbEntity
  8
11_COMPONENT
100
AcDbCircle
 62
7
  6
CONTINUOUS
 10
152.5125369636
 20
718.7135875547
 40
324.5335353154
100
AcDbArc
 50
269.7139059192
 51
269.9225023733
  0
ARC
  5
7FC
100
AcDbEntity
  8
11_COMPONENT
100
AcDbCircle
 62
7
  6
CONTINUOUS
 10
197.7229631606
 20
401.0968486703
 40
6.982081964
100
AcDbArc
 50
266.9984991436
 51
273.0015008564
  0
ARC
  5
7FD
100
AcDbEntity
  8
11_COMPONENT
100
AcDbCircle
 62
7
  6
CONTINUOUS
 10
191.7564040507
 20
395.129662753
 40
6.9815249275
100
AcDbArc
 50
356.9988579134
 51
0.0005976496
  0
ARC
  5
7FE
100
AcDbEntity
  8
11_COMPONENT
100
AcDbCircle
 62
7
  6
CONTINUOUS
 10
203.6895222706
 20
395.129662753
 40
6.9815249275
100
AcDbArc
 50
179.9994023504
 51
183.0011420866
  0
ARC
  5
7FF
100
AcDbEntity
  8
11_COMPONENT
100
AcDbCircle
 62
7
  6
CONTINUOUS
 10
203.680634944
 20
395.130041166
 40
6.9726376072
100
AcDbArc
 50
176.996944467
 51
180.0025110961
  0
ARC
  5
800
100
AcDbEntity
  8
11_COMPONENT
100
AcDbCircle
 62
7
  6
CONTINUOUS
 10
191.7652913773
 20
395.130041166
 40
6.9726376072
100
AcDbArc
 50
359.9974889039
 51
3.003055533
  0
CIRCLE
  5
801
100
AcDbEntity
  8
11_COMPONENT
100
AcDbCircle
 62
9
  6
CONTINUOUS
 10
197.7229631606
 20
395.1297355769
 40
2.9999938902
  0
CIRCLE
  5
802
100
AcDbEntity
  8
11_COMPONENT
100
AcDbCircle
 62
7
  6
CONTINUOUS
 10
197.7229631606
 20
395.1297355769
 40
2.5
  0
CIRCLE
  5
803
100
AcDbEntity
  8
11_COMPONENT
100
AcDbCircle
 62
7
  6
CONTINUOUS
 10
197.7229631606
 20
395.1297355769
 40
1.75
  0
CIRCLE
  5
804
100
AcDbEntity
  8
11_COMPONENT
100
AcDbCircle
 62
7
  6
CONTINUOUS
 10
178.6229631606
 20
395.4297355769
 40
1.6
  0
CIRCLE
  5
805
100
AcDbEntity
  8
11_COMPONENT
100
AcDbCircle
 62
7
  6
CONTINUOUS
 10
178.6229631606
 20
400.4297355769
 40
1.6
  0
CIRCLE
  5
806
100
AcDbEntity
  8
11_COMPONENT
100
AcDbCircle
 62
7
  6
CONTINUOUS
 10
178.6120333657
 20
395.4097355769
 40
1.5
  0
CIRCLE
  5
807
100
AcDbEntity
  8
11_COMPONENT
100
AcDbCircle
 62
7
  6
CONTINUOUS
 10
178.6120333657
 20
400.4897355769
 40
1.5
  0
CIRCLE
  5
808
100
AcDbEntity
  8
11_COMPONENT
100
AcDbCircle
 62
9
  6
CONTINUOUS
 10
197.7229631606
 20
395.1297355769
 40
1.3269230769
  0
ARC
  5
809
100
AcDbEntity
  8
11_COMPONENT
100
AcDbCircle
 62
7
  6
CONTINUOUS
 10
211.9229631607
 20
402.8297355769
 40
1.0
100
AcDbArc
 50
0.0
 51
90.0
  0
ARC
  5
80A
100
AcDbEntity
  8
11_COMPONENT
100
AcDbCircle
 62
7
  6
CONTINUOUS
 10
184.4229631606
 20
402.8297355769
 40
1.0
100
AcDbArc
 50
90.0
 51
180.0
  0
ARC
  5
80B
100
AcDbEntity
  8
11_COMPONENT
100
AcDbCircle
 62
7
  6
CONTINUOUS
 10
297.3173361757
 20
69.0333426595
 40
326.0460813744
100
AcDbArc
 50
90.0779814725
 51
90.2856102349
  0
ARC
  5
80C
100
AcDbEntity
  8
11_COMPONENT
100
AcDbCircle
 62
7
  6
CONTINUOUS
 10
297.3334243732
 20
70.556919246
 40
324.5224996313
100
AcDbArc
 50
89.7139023725
 51
89.9225059201
  0
ARC
  5
80D
100
AcDbEntity
  8
11_COMPONENT
100
AcDbCircle
 62
7
  6
CONTINUOUS
 10
225.0903968755
 20
378.4297355769
 40
3.5
100
AcDbArc
 50
60.0
 51
90.0
  0
ARC
  5
80E
100
AcDbEntity
  8
11_COMPONENT
100
AcDbCircle
 62
7
  6
CONTINUOUS
 10
228.8712971108
 20
384.3297355769
 40
3.5
100
AcDbArc
 50
240.0
 51
270.0
  0
ARC
  5
80F
100
AcDbEntity
  8
11_COMPONENT
100
AcDbCircle
 62
7
  6
CONTINUOUS
 10
228.3791772428
 20
384.2297355769
 40
3.5
100
AcDbArc
 50
225.5846914028
 51
270.0
  0
ARC
  5
810
100
AcDbEntity
  8
11_COMPONENT
100
AcDbCircle
 62
9
  6
CONTINUOUS
 10
291.8537903554
 20
379.2297355769
 40
0.6999945067
100
AcDbArc
 50
45.0
 51
90.0
  0
ARC
  5
811
100
AcDbEntity
  8
11_COMPONENT
100
AcDbCircle
 62
7
  6
CONTINUOUS
 10
292.7680039178
 20
379.7297355769
 40
0.5
100
AcDbArc
 50
225.0
 51
270.0
  0
ARC
  5
812
100
AcDbEntity
  8
11_COMPONENT
100
AcDbCircle
 62
7
  6
CONTINUOUS
 10
291.8537903554
 20
379.2297355769
 40
0.5
100
AcDbArc
 50
45.0
 51
90.0
  0
ARC
  5
813
100
AcDbEntity
  8
11_COMPONENT
100
AcDbCircle
 62
9
  6
CONTINUOUS
 10
292.7680039178
 20
379.7297355769
 40
0.2999995122
100
AcDbArc
 50
225.0
 51
270.0
  0
ARC
  5
814
100
AcDbEntity
  8
11_COMPONENT
100
AcDbCircle
 62
7
  6
CONTINUOUS
 10
295.3349487963
 20
384.2297355769
 40
3.5
100
AcDbArc
 50
270.0
 51
350.0
  0
ARC
  5
815
100
AcDbEntity
  8
11_COMPONENT
100
AcDbCircle
 62
7
  6
CONTINUOUS
 10
295.2730975757
 20
384.1297355769
 40
3.3
100
AcDbArc
 50
270.0
 51
350.0
  0
ARC
  5
816
100
AcDbEntity
  8
11_COMPONENT
100
AcDbCircle
 62
7
  6
CONTINUOUS
 10
296.6240484275
 20
382.7297355769
 40
3.5
100
AcDbArc
 50
270.0
 51
350.0
  0
ARC
  5
817
100
AcDbEntity
  8
11_COMPONENT
100
AcDbCircle
 62
9
  6
CONTINUOUS
 10
296.6240484275
 20
382.7297355769
 40
3.2999914672
100
AcDbArc
 50
270.0
 51
350.0
  0
ARC
  5
818
100
AcDbEntity
  8
11_COMPONENT
100
AcDbCircle
 62
9
  6
CONTINUOUS
 10
300.6291586237
 20
385.4608391045
 40
0.6999958018
100
AcDbArc
 50
170.0
 51
215.0
  0
ARC
  5
819
100
AcDbEntity
  8
11_COMPONENT
100
AcDbCircle
 62
7
  6
CONTINUOUS
 10
300.6291586237
 20
385.4608391045
 40
0.5
100
AcDbArc
 50
170.0
 51
215.0
  0
CIRCLE
  5
81A
100
AcDbEntity
  8
11_COMPONENT
100
AcDbCircle
 62
7
  6
CONTINUOUS
 10
297.3229631606
 20
394.6297355769
 40
3.1043457495
  0
CIRCLE
  5
81B
100
AcDbEntity
  8
11_COMPONENT
100
AcDbCircle
 62
9
  6
CONTINUOUS
 10
297.3229631606
 20
394.6297355769
 40
3.1024427169
  0
CIRCLE
  5
81C
100
AcDbEntity
  8
11_COMPONENT
100
AcDbCircle
 62
9
  6
CONTINUOUS
 10
297.3229631606
 20
394.6297355769
 40
3.0499495253
  0
CIRCLE
  5
81D
100
AcDbEntity
  8
11_COMPONENT
100
AcDbCircle
 62
9
  6
CONTINUOUS
 10
297.3229631606
 20
394.6297355769
 40
2.6677474886
  0
ARC
  5
81E
100
AcDbEntity
  8
11_COMPONENT
100
AcDbCircle
 62
7
  6
CONTINUOUS
 10
297.3229631606
 20
394.6297355769
 40
1.6906957911
100
AcDbArc
 50
254.7166747417
 51
285.2833258305
  0
ARC
  5
81F
100
AcDbEntity
  8
11_COMPONENT
100
AcDbCircle
 62
7
  6
CONTINUOUS
 10
297.3229631606
 20
394.6297355769
 40
1.6906588003
100
AcDbArc
 50
344.7175031869
 51
15.2823382937
  0
ARC
  5
820
100
AcDbEntity
  8
11_COMPONENT
100
AcDbCircle
 62
7
  6
CONTINUOUS
 10
297.3229631606
 20
394.6297355769
 40
1.690658709
100
AcDbArc
 50
164.7176622885
 51
195.2824963121
  0
ARC
  5
821
100
AcDbEntity
  8
11_COMPONENT
100
AcDbCircle
 62
7
  6
CONTINUOUS
 10
297.3229631606
 20
394.6297355769
 40
1.6906107389
100
AcDbArc
 50
74.7170985319
 51
105.2829009674
  0
ARC
  5
822
100
AcDbEntity
  8
11_COMPONENT
100
AcDbCircle
 62
9
  6
CONTINUOUS
 10
297.3229631606
 20
394.6297355769
 40
1.2102977505
100
AcDbArc
 50
70.1813224771
 51
109.8186775229
  0
ARC
  5
823
100
AcDbEntity
  8
11_COMPONENT
100
AcDbCircle
 62
9
  6
CONTINUOUS
 10
297.3229631606
 20
394.6297355769
 40
1.2102938939
100
AcDbArc
 50
340.1842718039
 51
19.8168329286
  0
ARC
  5
824
100
AcDbEntity
  8
11_COMPONENT
100
AcDbCircle
 62
9
  6
CONTINUOUS
 10
297.3229631606
 20
394.6297355769
 40
1.2102938913
100
AcDbArc
 50
160.1831670714
 51
199.8157281961
  0
ARC
  5
825
100
AcDbEntity
  8
11_COMPONENT
100
AcDbCircle
 62
9
  6
CONTINUOUS
 10
297.3229631606
 20
394.6297355769
 40
1.2102884435
100
AcDbArc
 50
250.1849193512
 51
289.8150806488
  0
CIRCLE
  5
826
100
AcDbEntity
  8
11_COMPONENT
100
AcDbCircle
 62
9
  6
CONTINUOUS
 10
297.3229631606
 20
394.6297355769
 40
0.3972512605
  0
ARC
  5
827
100
AcDbEntity
  8
11_COMPONENT
100
AcDbCircle
 62
9
  6
CONTINUOUS
 10
301.5934726265
 20
390.9297355769
 40
0.6999571137
100
AcDbArc
 50
90.0
 51
170.0
  0
ARC
  5
828
100
AcDbEntity
  8
11_COMPONENT
100
AcDbCircle
 62
7
  6
CONTINUOUS
 10
301.5934726265
 20
390.9297355769
 40
0.5
100
AcDbArc
 50
90.0
 51
170.0
  0
ARC
  5
829
100
AcDbEntity
  8
11_COMPONENT
100
AcDbCircle
 62
7
  6
CONTINUOUS
 10
302.7543729953
 20
391.9297355769
 40
0.5
100
AcDbArc
 50
270.0
 51
350.0
  0
ARC
  5
82A
100
AcDbEntity
  8
11_COMPONENT
100
AcDbCircle
 62
9
  6
CONTINUOUS
 10
302.7543729953
 20
391.9297355769
 40
0.299999355
100
AcDbArc
 50
270.0
 51
350.0
  0
ARC
  5
82B
100
AcDbEntity
  8
11_COMPONENT
100
AcDbCircle
 62
7
  6
CONTINUOUS
 10
302.8249037876
 20
392.3297355769
 40
0.5
100
AcDbArc
 50
350.0
 51
90.0
  0
ARC
  5
82C
100
AcDbEntity
  8
11_COMPONENT
100
AcDbCircle
 62
9
  6
CONTINUOUS
 10
302.8249037876
 20
392.3297355769
 40
0.2999957892
100
AcDbArc
 50
350.0
 51
90.0
  0
ARC
  5
82D
100
AcDbEntity
  8
11_COMPONENT
100
AcDbCircle
 62
9
  6
CONTINUOUS
 10
302.0166573802
 20
393.3297355769
 40
0.6999998815
100
AcDbArc
 50
170.0
 51
270.0
  0
ARC
  5
82E
100
AcDbEntity
  8
11_COMPONENT
100
AcDbCircle
 62
9
  6
CONTINUOUS
 10
302.1048208706
 20
393.8297355769
 40
0.6999571137
100
AcDbArc
 50
90.0
 51
170.0
  0
ARC
  5
82F
100
AcDbEntity
  8
11_COMPONENT
100
AcDbCircle
 62
7
  6
CONTINUOUS
 10
302.1048208706
 20
393.8297355769
 40
0.5
100
AcDbArc
 50
90.0
 51
170.0
  0
ARC
  5
830
100
AcDbEntity
  8
11_COMPONENT
100
AcDbCircle
 62
7
  6
CONTINUOUS
 10
302.0166573802
 20
393.3297355769
 40
0.5
100
AcDbArc
 50
170.0
 51
270.0
  0
ARC
  5
831
100
AcDbEntity
  8
11_COMPONENT
100
AcDbCircle
 62
7
  6
CONTINUOUS
 10
478.1319890221
 20
394.6241486756
 40
326.0587143614
100
AcDbArc
 50
180.0779854948
 51
180.2856062127
  0
ARC
  5
832
100
AcDbEntity
  8
11_COMPONENT
100
AcDbCircle
 62
7
  6
CONTINUOUS
 10
622.9319890221
 20
394.6241486756
 40
326.0587143614
100
AcDbArc
 50
180.0779854948
 51
180.2856062127
  0
CIRCLE
  5
833
100
AcDbEntity
  8
11_COMPONENT
100
AcDbCircle
 62
7
  6
CONTINUOUS
 10
254.4120333657
 20
395.9297355769
 40
0.3
  0
CIRCLE
  5
834
100
AcDbEntity
  8
11_COMPONENT
100
AcDbCircle
 62
7
  6
CONTINUOUS
 10
256.9520333657
 20
395.9297355769
 40
0.3
  0
CIRCLE
  5
835
100
AcDbEntity
  8
11_COMPONENT
100
AcDbCircle
 62
7
  6
CONTINUOUS
 10
259.4920333657
 20
395.9297355769
 40
0.3
  0
CIRCLE
  5
836
100
AcDbEntity
  8
11_COMPONENT
100
AcDbCircle
 62
7
  6
CONTINUOUS
 10
262.0320333657
 20
395.9297355769
 40
0.3
  0
CIRCLE
  5
837
100
AcDbEntity
  8
11_COMPONENT
100
AcDbCircle
 62
7
  6
CONTINUOUS
 10
264.5720333657
 20
395.9297355769
 40
0.3
  0
CIRCLE
  5
838
100
AcDbEntity
  8
11_COMPONENT
100
AcDbCircle
 62
7
  6
CONTINUOUS
 10
269.6520333657
 20
395.9297355769
 40
0.3
  0
CIRCLE
  5
839
100
AcDbEntity
  8
11_COMPONENT
100
AcDbCircle
 62
7
  6
CONTINUOUS
 10
267.1120333657
 20
395.9297355769
 40
0.3
  0
ARC
  5
83A
100
AcDbEntity
  8
11_COMPONENT
100
AcDbCircle
 62
9
  6
CONTINUOUS
 10
302.5280056243
 20
396.2297355769
 40
0.6999998815
100
AcDbArc
 50
170.0
 51
270.0
  0
ARC
  5
83B
100
AcDbEntity
  8
11_COMPONENT
100
AcDbCircle
 62
9
  6
CONTINUOUS
 10
302.6161691146
 20
396.7297355769
 40
0.6999571137
100
AcDbArc
 50
90.0
 51
170.0
  0
ARC
  5
83C
100
AcDbEntity
  8
11_COMPONENT
100
AcDbCircle
 62
7
  6
CONTINUOUS
 10
302.6161691146
 20
396.7297355769
 40
0.5
100
AcDbArc
 50
90.0
 51
170.0
  0
ARC
  5
83D
100
AcDbEntity
  8
11_COMPONENT
100
AcDbCircle
 62
7
  6
CONTINUOUS
 10
302.5280056243
 20
396.2297355769
 40
0.5
100
AcDbArc
 50
170.0
 51
270.0
  0
ARC
  5
83E
100
AcDbEntity
  8
11_COMPONENT
100
AcDbCircle
 62
7
  6
CONTINUOUS
 10
303.2657212394
 20
394.8297355769
 40
0.5
100
AcDbArc
 50
270.0
 51
350.0
  0
ARC
  5
83F
100
AcDbEntity
  8
11_COMPONENT
100
AcDbCircle
 62
9
  6
CONTINUOUS
 10
303.2657212394
 20
394.8297355769
 40
0.299999355
100
AcDbArc
 50
270.0
 51
350.0
  0
ARC
  5
840
100
AcDbEntity
  8
11_COMPONENT
100
AcDbCircle
 62
7
  6
CONTINUOUS
 10
303.3362520317
 20
395.2297355769
 40
0.5
100
AcDbArc
 50
350.0
 51
90.0
  0
ARC
  5
841
100
AcDbEntity
  8
11_COMPONENT
100
AcDbCircle
 62
9
  6
CONTINUOUS
 10
303.3362520317
 20
395.2297355769
 40
0.2999957892
100
AcDbArc
 50
350.0
 51
90.0
  0
ARC
  5
842
100
AcDbEntity
  8
11_COMPONENT
100
AcDbCircle
 62
9
  6
CONTINUOUS
 10
303.0393538683
 20
399.1297355769
 40
0.6999998815
100
AcDbArc
 50
170.0
 51
270.0
  0
ARC
  5
843
100
AcDbEntity
  8
11_COMPONENT
100
AcDbCircle
 62
7
  6
CONTINUOUS
 10
303.0393538683
 20
399.1297355769
 40
0.5
100
AcDbArc
 50
170.0
 51
270.0
  0
ARC
  5
844
100
AcDbEntity
  8
11_COMPONENT
100
AcDbCircle
 62
9
  6
CONTINUOUS
 10
303.1275173587
 20
399.6297355769
 40
0.6999571137
100
AcDbArc
 50
90.0
 51
170.0
  0
ARC
  5
845
100
AcDbEntity
  8
11_COMPONENT
100
AcDbCircle
 62
7
  6
CONTINUOUS
 10
303.1275173587
 20
399.6297355769
 40
0.5
100
AcDbArc
 50
90.0
 51
170.0
  0
ARC
  5
846
100
AcDbEntity
  8
11_COMPONENT
100
AcDbCircle
 62
9
  6
CONTINUOUS
 10
303.5507021124
 20
402.0297355769
 40
0.6999998815
100
AcDbArc
 50
170.0
 51
270.0
  0
ARC
  5
847
100
AcDbEntity
  8
11_COMPONENT
100
AcDbCircle
 62
9
  6
CONTINUOUS
 10
303.6388656027
 20
402.5297355769
 40
0.6999571137
100
AcDbArc
 50
90.0
 51
170.0
  0
ARC
  5
848
100
AcDbEntity
  8
11_COMPONENT
100
AcDbCircle
 62
7
  6
CONTINUOUS
 10
303.6388656027
 20
402.5297355769
 40
0.5
100
AcDbArc
 50
90.0
 51
170.0
  0
ARC
  5
849
100
AcDbEntity
  8
11_COMPONENT
100
AcDbCircle
 62
7
  6
CONTINUOUS
 10
303.5507021124
 20
402.0297355769
 40
0.5
100
AcDbArc
 50
170.0
 51
270.0
  0
ARC
  5
84A
100
AcDbEntity
  8
11_COMPONENT
100
AcDbCircle
 62
7
  6
CONTINUOUS
 10
303.7770694834
 20
397.7297355769
 40
0.5
100
AcDbArc
 50
270.0
 51
350.0
  0
ARC
  5
84B
100
AcDbEntity
  8
11_COMPONENT
100
AcDbCircle
 62
9
  6
CONTINUOUS
 10
303.7770694834
 20
397.7297355769
 40
0.299999355
100
AcDbArc
 50
270.0
 51
350.0
  0
ARC
  5
84C
100
AcDbEntity
  8
11_COMPONENT
100
AcDbCircle
 62
7
  6
CONTINUOUS
 10
303.8476002757
 20
398.1297355769
 40
0.5
100
AcDbArc
 50
350.0
 51
90.0
  0
ARC
  5
84D
100
AcDbEntity
  8
11_COMPONENT
100
AcDbCircle
 62
9
  6
CONTINUOUS
 10
303.8476002757
 20
398.1297355769
 40
0.2999957892
100
AcDbArc
 50
350.0
 51
90.0
  0
ARC
  5
84E
100
AcDbEntity
  8
11_COMPONENT
100
AcDbCircle
 62
7
  6
CONTINUOUS
 10
304.2884177275
 20
400.6297355769
 40
0.5
100
AcDbArc
 50
270.0
 51
350.0
  0
ARC
  5
84F
100
AcDbEntity
  8
11_COMPONENT
100
AcDbCircle
 62
9
  6
CONTINUOUS
 10
304.2884177275
 20
400.6297355769
 40
0.299999355
100
AcDbArc
 50
270.0
 51
350.0
  0
ARC
  5
850
100
AcDbEntity
  8
11_COMPONENT
100
AcDbCircle
 62
7
  6
CONTINUOUS
 10
304.3589485198
 20
401.0297355769
 40
0.5
100
AcDbArc
 50
350.0
 51
90.0
  0
ARC
  5
851
100
AcDbEntity
  8
11_COMPONENT
100
AcDbCircle
 62
9
  6
CONTINUOUS
 10
304.3589485198
 20
401.0297355769
 40
0.2999957892
100
AcDbArc
 50
350.0
 51
90.0
  0
ARC
  5
852
100
AcDbEntity
  8
11_COMPONENT
100
AcDbCircle
 62
7
  6
CONTINUOUS
 10
304.7997659715
 20
403.5297355769
 40
0.5
100
AcDbArc
 50
270.0
 51
350.0
  0
ARC
  5
853
100
AcDbEntity
  8
11_COMPONENT
100
AcDbCircle
 62
9
  6
CONTINUOUS
 10
304.7997659715
 20
403.5297355769
 40
0.299999355
100
AcDbArc
 50
270.0
 51
350.0
  0
ARC
  5
854
100
AcDbEntity
  8
11_COMPONENT
100
AcDbCircle
 62
7
  6
CONTINUOUS
 10
304.8702967638
 20
403.9297355769
 40
0.5
100
AcDbArc
 50
350.0
 51
90.0
  0
ARC
  5
855
100
AcDbEntity
  8
11_COMPONENT
100
AcDbCircle
 62
9
  6
CONTINUOUS
 10
304.8702967638
 20
403.9297355769
 40
0.2999957892
100
AcDbArc
 50
350.0
 51
90.0
  0
ARC
  5
856
100
AcDbEntity
  8
11_COMPONENT
100
AcDbCircle
 62
7
  6
CONTINUOUS
 10
299.5667963333
 20
408.2297355769
 40
3.5
100
AcDbArc
 50
350.0
 51
90.0
  0
ARC
  5
857
100
AcDbEntity
  8
11_COMPONENT
100
AcDbCircle
 62
7
  6
CONTINUOUS
 10
299.5402105089
 20
408.3297355769
 40
3.3
100
AcDbArc
 50
350.0
 51
90.0
  0
ARC
  5
858
100
AcDbEntity
  8
11_COMPONENT
100
AcDbCircle
 62
9
  6
CONTINUOUS
 10
304.0620503564
 20
404.9297355769
 40
0.6999998815
100
AcDbArc
 50
170.0
 51
270.0
  0
ARC
  5
859
100
AcDbEntity
  8
11_COMPONENT
100
AcDbCircle
 62
9
  6
CONTINUOUS
 10
304.998346624
 20
410.2397355769
 40
0.6999571137
100
AcDbArc
 50
90.0
 51
170.0
  0
ARC
  5
85A
100
AcDbEntity
  8
11_COMPONENT
100
AcDbCircle
 62
7
  6
CONTINUOUS
 10
298.2467942812
 20
412.7397355769
 40
0.5
100
AcDbArc
 50
90.0
 51
135.0
  0
ARC
  5
85B
100
AcDbEntity
  8
11_COMPONENT
100
AcDbCircle
 62
7
  6
CONTINUOUS
 10
304.0620503564
 20
404.9297355769
 40
0.5
100
AcDbArc
 50
170.0
 51
270.0
  0
ARC
  5
85C
100
AcDbEntity
  8
11_COMPONENT
100
AcDbCircle
 62
7
  6
CONTINUOUS
 10
297.3225807188
 20
413.2297355769
 40
0.5
100
AcDbArc
 50
270.0
 51
315.0
  0
ARC
  5
85D
100
AcDbEntity
  8
11_COMPONENT
100
AcDbCircle
 62
7
  6
CONTINUOUS
 10
304.998346624
 20
410.2397355769
 40
0.5
100
AcDbArc
 50
90.0
 51
170.0
  0
ARC
  5
85E
100
AcDbEntity
  8
11_COMPONENT
100
AcDbCircle
 62
7
  6
CONTINUOUS
 10
313.7496875
 20
410.9397355769
 40
0.2
100
AcDbArc
 50
270.0000000012
 51
360.0
  0
ARC
  5
85F
100
AcDbEntity
  8
11_COMPONENT
100
AcDbCircle
 62
7
  6
CONTINUOUS
 10
297.3285500709
 20
720.2387586339
 40
326.0587115569
100
AcDbArc
 50
270.0779854939
 51
270.2856062135
  0
ARC
  5
860
100
AcDbEntity
  8
11_COMPONENT
100
AcDbCircle
 62
7
  6
CONTINUOUS
 10
297.3125369636
 20
718.7135875546
 40
324.5335353154
100
AcDbArc
 50
269.7139059192
 51
269.9225023733
  0
ARC
  5
861
100
AcDbEntity
  8
11_COMPONENT
100
AcDbCircle
 62
7
  6
CONTINUOUS
 10
476.6068407081
 20
394.6401616928
 40
324.5335608851
100
AcDbArc
 50
179.7139059275
 51
179.9225023651
  0
ARC
  5
862
100
AcDbEntity
  8
11_COMPONENT
100
AcDbCircle
 62
7
  6
CONTINUOUS
 10
621.40684069
 20
394.6401616929
 40
324.5335608671
100
AcDbArc
 50
179.7139059275
 51
179.9225023651
  0
ARC
  5
863
100
AcDbEntity
  8
11_COMPONENT
100
AcDbCircle
 62
7
  6
CONTINUOUS
 10
481.6670351556
 20
168.8352790506
 40
11.5178234934
100
AcDbArc
 50
261.8561174028
 51
267.7604552169
  0
ARC
  5
864
100
AcDbEntity
  8
11_COMPONENT
100
AcDbCircle
 62
7
  6
CONTINUOUS
 10
481.6656402225
 20
168.8352008117
 40
11.5177450364
100
AcDbArc
 50
272.2395246556
 51
278.1439027247
  0
ARC
  5
865
100
AcDbEntity
  8
11_COMPONENT
100
AcDbCircle
 62
7
  6
CONTINUOUS
 10
481.6663341346
 20
168.8119363006
 40
11.5032524064
100
AcDbArc
 50
278.4516816087
 51
283.4100201908
  0
ARC
  5
866
100
AcDbEntity
  8
11_COMPONENT
100
AcDbCircle
 62
7
  6
CONTINUOUS
 10
481.6663341346
 20
168.8119363006
 40
11.5032524064
100
AcDbArc
 50
256.5899798092
 51
261.5483185197
  0
ARC
  5
867
100
AcDbEntity
  8
11_COMPONENT
100
AcDbCircle
 62
7
  6
CONTINUOUS
 10
479.1144815833
 20
158.1086838942
 40
0.5
100
AcDbArc
 50
184.9999999994
 51
256.5899790788
  0
ARC
  5
868
100
AcDbEntity
  8
11_COMPONENT
100
AcDbCircle
 62
7
  6
CONTINUOUS
 10
479.0619883851
 20
158.7086838942
 40
0.5
100
AcDbArc
 50
179.9649876694
 51
185.0000000003
  0
ARC
  5
869
100
AcDbEntity
  8
11_COMPONENT
100
AcDbCircle
 62
7
  6
CONTINUOUS
 10
466.4663341346
 20
158.9086838942
 40
0.2
100
AcDbArc
 50
180.0
 51
269.9999999971
  0
ARC
  5
86A
100
AcDbEntity
  8
11_COMPONENT
100
AcDbCircle
 62
7
  6
CONTINUOUS
 10
481.5663341346
 20
158.9086838942
 40
0.2
100
AcDbArc
 50
180.0
 51
270.0
  0
ARC
  5
86B
100
AcDbEntity
  8
11_COMPONENT
100
AcDbCircle
 62
7
  6
CONTINUOUS
 10
479.6663341346
 20
158.9086838942
 40
0.2
100
AcDbArc
 50
270.0
 51
360.0
  0
ARC
  5
86C
100
AcDbEntity
  8
11_COMPONENT
100
AcDbCircle
 62
7
  6
CONTINUOUS
 10
478.6663341346
 20
158.9086838942
 40
0.2
100
AcDbArc
 50
180.0
 51
270.0
  0
ARC
  5
86D
100
AcDbEntity
  8
11_COMPONENT
100
AcDbCircle
 62
7
  6
CONTINUOUS
 10
481.6670352031
 20
276.5820882146
 40
11.5178240181
100
AcDbArc
 50
92.2395449177
 51
98.1438824626
  0
ARC
  5
86E
100
AcDbEntity
  8
11_COMPONENT
100
AcDbCircle
 62
7
  6
CONTINUOUS
 10
481.6656401755
 20
276.582166459
 40
11.5177455556
100
AcDbArc
 50
81.8560974085
 51
87.7604752112
  0
ARC
  5
86F
100
AcDbEntity
  8
11_COMPONENT
100
AcDbCircle
 62
7
  6
CONTINUOUS
 10
481.6663341346
 20
276.6054314878
 40
11.5032524064
100
AcDbArc
 50
76.5899798092
 51
81.5483183913
  0
ARC
  5
870
100
AcDbEntity
  8
11_COMPONENT
100
AcDbCircle
 62
7
  6
CONTINUOUS
 10
481.6663341346
 20
276.6054314878
 40
11.5032524064
100
AcDbArc
 50
98.4516814803
 51
103.4100201908
  0
ARC
  5
871
100
AcDbEntity
  8
11_COMPONENT
100
AcDbCircle
 62
7
  6
CONTINUOUS
 10
477.0163341346
 20
294.5586838942
 40
0.75
100
AcDbArc
 50
90.0
 51
180.0
  0
ARC
  5
872
100
AcDbEntity
  8
11_COMPONENT
100
AcDbCircle
 62
7
  6
CONTINUOUS
 10
479.1144815833
 20
287.3086838942
 40
0.5
100
AcDbArc
 50
103.4100209212
 51
175.0000000006
  0
ARC
  5
873
100
AcDbEntity
  8
11_COMPONENT
100
AcDbCircle
 62
7
  6
CONTINUOUS
 10
479.0619883851
 20
286.7086838942
 40
0.5
100
AcDbArc
 50
174.9999999997
 51
180.0350123306
  0
ARC
  5
874
100
AcDbEntity
  8
11_COMPONENT
100
AcDbCircle
 62
7
  6
CONTINUOUS
 10
477.8663341346
 20
292.5586838946
 40
0.2
100
AcDbArc
 50
90.0
 51
180.0000001197
  0
ARC
  5
875
100
AcDbEntity
  8
11_COMPONENT
100
AcDbCircle
 62
7
  6
CONTINUOUS
 10
478.6663341346
 20
286.5086838942
 40
0.2
100
AcDbArc
 50
90.0
 51
180.0
  0
ARC
  5
876
100
AcDbEntity
  8
11_COMPONENT
100
AcDbCircle
 62
7
  6
CONTINUOUS
 10
466.4663341346
 20
286.5086838942
 40
0.2
100
AcDbArc
 50
90.0000000028
 51
180.0
  0
ARC
  5
877
100
AcDbEntity
  8
11_COMPONENT
100
AcDbCircle
 62
7
  6
CONTINUOUS
 10
479.6663341346
 20
286.5086838942
 40
0.2
100
AcDbArc
 50
0.0
 51
90.0
  0
ARC
  5
878
100
AcDbEntity
  8
11_COMPONENT
100
AcDbCircle
 62
7
  6
CONTINUOUS
 10
481.5663341346
 20
286.5086838942
 40
0.2
100
AcDbArc
 50
90.0
 51
180.0
  0
ARC
  5
879
100
AcDbEntity
  8
11_COMPONENT
100
AcDbCircle
 62
7
  6
CONTINUOUS
 10
484.218186686
 20
158.1086838942
 40
0.5
100
AcDbArc
 50
283.4100209211
 51
354.9999999999
  0
ARC
  5
87A
100
AcDbEntity
  8
11_COMPONENT
100
AcDbCircle
 62
7
  6
CONTINUOUS
 10
484.2706798841
 20
158.7086838942
 40
0.5
100
AcDbArc
 50
355.0
 51
0.0350123309
  0
ARC
  5
87B
100
AcDbEntity
  8
11_COMPONENT
100
AcDbCircle
 62
7
  6
CONTINUOUS
 10
490.2663341346
 20
158.9086838942
 40
0.2
100
AcDbArc
 50
180.0
 51
270.0
  0
ARC
  5
87C
100
AcDbEntity
  8
11_COMPONENT
100
AcDbCircle
 62
7
  6
CONTINUOUS
 10
491.2663341346
 20
158.9086838942
 40
0.2
100
AcDbArc
 50
270.0
 51
360.0
  0
ARC
  5
87D
100
AcDbEntity
  8
11_COMPONENT
100
AcDbCircle
 62
7
  6
CONTINUOUS
 10
497.9763341346
 20
158.9086838942
 40
0.2
100
AcDbArc
 50
180.0000000015
 51
270.0
  0
ARC
  5
87E
100
AcDbEntity
  8
11_COMPONENT
100
AcDbCircle
 62
7
  6
CONTINUOUS
 10
488.3663341346
 20
158.9086838942
 40
0.2
100
AcDbArc
 50
270.0
 51
360.0
  0
ARC
  5
87F
100
AcDbEntity
  8
11_COMPONENT
100
AcDbCircle
 62
7
  6
CONTINUOUS
 10
487.3663341346
 20
158.9086838942
 40
0.2
100
AcDbArc
 50
180.0
 51
270.0
  0
ARC
  5
880
100
AcDbEntity
  8
11_COMPONENT
100
AcDbCircle
 62
7
  6
CONTINUOUS
 10
485.4663341346
 20
158.9086838942
 40
0.2
100
AcDbArc
 50
270.0
 51
360.0
  0
ARC
  5
881
100
AcDbEntity
  8
11_COMPONENT
100
AcDbCircle
 62
7
  6
CONTINUOUS
 10
484.4663341346
 20
158.9086838942
 40
0.2
100
AcDbArc
 50
180.0
 51
270.0
  0
ARC
  5
882
100
AcDbEntity
  8
11_COMPONENT
100
AcDbCircle
 62
7
  6
CONTINUOUS
 10
482.5663341346
 20
158.9086838942
 40
0.2
100
AcDbArc
 50
270.0
 51
360.0
  0
ARC
  5
883
100
AcDbEntity
  8
11_COMPONENT
100
AcDbCircle
 62
7
  6
CONTINUOUS
 10
489.3163341346
 20
294.5586838942
 40
0.75
100
AcDbArc
 50
0.0
 51
90.0
  0
ARC
  5
884
100
AcDbEntity
  8
11_COMPONENT
100
AcDbCircle
 62
7
  6
CONTINUOUS
 10
484.218186686
 20
287.3086838942
 40
0.5
100
AcDbArc
 50
5.0000000001
 51
76.5899790789
  0
ARC
  5
885
100
AcDbEntity
  8
11_COMPONENT
100
AcDbCircle
 62
7
  6
CONTINUOUS
 10
484.2706798841
 20
286.7086838942
 40
0.5
100
AcDbArc
 50
359.9649876691
 51
5.0
  0
ARC
  5
886
100
AcDbEntity
  8
11_COMPONENT
100
AcDbCircle
 62
7
  6
CONTINUOUS
 10
490.6663341346
 20
292.5586838942
 40
0.2
100
AcDbArc
 50
0.0
 51
89.9999999999
  0
ARC
  5
887
100
AcDbEntity
  8
11_COMPONENT
100
AcDbCircle
 62
7
  6
CONTINUOUS
 10
491.2663341346
 20
286.5086838942
 40
0.2
100
AcDbArc
 50
0.0
 51
90.0
  0
ARC
  5
888
100
AcDbEntity
  8
11_COMPONENT
100
AcDbCircle
 62
7
  6
CONTINUOUS
 10
490.2663341346
 20
286.5086838942
 40
0.2
100
AcDbArc
 50
90.0
 51
180.0
  0
ARC
  5
889
100
AcDbEntity
  8
11_COMPONENT
100
AcDbCircle
 62
7
  6
CONTINUOUS
 10
482.5663341346
 20
286.5086838942
 40
0.2
100
AcDbArc
 50
0.0
 51
90.0
  0
ARC
  5
88A
100
AcDbEntity
  8
11_COMPONENT
100
AcDbCircle
 62
7
  6
CONTINUOUS
 10
485.4663341346
 20
286.5086838942
 40
0.2
100
AcDbArc
 50
0.0
 51
90.0
  0
ARC
  5
88B
100
AcDbEntity
  8
11_COMPONENT
100
AcDbCircle
 62
7
  6
CONTINUOUS
 10
487.3663341346
 20
286.5086838942
 40
0.2
100
AcDbArc
 50
90.0
 51
180.0
  0
ARC
  5
88C
100
AcDbEntity
  8
11_COMPONENT
100
AcDbCircle
 62
7
  6
CONTINUOUS
 10
484.4663341346
 20
286.5086838942
 40
0.2
100
AcDbArc
 50
90.0
 51
180.0
  0
ARC
  5
88D
100
AcDbEntity
  8
11_COMPONENT
100
AcDbCircle
 62
7
  6
CONTINUOUS
 10
488.3663341346
 20
286.5086838942
 40
0.2
100
AcDbArc
 50
0.0
 51
90.0
  0
ARC
  5
88E
100
AcDbEntity
  8
11_COMPONENT
100
AcDbCircle
 62
7
  6
CONTINUOUS
 10
497.9763341346
 20
286.5086838942
 40
0.2
100
AcDbArc
 50
90.0
 51
180.0
  0
LINE
  5
88F
100
AcDbEntity
  8
11_COMPONENT
100
AcDbLine
 62
7
  6
CONTINUOUS
 10
298.461591847
 20
54.0264317129
 11
298.9538706291
 21
53.9910932013
  0
LINE
  5
890
100
AcDbEntity
  8
11_COMPONENT
100
AcDbLine
 62
7
  6
CONTINUOUS
 10
297.7686007286
 20
56.0676382377
 11
297.733262217
 21
55.5753594556
  0
LINE
  5
891
100
AcDbEntity
  8
11_COMPONENT
100
AcDbLine
 62
7
  6
CONTINUOUS
 10
296.8773255927
 20
56.0676382377
 11
296.9126641043
 21
55.5753594556
  0
LINE
  5
892
100
AcDbEntity
  8
11_COMPONENT
100
AcDbLine
 62
7
  6
CONTINUOUS
 10
297.7686007286
 20
52.8058233007
 11
297.733262217
 21
53.2981020829
  0
SPLINE
  5
893
100
AcDbEntity
  8
11_COMPONENT
100
AcDbSpline
 62
7
  6
CONTINUOUS
 70
0
 71
3
 72
11
 73
7
 74
0
 42
0.0000001
 43
0.0000001
 44
0.0000000001
 40
0.0
 40
0.0
 40
0.0
 40
0.0
 40
0.1752279574
 40
0.4128690774
 40
0.6944616531
 40
1.0
 40
1.0
 40
1.0
 40
1.0
 10
297.733262217
 20
55.5753594556
 30
0.0
 10
297.730177069
 20
55.5318906444
 30
0.0
 10
297.725471445
 20
55.4292990488
 30
0.0
 10
297.7205438521
 20
55.2566622213
 30
0.0
 10
297.717229267
 20
55.0515668309
 30
0.0
 10
297.7161384702
 20
54.9055541251
 30
0.0
 10
297.7158016841
 20
54.8295692927
 30
0.0
  0
SPLINE
  5
894
100
AcDbEntity
  8
11_COMPONENT
100
AcDbSpline
 62
7
  6
CONTINUOUS
 70
0
 71
3
 72
11
 73
7
 74
0
 42
0.0000001
 43
0.0000001
 44
0.0000000001
 40
0.0
 40
0.0
 40
0.0
 40
0.0
 40
0.3055425752
 40
0.5871332328
 40
0.8247728695
 40
1.0
 40
1.0
 40
1.0
 40
1.0
 10
297.7158016841
 20
54.8295692927
 30
0.0
 10
297.7917875681
 20
54.8299060778
 30
0.0
 10
297.9378008479
 20
54.830996904
 30
0.0
 10
298.1428964452
 20
54.8343114884
 30
0.0
 10
298.3155322166
 20
54.8392391299
 30
0.0
 10
298.4181232465
 20
54.8439446132
 30
0.0
 10
298.461591847
 20
54.8470298256
 30
0.0
  0
SPLINE
  5
895
100
AcDbEntity
  8
11_COMPONENT
100
AcDbSpline
 62
7
  6
CONTINUOUS
 70
0
 71
3
 72
11
 73
7
 74
0
 42
0.0000001
 43
0.0000001
 44
0.0000000001
 40
0.0
 40
0.0
 40
0.0
 40
0.0
 40
0.1752256238
 40
0.4128630032
 40
0.6944568359
 40
1.0
 40
1.0
 40
1.0
 40
1.0
 10
298.461591847
 20
54.0264317129
 30
0.0
 10
298.4181235984
 20
54.0295165908
 30
0.0
 10
298.3155335406
 20
54.034222553
 30
0.0
 10
298.1428978973
 20
54.0391499495
 30
0.0
 10
297.9378019321
 20
54.0424646503
 30
0.0
 10
297.7917877145
 20
54.0435554581
 30
0.0
 10
297.7158016841
 20
54.0438922458
 30
0.0
  0
SPLINE
  5
896
100
AcDbEntity
  8
11_COMPONENT
100
AcDbSpline
 62
7
  6
CONTINUOUS
 70
0
 71
3
 72
11
 73
7
 74
0
 42
0.0000001
 43
0.0000001
 44
0.0000000001
 40
0.0
 40
0.0
 40
0.0
 40
0.0
 40
0.3055294065
 40
0.5872539708
 40
0.8249139666
 40
1.0
 40
1.0
 40
1.0
 40
1.0
 10
297.7158016841
 20
54.0438922458
 30
0.0
 10
297.7161384592
 20
53.9679095965
 30
0.0
 10
297.7172312006
 20
53.8218662131
 30
0.0
 10
297.7205363519
 20
53.6167353955
 30
0.0
 10
297.7254542409
 20
53.4440956711
 30
0.0
 10
297.73017966
 20
53.3415357166
 30
0.0
 10
297.733262217
 20
53.2981020829
 30
0.0
  0
SPLINE
  5
897
100
AcDbEntity
  8
11_COMPONENT
100
AcDbSpline
 62
7
  6
CONTINUOUS
 70
0
 71
3
 72
11
 73
7
 74
0
 42
0.0000001
 43
0.0000001
 44
0.0000000001
 40
0.0
 40
0.0
 40
0.0
 40
0.0
 40
0.1750854254
 40
0.4127448546
 40
0.6944700845
 40
1.0
 40
1.0
 40
1.0
 40
1.0
 10
296.9126641043
 20
53.2981020829
 30
0.0
 10
296.9157466506
 20
53.3415355659
 30
0.0
 10
296.9204720975
 20
53.4440952263
 30
0.0
 10
296.9253899937
 20
53.6167348247
 30
0.0
 10
296.9286951387
 20
53.8218657939
 30
0.0
 10
296.9297878615
 20
53.9679094698
 30
0.0
 10
296.9301246372
 20
54.0438922458
 30
0.0
  0
SPLINE
  5
898
100
AcDbEntity
  8
11_COMPONENT
100
AcDbSpline
 62
7
  6
CONTINUOUS
 70
0
 71
3
 72
11
 73
7
 74
0
 42
0.0000001
 43
0.0000001
 44
0.0000000001
 40
0.0
 40
0.0
 40
0.0
 40
0.0
 40
0.3055173837
 40
0.5872391207
 40
0.8249035143
 40
1.0
 40
1.0
 40
1.0
 40
1.0
 10
296.9301246372
 20
54.0438922458
 30
0.0
 10
296.8541449776
 20
54.0435554863
 30
0.0
 10
296.7081052862
 20
54.0424627953
 30
0.0
 10
296.5029770671
 20
54.0391578514
 30
0.0
 10
296.3303343405
 20
54.0342401301
 30
0.0
 10
296.2277707107
 20
54.0295143189
 30
0.0
 10
296.1843344743
 20
54.0264317129
 30
0.0
  0
SPLINE
  5
899
100
AcDbEntity
  8
11_COMPONENT
100
AcDbSpline
 62
7
  6
CONTINUOUS
 70
0
 71
3
 72
11
 73
7
 74
0
 42
0.0000001
 43
0.0000001
 44
0.0000000001
 40
0.0
 40
0.0
 40
0.0
 40
0.0
 40
0.175227131
 40
0.4128667676
 40
0.6944574244
 40
1.0
 40
1.0
 40
1.0
 40
1.0
 10
296.1843344743
 20
54.8470298256
 30
0.0
 10
296.2278030749
 20
54.8439446132
 30
0.0
 10
296.3303941049
 20
54.8392391299
 30
0.0
 10
296.5030298762
 20
54.8343114884
 30
0.0
 10
296.7081254734
 20
54.830996904
 30
0.0
 10
296.8541387531
 20
54.8299060778
 30
0.0
 10
296.9301246372
 20
54.8295692927
 30
0.0
  0
SPLINE
  5
89A
100
AcDbEntity
  8
11_COMPONENT
100
AcDbSpline
 62
7
  6
CONTINUOUS
 70
0
 71
3
 72
11
 73
7
 74
0
 42
0.0000001
 43
0.0000001
 44
0.0000000001
 40
0.0
 40
0.0
 40
0.0
 40
0.0
 40
0.3055383469
 40
0.5871309252
 40
0.8247720423
 40
1.0
 40
1.0
 40
1.0
 40
1.0
 10
296.9301246372
 20
54.8295692927
 30
0.0
 10
296.929787851
 20
54.9055541251
 30
0.0
 10
296.9286970543
 20
55.0515668315
 30
0.0
 10
296.9253824691
 20
55.2566622219
 30
0.0
 10
296.9204548762
 20
55.4292990493
 30
0.0
 10
296.9157492523
 20
55.5318906443
 30
0.0
 10
296.9126641043
 20
55.5753594556
 30
0.0
  0
LINE
  5
89B
100
AcDbEntity
  8
11_COMPONENT
100
AcDbLine
 62
7
  6
CONTINUOUS
 10
296.8773255927
 20
52.8058233007
 11
296.9126641043
 21
53.2981020829
  0
LINE
  5
89C
100
AcDbEntity
  8
11_COMPONENT
100
AcDbLine
 62
7
  6
CONTINUOUS
 10
295.6920556922
 20
53.9910932013
 11
296.1843344743
 21
54.0264317129
  0
LINE
  5
89D
100
AcDbEntity
  8
11_COMPONENT
100
AcDbLine
 62
7
  6
CONTINUOUS
 10
295.6920556922
 20
54.8823683371
 11
296.1843344743
 21
54.8470298256
  0
LINE
  5
89E
100
AcDbEntity
  8
11_COMPONENT
100
AcDbLine
 62
7
  6
CONTINUOUS
 10
298.9538706291
 20
54.8823683371
 11
298.461591847
 21
54.8470298256
  0
LINE
  5
89F
100
AcDbEntity
  8
11_COMPONENT
100
AcDbLine
 62
7
  6
CONTINUOUS
 10
153.661591847
 20
54.0264317129
 11
154.1538706291
 21
53.9910932013
  0
LINE
  5
8A0
100
AcDbEntity
  8
11_COMPONENT
100
AcDbLine
 62
7
  6
CONTINUOUS
 10
152.9686007286
 20
56.0676382377
 11
152.933262217
 21
55.5753594556
  0
LINE
  5
8A1
100
AcDbEntity
  8
11_COMPONENT
100
AcDbLine
 62
7
  6
CONTINUOUS
 10
152.0773255927
 20
56.0676382377
 11
152.1126641043
 21
55.5753594556
  0
LINE
  5
8A2
100
AcDbEntity
  8
11_COMPONENT
100
AcDbLine
 62
7
  6
CONTINUOUS
 10
152.9686007286
 20
52.8058233007
 11
152.933262217
 21
53.2981020829
  0
SPLINE
  5
8A3
100
AcDbEntity
  8
11_COMPONENT
100
AcDbSpline
 62
7
  6
CONTINUOUS
 70
0
 71
3
 72
11
 73
7
 74
0
 42
0.0000001
 43
0.0000001
 44
0.0000000001
 40
0.0
 40
0.0
 40
0.0
 40
0.0
 40
0.1752279574
 40
0.4128690774
 40
0.6944616531
 40
1.0
 40
1.0
 40
1.0
 40
1.0
 10
152.933262217
 20
55.5753594556
 30
0.0
 10
152.930177069
 20
55.5318906444
 30
0.0
 10
152.925471445
 20
55.4292990488
 30
0.0
 10
152.9205438521
 20
55.2566622213
 30
0.0
 10
152.917229267
 20
55.0515668309
 30
0.0
 10
152.9161384702
 20
54.9055541251
 30
0.0
 10
152.9158016841
 20
54.8295692927
 30
0.0
  0
SPLINE
  5
8A4
100
AcDbEntity
  8
11_COMPONENT
100
AcDbSpline
 62
7
  6
CONTINUOUS
 70
0
 71
3
 72
11
 73
7
 74
0
 42
0.0000001
 43
0.0000001
 44
0.0000000001
 40
0.0
 40
0.0
 40
0.0
 40
0.0
 40
0.3055425752
 40
0.5871332328
 40
0.8247728695
 40
1.0
 40
1.0
 40
1.0
 40
1.0
 10
152.9158016841
 20
54.8295692927
 30
0.0
 10
152.9917875681
 20
54.8299060778
 30
0.0
 10
153.1378008479
 20
54.830996904
 30
0.0
 10
153.3428964452
 20
54.8343114884
 30
0.0
 10
153.5155322166
 20
54.8392391299
 30
0.0
 10
153.6181232465
 20
54.8439446132
 30
0.0
 10
153.661591847
 20
54.8470298256
 30
0.0
  0
SPLINE
  5
8A5
100
AcDbEntity
  8
11_COMPONENT
100
AcDbSpline
 62
7
  6
CONTINUOUS
 70
0
 71
3
 72
11
 73
7
 74
0
 42
0.0000001
 43
0.0000001
 44
0.0000000001
 40
0.0
 40
0.0
 40
0.0
 40
0.0
 40
0.1752256238
 40
0.4128630032
 40
0.6944568359
 40
1.0
 40
1.0
 40
1.0
 40
1.0
 10
153.661591847
 20
54.0264317129
 30
0.0
 10
153.6181235984
 20
54.0295165908
 30
0.0
 10
153.5155335406
 20
54.034222553
 30
0.0
 10
153.3428978973
 20
54.0391499495
 30
0.0
 10
153.1378019321
 20
54.0424646503
 30
0.0
 10
152.9917877145
 20
54.0435554581
 30
0.0
 10
152.9158016841
 20
54.0438922458
 30
0.0
  0
SPLINE
  5
8A6
100
AcDbEntity
  8
11_COMPONENT
100
AcDbSpline
 62
7
  6
CONTINUOUS
 70
0
 71
3
 72
11
 73
7
 74
0
 42
0.0000001
 43
0.0000001
 44
0.0000000001
 40
0.0
 40
0.0
 40
0.0
 40
0.0
 40
0.3055294065
 40
0.5872539708
 40
0.8249139666
 40
1.0
 40
1.0
 40
1.0
 40
1.0
 10
152.9158016841
 20
54.0438922458
 30
0.0
 10
152.9161384592
 20
53.9679095965
 30
0.0
 10
152.9172312006
 20
53.8218662131
 30
0.0
 10
152.9205363519
 20
53.6167353955
 30
0.0
 10
152.9254542409
 20
53.4440956711
 30
0.0
 10
152.93017966
 20
53.3415357166
 30
0.0
 10
152.933262217
 20
53.2981020829
 30
0.0
  0
SPLINE
  5
8A7
100
AcDbEntity
  8
11_COMPONENT
100
AcDbSpline
 62
7
  6
CONTINUOUS
 70
0
 71
3
 72
11
 73
7
 74
0
 42
0.0000001
 43
0.0000001
 44
0.0000000001
 40
0.0
 40
0.0
 40
0.0
 40
0.0
 40
0.1750854254
 40
0.4127448546
 40
0.6944700845
 40
1.0
 40
1.0
 40
1.0
 40
1.0
 10
152.1126641043
 20
53.2981020829
 30
0.0
 10
152.1157466506
 20
53.3415355659
 30
0.0
 10
152.1204720975
 20
53.4440952263
 30
0.0
 10
152.1253899937
 20
53.6167348247
 30
0.0
 10
152.1286951387
 20
53.8218657939
 30
0.0
 10
152.1297878615
 20
53.9679094698
 30
0.0
 10
152.1301246372
 20
54.0438922458
 30
0.0
  0
SPLINE
  5
8A8
100
AcDbEntity
  8
11_COMPONENT
100
AcDbSpline
 62
7
  6
CONTINUOUS
 70
0
 71
3
 72
11
 73
7
 74
0
 42
0.0000001
 43
0.0000001
 44
0.0000000001
 40
0.0
 40
0.0
 40
0.0
 40
0.0
 40
0.3055173837
 40
0.5872391207
 40
0.8249035143
 40
1.0
 40
1.0
 40
1.0
 40
1.0
 10
152.1301246372
 20
54.0438922458
 30
0.0
 10
152.0541449776
 20
54.0435554863
 30
0.0
 10
151.9081052862
 20
54.0424627953
 30
0.0
 10
151.7029770671
 20
54.0391578514
 30
0.0
 10
151.5303343405
 20
54.0342401301
 30
0.0
 10
151.4277707107
 20
54.0295143189
 30
0.0
 10
151.3843344743
 20
54.0264317129
 30
0.0
  0
SPLINE
  5
8A9
100
AcDbEntity
  8
11_COMPONENT
100
AcDbSpline
 62
7
  6
CONTINUOUS
 70
0
 71
3
 72
11
 73
7
 74
0
 42
0.0000001
 43
0.0000001
 44
0.0000000001
 40
0.0
 40
0.0
 40
0.0
 40
0.0
 40
0.175227131
 40
0.4128667676
 40
0.6944574244
 40
1.0
 40
1.0
 40
1.0
 40
1.0
 10
151.3843344743
 20
54.8470298256
 30
0.0
 10
151.4278030749
 20
54.8439446132
 30
0.0
 10
151.5303941049
 20
54.8392391299
 30
0.0
 10
151.7030298762
 20
54.8343114884
 30
0.0
 10
151.9081254734
 20
54.830996904
 30
0.0
 10
152.0541387531
 20
54.8299060778
 30
0.0
 10
152.1301246372
 20
54.8295692927
 30
0.0
  0
SPLINE
  5
8AA
100
AcDbEntity
  8
11_COMPONENT
100
AcDbSpline
 62
7
  6
CONTINUOUS
 70
0
 71
3
 72
11
 73
7
 74
0
 42
0.0000001
 43
0.0000001
 44
0.0000000001
 40
0.0
 40
0.0
 40
0.0
 40
0.0
 40
0.3055383469
 40
0.5871309252
 40
0.8247720423
 40
1.0
 40
1.0
 40
1.0
 40
1.0
 10
152.1301246372
 20
54.8295692927
 30
0.0
 10
152.129787851
 20
54.9055541251
 30
0.0
 10
152.1286970543
 20
55.0515668315
 30
0.0
 10
152.1253824691
 20
55.2566622219
 30
0.0
 10
152.1204548762
 20
55.4292990493
 30
0.0
 10
152.1157492523
 20
55.5318906443
 30
0.0
 10
152.1126641043
 20
55.5753594556
 30
0.0
  0
LINE
  5
8AB
100
AcDbEntity
  8
11_COMPONENT
100
AcDbLine
 62
7
  6
CONTINUOUS
 10
152.0773255927
 20
52.8058233007
 11
152.1126641043
 21
53.2981020829
  0
LINE
  5
8AC
100
AcDbEntity
  8
11_COMPONENT
100
AcDbLine
 62
7
  6
CONTINUOUS
 10
150.8920556922
 20
53.9910932013
 11
151.3843344743
 21
54.0264317129
  0
LINE
  5
8AD
100
AcDbEntity
  8
11_COMPONENT
100
AcDbLine
 62
7
  6
CONTINUOUS
 10
150.8920556922
 20
54.8823683371
 11
151.3843344743
 21
54.8470298256
  0
LINE
  5
8AE
100
AcDbEntity
  8
11_COMPONENT
100
AcDbLine
 62
7
  6
CONTINUOUS
 10
154.1538706291
 20
54.8823683371
 11
153.661591847
 21
54.8470298256
  0
LINE
  5
8AF
100
AcDbEntity
  8
11_COMPONENT
100
AcDbLine
 62
7
  6
CONTINUOUS
 10
300.5306955305
 20
64.3367307692
 11
300.3193484939
 21
64.3835852792
  0
LINE
  5
8B0
100
AcDbEntity
  8
11_COMPONENT
100
AcDbLine
 62
7
  6
CONTINUOUS
 10
149.3286794695
 20
64.3367307692
 11
149.5400265061
 21
64.3835852792
  0
SPLINE
  5
8B1
100
AcDbEntity
  8
11_COMPONENT
100
AcDbSpline
 62
7
  6
CONTINUOUS
 70
0
 71
3
 72
9
 73
5
 74
0
 42
0.0000001
 43
0.0000001
 44
0.0000000001
 40
0.0
 40
0.0
 40
0.0
 40
0.0
 40
0.5029163467
 40
1.0
 40
1.0
 40
1.0
 40
1.0
 10
300.5306955305
 20
158.9086838942
 30
0.0
 10
300.5306955305
 20
158.8558965108
 30
0.0
 10
300.4811471622
 20
158.7471484196
 30
0.0
 10
300.3715236629
 20
158.7086838942
 30
0.0
 10
300.3193484939
 20
158.7086838942
 30
0.0
  0
SPLINE
  5
8B2
100
AcDbEntity
  8
11_COMPONENT
100
AcDbSpline
 62
7
  6
CONTINUOUS
 70
0
 71
3
 72
9
 73
5
 74
0
 42
0.0000001
 43
0.0000001
 44
0.0000000001
 40
0.0
 40
0.0
 40
0.0
 40
0.0
 40
0.5029163467
 40
1.0
 40
1.0
 40
1.0
 40
1.0
 10
300.5306955305
 20
286.5086838942
 30
0.0
 10
300.5306955305
 20
286.5614712777
 30
0.0
 10
300.4811471622
 20
286.6702193689
 30
0.0
 10
300.3715236629
 20
286.7086838942
 30
0.0
 10
300.3193484939
 20
286.7086838942
 30
0.0
  0
SPLINE
  5
8B3
100
AcDbEntity
  8
11_COMPONENT
100
AcDbSpline
 62
7
  6
CONTINUOUS
 70
0
 71
3
 72
9
 73
5
 74
0
 42
0.0000001
 43
0.0000001
 44
0.0000000001
 40
0.0
 40
0.0
 40
0.0
 40
0.0
 40
0.5029163467
 40
1.0
 40
1.0
 40
1.0
 40
1.0
 10
149.3286794695
 20
286.5086838942
 30
0.0
 10
149.3286794695
 20
286.5614712777
 30
0.0
 10
149.3782278378
 20
286.6702193689
 30
0.0
 10
149.4878513371
 20
286.7086838942
 30
0.0
 10
149.5400265061
 20
286.7086838942
 30
0.0
  0
SPLINE
  5
8B4
100
AcDbEntity
  8
11_COMPONENT
100
AcDbSpline
 62
7
  6
CONTINUOUS
 70
0
 71
3
 72
9
 73
5
 74
0
 42
0.0000001
 43
0.0000001
 44
0.0000000001
 40
0.0
 40
0.0
 40
0.0
 40
0.0
 40
0.5029163467
 40
1.0
 40
1.0
 40
1.0
 40
1.0
 10
149.3286794695
 20
158.9086838942
 30
0.0
 10
149.3286794695
 20
158.8558965108
 30
0.0
 10
149.3782278378
 20
158.7471484196
 30
0.0
 10
149.4878513371
 20
158.7086838942
 30
0.0
 10
149.5400265061
 20
158.7086838942
 30
0.0
  0
SPLINE
  5
8B5
100
AcDbEntity
  8
11_COMPONENT
100
AcDbSpline
 62
9
  6
CONTINUOUS
 70
0
 71
3
 72
8
 73
4
 74
0
 42
0.0000001
 43
0.0000001
 44
0.0000000001
 40
0.0
 40
0.0
 40
0.0
 40
0.0
 40
1.0
 40
1.0
 40
1.0
 40
1.0
 10
303.6316943576
 20
158.7086838942
 30
0.0
 10
303.6657146633
 20
158.7086838942
 30
0.0
 10
303.7007903702
 20
158.718334808
 30
0.0
 10
303.7301751329
 20
158.7354788135
 30
0.0
  0
SPLINE
  5
8B6
100
AcDbEntity
  8
11_COMPONENT
100
AcDbSpline
 62
9
  6
CONTINUOUS
 70
0
 71
3
 72
8
 73
4
 74
0
 42
0.0000001
 43
0.0000001
 44
0.0000000001
 40
0.0
 40
0.0
 40
0.0
 40
0.0
 40
1.0
 40
1.0
 40
1.0
 40
1.0
 10
303.7301751329
 20
158.7354788135
 30
0.0
 10
303.7597566277
 20
158.7527375987
 30
0.0
 10
303.7854020063
 20
158.7788767373
 30
0.0
 10
303.802268064
 20
158.8086838942
 30
0.0
  0
SPLINE
  5
8B7
100
AcDbEntity
  8
11_COMPONENT
100
AcDbSpline
 62
9
  6
CONTINUOUS
 70
0
 71
3
 72
8
 73
4
 74
0
 42
0.0000001
 43
0.0000001
 44
0.0000000001
 40
0.0
 40
0.0
 40
0.0
 40
0.0
 40
1.0
 40
1.0
 40
1.0
 40
1.0
 10
303.802268064
 20
158.8086838942
 30
0.0
 10
303.8192455485
 20
158.8386879745
 30
0.0
 10
303.8286559082
 20
158.8742095587
 30
0.0
 10
303.8286559082
 20
158.9086838942
 30
0.0
  0
SPLINE
  5
8B8
100
AcDbEntity
  8
11_COMPONENT
100
AcDbSpline
 62
9
  6
CONTINUOUS
 70
0
 71
3
 72
9
 73
5
 74
0
 42
0.0000001
 43
0.0000001
 44
0.0000000001
 40
0.0
 40
0.0
 40
0.0
 40
0.0
 40
0.4983318234
 40
1.0
 40
1.0
 40
1.0
 40
1.0
 10
303.5611635653
 20
158.7086838942
 30
0.0
 10
303.5951838716
 20
158.7086838942
 30
0.0
 10
303.664660567
 20
158.7274113177
 30
0.0
 10
303.7148712163
 20
158.7788767399
 30
0.0
 10
303.7317372737
 20
158.8086838978
 30
0.0
  0
SPLINE
  5
8B9
100
AcDbEntity
  8
11_COMPONENT
100
AcDbSpline
 62
9
  6
CONTINUOUS
 70
0
 71
3
 72
8
 73
4
 74
0
 42
0.0000001
 43
0.0000001
 44
0.0000000001
 40
0.0
 40
0.0
 40
0.0
 40
0.0
 40
1.0
 40
1.0
 40
1.0
 40
1.0
 10
303.7317372737
 20
158.8086838978
 30
0.0
 10
303.748714757
 20
158.8386879772
 30
0.0
 10
303.7581251159
 20
158.87420956
 30
0.0
 10
303.7581251159
 20
158.9086838942
 30
0.0
  0
SPLINE
  5
8BA
100
AcDbEntity
  8
11_COMPONENT
100
AcDbSpline
 62
9
  6
CONTINUOUS
 70
0
 71
3
 72
9
 73
5
 74
0
 42
0.0000001
 43
0.0000001
 44
0.0000000001
 40
0.0
 40
0.0
 40
0.0
 40
0.0
 40
0.4983318234
 40
1.0
 40
1.0
 40
1.0
 40
1.0
 10
303.0498153212
 20
158.7086838942
 30
0.0
 10
303.0838356275
 20
158.7086838942
 30
0.0
 10
303.153312323
 20
158.7274113177
 30
0.0
 10
303.2035229722
 20
158.7788767399
 30
0.0
 10
303.2203890296
 20
158.8086838978
 30
0.0
  0
SPLINE
  5
8BB
100
AcDbEntity
  8
11_COMPONENT
100
AcDbSpline
 62
9
  6
CONTINUOUS
 70
0
 71
3
 72
8
 73
4
 74
0
 42
0.0000001
 43
0.0000001
 44
0.0000000001
 40
0.0
 40
0.0
 40
0.0
 40
0.0
 40
1.0
 40
1.0
 40
1.0
 40
1.0
 10
303.2203890296
 20
158.8086838978
 30
0.0
 10
303.237366513
 20
158.8386879772
 30
0.0
 10
303.2467768718
 20
158.87420956
 30
0.0
 10
303.2467768718
 20
158.9086838942
 30
0.0
  0
SPLINE
  5
8BC
100
AcDbEntity
  8
11_COMPONENT
100
AcDbSpline
 62
9
  6
CONTINUOUS
 70
0
 71
3
 72
8
 73
4
 74
0
 42
0.0000001
 43
0.0000001
 44
0.0000000001
 40
0.0
 40
0.0
 40
0.0
 40
0.0
 40
1.0
 40
1.0
 40
1.0
 40
1.0
 10
303.1203461135
 20
158.7086838942
 30
0.0
 10
303.1543664192
 20
158.7086838942
 30
0.0
 10
303.1894421261
 20
158.718334808
 30
0.0
 10
303.2188268888
 20
158.7354788135
 30
0.0
  0
SPLINE
  5
8BD
100
AcDbEntity
  8
11_COMPONENT
100
AcDbSpline
 62
9
  6
CONTINUOUS
 70
0
 71
3
 72
8
 73
4
 74
0
 42
0.0000001
 43
0.0000001
 44
0.0000000001
 40
0.0
 40
0.0
 40
0.0
 40
0.0
 40
1.0
 40
1.0
 40
1.0
 40
1.0
 10
303.2188268888
 20
158.7354788135
 30
0.0
 10
303.2484083837
 20
158.7527375987
 30
0.0
 10
303.2740537622
 20
158.7788767373
 30
0.0
 10
303.2909198199
 20
158.8086838942
 30
0.0
  0
SPLINE
  5
8BE
100
AcDbEntity
  8
11_COMPONENT
100
AcDbSpline
 62
9
  6
CONTINUOUS
 70
0
 71
3
 72
8
 73
4
 74
0
 42
0.0000001
 43
0.0000001
 44
0.0000000001
 40
0.0
 40
0.0
 40
0.0
 40
0.0
 40
1.0
 40
1.0
 40
1.0
 40
1.0
 10
303.2909198199
 20
158.8086838942
 30
0.0
 10
303.3078973045
 20
158.8386879745
 30
0.0
 10
303.3173076641
 20
158.8742095587
 30
0.0
 10
303.3173076641
 20
158.9086838942
 30
0.0
  0
SPLINE
  5
8BF
100
AcDbEntity
  8
11_COMPONENT
100
AcDbSpline
 62
9
  6
CONTINUOUS
 70
0
 71
3
 72
9
 73
5
 74
0
 42
0.0000001
 43
0.0000001
 44
0.0000000001
 40
0.0
 40
0.0
 40
0.0
 40
0.0
 40
0.4575243679
 40
1.0
 40
1.0
 40
1.0
 40
1.0
 10
292.5558718835
 20
158.7086838942
 30
0.0
 10
292.5306661352
 20
158.7086838942
 30
0.0
 10
292.4752692298
 20
158.7321692633
 30
0.0
 10
292.4446464819
 20
158.7809959538
 30
0.0
 10
292.4333973963
 20
158.8086838942
 30
0.0
  0
SPLINE
  5
8C0
100
AcDbEntity
  8
11_COMPONENT
100
AcDbSpline
 62
9
  6
CONTINUOUS
 70
0
 71
3
 72
8
 73
4
 74
0
 42
0.0000001
 43
0.0000001
 44
0.0000000001
 40
0.0
 40
0.0
 40
0.0
 40
0.0
 40
1.0
 40
1.0
 40
1.0
 40
1.0
 10
292.4333973963
 20
158.8086838942
 30
0.0
 10
292.4206274537
 20
158.8401151966
 30
0.0
 10
292.4144505272
 20
158.8747575298
 30
0.0
 10
292.4144505272
 20
158.9086838942
 30
0.0
  0
SPLINE
  5
8C1
100
AcDbEntity
  8
11_COMPONENT
100
AcDbSpline
 62
9
  6
CONTINUOUS
 70
0
 71
3
 72
9
 73
5
 74
0
 42
0.0000001
 43
0.0000001
 44
0.0000000001
 40
0.0
 40
0.0
 40
0.0
 40
0.0
 40
0.4972930484
 40
1.0
 40
1.0
 40
1.0
 40
1.0
 10
299.8739140125
 20
286.7086838942
 30
0.0
 10
299.9242807118
 20
286.7086838942
 30
0.0
 10
300.0296259582
 20
286.6652992108
 30
0.0
 10
300.070875563
 20
286.5595989231
 30
0.0
 10
300.070875563
 20
286.5086838942
 30
0.0
  0
SPLINE
  5
8C2
100
AcDbEntity
  8
11_COMPONENT
100
AcDbSpline
 62
9
  6
CONTINUOUS
 70
0
 71
3
 72
9
 73
5
 74
0
 42
0.0000001
 43
0.0000001
 44
0.0000000001
 40
0.0
 40
0.0
 40
0.0
 40
0.0
 40
0.4972930451
 40
1.0
 40
1.0
 40
1.0
 40
1.0
 10
149.9854609875
 20
286.7086838942
 30
0.0
 10
149.9350942884
 20
286.7086838942
 30
0.0
 10
149.8297490448
 20
286.6652992084
 30
0.0
 10
149.7884994333
 20
286.5595989235
 30
0.0
 10
149.7884994333
 20
286.5086838942
 30
0.0
  0
SPLINE
  5
8C3
100
AcDbEntity
  8
11_COMPONENT
100
AcDbSpline
 62
9
  6
CONTINUOUS
 70
0
 71
3
 72
9
 73
5
 74
0
 42
0.0000001
 43
0.0000001
 44
0.0000000001
 40
0.0
 40
0.0
 40
0.0
 40
0.0
 40
0.4983318235
 40
1.0
 40
1.0
 40
1.0
 40
1.0
 10
146.8095596788
 20
286.7086838942
 30
0.0
 10
146.7755393726
 20
286.7086838942
 30
0.0
 10
146.7060626775
 20
286.6899564709
 30
0.0
 10
146.6558520283
 20
286.6384910491
 30
0.0
 10
146.6389859708
 20
286.6086838914
 30
0.0
  0
SPLINE
  5
8C4
100
AcDbEntity
  8
11_COMPONENT
100
AcDbSpline
 62
9
  6
CONTINUOUS
 70
0
 71
3
 72
8
 73
4
 74
0
 42
0.0000001
 43
0.0000001
 44
0.0000000001
 40
0.0
 40
0.0
 40
0.0
 40
0.0
 40
1.0
 40
1.0
 40
1.0
 40
1.0
 10
146.6389859708
 20
286.6086838914
 30
0.0
 10
146.6220084872
 20
286.5786798118
 30
0.0
 10
146.6125981282
 20
286.5431582288
 30
0.0
 10
146.6125981282
 20
286.5086838942
 30
0.0
  0
SPLINE
  5
8C5
100
AcDbEntity
  8
11_COMPONENT
100
AcDbSpline
 62
9
  6
CONTINUOUS
 70
0
 71
3
 72
8
 73
4
 74
0
 42
0.0000001
 43
0.0000001
 44
0.0000000001
 40
0.0
 40
0.0
 40
0.0
 40
0.0
 40
1.0
 40
1.0
 40
1.0
 40
1.0
 10
146.7390288865
 20
286.7086838942
 30
0.0
 10
146.7050085808
 20
286.7086838942
 30
0.0
 10
146.6699328739
 20
286.6990329804
 30
0.0
 10
146.6405481112
 20
286.681888975
 30
0.0
  0
SPLINE
  5
8C6
100
AcDbEntity
  8
11_COMPONENT
100
AcDbSpline
 62
9
  6
CONTINUOUS
 70
0
 71
3
 72
8
 73
4
 74
0
 42
0.0000001
 43
0.0000001
 44
0.0000000001
 40
0.0
 40
0.0
 40
0.0
 40
0.0
 40
1.0
 40
1.0
 40
1.0
 40
1.0
 10
146.6405481112
 20
286.681888975
 30
0.0
 10
146.6109666163
 20
286.6646301897
 30
0.0
 10
146.5853212377
 20
286.6384910512
 30
0.0
 10
146.5684551801
 20
286.6086838942
 30
0.0
  0
SPLINE
  5
8C7
100
AcDbEntity
  8
11_COMPONENT
100
AcDbSpline
 62
9
  6
CONTINUOUS
 70
0
 71
3
 72
8
 73
4
 74
0
 42
0.0000001
 43
0.0000001
 44
0.0000000001
 40
0.0
 40
0.0
 40
0.0
 40
0.0
 40
1.0
 40
1.0
 40
1.0
 40
1.0
 10
146.5684551801
 20
286.6086838942
 30
0.0
 10
146.5514776955
 20
286.578679814
 30
0.0
 10
146.5420673359
 20
286.5431582298
 30
0.0
 10
146.5420673359
 20
286.5086838942
 30
0.0
  0
SPLINE
  5
8C8
100
AcDbEntity
  8
11_COMPONENT
100
AcDbSpline
 62
9
  6
CONTINUOUS
 70
0
 71
3
 72
9
 73
5
 74
0
 42
0.0000001
 43
0.0000001
 44
0.0000000001
 40
0.0
 40
0.0
 40
0.0
 40
0.0
 40
0.4972930484
 40
1.0
 40
1.0
 40
1.0
 40
1.0
 10
299.8739140125
 20
158.7086838942
 30
0.0
 10
299.9242807117
 20
158.7086838942
 30
0.0
 10
300.0296259566
 20
158.7520685792
 30
0.0
 10
300.070875563
 20
158.8577688655
 30
0.0
 10
300.070875563
 20
158.9086838942
 30
0.0
  0
SPLINE
  5
8C9
100
AcDbEntity
  8
11_COMPONENT
100
AcDbSpline
 62
9
  6
CONTINUOUS
 70
0
 71
3
 72
9
 73
5
 74
0
 42
0.0000001
 43
0.0000001
 44
0.0000000001
 40
0.0
 40
0.0
 40
0.0
 40
0.0
 40
0.4983318235
 40
1.0
 40
1.0
 40
1.0
 40
1.0
 10
146.2982114347
 20
286.7086838942
 30
0.0
 10
146.2641911285
 20
286.7086838942
 30
0.0
 10
146.1947144334
 20
286.6899564709
 30
0.0
 10
146.1445037842
 20
286.6384910491
 30
0.0
 10
146.1276377267
 20
286.6086838914
 30
0.0
  0
SPLINE
  5
8CA
100
AcDbEntity
  8
11_COMPONENT
100
AcDbSpline
 62
9
  6
CONTINUOUS
 70
0
 71
3
 72
8
 73
4
 74
0
 42
0.0000001
 43
0.0000001
 44
0.0000000001
 40
0.0
 40
0.0
 40
0.0
 40
0.0
 40
1.0
 40
1.0
 40
1.0
 40
1.0
 10
146.1276377267
 20
286.6086838914
 30
0.0
 10
146.1106602431
 20
286.5786798118
 30
0.0
 10
146.1012498841
 20
286.5431582288
 30
0.0
 10
146.1012498841
 20
286.5086838942
 30
0.0
  0
SPLINE
  5
8CB
100
AcDbEntity
  8
11_COMPONENT
100
AcDbSpline
 62
9
  6
CONTINUOUS
 70
0
 71
3
 72
8
 73
4
 74
0
 42
0.0000001
 43
0.0000001
 44
0.0000000001
 40
0.0
 40
0.0
 40
0.0
 40
0.0
 40
1.0
 40
1.0
 40
1.0
 40
1.0
 10
146.2276806424
 20
286.7086838942
 30
0.0
 10
146.1936603367
 20
286.7086838942
 30
0.0
 10
146.1585846298
 20
286.6990329804
 30
0.0
 10
146.1291998671
 20
286.681888975
 30
0.0
  0
SPLINE
  5
8CC
100
AcDbEntity
  8
11_COMPONENT
100
AcDbSpline
 62
9
  6
CONTINUOUS
 70
0
 71
3
 72
8
 73
4
 74
0
 42
0.0000001
 43
0.0000001
 44
0.0000000001
 40
0.0
 40
0.0
 40
0.0
 40
0.0
 40
1.0
 40
1.0
 40
1.0
 40
1.0
 10
146.1291998671
 20
286.681888975
 30
0.0
 10
146.0996183723
 20
286.6646301897
 30
0.0
 10
146.0739729937
 20
286.6384910512
 30
0.0
 10
146.057106936
 20
286.6086838942
 30
0.0
  0
SPLINE
  5
8CD
100
AcDbEntity
  8
11_COMPONENT
100
AcDbSpline
 62
9
  6
CONTINUOUS
 70
0
 71
3
 72
8
 73
4
 74
0
 42
0.0000001
 43
0.0000001
 44
0.0000000001
 40
0.0
 40
0.0
 40
0.0
 40
0.0
 40
1.0
 40
1.0
 40
1.0
 40
1.0
 10
146.057106936
 20
286.6086838942
 30
0.0
 10
146.0401294515
 20
286.578679814
 30
0.0
 10
146.0307190918
 20
286.5431582298
 30
0.0
 10
146.0307190918
 20
286.5086838942
 30
0.0
  0
SPLINE
  5
8CE
100
AcDbEntity
  8
11_COMPONENT
100
AcDbSpline
 62
9
  6
CONTINUOUS
 70
0
 71
3
 72
8
 73
4
 74
0
 42
0.0000001
 43
0.0000001
 44
0.0000000001
 40
0.0
 40
0.0
 40
0.0
 40
0.0
 40
1.0
 40
1.0
 40
1.0
 40
1.0
 10
305.1657390897
 20
286.7086838942
 30
0.0
 10
305.199759394
 20
286.7086838942
 30
0.0
 10
305.2348350993
 20
286.6990329814
 30
0.0
 10
305.2642198611
 20
286.6818889773
 30
0.0
  0
SPLINE
  5
8CF
100
AcDbEntity
  8
11_COMPONENT
100
AcDbSpline
 62
9
  6
CONTINUOUS
 70
0
 71
3
 72
8
 73
4
 74
0
 42
0.0000001
 43
0.0000001
 44
0.0000000001
 40
0.0
 40
0.0
 40
0.0
 40
0.0
 40
1.0
 40
1.0
 40
1.0
 40
1.0
 10
305.2642198611
 20
286.6818889773
 30
0.0
 10
305.2938013589
 20
286.6646301912
 30
0.0
 10
305.3194467399
 20
286.6384910501
 30
0.0
 10
305.3363127984
 20
286.6086838902
 30
0.0
  0
SPLINE
  5
8D0
100
AcDbEntity
  8
11_COMPONENT
100
AcDbSpline
 62
9
  6
CONTINUOUS
 70
0
 71
3
 72
8
 73
4
 74
0
 42
0.0000001
 43
0.0000001
 44
0.0000000001
 40
0.0
 40
0.0
 40
0.0
 40
0.0
 40
1.0
 40
1.0
 40
1.0
 40
1.0
 10
305.3363127984
 20
286.6086838902
 30
0.0
 10
305.3532902816
 20
286.5786798109
 30
0.0
 10
305.3627006403
 20
286.5431582283
 30
0.0
 10
305.3627006403
 20
286.5086838942
 30
0.0
  0
SPLINE
  5
8D1
100
AcDbEntity
  8
11_COMPONENT
100
AcDbSpline
 62
9
  6
CONTINUOUS
 70
0
 71
3
 72
9
 73
5
 74
0
 42
0.0000001
 43
0.0000001
 44
0.0000000001
 40
0.0
 40
0.0
 40
0.0
 40
0.0
 40
0.4983318234
 40
1.0
 40
1.0
 40
1.0
 40
1.0
 10
305.0952082974
 20
158.7086838942
 30
0.0
 10
305.1292286038
 20
158.7086838942
 30
0.0
 10
305.1987052992
 20
158.7274113177
 30
0.0
 10
305.2489159484
 20
158.7788767399
 30
0.0
 10
305.2657820059
 20
158.8086838978
 30
0.0
  0
SPLINE
  5
8D2
100
AcDbEntity
  8
11_COMPONENT
100
AcDbSpline
 62
9
  6
CONTINUOUS
 70
0
 71
3
 72
8
 73
4
 74
0
 42
0.0000001
 43
0.0000001
 44
0.0000000001
 40
0.0
 40
0.0
 40
0.0
 40
0.0
 40
1.0
 40
1.0
 40
1.0
 40
1.0
 10
305.2657820059
 20
158.8086838978
 30
0.0
 10
305.2827594892
 20
158.8386879772
 30
0.0
 10
305.292169848
 20
158.87420956
 30
0.0
 10
305.292169848
 20
158.9086838942
 30
0.0
  0
SPLINE
  5
8D3
100
AcDbEntity
  8
11_COMPONENT
100
AcDbSpline
 62
9
  6
CONTINUOUS
 70
0
 71
3
 72
8
 73
4
 74
0
 42
0.0000001
 43
0.0000001
 44
0.0000000001
 40
0.0
 40
0.0
 40
0.0
 40
0.0
 40
1.0
 40
1.0
 40
1.0
 40
1.0
 10
145.7163323984
 20
286.7086838942
 30
0.0
 10
145.6823120927
 20
286.7086838942
 30
0.0
 10
145.6472363857
 20
286.6990329804
 30
0.0
 10
145.6178516231
 20
286.681888975
 30
0.0
  0
SPLINE
  5
8D4
100
AcDbEntity
  8
11_COMPONENT
100
AcDbSpline
 62
9
  6
CONTINUOUS
 70
0
 71
3
 72
8
 73
4
 74
0
 42
0.0000001
 43
0.0000001
 44
0.0000000001
 40
0.0
 40
0.0
 40
0.0
 40
0.0
 40
1.0
 40
1.0
 40
1.0
 40
1.0
 10
145.6178516231
 20
286.681888975
 30
0.0
 10
145.5882701282
 20
286.6646301897
 30
0.0
 10
145.5626247496
 20
286.6384910512
 30
0.0
 10
145.545758692
 20
286.6086838942
 30
0.0
  0
SPLINE
  5
8D5
100
AcDbEntity
  8
11_COMPONENT
100
AcDbSpline
 62
9
  6
CONTINUOUS
 70
0
 71
3
 72
8
 73
4
 74
0
 42
0.0000001
 43
0.0000001
 44
0.0000000001
 40
0.0
 40
0.0
 40
0.0
 40
0.0
 40
1.0
 40
1.0
 40
1.0
 40
1.0
 10
145.545758692
 20
286.6086838942
 30
0.0
 10
145.5287812074
 20
286.578679814
 30
0.0
 10
145.5193708478
 20
286.5431582298
 30
0.0
 10
145.5193708478
 20
286.5086838942
 30
0.0
  0
SPLINE
  5
8D6
100
AcDbEntity
  8
11_COMPONENT
100
AcDbSpline
 62
9
  6
CONTINUOUS
 70
0
 71
3
 72
8
 73
4
 74
0
 42
0.0000001
 43
0.0000001
 44
0.0000000001
 40
0.0
 40
0.0
 40
0.0
 40
0.0
 40
1.0
 40
1.0
 40
1.0
 40
1.0
 10
305.1657390897
 20
158.7086838942
 30
0.0
 10
305.1997593954
 20
158.7086838942
 30
0.0
 10
305.2348351024
 20
158.718334808
 30
0.0
 10
305.264219865
 20
158.7354788135
 30
0.0
  0
SPLINE
  5
8D7
100
AcDbEntity
  8
11_COMPONENT
100
AcDbSpline
 62
9
  6
CONTINUOUS
 70
0
 71
3
 72
8
 73
4
 74
0
 42
0.0000001
 43
0.0000001
 44
0.0000000001
 40
0.0
 40
0.0
 40
0.0
 40
0.0
 40
1.0
 40
1.0
 40
1.0
 40
1.0
 10
305.264219865
 20
158.7354788135
 30
0.0
 10
305.2938013599
 20
158.7527375987
 30
0.0
 10
305.3194467385
 20
158.7788767373
 30
0.0
 10
305.3363127961
 20
158.8086838942
 30
0.0
  0
SPLINE
  5
8D8
100
AcDbEntity
  8
11_COMPONENT
100
AcDbSpline
 62
9
  6
CONTINUOUS
 70
0
 71
3
 72
8
 73
4
 74
0
 42
0.0000001
 43
0.0000001
 44
0.0000000001
 40
0.0
 40
0.0
 40
0.0
 40
0.0
 40
1.0
 40
1.0
 40
1.0
 40
1.0
 10
305.3363127961
 20
158.8086838942
 30
0.0
 10
305.3532902807
 20
158.8386879745
 30
0.0
 10
305.3627006403
 20
158.8742095587
 30
0.0
 10
305.3627006403
 20
158.9086838942
 30
0.0
  0
SPLINE
  5
8D9
100
AcDbEntity
  8
11_COMPONENT
100
AcDbSpline
 62
9
  6
CONTINUOUS
 70
0
 71
3
 72
8
 73
4
 74
0
 42
0.0000001
 43
0.0000001
 44
0.0000000001
 40
0.0
 40
0.0
 40
0.0
 40
0.0
 40
1.0
 40
1.0
 40
1.0
 40
1.0
 10
303.1203461135
 20
286.7086838942
 30
0.0
 10
303.1543664177
 20
286.7086838942
 30
0.0
 10
303.1894421231
 20
286.6990329814
 30
0.0
 10
303.2188268849
 20
286.6818889773
 30
0.0
  0
SPLINE
  5
8DA
100
AcDbEntity
  8
11_COMPONENT
100
AcDbSpline
 62
9
  6
CONTINUOUS
 70
0
 71
3
 72
8
 73
4
 74
0
 42
0.0000001
 43
0.0000001
 44
0.0000000001
 40
0.0
 40
0.0
 40
0.0
 40
0.0
 40
1.0
 40
1.0
 40
1.0
 40
1.0
 10
303.2188268849
 20
286.6818889773
 30
0.0
 10
303.2484083827
 20
286.6646301912
 30
0.0
 10
303.2740537637
 20
286.6384910501
 30
0.0
 10
303.2909198222
 20
286.6086838902
 30
0.0
  0
SPLINE
  5
8DB
100
AcDbEntity
  8
11_COMPONENT
100
AcDbSpline
 62
9
  6
CONTINUOUS
 70
0
 71
3
 72
8
 73
4
 74
0
 42
0.0000001
 43
0.0000001
 44
0.0000000001
 40
0.0
 40
0.0
 40
0.0
 40
0.0
 40
1.0
 40
1.0
 40
1.0
 40
1.0
 10
303.2909198222
 20
286.6086838902
 30
0.0
 10
303.3078973054
 20
286.5786798109
 30
0.0
 10
303.3173076641
 20
286.5431582283
 30
0.0
 10
303.3173076641
 20
286.5086838942
 30
0.0
  0
SPLINE
  5
8DC
100
AcDbEntity
  8
11_COMPONENT
100
AcDbSpline
 62
9
  6
CONTINUOUS
 70
0
 71
3
 72
9
 73
5
 74
0
 42
0.0000001
 43
0.0000001
 44
0.0000000001
 40
0.0
 40
0.0
 40
0.0
 40
0.0
 40
0.4983318235
 40
1.0
 40
1.0
 40
1.0
 40
1.0
 10
145.2755149466
 20
286.7086838942
 30
0.0
 10
145.2414946404
 20
286.7086838942
 30
0.0
 10
145.1720179453
 20
286.6899564709
 30
0.0
 10
145.1218072961
 20
286.6384910491
 30
0.0
 10
145.1049412386
 20
286.6086838914
 30
0.0
  0
SPLINE
  5
8DD
100
AcDbEntity
  8
11_COMPONENT
100
AcDbSpline
 62
9
  6
CONTINUOUS
 70
0
 71
3
 72
8
 73
4
 74
0
 42
0.0000001
 43
0.0000001
 44
0.0000000001
 40
0.0
 40
0.0
 40
0.0
 40
0.0
 40
1.0
 40
1.0
 40
1.0
 40
1.0
 10
145.1049412386
 20
286.6086838914
 30
0.0
 10
145.087963755
 20
286.5786798118
 30
0.0
 10
145.078553396
 20
286.5431582288
 30
0.0
 10
145.078553396
 20
286.5086838942
 30
0.0
  0
SPLINE
  5
8DE
100
AcDbEntity
  8
11_COMPONENT
100
AcDbSpline
 62
9
  6
CONTINUOUS
 70
0
 71
3
 72
8
 73
4
 74
0
 42
0.0000001
 43
0.0000001
 44
0.0000000001
 40
0.0
 40
0.0
 40
0.0
 40
0.0
 40
1.0
 40
1.0
 40
1.0
 40
1.0
 10
145.2049841543
 20
286.7086838942
 30
0.0
 10
145.1709638486
 20
286.7086838942
 30
0.0
 10
145.1358881417
 20
286.6990329804
 30
0.0
 10
145.106503379
 20
286.681888975
 30
0.0
  0
SPLINE
  5
8DF
100
AcDbEntity
  8
11_COMPONENT
100
AcDbSpline
 62
9
  6
CONTINUOUS
 70
0
 71
3
 72
8
 73
4
 74
0
 42
0.0000001
 43
0.0000001
 44
0.0000000001
 40
0.0
 40
0.0
 40
0.0
 40
0.0
 40
1.0
 40
1.0
 40
1.0
 40
1.0
 10
145.106503379
 20
286.681888975
 30
0.0
 10
145.0769218841
 20
286.6646301897
 30
0.0
 10
145.0512765056
 20
286.6384910512
 30
0.0
 10
145.0344104479
 20
286.6086838942
 30
0.0
  0
SPLINE
  5
8E0
100
AcDbEntity
  8
11_COMPONENT
100
AcDbSpline
 62
9
  6
CONTINUOUS
 70
0
 71
3
 72
8
 73
4
 74
0
 42
0.0000001
 43
0.0000001
 44
0.0000000001
 40
0.0
 40
0.0
 40
0.0
 40
0.0
 40
1.0
 40
1.0
 40
1.0
 40
1.0
 10
145.0344104479
 20
286.6086838942
 30
0.0
 10
145.0174329634
 20
286.578679814
 30
0.0
 10
145.0080226037
 20
286.5431582298
 30
0.0
 10
145.0080226037
 20
286.5086838942
 30
0.0
  0
SPLINE
  5
8E1
100
AcDbEntity
  8
11_COMPONENT
100
AcDbSpline
 62
9
  6
CONTINUOUS
 70
0
 71
3
 72
9
 73
5
 74
0
 42
0.0000001
 43
0.0000001
 44
0.0000000001
 40
0.0
 40
0.0
 40
0.0
 40
0.0
 40
0.498331824
 40
1.0
 40
1.0
 40
1.0
 40
1.0
 10
303.0498153212
 20
286.7086838942
 30
0.0
 10
303.0838356269
 20
286.7086838942
 30
0.0
 10
303.1533123209
 20
286.6899564714
 30
0.0
 10
303.20352297
 20
286.6384910512
 30
0.0
 10
303.2203890276
 20
286.6086838942
 30
0.0
  0
SPLINE
  5
8E2
100
AcDbEntity
  8
11_COMPONENT
100
AcDbSpline
 62
9
  6
CONTINUOUS
 70
0
 71
3
 72
8
 73
4
 74
0
 42
0.0000001
 43
0.0000001
 44
0.0000000001
 40
0.0
 40
0.0
 40
0.0
 40
0.0
 40
1.0
 40
1.0
 40
1.0
 40
1.0
 10
303.2203890276
 20
286.6086838942
 30
0.0
 10
303.2373665122
 20
286.578679814
 30
0.0
 10
303.2467768718
 20
286.5431582298
 30
0.0
 10
303.2467768718
 20
286.5086838942
 30
0.0
  0
SPLINE
  5
8E3
100
AcDbEntity
  8
11_COMPONENT
100
AcDbSpline
 62
9
  6
CONTINUOUS
 70
0
 71
3
 72
8
 73
4
 74
0
 42
0.0000001
 43
0.0000001
 44
0.0000000001
 40
0.0
 40
0.0
 40
0.0
 40
0.0
 40
1.0
 40
1.0
 40
1.0
 40
1.0
 10
144.6936359103
 20
158.7086838942
 30
0.0
 10
144.6596156047
 20
158.7086838942
 30
0.0
 10
144.6245398978
 20
158.718334808
 30
0.0
 10
144.5951551352
 20
158.7354788133
 30
0.0
  0
SPLINE
  5
8E4
100
AcDbEntity
  8
11_COMPONENT
100
AcDbSpline
 62
9
  6
CONTINUOUS
 70
0
 71
3
 72
8
 73
4
 74
0
 42
0.0000001
 43
0.0000001
 44
0.0000000001
 40
0.0
 40
0.0
 40
0.0
 40
0.0
 40
1.0
 40
1.0
 40
1.0
 40
1.0
 10
144.5951551352
 20
158.7354788133
 30
0.0
 10
144.5655736402
 20
158.7527375986
 30
0.0
 10
144.5399282615
 20
158.7788767373
 30
0.0
 10
144.5230622037
 20
158.8086838945
 30
0.0
  0
SPLINE
  5
8E5
100
AcDbEntity
  8
11_COMPONENT
100
AcDbSpline
 62
9
  6
CONTINUOUS
 70
0
 71
3
 72
8
 73
4
 74
0
 42
0.0000001
 43
0.0000001
 44
0.0000000001
 40
0.0
 40
0.0
 40
0.0
 40
0.0
 40
1.0
 40
1.0
 40
1.0
 40
1.0
 10
144.5230622037
 20
158.8086838945
 30
0.0
 10
144.5060847193
 20
158.8386879747
 30
0.0
 10
144.4966743597
 20
158.8742095587
 30
0.0
 10
144.4966743597
 20
158.9086838942
 30
0.0
  0
SPLINE
  5
8E6
100
AcDbEntity
  8
11_COMPONENT
100
AcDbSpline
 62
9
  6
CONTINUOUS
 70
0
 71
3
 72
9
 73
5
 74
0
 42
0.0000001
 43
0.0000001
 44
0.0000000001
 40
0.0
 40
0.0
 40
0.0
 40
0.0
 40
0.498331824
 40
1.0
 40
1.0
 40
1.0
 40
1.0
 10
305.0952082974
 20
286.7086838942
 30
0.0
 10
305.1292286031
 20
286.7086838942
 30
0.0
 10
305.1987052972
 20
286.6899564714
 30
0.0
 10
305.2489159462
 20
286.6384910512
 30
0.0
 10
305.2657820038
 20
286.6086838942
 30
0.0
  0
SPLINE
  5
8E7
100
AcDbEntity
  8
11_COMPONENT
100
AcDbSpline
 62
9
  6
CONTINUOUS
 70
0
 71
3
 72
8
 73
4
 74
0
 42
0.0000001
 43
0.0000001
 44
0.0000000001
 40
0.0
 40
0.0
 40
0.0
 40
0.0
 40
1.0
 40
1.0
 40
1.0
 40
1.0
 10
305.2657820038
 20
286.6086838942
 30
0.0
 10
305.2827594884
 20
286.578679814
 30
0.0
 10
305.292169848
 20
286.5431582298
 30
0.0
 10
305.292169848
 20
286.5086838942
 30
0.0
  0
SPLINE
  5
8E8
100
AcDbEntity
  8
11_COMPONENT
100
AcDbSpline
 62
9
  6
CONTINUOUS
 70
0
 71
3
 72
8
 73
4
 74
0
 42
0.0000001
 43
0.0000001
 44
0.0000000001
 40
0.0
 40
0.0
 40
0.0
 40
0.0
 40
1.0
 40
1.0
 40
1.0
 40
1.0
 10
145.2049841543
 20
158.7086838942
 30
0.0
 10
145.1709638487
 20
158.7086838942
 30
0.0
 10
145.1358881419
 20
158.718334808
 30
0.0
 10
145.1065033793
 20
158.7354788133
 30
0.0
  0
SPLINE
  5
8E9
100
AcDbEntity
  8
11_COMPONENT
100
AcDbSpline
 62
9
  6
CONTINUOUS
 70
0
 71
3
 72
8
 73
4
 74
0
 42
0.0000001
 43
0.0000001
 44
0.0000000001
 40
0.0
 40
0.0
 40
0.0
 40
0.0
 40
1.0
 40
1.0
 40
1.0
 40
1.0
 10
145.1065033793
 20
158.7354788133
 30
0.0
 10
145.0769218842
 20
158.7527375986
 30
0.0
 10
145.0512765055
 20
158.7788767373
 30
0.0
 10
145.0344104478
 20
158.8086838945
 30
0.0
  0
SPLINE
  5
8EA
100
AcDbEntity
  8
11_COMPONENT
100
AcDbSpline
 62
9
  6
CONTINUOUS
 70
0
 71
3
 72
8
 73
4
 74
0
 42
0.0000001
 43
0.0000001
 44
0.0000000001
 40
0.0
 40
0.0
 40
0.0
 40
0.0
 40
1.0
 40
1.0
 40
1.0
 40
1.0
 10
145.0344104478
 20
158.8086838945
 30
0.0
 10
145.0174329633
 20
158.8386879747
 30
0.0
 10
145.0080226037
 20
158.8742095587
 30
0.0
 10
145.0080226037
 20
158.9086838942
 30
0.0
  0
SPLINE
  5
8EB
100
AcDbEntity
  8
11_COMPONENT
100
AcDbSpline
 62
9
  6
CONTINUOUS
 70
0
 71
3
 72
9
 73
5
 74
0
 42
0.0000001
 43
0.0000001
 44
0.0000000001
 40
0.0
 40
0.0
 40
0.0
 40
0.0
 40
0.498331824
 40
1.0
 40
1.0
 40
1.0
 40
1.0
 10
145.2755149466
 20
158.7086838942
 30
0.0
 10
145.2414946409
 20
158.7086838942
 30
0.0
 10
145.1720179469
 20
158.727411317
 30
0.0
 10
145.1218072979
 20
158.7788767373
 30
0.0
 10
145.1049412402
 20
158.8086838942
 30
0.0
  0
SPLINE
  5
8EC
100
AcDbEntity
  8
11_COMPONENT
100
AcDbSpline
 62
9
  6
CONTINUOUS
 70
0
 71
3
 72
8
 73
4
 74
0
 42
0.0000001
 43
0.0000001
 44
0.0000000001
 40
0.0
 40
0.0
 40
0.0
 40
0.0
 40
1.0
 40
1.0
 40
1.0
 40
1.0
 10
145.1049412402
 20
158.8086838942
 30
0.0
 10
145.0879637556
 20
158.8386879745
 30
0.0
 10
145.078553396
 20
158.8742095587
 30
0.0
 10
145.078553396
 20
158.9086838942
 30
0.0
  0
SPLINE
  5
8ED
100
AcDbEntity
  8
11_COMPONENT
100
AcDbSpline
 62
9
  6
CONTINUOUS
 70
0
 71
3
 72
9
 73
5
 74
0
 42
0.0000001
 43
0.0000001
 44
0.0000000001
 40
0.0
 40
0.0
 40
0.0
 40
0.0
 40
0.498331824
 40
1.0
 40
1.0
 40
1.0
 40
1.0
 10
145.7868631907
 20
158.7086838942
 30
0.0
 10
145.752842885
 20
158.7086838942
 30
0.0
 10
145.683366191
 20
158.727411317
 30
0.0
 10
145.6331555419
 20
158.7788767373
 30
0.0
 10
145.6162894843
 20
158.8086838942
 30
0.0
  0
SPLINE
  5
8EE
100
AcDbEntity
  8
11_COMPONENT
100
AcDbSpline
 62
9
  6
CONTINUOUS
 70
0
 71
3
 72
8
 73
4
 74
0
 42
0.0000001
 43
0.0000001
 44
0.0000000001
 40
0.0
 40
0.0
 40
0.0
 40
0.0
 40
1.0
 40
1.0
 40
1.0
 40
1.0
 10
145.6162894843
 20
158.8086838942
 30
0.0
 10
145.5993119997
 20
158.8386879745
 30
0.0
 10
145.5899016401
 20
158.8742095587
 30
0.0
 10
145.5899016401
 20
158.9086838942
 30
0.0
  0
SPLINE
  5
8EF
100
AcDbEntity
  8
11_COMPONENT
100
AcDbSpline
 62
9
  6
CONTINUOUS
 70
0
 71
3
 72
8
 73
4
 74
0
 42
0.0000001
 43
0.0000001
 44
0.0000000001
 40
0.0
 40
0.0
 40
0.0
 40
0.0
 40
1.0
 40
1.0
 40
1.0
 40
1.0
 10
303.6316943576
 20
286.7086838942
 30
0.0
 10
303.6657146618
 20
286.7086838942
 30
0.0
 10
303.7007903671
 20
286.6990329814
 30
0.0
 10
303.7301751289
 20
286.6818889773
 30
0.0
  0
SPLINE
  5
8F0
100
AcDbEntity
  8
11_COMPONENT
100
AcDbSpline
 62
9
  6
CONTINUOUS
 70
0
 71
3
 72
8
 73
4
 74
0
 42
0.0000001
 43
0.0000001
 44
0.0000000001
 40
0.0
 40
0.0
 40
0.0
 40
0.0
 40
1.0
 40
1.0
 40
1.0
 40
1.0
 10
303.7301751289
 20
286.6818889773
 30
0.0
 10
303.7597566267
 20
286.6646301912
 30
0.0
 10
303.7854020078
 20
286.6384910501
 30
0.0
 10
303.8022680662
 20
286.6086838902
 30
0.0
  0
SPLINE
  5
8F1
100
AcDbEntity
  8
11_COMPONENT
100
AcDbSpline
 62
9
  6
CONTINUOUS
 70
0
 71
3
 72
8
 73
4
 74
0
 42
0.0000001
 43
0.0000001
 44
0.0000000001
 40
0.0
 40
0.0
 40
0.0
 40
0.0
 40
1.0
 40
1.0
 40
1.0
 40
1.0
 10
303.8022680662
 20
286.6086838902
 30
0.0
 10
303.8192455494
 20
286.5786798109
 30
0.0
 10
303.8286559082
 20
286.5431582283
 30
0.0
 10
303.8286559082
 20
286.5086838942
 30
0.0
  0
SPLINE
  5
8F2
100
AcDbEntity
  8
11_COMPONENT
100
AcDbSpline
 62
9
  6
CONTINUOUS
 70
0
 71
3
 72
8
 73
4
 74
0
 42
0.0000001
 43
0.0000001
 44
0.0000000001
 40
0.0
 40
0.0
 40
0.0
 40
0.0
 40
1.0
 40
1.0
 40
1.0
 40
1.0
 10
144.6936359103
 20
286.7086838942
 30
0.0
 10
144.6596156046
 20
286.7086838942
 30
0.0
 10
144.6245398976
 20
286.6990329804
 30
0.0
 10
144.595155135
 20
286.681888975
 30
0.0
  0
SPLINE
  5
8F3
100
AcDbEntity
  8
11_COMPONENT
100
AcDbSpline
 62
9
  6
CONTINUOUS
 70
0
 71
3
 72
8
 73
4
 74
0
 42
0.0000001
 43
0.0000001
 44
0.0000000001
 40
0.0
 40
0.0
 40
0.0
 40
0.0
 40
1.0
 40
1.0
 40
1.0
 40
1.0
 10
144.595155135
 20
286.681888975
 30
0.0
 10
144.5655736401
 20
286.6646301897
 30
0.0
 10
144.5399282615
 20
286.6384910512
 30
0.0
 10
144.5230622039
 20
286.6086838942
 30
0.0
  0
SPLINE
  5
8F4
100
AcDbEntity
  8
11_COMPONENT
100
AcDbSpline
 62
9
  6
CONTINUOUS
 70
0
 71
3
 72
8
 73
4
 74
0
 42
0.0000001
 43
0.0000001
 44
0.0000000001
 40
0.0
 40
0.0
 40
0.0
 40
0.0
 40
1.0
 40
1.0
 40
1.0
 40
1.0
 10
144.5230622039
 20
286.6086838942
 30
0.0
 10
144.5060847193
 20
286.578679814
 30
0.0
 10
144.4966743597
 20
286.5431582298
 30
0.0
 10
144.4966743597
 20
286.5086838942
 30
0.0
  0
SPLINE
  5
8F5
100
AcDbEntity
  8
11_COMPONENT
100
AcDbSpline
 62
9
  6
CONTINUOUS
 70
0
 71
3
 72
9
 73
5
 74
0
 42
0.0000001
 43
0.0000001
 44
0.0000000001
 40
0.0
 40
0.0
 40
0.0
 40
0.0
 40
0.498331824
 40
1.0
 40
1.0
 40
1.0
 40
1.0
 10
304.0725118093
 20
286.7086838942
 30
0.0
 10
304.106532115
 20
286.7086838942
 30
0.0
 10
304.176008809
 20
286.6899564714
 30
0.0
 10
304.2262194581
 20
286.6384910512
 30
0.0
 10
304.2430855157
 20
286.6086838942
 30
0.0
  0
SPLINE
  5
8F6
100
AcDbEntity
  8
11_COMPONENT
100
AcDbSpline
 62
9
  6
CONTINUOUS
 70
0
 71
3
 72
8
 73
4
 74
0
 42
0.0000001
 43
0.0000001
 44
0.0000000001
 40
0.0
 40
0.0
 40
0.0
 40
0.0
 40
1.0
 40
1.0
 40
1.0
 40
1.0
 10
304.2430855157
 20
286.6086838942
 30
0.0
 10
304.2600630003
 20
286.578679814
 30
0.0
 10
304.2694733599
 20
286.5431582298
 30
0.0
 10
304.2694733599
 20
286.5086838942
 30
0.0
  0
SPLINE
  5
8F7
100
AcDbEntity
  8
11_COMPONENT
100
AcDbSpline
 62
9
  6
CONTINUOUS
 70
0
 71
3
 72
8
 73
4
 74
0
 42
0.0000001
 43
0.0000001
 44
0.0000000001
 40
0.0
 40
0.0
 40
0.0
 40
0.0
 40
1.0
 40
1.0
 40
1.0
 40
1.0
 10
146.7390288865
 20
158.7086838942
 30
0.0
 10
146.7050085809
 20
158.7086838942
 30
0.0
 10
146.669932874
 20
158.718334808
 30
0.0
 10
146.6405481114
 20
158.7354788133
 30
0.0
  0
SPLINE
  5
8F8
100
AcDbEntity
  8
11_COMPONENT
100
AcDbSpline
 62
9
  6
CONTINUOUS
 70
0
 71
3
 72
8
 73
4
 74
0
 42
0.0000001
 43
0.0000001
 44
0.0000000001
 40
0.0
 40
0.0
 40
0.0
 40
0.0
 40
1.0
 40
1.0
 40
1.0
 40
1.0
 10
146.6405481114
 20
158.7354788133
 30
0.0
 10
146.6109666164
 20
158.7527375986
 30
0.0
 10
146.5853212377
 20
158.7788767373
 30
0.0
 10
146.56845518
 20
158.8086838945
 30
0.0
  0
SPLINE
  5
8F9
100
AcDbEntity
  8
11_COMPONENT
100
AcDbSpline
 62
9
  6
CONTINUOUS
 70
0
 71
3
 72
8
 73
4
 74
0
 42
0.0000001
 43
0.0000001
 44
0.0000000001
 40
0.0
 40
0.0
 40
0.0
 40
0.0
 40
1.0
 40
1.0
 40
1.0
 40
1.0
 10
146.56845518
 20
158.8086838945
 30
0.0
 10
146.5514776955
 20
158.8386879747
 30
0.0
 10
146.5420673359
 20
158.8742095587
 30
0.0
 10
146.5420673359
 20
158.9086838942
 30
0.0
  0
SPLINE
  5
8FA
100
AcDbEntity
  8
11_COMPONENT
100
AcDbSpline
 62
9
  6
CONTINUOUS
 70
0
 71
3
 72
9
 73
5
 74
0
 42
0.0000001
 43
0.0000001
 44
0.0000000001
 40
0.0
 40
0.0
 40
0.0
 40
0.0
 40
0.498331824
 40
1.0
 40
1.0
 40
1.0
 40
1.0
 10
146.8095596788
 20
158.7086838942
 30
0.0
 10
146.7755393731
 20
158.7086838942
 30
0.0
 10
146.7060626791
 20
158.727411317
 30
0.0
 10
146.65585203
 20
158.7788767373
 30
0.0
 10
146.6389859724
 20
158.8086838942
 30
0.0
  0
SPLINE
  5
8FB
100
AcDbEntity
  8
11_COMPONENT
100
AcDbSpline
 62
9
  6
CONTINUOUS
 70
0
 71
3
 72
8
 73
4
 74
0
 42
0.0000001
 43
0.0000001
 44
0.0000000001
 40
0.0
 40
0.0
 40
0.0
 40
0.0
 40
1.0
 40
1.0
 40
1.0
 40
1.0
 10
146.6389859724
 20
158.8086838942
 30
0.0
 10
146.6220084878
 20
158.8386879745
 30
0.0
 10
146.6125981282
 20
158.8742095587
 30
0.0
 10
146.6125981282
 20
158.9086838942
 30
0.0
  0
SPLINE
  5
8FC
100
AcDbEntity
  8
11_COMPONENT
100
AcDbSpline
 62
9
  6
CONTINUOUS
 70
0
 71
3
 72
9
 73
5
 74
0
 42
0.0000001
 43
0.0000001
 44
0.0000000001
 40
0.0
 40
0.0
 40
0.0
 40
0.0
 40
0.4972930483
 40
1.0
 40
1.0
 40
1.0
 40
1.0
 10
149.9854609875
 20
158.7086838942
 30
0.0
 10
149.9350942882
 20
158.7086838942
 30
0.0
 10
149.8297490418
 20
158.7520685776
 30
0.0
 10
149.788499437
 20
158.8577688654
 30
0.0
 10
149.788499437
 20
158.9086838942
 30
0.0
  0
SPLINE
  5
8FD
100
AcDbEntity
  8
11_COMPONENT
100
AcDbSpline
 62
9
  6
CONTINUOUS
 70
0
 71
3
 72
9
 73
5
 74
0
 42
0.0000001
 43
0.0000001
 44
0.0000000001
 40
0.0
 40
0.0
 40
0.0
 40
0.0
 40
0.4575243679
 40
1.0
 40
1.0
 40
1.0
 40
1.0
 10
157.3035031165
 20
286.7086838942
 30
0.0
 10
157.3287088648
 20
286.7086838942
 30
0.0
 10
157.3841057702
 20
286.6851985252
 30
0.0
 10
157.4147285181
 20
286.6363718347
 30
0.0
 10
157.4259776037
 20
286.6086838942
 30
0.0
  0
SPLINE
  5
8FE
100
AcDbEntity
  8
11_COMPONENT
100
AcDbSpline
 62
9
  6
CONTINUOUS
 70
0
 71
3
 72
8
 73
4
 74
0
 42
0.0000001
 43
0.0000001
 44
0.0000000001
 40
0.0
 40
0.0
 40
0.0
 40
0.0
 40
1.0
 40
1.0
 40
1.0
 40
1.0
 10
157.4259776037
 20
286.6086838942
 30
0.0
 10
157.4387475463
 20
286.5772525918
 30
0.0
 10
157.4449244728
 20
286.5426102587
 30
0.0
 10
157.4449244728
 20
286.5086838942
 30
0.0
  0
SPLINE
  5
8FF
100
AcDbEntity
  8
11_COMPONENT
100
AcDbSpline
 62
9
  6
CONTINUOUS
 70
0
 71
3
 72
8
 73
4
 74
0
 42
0.0000001
 43
0.0000001
 44
0.0000000001
 40
0.0
 40
0.0
 40
0.0
 40
0.0
 40
1.0
 40
1.0
 40
1.0
 40
1.0
 10
304.1430426016
 20
286.7086838942
 30
0.0
 10
304.1770629058
 20
286.7086838942
 30
0.0
 10
304.2121386112
 20
286.6990329814
 30
0.0
 10
304.241523373
 20
286.6818889773
 30
0.0
  0
SPLINE
  5
900
100
AcDbEntity
  8
11_COMPONENT
100
AcDbSpline
 62
9
  6
CONTINUOUS
 70
0
 71
3
 72
8
 73
4
 74
0
 42
0.0000001
 43
0.0000001
 44
0.0000000001
 40
0.0
 40
0.0
 40
0.0
 40
0.0
 40
1.0
 40
1.0
 40
1.0
 40
1.0
 10
304.241523373
 20
286.6818889773
 30
0.0
 10
304.2711048708
 20
286.6646301912
 30
0.0
 10
304.2967502518
 20
286.6384910501
 30
0.0
 10
304.3136163103
 20
286.6086838902
 30
0.0
  0
SPLINE
  5
901
100
AcDbEntity
  8
11_COMPONENT
100
AcDbSpline
 62
9
  6
CONTINUOUS
 70
0
 71
3
 72
8
 73
4
 74
0
 42
0.0000001
 43
0.0000001
 44
0.0000000001
 40
0.0
 40
0.0
 40
0.0
 40
0.0
 40
1.0
 40
1.0
 40
1.0
 40
1.0
 10
304.3136163103
 20
286.6086838902
 30
0.0
 10
304.3305937935
 20
286.5786798109
 30
0.0
 10
304.3400041522
 20
286.5431582283
 30
0.0
 10
304.3400041522
 20
286.5086838942
 30
0.0
  0
SPLINE
  5
902
100
AcDbEntity
  8
11_COMPONENT
100
AcDbSpline
 62
9
  6
CONTINUOUS
 70
0
 71
3
 72
9
 73
5
 74
0
 42
0.0000001
 43
0.0000001
 44
0.0000000001
 40
0.0
 40
0.0
 40
0.0
 40
0.0
 40
0.498331824
 40
1.0
 40
1.0
 40
1.0
 40
1.0
 10
144.7641667026
 20
158.7086838942
 30
0.0
 10
144.7301463969
 20
158.7086838942
 30
0.0
 10
144.6606697028
 20
158.727411317
 30
0.0
 10
144.6104590538
 20
158.7788767373
 30
0.0
 10
144.5935929962
 20
158.8086838942
 30
0.0
  0
SPLINE
  5
903
100
AcDbEntity
  8
11_COMPONENT
100
AcDbSpline
 62
9
  6
CONTINUOUS
 70
0
 71
3
 72
8
 73
4
 74
0
 42
0.0000001
 43
0.0000001
 44
0.0000000001
 40
0.0
 40
0.0
 40
0.0
 40
0.0
 40
1.0
 40
1.0
 40
1.0
 40
1.0
 10
144.5935929962
 20
158.8086838942
 30
0.0
 10
144.5766155116
 20
158.8386879745
 30
0.0
 10
144.567205152
 20
158.8742095587
 30
0.0
 10
144.567205152
 20
158.9086838942
 30
0.0
  0
SPLINE
  5
904
100
AcDbEntity
  8
11_COMPONENT
100
AcDbSpline
 62
9
  6
CONTINUOUS
 70
0
 71
3
 72
9
 73
5
 74
0
 42
0.0000001
 43
0.0000001
 44
0.0000000001
 40
0.0
 40
0.0
 40
0.0
 40
0.0
 40
0.498331824
 40
1.0
 40
1.0
 40
1.0
 40
1.0
 10
304.5838600534
 20
286.7086838942
 30
0.0
 10
304.6178803591
 20
286.7086838942
 30
0.0
 10
304.6873570531
 20
286.6899564714
 30
0.0
 10
304.7375677021
 20
286.6384910512
 30
0.0
 10
304.7544337598
 20
286.6086838942
 30
0.0
  0
SPLINE
  5
905
100
AcDbEntity
  8
11_COMPONENT
100
AcDbSpline
 62
9
  6
CONTINUOUS
 70
0
 71
3
 72
8
 73
4
 74
0
 42
0.0000001
 43
0.0000001
 44
0.0000000001
 40
0.0
 40
0.0
 40
0.0
 40
0.0
 40
1.0
 40
1.0
 40
1.0
 40
1.0
 10
304.7544337598
 20
286.6086838942
 30
0.0
 10
304.7714112444
 20
286.578679814
 30
0.0
 10
304.780821604
 20
286.5431582298
 30
0.0
 10
304.780821604
 20
286.5086838942
 30
0.0
  0
SPLINE
  5
906
100
AcDbEntity
  8
11_COMPONENT
100
AcDbSpline
 62
9
  6
CONTINUOUS
 70
0
 71
3
 72
9
 73
5
 74
0
 42
0.0000001
 43
0.0000001
 44
0.0000000001
 40
0.0
 40
0.0
 40
0.0
 40
0.0
 40
0.4972930483
 40
1.0
 40
1.0
 40
1.0
 40
1.0
 10
148.9552678006
 20
286.7086838942
 30
0.0
 10
148.9049011012
 20
286.7086838942
 30
0.0
 10
148.7995558549
 20
286.6652992109
 30
0.0
 10
148.75830625
 20
286.5595989231
 30
0.0
 10
148.75830625
 20
286.5086838942
 30
0.0
  0
SPLINE
  5
907
100
AcDbEntity
  8
11_COMPONENT
100
AcDbSpline
 62
9
  6
CONTINUOUS
 70
0
 71
3
 72
9
 73
5
 74
0
 42
0.0000001
 43
0.0000001
 44
0.0000000001
 40
0.0
 40
0.0
 40
0.0
 40
0.0
 40
0.4983318235
 40
1.0
 40
1.0
 40
1.0
 40
1.0
 10
144.7641667026
 20
286.7086838942
 30
0.0
 10
144.7301463964
 20
286.7086838942
 30
0.0
 10
144.6606697013
 20
286.6899564709
 30
0.0
 10
144.6104590521
 20
286.6384910491
 30
0.0
 10
144.5935929946
 20
286.6086838914
 30
0.0
  0
SPLINE
  5
908
100
AcDbEntity
  8
11_COMPONENT
100
AcDbSpline
 62
9
  6
CONTINUOUS
 70
0
 71
3
 72
8
 73
4
 74
0
 42
0.0000001
 43
0.0000001
 44
0.0000000001
 40
0.0
 40
0.0
 40
0.0
 40
0.0
 40
1.0
 40
1.0
 40
1.0
 40
1.0
 10
144.5935929946
 20
286.6086838914
 30
0.0
 10
144.576615511
 20
286.5786798118
 30
0.0
 10
144.567205152
 20
286.5431582288
 30
0.0
 10
144.567205152
 20
286.5086838942
 30
0.0
  0
SPLINE
  5
909
100
AcDbEntity
  8
11_COMPONENT
100
AcDbSpline
 62
9
  6
CONTINUOUS
 70
0
 71
3
 72
9
 73
5
 74
0
 42
0.0000001
 43
0.0000001
 44
0.0000000001
 40
0.0
 40
0.0
 40
0.0
 40
0.0
 40
0.4972930483
 40
1.0
 40
1.0
 40
1.0
 40
1.0
 10
300.9041071994
 20
158.7086838942
 30
0.0
 10
300.9544738988
 20
158.7086838942
 30
0.0
 10
301.0598191451
 20
158.7520685776
 30
0.0
 10
301.10106875
 20
158.8577688654
 30
0.0
 10
301.10106875
 20
158.9086838942
 30
0.0
  0
SPLINE
  5
90A
100
AcDbEntity
  8
11_COMPONENT
100
AcDbSpline
 62
9
  6
CONTINUOUS
 70
0
 71
3
 72
9
 73
5
 74
0
 42
0.0000001
 43
0.0000001
 44
0.0000000001
 40
0.0
 40
0.0
 40
0.0
 40
0.0
 40
0.4575243666
 40
1.0
 40
1.0
 40
1.0
 40
1.0
 10
292.5558718835
 20
286.7086838942
 30
0.0
 10
292.5306661348
 20
286.7086838942
 30
0.0
 10
292.4752692284
 20
286.6851985244
 30
0.0
 10
292.4446464807
 20
286.6363718326
 30
0.0
 10
292.4333973952
 20
286.6086838914
 30
0.0
  0
SPLINE
  5
90B
100
AcDbEntity
  8
11_COMPONENT
100
AcDbSpline
 62
9
  6
CONTINUOUS
 70
0
 71
3
 72
8
 73
4
 74
0
 42
0.0000001
 43
0.0000001
 44
0.0000000001
 40
0.0
 40
0.0
 40
0.0
 40
0.0
 40
1.0
 40
1.0
 40
1.0
 40
1.0
 10
292.4333973952
 20
286.6086838914
 30
0.0
 10
292.4206274533
 20
286.5772525898
 30
0.0
 10
292.4144505272
 20
286.5426102577
 30
0.0
 10
292.4144505272
 20
286.5086838942
 30
0.0
  0
SPLINE
  5
90C
100
AcDbEntity
  8
11_COMPONENT
100
AcDbSpline
 62
9
  6
CONTINUOUS
 70
0
 71
3
 72
9
 73
5
 74
0
 42
0.0000001
 43
0.0000001
 44
0.0000000001
 40
0.0
 40
0.0
 40
0.0
 40
0.0
 40
0.4575243669
 40
1.0
 40
1.0
 40
1.0
 40
1.0
 10
157.3035031165
 20
158.7086838942
 30
0.0
 10
157.3287088651
 20
158.7086838942
 30
0.0
 10
157.3841057713
 20
158.7321692639
 30
0.0
 10
157.4147285191
 20
158.7809959554
 30
0.0
 10
157.4259776046
 20
158.8086838964
 30
0.0
  0
SPLINE
  5
90D
100
AcDbEntity
  8
11_COMPONENT
100
AcDbSpline
 62
9
  6
CONTINUOUS
 70
0
 71
3
 72
8
 73
4
 74
0
 42
0.0000001
 43
0.0000001
 44
0.0000000001
 40
0.0
 40
0.0
 40
0.0
 40
0.0
 40
1.0
 40
1.0
 40
1.0
 40
1.0
 10
157.4259776046
 20
158.8086838964
 30
0.0
 10
157.4387475466
 20
158.8401151982
 30
0.0
 10
157.4449244728
 20
158.8747575306
 30
0.0
 10
157.4449244728
 20
158.9086838942
 30
0.0
  0
SPLINE
  5
90E
100
AcDbEntity
  8
11_COMPONENT
100
AcDbSpline
 62
9
  6
CONTINUOUS
 70
0
 71
3
 72
9
 73
5
 74
0
 42
0.0000001
 43
0.0000001
 44
0.0000000001
 40
0.0
 40
0.0
 40
0.0
 40
0.0
 40
0.4972930483
 40
1.0
 40
1.0
 40
1.0
 40
1.0
 10
300.9041071994
 20
286.7086838942
 30
0.0
 10
300.9544738988
 20
286.7086838942
 30
0.0
 10
301.059819145
 20
286.6652992107
 30
0.0
 10
301.10106875
 20
286.5595989231
 30
0.0
 10
301.10106875
 20
286.5086838942
 30
0.0
  0
SPLINE
  5
90F
100
AcDbEntity
  8
11_COMPONENT
100
AcDbSpline
 62
9
  6
CONTINUOUS
 70
0
 71
3
 72
9
 73
5
 74
0
 42
0.0000001
 43
0.0000001
 44
0.0000000001
 40
0.0
 40
0.0
 40
0.0
 40
0.0
 40
0.498331824
 40
1.0
 40
1.0
 40
1.0
 40
1.0
 10
303.5611635653
 20
286.7086838942
 30
0.0
 10
303.595183871
 20
286.7086838942
 30
0.0
 10
303.664660565
 20
286.6899564714
 30
0.0
 10
303.714871214
 20
286.6384910512
 30
0.0
 10
303.7317372717
 20
286.6086838942
 30
0.0
  0
SPLINE
  5
910
100
AcDbEntity
  8
11_COMPONENT
100
AcDbSpline
 62
9
  6
CONTINUOUS
 70
0
 71
3
 72
8
 73
4
 74
0
 42
0.0000001
 43
0.0000001
 44
0.0000000001
 40
0.0
 40
0.0
 40
0.0
 40
0.0
 40
1.0
 40
1.0
 40
1.0
 40
1.0
 10
303.7317372717
 20
286.6086838942
 30
0.0
 10
303.7487147562
 20
286.578679814
 30
0.0
 10
303.7581251159
 20
286.5431582298
 30
0.0
 10
303.7581251159
 20
286.5086838942
 30
0.0
  0
SPLINE
  5
911
100
AcDbEntity
  8
11_COMPONENT
100
AcDbSpline
 62
9
  6
CONTINUOUS
 70
0
 71
3
 72
8
 73
4
 74
0
 42
0.0000001
 43
0.0000001
 44
0.0000000001
 40
0.0
 40
0.0
 40
0.0
 40
0.0
 40
1.0
 40
1.0
 40
1.0
 40
1.0
 10
304.6543908457
 20
286.7086838942
 30
0.0
 10
304.6884111499
 20
286.7086838942
 30
0.0
 10
304.7234868552
 20
286.6990329814
 30
0.0
 10
304.752871617
 20
286.6818889773
 30
0.0
  0
SPLINE
  5
912
100
AcDbEntity
  8
11_COMPONENT
100
AcDbSpline
 62
9
  6
CONTINUOUS
 70
0
 71
3
 72
9
 73
5
 74
0
 42
0.0000001
 43
0.0000001
 44
0.0000000001
 40
0.0
 40
0.0
 40
0.0
 40
0.0
 40
0.4983537942
 40
1.0
 40
1.0
 40
1.0
 40
1.0
 10
304.752871617
 20
286.6818889773
 30
0.0
 10
304.7824531129
 20
286.6646301923
 30
0.0
 10
304.8332533694
 20
286.6130737446
 30
0.0
 10
304.8513523963
 20
286.5431582305
 30
0.0
 10
304.8513523963
 20
286.5086838942
 30
0.0
  0
SPLINE
  5
913
100
AcDbEntity
  8
11_COMPONENT
100
AcDbSpline
 62
9
  6
CONTINUOUS
 70
0
 71
3
 72
8
 73
4
 74
0
 42
0.0000001
 43
0.0000001
 44
0.0000000001
 40
0.0
 40
0.0
 40
0.0
 40
0.0
 40
1.0
 40
1.0
 40
1.0
 40
1.0
 10
304.6543908457
 20
158.7086838942
 30
0.0
 10
304.6884111514
 20
158.7086838942
 30
0.0
 10
304.7234868583
 20
158.718334808
 30
0.0
 10
304.752871621
 20
158.7354788135
 30
0.0
  0
SPLINE
  5
914
100
AcDbEntity
  8
11_COMPONENT
100
AcDbSpline
 62
9
  6
CONTINUOUS
 70
0
 71
3
 72
9
 73
5
 74
0
 42
0.0000001
 43
0.0000001
 44
0.0000000001
 40
0.0
 40
0.0
 40
0.0
 40
0.0
 40
0.4983537936
 40
1.0
 40
1.0
 40
1.0
 40
1.0
 10
304.752871621
 20
158.7354788135
 30
0.0
 10
304.7824531158
 20
158.7527375987
 30
0.0
 10
304.8332533702
 20
158.8042940461
 30
0.0
 10
304.8513523963
 20
158.8742095587
 30
0.0
 10
304.8513523963
 20
158.9086838942
 30
0.0
  0
SPLINE
  5
915
100
AcDbEntity
  8
11_COMPONENT
100
AcDbSpline
 62
9
  6
CONTINUOUS
 70
0
 71
3
 72
9
 73
5
 74
0
 42
0.0000001
 43
0.0000001
 44
0.0000000001
 40
0.0
 40
0.0
 40
0.0
 40
0.0
 40
0.4983318234
 40
1.0
 40
1.0
 40
1.0
 40
1.0
 10
304.5838600534
 20
158.7086838942
 30
0.0
 10
304.6178803597
 20
158.7086838942
 30
0.0
 10
304.6873570551
 20
158.7274113177
 30
0.0
 10
304.7375677044
 20
158.7788767399
 30
0.0
 10
304.7544337618
 20
158.8086838978
 30
0.0
  0
SPLINE
  5
916
100
AcDbEntity
  8
11_COMPONENT
100
AcDbSpline
 62
9
  6
CONTINUOUS
 70
0
 71
3
 72
8
 73
4
 74
0
 42
0.0000001
 43
0.0000001
 44
0.0000000001
 40
0.0
 40
0.0
 40
0.0
 40
0.0
 40
1.0
 40
1.0
 40
1.0
 40
1.0
 10
304.7544337618
 20
158.8086838978
 30
0.0
 10
304.7714112452
 20
158.8386879772
 30
0.0
 10
304.780821604
 20
158.87420956
 30
0.0
 10
304.780821604
 20
158.9086838942
 30
0.0
  0
SPLINE
  5
917
100
AcDbEntity
  8
11_COMPONENT
100
AcDbSpline
 62
9
  6
CONTINUOUS
 70
0
 71
3
 72
8
 73
4
 74
0
 42
0.0000001
 43
0.0000001
 44
0.0000000001
 40
0.0
 40
0.0
 40
0.0
 40
0.0
 40
1.0
 40
1.0
 40
1.0
 40
1.0
 10
304.1430426016
 20
158.7086838942
 30
0.0
 10
304.1770629073
 20
158.7086838942
 30
0.0
 10
304.2121386142
 20
158.718334808
 30
0.0
 10
304.2415233769
 20
158.7354788135
 30
0.0
  0
SPLINE
  5
918
100
AcDbEntity
  8
11_COMPONENT
100
AcDbSpline
 62
9
  6
CONTINUOUS
 70
0
 71
3
 72
9
 73
5
 74
0
 42
0.0000001
 43
0.0000001
 44
0.0000000001
 40
0.0
 40
0.0
 40
0.0
 40
0.0
 40
0.4983537936
 40
1.0
 40
1.0
 40
1.0
 40
1.0
 10
304.2415233769
 20
158.7354788135
 30
0.0
 10
304.2711048718
 20
158.7527375987
 30
0.0
 10
304.3219051261
 20
158.8042940461
 30
0.0
 10
304.3400041522
 20
158.8742095587
 30
0.0
 10
304.3400041522
 20
158.9086838942
 30
0.0
  0
SPLINE
  5
919
100
AcDbEntity
  8
11_COMPONENT
100
AcDbSpline
 62
9
  6
CONTINUOUS
 70
0
 71
3
 72
9
 73
5
 74
0
 42
0.0000001
 43
0.0000001
 44
0.0000000001
 40
0.0
 40
0.0
 40
0.0
 40
0.0
 40
0.4983318234
 40
1.0
 40
1.0
 40
1.0
 40
1.0
 10
304.0725118093
 20
158.7086838942
 30
0.0
 10
304.1065321156
 20
158.7086838942
 30
0.0
 10
304.1760088111
 20
158.7274113177
 30
0.0
 10
304.2262194603
 20
158.7788767399
 30
0.0
 10
304.2430855177
 20
158.8086838978
 30
0.0
  0
SPLINE
  5
91A
100
AcDbEntity
  8
11_COMPONENT
100
AcDbSpline
 62
9
  6
CONTINUOUS
 70
0
 71
3
 72
8
 73
4
 74
0
 42
0.0000001
 43
0.0000001
 44
0.0000000001
 40
0.0
 40
0.0
 40
0.0
 40
0.0
 40
1.0
 40
1.0
 40
1.0
 40
1.0
 10
304.2430855177
 20
158.8086838978
 30
0.0
 10
304.2600630011
 20
158.8386879772
 30
0.0
 10
304.2694733599
 20
158.87420956
 30
0.0
 10
304.2694733599
 20
158.9086838942
 30
0.0
  0
SPLINE
  5
91B
100
AcDbEntity
  8
11_COMPONENT
100
AcDbSpline
 62
9
  6
CONTINUOUS
 70
0
 71
3
 72
9
 73
5
 74
0
 42
0.0000001
 43
0.0000001
 44
0.0000000001
 40
0.0
 40
0.0
 40
0.0
 40
0.0
 40
0.4402134006
 40
1.0
 40
1.0
 40
1.0
 40
1.0
 10
157.5106098977
 20
286.7086838942
 30
0.0
 10
157.5492419208
 20
286.7086838942
 30
0.0
 10
157.6333677337
 20
286.6491875782
 30
0.0
 10
157.6520312521
 20
286.5578093611
 30
0.0
 10
157.6520312521
 20
286.5086838942
 30
0.0
  0
SPLINE
  5
91C
100
AcDbEntity
  8
11_COMPONENT
100
AcDbSpline
 62
9
  6
CONTINUOUS
 70
0
 71
3
 72
9
 73
5
 74
0
 42
0.0000001
 43
0.0000001
 44
0.0000000001
 40
0.0
 40
0.0
 40
0.0
 40
0.0
 40
0.4402133985
 40
1.0
 40
1.0
 40
1.0
 40
1.0
 10
292.3487651023
 20
286.7086838942
 30
0.0
 10
292.3101330792
 20
286.7086838942
 30
0.0
 10
292.2260072662
 20
286.6491875787
 30
0.0
 10
292.207343746
 20
286.5578093615
 30
0.0
 10
292.207343746
 20
286.5086838942
 30
0.0
  0
SPLINE
  5
91D
100
AcDbEntity
  8
11_COMPONENT
100
AcDbSpline
 62
9
  6
CONTINUOUS
 70
0
 71
3
 72
9
 73
5
 74
0
 42
0.0000001
 43
0.0000001
 44
0.0000000001
 40
0.0
 40
0.0
 40
0.0
 40
0.0
 40
0.4402134006
 40
1.0
 40
1.0
 40
1.0
 40
1.0
 10
292.3487651023
 20
158.7086838942
 30
0.0
 10
292.3101330792
 20
158.7086838942
 30
0.0
 10
292.2260072663
 20
158.7681802102
 30
0.0
 10
292.2073437479
 20
158.8595584273
 30
0.0
 10
292.2073437479
 20
158.9086838942
 30
0.0
  0
SPLINE
  5
91E
100
AcDbEntity
  8
11_COMPONENT
100
AcDbSpline
 62
9
  6
CONTINUOUS
 70
0
 71
3
 72
9
 73
5
 74
0
 42
0.0000001
 43
0.0000001
 44
0.0000000001
 40
0.0
 40
0.0
 40
0.0
 40
0.0
 40
0.4402133985
 40
1.0
 40
1.0
 40
1.0
 40
1.0
 10
157.5106098977
 20
158.7086838942
 30
0.0
 10
157.5492419208
 20
158.7086838942
 30
0.0
 10
157.6333677338
 20
158.7681802098
 30
0.0
 10
157.652031254
 20
158.859558427
 30
0.0
 10
157.652031254
 20
158.9086838942
 30
0.0
  0
SPLINE
  5
91F
100
AcDbEntity
  8
11_COMPONENT
100
AcDbSpline
 62
9
  6
CONTINUOUS
 70
0
 71
3
 72
9
 73
5
 74
0
 42
0.0000001
 43
0.0000001
 44
0.0000000001
 40
0.0
 40
0.0
 40
0.0
 40
0.0
 40
0.4983318235
 40
1.0
 40
1.0
 40
1.0
 40
1.0
 10
145.7868631907
 20
286.7086838942
 30
0.0
 10
145.7528428845
 20
286.7086838942
 30
0.0
 10
145.6833661894
 20
286.6899564709
 30
0.0
 10
145.6331555402
 20
286.6384910491
 30
0.0
 10
145.6162894827
 20
286.6086838914
 30
0.0
  0
SPLINE
  5
920
100
AcDbEntity
  8
11_COMPONENT
100
AcDbSpline
 62
9
  6
CONTINUOUS
 70
0
 71
3
 72
8
 73
4
 74
0
 42
0.0000001
 43
0.0000001
 44
0.0000000001
 40
0.0
 40
0.0
 40
0.0
 40
0.0
 40
1.0
 40
1.0
 40
1.0
 40
1.0
 10
145.6162894827
 20
286.6086838914
 30
0.0
 10
145.5993119991
 20
286.5786798118
 30
0.0
 10
145.5899016401
 20
286.5431582288
 30
0.0
 10
145.5899016401
 20
286.5086838942
 30
0.0
  0
SPLINE
  5
921
100
AcDbEntity
  8
11_COMPONENT
100
AcDbSpline
 62
9
  6
CONTINUOUS
 70
0
 71
3
 72
9
 73
5
 74
0
 42
0.0000001
 43
0.0000001
 44
0.0000000001
 40
0.0
 40
0.0
 40
0.0
 40
0.0
 40
0.4972930483
 40
1.0
 40
1.0
 40
1.0
 40
1.0
 10
148.9552678006
 20
158.7086838942
 30
0.0
 10
148.9049011012
 20
158.7086838942
 30
0.0
 10
148.799555855
 20
158.7520685777
 30
0.0
 10
148.75830625
 20
158.8577688654
 30
0.0
 10
148.75830625
 20
158.9086838942
 30
0.0
  0
SPLINE
  5
922
100
AcDbEntity
  8
11_COMPONENT
100
AcDbSpline
 62
9
  6
CONTINUOUS
 70
0
 71
3
 72
8
 73
4
 74
0
 42
0.0000001
 43
0.0000001
 44
0.0000000001
 40
0.0
 40
0.0
 40
0.0
 40
0.0
 40
1.0
 40
1.0
 40
1.0
 40
1.0
 10
145.7163323984
 20
158.7086838942
 30
0.0
 10
145.6823120928
 20
158.7086838942
 30
0.0
 10
145.6472363859
 20
158.718334808
 30
0.0
 10
145.6178516233
 20
158.7354788133
 30
0.0
  0
SPLINE
  5
923
100
AcDbEntity
  8
11_COMPONENT
100
AcDbSpline
 62
9
  6
CONTINUOUS
 70
0
 71
3
 72
9
 73
5
 74
0
 42
0.0000001
 43
0.0000001
 44
0.0000000001
 40
0.0
 40
0.0
 40
0.0
 40
0.0
 40
0.4983537936
 40
1.0
 40
1.0
 40
1.0
 40
1.0
 10
145.6178516233
 20
158.7354788133
 30
0.0
 10
145.5882701284
 20
158.7527375986
 30
0.0
 10
145.5374698739
 20
158.804294046
 30
0.0
 10
145.5193708478
 20
158.8742095586
 30
0.0
 10
145.5193708478
 20
158.9086838942
 30
0.0
  0
SPLINE
  5
924
100
AcDbEntity
  8
11_COMPONENT
100
AcDbSpline
 62
9
  6
CONTINUOUS
 70
0
 71
3
 72
9
 73
5
 74
0
 42
0.0000001
 43
0.0000001
 44
0.0000000001
 40
0.0
 40
0.0
 40
0.0
 40
0.0
 40
0.498331824
 40
1.0
 40
1.0
 40
1.0
 40
1.0
 10
146.2982114347
 20
158.7086838942
 30
0.0
 10
146.264191129
 20
158.7086838942
 30
0.0
 10
146.194714435
 20
158.727411317
 30
0.0
 10
146.144503786
 20
158.7788767373
 30
0.0
 10
146.1276377283
 20
158.8086838942
 30
0.0
  0
SPLINE
  5
925
100
AcDbEntity
  8
11_COMPONENT
100
AcDbSpline
 62
9
  6
CONTINUOUS
 70
0
 71
3
 72
8
 73
4
 74
0
 42
0.0000001
 43
0.0000001
 44
0.0000000001
 40
0.0
 40
0.0
 40
0.0
 40
0.0
 40
1.0
 40
1.0
 40
1.0
 40
1.0
 10
146.1276377283
 20
158.8086838942
 30
0.0
 10
146.1106602438
 20
158.8386879745
 30
0.0
 10
146.1012498841
 20
158.8742095587
 30
0.0
 10
146.1012498841
 20
158.9086838942
 30
0.0
  0
SPLINE
  5
926
100
AcDbEntity
  8
11_COMPONENT
100
AcDbSpline
 62
9
  6
CONTINUOUS
 70
0
 71
3
 72
8
 73
4
 74
0
 42
0.0000001
 43
0.0000001
 44
0.0000000001
 40
0.0
 40
0.0
 40
0.0
 40
0.0
 40
1.0
 40
1.0
 40
1.0
 40
1.0
 10
146.2276806424
 20
158.7086838942
 30
0.0
 10
146.1936603368
 20
158.7086838942
 30
0.0
 10
146.15858463
 20
158.718334808
 30
0.0
 10
146.1291998674
 20
158.7354788133
 30
0.0
  0
SPLINE
  5
927
100
AcDbEntity
  8
11_COMPONENT
100
AcDbSpline
 62
9
  6
CONTINUOUS
 70
0
 71
3
 72
9
 73
5
 74
0
 42
0.0000001
 43
0.0000001
 44
0.0000000001
 40
0.0
 40
0.0
 40
0.0
 40
0.0
 40
0.4983537936
 40
1.0
 40
1.0
 40
1.0
 40
1.0
 10
146.1291998674
 20
158.7354788133
 30
0.0
 10
146.0996183724
 20
158.7527375986
 30
0.0
 10
146.048818118
 20
158.804294046
 30
0.0
 10
146.0307190918
 20
158.8742095586
 30
0.0
 10
146.0307190918
 20
158.9086838942
 30
0.0
  0
SPLINE
  5
928
100
AcDbEntity
  8
11_COMPONENT
100
AcDbSpline
 62
7
  6
CONTINUOUS
 70
0
 71
3
 72
9
 73
5
 74
0
 42
0.0000001
 43
0.0000001
 44
0.0000000001
 40
0.0
 40
0.0
 40
0.0
 40
0.0
 40
0.5020667304
 40
1.0
 40
1.0
 40
1.0
 40
1.0
 10
198.3013568881
 20
395.5153313952
 30
0.0
 10
198.3728607644
 20
395.5130412938
 30
0.0
 10
198.5152494376
 20
395.507432852
 30
0.0
 10
198.6575295661
 20
395.4995815354
 30
0.0
 10
198.7283537562
 20
395.4953321571
 30
0.0
  0
SPLINE
  5
929
100
AcDbEntity
  8
11_COMPONENT
100
AcDbSpline
 62
7
  6
CONTINUOUS
 70
0
 71
3
 72
9
 73
5
 74
0
 42
0.0000001
 43
0.0000001
 44
0.0000000001
 40
0.0
 40
0.0
 40
0.0
 40
0.0
 40
0.5000711674
 40
1.0
 40
1.0
 40
1.0
 40
1.0
 10
198.1085589789
 20
395.7081293044
 30
0.0
 10
198.1101170144
 20
395.6594827373
 30
0.0
 10
198.154632789
 20
395.5613900026
 30
0.0
 10
198.2527241672
 20
395.5168889872
 30
0.0
 10
198.3013568881
 20
395.5153313952
 30
0.0
  0
SPLINE
  5
92A
100
AcDbEntity
  8
11_COMPONENT
100
AcDbSpline
 62
7
  6
CONTINUOUS
 70
0
 71
3
 72
9
 73
5
 74
0
 42
0.0000001
 43
0.0000001
 44
0.0000000001
 40
0.0
 40
0.0
 40
0.0
 40
0.0
 40
0.4979332691
 40
1.0
 40
1.0
 40
1.0
 40
1.0
 10
198.0885597409
 20
396.1351261725
 30
0.0
 10
198.0928091191
 20
396.0643019824
 30
0.0
 10
198.1006604357
 20
395.9220218539
 30
0.0
 10
198.1062688775
 20
395.7796331808
 30
0.0
 10
198.1085589789
 20
395.7081293044
 30
0.0
  0
SPLINE
  5
92B
100
AcDbEntity
  8
11_COMPONENT
100
AcDbSpline
 62
7
  6
CONTINUOUS
 70
0
 71
3
 72
9
 73
5
 74
0
 42
0.0000001
 43
0.0000001
 44
0.0000000001
 40
0.0
 40
0.0
 40
0.0
 40
0.0
 40
0.5020667304
 40
1.0
 40
1.0
 40
1.0
 40
1.0
 10
197.3373673424
 20
395.7081293044
 30
0.0
 10
197.3396574438
 20
395.7796331807
 30
0.0
 10
197.3452658856
 20
395.9220218539
 30
0.0
 10
197.3531172022
 20
396.0643019824
 30
0.0
 10
197.3573665804
 20
396.1351261725
 30
0.0
  0
SPLINE
  5
92C
100
AcDbEntity
  8
11_COMPONENT
100
AcDbSpline
 62
7
  6
CONTINUOUS
 70
0
 71
3
 72
9
 73
5
 74
0
 42
0.0000001
 43
0.0000001
 44
0.0000000001
 40
0.0
 40
0.0
 40
0.0
 40
0.0
 40
0.4999412022
 40
1.0
 40
1.0
 40
1.0
 40
1.0
 10
197.1445694332
 20
395.5153313952
 30
0.0
 10
197.1932031911
 20
395.5168890204
 30
0.0
 10
197.2912929609
 20
395.5613932167
 30
0.0
 10
197.3358093508
 20
395.6594841069
 30
0.0
 10
197.3373673424
 20
395.7081293044
 30
0.0
  0
SPLINE
  5
92D
100
AcDbEntity
  8
11_COMPONENT
100
AcDbSpline
 62
7
  6
CONTINUOUS
 70
0
 71
3
 72
9
 73
5
 74
0
 42
0.0000001
 43
0.0000001
 44
0.0000000001
 40
0.0
 40
0.0
 40
0.0
 40
0.0
 40
0.4979330764
 40
1.0
 40
1.0
 40
1.0
 40
1.0
 10
196.7175725651
 20
395.4953321571
 30
0.0
 10
196.7883967277
 20
395.4995815337
 30
0.0
 10
196.9306768564
 20
395.5074328474
 30
0.0
 10
197.0730655293
 20
395.5130412929
 30
0.0
 10
197.1445694332
 20
395.5153313952
 30
0.0
  0
SPLINE
  5
92E
100
AcDbEntity
  8
11_COMPONENT
100
AcDbSpline
 62
7
  6
CONTINUOUS
 70
0
 71
3
 72
9
 73
5
 74
0
 42
0.0000001
 43
0.0000001
 44
0.0000000001
 40
0.0
 40
0.0
 40
0.0
 40
0.0
 40
0.4979332691
 40
1.0
 40
1.0
 40
1.0
 40
1.0
 10
197.3573665804
 20
394.1243449813
 30
0.0
 10
197.3531172022
 20
394.1951691714
 30
0.0
 10
197.3452658856
 20
394.3374492999
 30
0.0
 10
197.3396574438
 20
394.4798379731
 30
0.0
 10
197.3373673424
 20
394.5513418495
 30
0.0
  0
SPLINE
  5
92F
100
AcDbEntity
  8
11_COMPONENT
100
AcDbSpline
 62
7
  6
CONTINUOUS
 70
0
 71
3
 72
9
 73
5
 74
0
 42
0.0000001
 43
0.0000001
 44
0.0000000001
 40
0.0
 40
0.0
 40
0.0
 40
0.0
 40
0.5020667304
 40
1.0
 40
1.0
 40
1.0
 40
1.0
 10
198.1085589789
 20
394.5513418495
 30
0.0
 10
198.1062688775
 20
394.4798379731
 30
0.0
 10
198.1006604357
 20
394.3374493
 30
0.0
 10
198.0928091191
 20
394.1951691715
 30
0.0
 10
198.0885597409
 20
394.1243449813
 30
0.0
  0
SPLINE
  5
930
100
AcDbEntity
  8
11_COMPONENT
100
AcDbSpline
 62
7
  6
CONTINUOUS
 70
0
 71
3
 72
9
 73
5
 74
0
 42
0.0000001
 43
0.0000001
 44
0.0000000001
 40
0.0
 40
0.0
 40
0.0
 40
0.0
 40
0.4999412022
 40
1.0
 40
1.0
 40
1.0
 40
1.0
 10
198.3013568881
 20
394.7441397586
 30
0.0
 10
198.2527231302
 20
394.7425821335
 30
0.0
 10
198.1546333604
 20
394.6980779371
 30
0.0
 10
198.1101169705
 20
394.5999870469
 30
0.0
 10
198.1085589789
 20
394.5513418495
 30
0.0
  0
SPLINE
  5
931
100
AcDbEntity
  8
11_COMPONENT
100
AcDbSpline
 62
7
  6
CONTINUOUS
 70
0
 71
3
 72
9
 73
5
 74
0
 42
0.0000001
 43
0.0000001
 44
0.0000000001
 40
0.0
 40
0.0
 40
0.0
 40
0.0
 40
0.4979330764
 40
1.0
 40
1.0
 40
1.0
 40
1.0
 10
198.7283537562
 20
394.7641389967
 30
0.0
 10
198.6575295936
 20
394.7598896201
 30
0.0
 10
198.5152494649
 20
394.7520383064
 30
0.0
 10
198.3728607919
 20
394.7464298609
 30
0.0
 10
198.3013568881
 20
394.7441397586
 30
0.0
  0
SPLINE
  5
932
100
AcDbEntity
  8
11_COMPONENT
100
AcDbSpline
 62
7
  6
CONTINUOUS
 70
0
 71
3
 72
9
 73
5
 74
0
 42
0.0000001
 43
0.0000001
 44
0.0000000001
 40
0.0
 40
0.0
 40
0.0
 40
0.0
 40
0.5020667304
 40
1.0
 40
1.0
 40
1.0
 40
1.0
 10
197.1445694332
 20
394.7441397586
 30
0.0
 10
197.0730655569
 20
394.7464298601
 30
0.0
 10
196.9306768837
 20
394.7520383019
 30
0.0
 10
196.7883967552
 20
394.7598896185
 30
0.0
 10
196.7175725651
 20
394.7641389967
 30
0.0
  0
SPLINE
  5
933
100
AcDbEntity
  8
11_COMPONENT
100
AcDbSpline
 62
7
  6
CONTINUOUS
 70
0
 71
3
 72
9
 73
5
 74
0
 42
0.0000001
 43
0.0000001
 44
0.0000000001
 40
0.0
 40
0.0
 40
0.0
 40
0.0
 40
0.5000711674
 40
1.0
 40
1.0
 40
1.0
 40
1.0
 10
197.3373673424
 20
394.5513418495
 30
0.0
 10
197.3358093069
 20
394.5999884166
 30
0.0
 10
197.2912935323
 20
394.6980811513
 30
0.0
 10
197.1932021541
 20
394.7425821667
 30
0.0
 10
197.1445694332
 20
394.7441397586
 30
0.0
  0
LINE
  5
934
100
AcDbEntity
  8
11_COMPONENT
100
AcDbLine
 62
7
  6
CONTINUOUS
 10
151.3843344743
 20
395.0400346333
 11
150.8920556922
 21
395.0753731448
  0
LINE
  5
935
100
AcDbEntity
  8
11_COMPONENT
100
AcDbLine
 62
7
  6
CONTINUOUS
 10
152.0773255927
 20
392.9988281084
 11
152.1126641043
 21
393.4911068906
  0
LINE
  5
936
100
AcDbEntity
  8
11_COMPONENT
100
AcDbLine
 62
7
  6
CONTINUOUS
 10
152.9686007286
 20
392.9988281084
 11
152.933262217
 21
393.4911068906
  0
LINE
  5
937
100
AcDbEntity
  8
11_COMPONENT
100
AcDbLine
 62
7
  6
CONTINUOUS
 10
152.0773255927
 20
396.2606430454
 11
152.1126641043
 21
395.7683642633
  0
SPLINE
  5
938
100
AcDbEntity
  8
11_COMPONENT
100
AcDbSpline
 62
7
  6
CONTINUOUS
 70
0
 71
3
 72
11
 73
7
 74
0
 42
0.0000001
 43
0.0000001
 44
0.0000000001
 40
0.0
 40
0.0
 40
0.0
 40
0.0
 40
0.1752279574
 40
0.4128690774
 40
0.6944616531
 40
1.0
 40
1.0
 40
1.0
 40
1.0
 10
152.1126641043
 20
393.4911068906
 30
0.0
 10
152.1157492523
 20
393.5345757018
 30
0.0
 10
152.1204548763
 20
393.6371672974
 30
0.0
 10
152.1253824692
 20
393.8098041249
 30
0.0
 10
152.1286970543
 20
394.0148995153
 30
0.0
 10
152.129787851
 20
394.1609122211
 30
0.0
 10
152.1301246372
 20
394.2368970535
 30
0.0
  0
SPLINE
  5
939
100
AcDbEntity
  8
11_COMPONENT
100
AcDbSpline
 62
7
  6
CONTINUOUS
 70
0
 71
3
 72
11
 73
7
 74
0
 42
0.0000001
 43
0.0000001
 44
0.0000000001
 40
0.0
 40
0.0
 40
0.0
 40
0.0
 40
0.3055425752
 40
0.5871332328
 40
0.8247728695
 40
1.0
 40
1.0
 40
1.0
 40
1.0
 10
152.1301246372
 20
394.2368970535
 30
0.0
 10
152.0541387532
 20
394.2365602684
 30
0.0
 10
151.9081254734
 20
394.2354694422
 30
0.0
 10
151.7030298761
 20
394.2321548577
 30
0.0
 10
151.5303941047
 20
394.2272272162
 30
0.0
 10
151.4278030748
 20
394.222521733
 30
0.0
 10
151.3843344743
 20
394.2194365206
 30
0.0
  0
SPLINE
  5
93A
100
AcDbEntity
  8
11_COMPONENT
100
AcDbSpline
 62
7
  6
CONTINUOUS
 70
0
 71
3
 72
11
 73
7
 74
0
 42
0.0000001
 43
0.0000001
 44
0.0000000001
 40
0.0
 40
0.0
 40
0.0
 40
0.0
 40
0.1752256238
 40
0.4128630032
 40
0.6944568359
 40
1.0
 40
1.0
 40
1.0
 40
1.0
 10
151.3843344743
 20
395.0400346333
 30
0.0
 10
151.4278027229
 20
395.0369497554
 30
0.0
 10
151.5303927807
 20
395.0322437932
 30
0.0
 10
151.703028424
 20
395.0273163966
 30
0.0
 10
151.9081243892
 20
395.0240016959
 30
0.0
 10
152.0541386068
 20
395.0229108881
 30
0.0
 10
152.1301246372
 20
395.0225741004
 30
0.0
  0
SPLINE
  5
93B
100
AcDbEntity
  8
11_COMPONENT
100
AcDbSpline
 62
7
  6
CONTINUOUS
 70
0
 71
3
 72
11
 73
7
 74
0
 42
0.0000001
 43
0.0000001
 44
0.0000000001
 40
0.0
 40
0.0
 40
0.0
 40
0.0
 40
0.3055294065
 40
0.5872539708
 40
0.8249139666
 40
1.0
 40
1.0
 40
1.0
 40
1.0
 10
152.1301246372
 20
395.0225741004
 30
0.0
 10
152.1297878621
 20
395.0985567496
 30
0.0
 10
152.1286951207
 20
395.2446001331
 30
0.0
 10
152.1253899694
 20
395.4497309506
 30
0.0
 10
152.1204720804
 20
395.6223706751
 30
0.0
 10
152.1157466613
 20
395.7249306295
 30
0.0
 10
152.1126641043
 20
395.7683642633
 30
0.0
  0
SPLINE
  5
93C
100
AcDbEntity
  8
11_COMPONENT
100
AcDbSpline
 62
7
  6
CONTINUOUS
 70
0
 71
3
 72
11
 73
7
 74
0
 42
0.0000001
 43
0.0000001
 44
0.0000000001
 40
0.0
 40
0.0
 40
0.0
 40
0.0
 40
0.1750854254
 40
0.4127448546
 40
0.6944700845
 40
1.0
 40
1.0
 40
1.0
 40
1.0
 10
152.933262217
 20
395.7683642633
 30
0.0
 10
152.9301796707
 20
395.7249307803
 30
0.0
 10
152.9254542238
 20
395.6223711198
 30
0.0
 10
152.9205363276
 20
395.4497315214
 30
0.0
 10
152.9172311826
 20
395.2446005523
 30
0.0
 10
152.9161384598
 20
395.0985568763
 30
0.0
 10
152.9158016841
 20
395.0225741004
 30
0.0
  0
SPLINE
  5
93D
100
AcDbEntity
  8
11_COMPONENT
100
AcDbSpline
 62
7
  6
CONTINUOUS
 70
0
 71
3
 72
11
 73
7
 74
0
 42
0.0000001
 43
0.0000001
 44
0.0000000001
 40
0.0
 40
0.0
 40
0.0
 40
0.0
 40
0.3055173837
 40
0.5872391207
 40
0.8249035143
 40
1.0
 40
1.0
 40
1.0
 40
1.0
 10
152.9158016841
 20
395.0225741004
 30
0.0
 10
152.9917813437
 20
395.0229108598
 30
0.0
 10
153.1378210351
 20
395.0240035508
 30
0.0
 10
153.3429492542
 20
395.0273084947
 30
0.0
 10
153.5155919808
 20
395.0322262161
 30
0.0
 10
153.6181556106
 20
395.0369520272
 30
0.0
 10
153.661591847
 20
395.0400346333
 30
0.0
  0
SPLINE
  5
93E
100
AcDbEntity
  8
11_COMPONENT
100
AcDbSpline
 62
7
  6
CONTINUOUS
 70
0
 71
3
 72
11
 73
7
 74
0
 42
0.0000001
 43
0.0000001
 44
0.0000000001
 40
0.0
 40
0.0
 40
0.0
 40
0.0
 40
0.175227131
 40
0.4128667676
 40
0.6944574244
 40
1.0
 40
1.0
 40
1.0
 40
1.0
 10
153.661591847
 20
394.2194365206
 30
0.0
 10
153.6181232464
 20
394.222521733
 30
0.0
 10
153.5155322164
 20
394.2272272162
 30
0.0
 10
153.3428964451
 20
394.2321548577
 30
0.0
 10
153.1378008479
 20
394.2354694422
 30
0.0
 10
152.9917875682
 20
394.2365602684
 30
0.0
 10
152.9158016841
 20
394.2368970535
 30
0.0
  0
SPLINE
  5
93F
100
AcDbEntity
  8
11_COMPONENT
100
AcDbSpline
 62
7
  6
CONTINUOUS
 70
0
 71
3
 72
11
 73
7
 74
0
 42
0.0000001
 43
0.0000001
 44
0.0000000001
 40
0.0
 40
0.0
 40
0.0
 40
0.0
 40
0.3055383469
 40
0.5871309252
 40
0.8247720423
 40
1.0
 40
1.0
 40
1.0
 40
1.0
 10
152.9158016841
 20
394.2368970535
 30
0.0
 10
152.9161384702
 20
394.1609122211
 30
0.0
 10
152.917229267
 20
394.0148995147
 30
0.0
 10
152.9205438521
 20
393.8098041243
 30
0.0
 10
152.9254714451
 20
393.6371672968
 30
0.0
 10
152.930177069
 20
393.5345757018
 30
0.0
 10
152.933262217
 20
393.4911068906
 30
0.0
  0
LINE
  5
940
100
AcDbEntity
  8
11_COMPONENT
100
AcDbLine
 62
7
  6
CONTINUOUS
 10
152.9686007286
 20
396.2606430454
 11
152.933262217
 21
395.7683642633
  0
LINE
  5
941
100
AcDbEntity
  8
11_COMPONENT
100
AcDbLine
 62
7
  6
CONTINUOUS
 10
154.1538706291
 20
395.0753731448
 11
153.661591847
 21
395.0400346333
  0
LINE
  5
942
100
AcDbEntity
  8
11_COMPONENT
100
AcDbLine
 62
7
  6
CONTINUOUS
 10
154.1538706291
 20
394.184098009
 11
153.661591847
 21
394.2194365206
  0
LINE
  5
943
100
AcDbEntity
  8
11_COMPONENT
100
AcDbLine
 62
7
  6
CONTINUOUS
 10
150.8920556922
 20
394.184098009
 11
151.3843344743
 21
394.2194365206
  0
LINE
  5
944
100
AcDbEntity
  8
11_COMPONENT
100
AcDbLine
 62
7
  6
CONTINUOUS
 10
296.1843344743
 20
395.0400346333
 11
295.6920556922
 21
395.0753731448
  0
LINE
  5
945
100
AcDbEntity
  8
11_COMPONENT
100
AcDbLine
 62
7
  6
CONTINUOUS
 10
296.8773255927
 20
392.9988281084
 11
296.9126641043
 21
393.4911068906
  0
LINE
  5
946
100
AcDbEntity
  8
11_COMPONENT
100
AcDbLine
 62
7
  6
CONTINUOUS
 10
297.7686007286
 20
392.9988281084
 11
297.733262217
 21
393.4911068906
  0
LINE
  5
947
100
AcDbEntity
  8
11_COMPONENT
100
AcDbLine
 62
7
  6
CONTINUOUS
 10
296.8773255927
 20
396.2606430454
 11
296.9126641043
 21
395.7683642633
  0
SPLINE
  5
948
100
AcDbEntity
  8
11_COMPONENT
100
AcDbSpline
 62
7
  6
CONTINUOUS
 70
0
 71
3
 72
11
 73
7
 74
0
 42
0.0000001
 43
0.0000001
 44
0.0000000001
 40
0.0
 40
0.0
 40
0.0
 40
0.0
 40
0.1752279574
 40
0.4128690774
 40
0.6944616531
 40
1.0
 40
1.0
 40
1.0
 40
1.0
 10
296.9126641043
 20
393.4911068906
 30
0.0
 10
296.9157492523
 20
393.5345757018
 30
0.0
 10
296.9204548763
 20
393.6371672974
 30
0.0
 10
296.9253824692
 20
393.8098041249
 30
0.0
 10
296.9286970543
 20
394.0148995153
 30
0.0
 10
296.929787851
 20
394.1609122211
 30
0.0
 10
296.9301246372
 20
394.2368970535
 30
0.0
  0
SPLINE
  5
949
100
AcDbEntity
  8
11_COMPONENT
100
AcDbSpline
 62
7
  6
CONTINUOUS
 70
0
 71
3
 72
11
 73
7
 74
0
 42
0.0000001
 43
0.0000001
 44
0.0000000001
 40
0.0
 40
0.0
 40
0.0
 40
0.0
 40
0.3055425752
 40
0.5871332328
 40
0.8247728695
 40
1.0
 40
1.0
 40
1.0
 40
1.0
 10
296.9301246372
 20
394.2368970535
 30
0.0
 10
296.8541387532
 20
394.2365602684
 30
0.0
 10
296.7081254734
 20
394.2354694422
 30
0.0
 10
296.5030298761
 20
394.2321548577
 30
0.0
 10
296.3303941047
 20
394.2272272162
 30
0.0
 10
296.2278030748
 20
394.222521733
 30
0.0
 10
296.1843344743
 20
394.2194365206
 30
0.0
  0
SPLINE
  5
94A
100
AcDbEntity
  8
11_COMPONENT
100
AcDbSpline
 62
7
  6
CONTINUOUS
 70
0
 71
3
 72
11
 73
7
 74
0
 42
0.0000001
 43
0.0000001
 44
0.0000000001
 40
0.0
 40
0.0
 40
0.0
 40
0.0
 40
0.1752256238
 40
0.4128630032
 40
0.6944568359
 40
1.0
 40
1.0
 40
1.0
 40
1.0
 10
296.1843344743
 20
395.0400346333
 30
0.0
 10
296.2278027229
 20
395.0369497554
 30
0.0
 10
296.3303927807
 20
395.0322437932
 30
0.0
 10
296.503028424
 20
395.0273163966
 30
0.0
 10
296.7081243892
 20
395.0240016959
 30
0.0
 10
296.8541386068
 20
395.0229108881
 30
0.0
 10
296.9301246372
 20
395.0225741004
 30
0.0
  0
SPLINE
  5
94B
100
AcDbEntity
  8
11_COMPONENT
100
AcDbSpline
 62
7
  6
CONTINUOUS
 70
0
 71
3
 72
11
 73
7
 74
0
 42
0.0000001
 43
0.0000001
 44
0.0000000001
 40
0.0
 40
0.0
 40
0.0
 40
0.0
 40
0.3055294065
 40
0.5872539708
 40
0.8249139666
 40
1.0
 40
1.0
 40
1.0
 40
1.0
 10
296.9301246372
 20
395.0225741004
 30
0.0
 10
296.9297878621
 20
395.0985567496
 30
0.0
 10
296.9286951207
 20
395.2446001331
 30
0.0
 10
296.9253899694
 20
395.4497309506
 30
0.0
 10
296.9204720804
 20
395.6223706751
 30
0.0
 10
296.9157466613
 20
395.7249306295
 30
0.0
 10
296.9126641043
 20
395.7683642633
 30
0.0
  0
SPLINE
  5
94C
100
AcDbEntity
  8
11_COMPONENT
100
AcDbSpline
 62
7
  6
CONTINUOUS
 70
0
 71
3
 72
11
 73
7
 74
0
 42
0.0000001
 43
0.0000001
 44
0.0000000001
 40
0.0
 40
0.0
 40
0.0
 40
0.0
 40
0.1750854254
 40
0.4127448546
 40
0.6944700845
 40
1.0
 40
1.0
 40
1.0
 40
1.0
 10
297.733262217
 20
395.7683642633
 30
0.0
 10
297.7301796707
 20
395.7249307803
 30
0.0
 10
297.7254542238
 20
395.6223711198
 30
0.0
 10
297.7205363276
 20
395.4497315214
 30
0.0
 10
297.7172311826
 20
395.2446005523
 30
0.0
 10
297.7161384598
 20
395.0985568763
 30
0.0
 10
297.7158016841
 20
395.0225741004
 30
0.0
  0
SPLINE
  5
94D
100
AcDbEntity
  8
11_COMPONENT
100
AcDbSpline
 62
7
  6
CONTINUOUS
 70
0
 71
3
 72
11
 73
7
 74
0
 42
0.0000001
 43
0.0000001
 44
0.0000000001
 40
0.0
 40
0.0
 40
0.0
 40
0.0
 40
0.3055173837
 40
0.5872391207
 40
0.8249035143
 40
1.0
 40
1.0
 40
1.0
 40
1.0
 10
297.7158016841
 20
395.0225741004
 30
0.0
 10
297.7917813437
 20
395.0229108598
 30
0.0
 10
297.9378210351
 20
395.0240035508
 30
0.0
 10
298.1429492542
 20
395.0273084947
 30
0.0
 10
298.3155919808
 20
395.0322262161
 30
0.0
 10
298.4181556106
 20
395.0369520272
 30
0.0
 10
298.461591847
 20
395.0400346333
 30
0.0
  0
SPLINE
  5
94E
100
AcDbEntity
  8
11_COMPONENT
100
AcDbSpline
 62
7
  6
CONTINUOUS
 70
0
 71
3
 72
11
 73
7
 74
0
 42
0.0000001
 43
0.0000001
 44
0.0000000001
 40
0.0
 40
0.0
 40
0.0
 40
0.0
 40
0.175227131
 40
0.4128667676
 40
0.6944574244
 40
1.0
 40
1.0
 40
1.0
 40
1.0
 10
298.461591847
 20
394.2194365206
 30
0.0
 10
298.4181232464
 20
394.222521733
 30
0.0
 10
298.3155322164
 20
394.2272272162
 30
0.0
 10
298.1428964451
 20
394.2321548577
 30
0.0
 10
297.9378008479
 20
394.2354694422
 30
0.0
 10
297.7917875682
 20
394.2365602684
 30
0.0
 10
297.7158016841
 20
394.2368970535
 30
0.0
  0
SPLINE
  5
94F
100
AcDbEntity
  8
11_COMPONENT
100
AcDbSpline
 62
7
  6
CONTINUOUS
 70
0
 71
3
 72
11
 73
7
 74
0
 42
0.0000001
 43
0.0000001
 44
0.0000000001
 40
0.0
 40
0.0
 40
0.0
 40
0.0
 40
0.3055383469
 40
0.5871309252
 40
0.8247720423
 40
1.0
 40
1.0
 40
1.0
 40
1.0
 10
297.7158016841
 20
394.2368970535
 30
0.0
 10
297.7161384702
 20
394.1609122211
 30
0.0
 10
297.717229267
 20
394.0148995147
 30
0.0
 10
297.7205438521
 20
393.8098041243
 30
0.0
 10
297.7254714451
 20
393.6371672968
 30
0.0
 10
297.730177069
 20
393.5345757018
 30
0.0
 10
297.733262217
 20
393.4911068906
 30
0.0
  0
LINE
  5
950
100
AcDbEntity
  8
11_COMPONENT
100
AcDbLine
 62
7
  6
CONTINUOUS
 10
297.7686007286
 20
396.2606430454
 11
297.733262217
 21
395.7683642633
  0
LINE
  5
951
100
AcDbEntity
  8
11_COMPONENT
100
AcDbLine
 62
7
  6
CONTINUOUS
 10
298.9538706291
 20
395.0753731448
 11
298.461591847
 21
395.0400346333
  0
LINE
  5
952
100
AcDbEntity
  8
11_COMPONENT
100
AcDbLine
 62
7
  6
CONTINUOUS
 10
298.9538706291
 20
394.184098009
 11
298.461591847
 21
394.2194365206
  0
LINE
  5
953
100
AcDbEntity
  8
11_COMPONENT
100
AcDbLine
 62
7
  6
CONTINUOUS
 10
295.6920556922
 20
394.184098009
 11
296.1843344743
 21
394.2194365206
  0
SPLINE
  5
954
100
AcDbEntity
  8
11_COMPONENT
100
AcDbSpline
 62
7
  6
CONTINUOUS
 70
0
 71
3
 72
11
 73
7
 74
0
 42
0.0000001
 43
0.0000001
 44
0.0000000001
 40
0.0
 40
0.0
 40
0.0
 40
0.0
 40
0.2499234302
 40
0.4999913082
 40
0.7500689328
 40
1.0
 40
1.0
 40
1.0
 40
1.0
 10
183.6229631606
 20
402.8297355769
 30
0.0
 10
183.6230083212
 20
402.9334822561
 30
0.0
 10
183.6663206771
 20
403.1433446524
 30
0.0
 10
183.8464492375
 20
403.4062179694
 30
0.0
 10
184.1094011403
 20
403.5861551353
 30
0.0
 10
184.319213353
 20
403.6296320275
 30
0.0
 10
184.4229631606
 20
403.6297355769
 30
0.0
  0
SPLINE
  5
955
100
AcDbEntity
  8
11_COMPONENT
100
AcDbSpline
 62
7
  6
CONTINUOUS
 70
0
 71
3
 72
11
 73
7
 74
0
 42
0.0000001
 43
0.0000001
 44
0.0000000001
 40
0.0
 40
0.0
 40
0.0
 40
0.0
 40
0.249923305
 40
0.4999911293
 40
0.7500688202
 40
1.0
 40
1.0
 40
1.0
 40
1.0
 10
211.9229631607
 20
403.6297355769
 30
0.0
 10
212.0267097544
 20
403.6296921929
 30
0.0
 10
212.2365728565
 20
403.586380556
 30
0.0
 10
212.4994445241
 20
403.4062495989
 30
0.0
 10
212.6793797608
 20
403.1432967385
 30
0.0
 10
212.7228576475
 20
402.933485395
 30
0.0
 10
212.7229631607
 20
402.8297355769
 30
0.0
  0
LINE
  5
956
100
AcDbEntity
  8
11_COMPONENT
100
AcDbLine
 62
7
  6
CONTINUOUS
 10
300.5306955305
 20
384.7297355769
 11
300.3193484939
 21
384.6828810669
  0
LINE
  5
957
100
AcDbEntity
  8
11_COMPONENT
100
AcDbLine
 62
7
  6
CONTINUOUS
 10
149.3286794695
 20
384.7297355769
 11
149.5400265061
 21
384.6828810669
  0
LINE
  5
958
100
AcDbEntity
  8
11_COMPONENT
100
AcDbLine
 62
7
  6
CONTINUOUS
 10
486.7163252945
 20
150.3986297473
 11
486.7145124663
 21
150.4072642175
  0
SPLINE
  5
959
100
AcDbEntity
  8
11_COMPONENT
100
AcDbSpline
 62
7
  6
CONTINUOUS
 70
0
 71
3
 72
9
 73
5
 74
0
 42
0.0000001
 43
0.0000001
 44
0.0000000001
 40
0.0
 40
0.0
 40
0.0
 40
0.0
 40
0.1124965554
 40
1.0
 40
1.0
 40
1.0
 40
1.0
 10
486.7145124663
 20
150.4072642175
 30
0.0
 10
486.7068665953
 20
150.4438771274
 30
0.0
 10
486.6424827883
 20
150.7700049477
 30
0.0
 10
486.6098542979
 20
151.1036077018
 30
0.0
 10
486.6098542979
 20
151.3986838942
 30
0.0
  0
SPLINE
  5
95A
100
AcDbEntity
  8
11_COMPONENT
100
AcDbSpline
 62
7
  6
CONTINUOUS
 70
0
 71
3
 72
22
 73
18
 74
0
 42
0.0000001
 43
0.0000001
 44
0.0000000001
 40
0.0
 40
0.0
 40
0.0
 40
0.0
 40
0.1941708997
 40
0.3809318138
 40
0.5531469879
 40
0.7044841012
 40
0.77051665
 40
0.8292567673
 40
0.880134084
 40
0.9226171448
 40
0.9562169387
 40
0.9695479966
 40
0.9804937998
 40
0.9890192759
 40
0.9951162714
 40
0.9987785881
 40
1.0
 40
1.0
 40
1.0
 40
1.0
 10
486.6098542979
 20
151.3986838942
 30
0.0
 10
486.6098542979
 20
151.4638884316
 30
0.0
 10
486.6125554886
 20
151.5918256136
 30
0.0
 10
486.6241115693
 20
151.7772655991
 30
0.0
 10
486.6413050736
 20
151.9478073228
 30
0.0
 10
486.6588012415
 20
152.0774807976
 30
0.0
 10
486.6732305723
 20
152.1690747095
 30
0.0
 10
486.6831288336
 20
152.2272223698
 30
0.0
 10
486.6922434793
 20
152.2774873747
 30
0.0
 10
486.7002299799
 20
152.3193473628
 30
0.0
 10
486.7060449552
 20
152.3488524338
 30
0.0
 10
486.7099304201
 20
152.3678228433
 30
0.0
 10
486.712106608
 20
152.3787750433
 30
0.0
 10
486.7139582343
 20
152.3867619269
 30
0.0
 10
486.7149750402
 20
152.3937234432
 30
0.0
 10
486.7161645281
 20
152.3956595946
 30
0.0
 10
486.7160658443
 20
152.3989946683
 30
0.0
 10
486.7163340361
 20
152.3986843356
 30
0.0
  0
LINE
  5
95B
100
AcDbEntity
  8
11_COMPONENT
100
AcDbLine
 62
7
  6
CONTINUOUS
 10
477.2163429747
 20
152.3987380411
 11
477.218155803
 21
152.3901035708
  0
SPLINE
  5
95C
100
AcDbEntity
  8
11_COMPONENT
100
AcDbSpline
 62
7
  6
CONTINUOUS
 70
0
 71
3
 72
9
 73
5
 74
0
 42
0.0000001
 43
0.0000001
 44
0.0000000001
 40
0.0
 40
0.0
 40
0.0
 40
0.0
 40
0.1124965557
 40
1.0
 40
1.0
 40
1.0
 40
1.0
 10
477.218155803
 20
152.3901035708
 30
0.0
 10
477.225801674
 20
152.3534906609
 30
0.0
 10
477.290185481
 20
152.0273628406
 30
0.0
 10
477.3228139713
 20
151.6937600865
 30
0.0
 10
477.3228139713
 20
151.3986838942
 30
0.0
  0
SPLINE
  5
95D
100
AcDbEntity
  8
11_COMPONENT
100
AcDbSpline
 62
7
  6
CONTINUOUS
 70
0
 71
3
 72
22
 73
18
 74
0
 42
0.0000001
 43
0.0000001
 44
0.0000000001
 40
0.0
 40
0.0
 40
0.0
 40
0.0
 40
0.1941708997
 40
0.3809318138
 40
0.5531469879
 40
0.7044841012
 40
0.77051665
 40
0.8292567673
 40
0.880134084
 40
0.9226171448
 40
0.9562169387
 40
0.9695479966
 40
0.9804937998
 40
0.9890192759
 40
0.9951162714
 40
0.9987785881
 40
1.0
 40
1.0
 40
1.0
 40
1.0
 10
477.3228139713
 20
151.3986838942
 30
0.0
 10
477.3228139713
 20
151.3334793569
 30
0.0
 10
477.3201127806
 20
151.2055421749
 30
0.0
 10
477.3085567
 20
151.0201021894
 30
0.0
 10
477.2913631956
 20
150.8495604657
 30
0.0
 10
477.2738670278
 20
150.7198869909
 30
0.0
 10
477.2594376969
 20
150.6282930789
 30
0.0
 10
477.2495394357
 20
150.5701454187
 30
0.0
 10
477.2404247899
 20
150.5198804138
 30
0.0
 10
477.2324382893
 20
150.4780204257
 30
0.0
 10
477.2266233141
 20
150.4485153547
 30
0.0
 10
477.2227378491
 20
150.4295449452
 30
0.0
 10
477.2205616613
 20
150.4185927452
 30
0.0
 10
477.2187100349
 20
150.4106058615
 30
0.0
 10
477.2176932291
 20
150.4036443453
 30
0.0
 10
477.2165037411
 20
150.4017081939
 30
0.0
 10
477.2166024249
 20
150.3983731202
 30
0.0
 10
477.2163342332
 20
150.3986834529
 30
0.0
  0
SPLINE
  5
95E
100
AcDbEntity
  8
11_COMPONENT
100
AcDbSpline
 62
9
  6
CONTINUOUS
 70
0
 71
3
 72
11
 73
7
 74
0
 42
0.0000001
 43
0.0000001
 44
0.0000000001
 40
0.0
 40
0.0
 40
0.0
 40
0.0
 40
0.0977523023
 40
0.3140418043
 40
0.6303231361
 40
1.0
 40
1.0
 40
1.0
 40
1.0
 10
490.9142396813
 20
158.7086838942
 30
0.0
 10
490.9074983094
 20
158.7086838942
 30
0.0
 10
490.895777671
 20
158.7342068946
 30
0.0
 10
490.8880964475
 20
158.7723812664
 30
0.0
 10
490.8808403269
 20
158.8364629676
 30
0.0
 10
490.8795100458
 20
158.8831895664
 30
0.0
 10
490.8795100458
 20
158.9086838942
 30
0.0
  0
SPLINE
  5
95F
100
AcDbEntity
  8
11_COMPONENT
100
AcDbSpline
 62
9
  6
CONTINUOUS
 70
0
 71
3
 72
9
 73
5
 74
0
 42
0.0000001
 43
0.0000001
 44
0.0000000001
 40
0.0
 40
0.0
 40
0.0
 40
0.0
 40
0.3005704748
 40
1.0
 40
1.0
 40
1.0
 40
1.0
 10
490.5142396813
 20
158.7086838942
 30
0.0
 10
490.5035964537
 20
158.7086838942
 30
0.0
 10
490.4912573321
 20
158.756220665
 30
0.0
 10
490.4866217833
 20
158.7840393944
 30
0.0
 10
490.4841629343
 20
158.8086838978
 30
0.0
  0
SPLINE
  5
960
100
AcDbEntity
  8
11_COMPONENT
100
AcDbSpline
 62
9
  6
CONTINUOUS
 70
0
 71
3
 72
8
 73
4
 74
0
 42
0.0000001
 43
0.0000001
 44
0.0000000001
 40
0.0
 40
0.0
 40
0.0
 40
0.0
 40
1.0
 40
1.0
 40
1.0
 40
1.0
 10
490.4841629343
 20
158.8086838978
 30
0.0
 10
490.4808500278
 20
158.8418884331
 30
0.0
 10
490.4795100458
 20
158.8753144993
 30
0.0
 10
490.4795100458
 20
158.9086838942
 30
0.0
  0
SPLINE
  5
961
100
AcDbEntity
  8
11_COMPONENT
100
AcDbSpline
 62
9
  6
CONTINUOUS
 70
0
 71
3
 72
11
 73
7
 74
0
 42
0.0000001
 43
0.0000001
 44
0.0000000001
 40
0.0
 40
0.0
 40
0.0
 40
0.0
 40
0.0977523018
 40
0.3140418047
 40
0.6303231366
 40
1.0
 40
1.0
 40
1.0
 40
1.0
 10
480.487887859
 20
158.7086838942
 30
0.0
 10
480.4811464871
 20
158.7086838942
 30
0.0
 10
480.4694258486
 20
158.7342068946
 30
0.0
 10
480.4617446253
 20
158.7723812664
 30
0.0
 10
480.4544885045
 20
158.8364629677
 30
0.0
 10
480.4531582234
 20
158.8831895664
 30
0.0
 10
480.4531582234
 20
158.9086838942
 30
0.0
  0
SPLINE
  5
962
100
AcDbEntity
  8
11_COMPONENT
100
AcDbSpline
 62
9
  6
CONTINUOUS
 70
0
 71
3
 72
11
 73
7
 74
0
 42
0.0000001
 43
0.0000001
 44
0.0000000001
 40
0.0
 40
0.0
 40
0.0
 40
0.0
 40
0.0977523023
 40
0.3140418043
 40
0.6303231361
 40
1.0
 40
1.0
 40
1.0
 40
1.0
 10
482.2142396813
 20
158.7086838942
 30
0.0
 10
482.2074983094
 20
158.7086838942
 30
0.0
 10
482.195777671
 20
158.7342068946
 30
0.0
 10
482.1880964475
 20
158.7723812664
 30
0.0
 10
482.1808403269
 20
158.8364629676
 30
0.0
 10
482.1795100458
 20
158.8831895664
 30
0.0
 10
482.1795100458
 20
158.9086838942
 30
0.0
  0
SPLINE
  5
963
100
AcDbEntity
  8
11_COMPONENT
100
AcDbSpline
 62
9
  6
CONTINUOUS
 70
0
 71
3
 72
9
 73
5
 74
0
 42
0.0000001
 43
0.0000001
 44
0.0000000001
 40
0.0
 40
0.0
 40
0.0
 40
0.0
 40
0.3005704748
 40
1.0
 40
1.0
 40
1.0
 40
1.0
 10
478.9142396813
 20
158.7086838942
 30
0.0
 10
478.9035964537
 20
158.7086838942
 30
0.0
 10
478.8912573321
 20
158.756220665
 30
0.0
 10
478.8866217833
 20
158.7840393944
 30
0.0
 10
478.8841629343
 20
158.8086838978
 30
0.0
  0
SPLINE
  5
964
100
AcDbEntity
  8
11_COMPONENT
100
AcDbSpline
 62
9
  6
CONTINUOUS
 70
0
 71
3
 72
8
 73
4
 74
0
 42
0.0000001
 43
0.0000001
 44
0.0000000001
 40
0.0
 40
0.0
 40
0.0
 40
0.0
 40
1.0
 40
1.0
 40
1.0
 40
1.0
 10
478.8841629343
 20
158.8086838978
 30
0.0
 10
478.8808500278
 20
158.8418884331
 30
0.0
 10
478.8795100458
 20
158.8753144993
 30
0.0
 10
478.8795100458
 20
158.9086838942
 30
0.0
  0
SPLINE
  5
965
100
AcDbEntity
  8
11_COMPONENT
100
AcDbSpline
 62
9
  6
CONTINUOUS
 70
0
 71
3
 72
11
 73
7
 74
0
 42
0.0000001
 43
0.0000001
 44
0.0000000001
 40
0.0
 40
0.0
 40
0.0
 40
0.0
 40
0.0977523023
 40
0.3140418043
 40
0.6303231361
 40
1.0
 40
1.0
 40
1.0
 40
1.0
 10
479.3142396813
 20
158.7086838942
 30
0.0
 10
479.3074983094
 20
158.7086838942
 30
0.0
 10
479.295777671
 20
158.7342068946
 30
0.0
 10
479.2880964475
 20
158.7723812664
 30
0.0
 10
479.2808403269
 20
158.8364629676
 30
0.0
 10
479.2795100458
 20
158.8831895664
 30
0.0
 10
479.2795100458
 20
158.9086838942
 30
0.0
  0
SPLINE
  5
966
100
AcDbEntity
  8
11_COMPONENT
100
AcDbSpline
 62
9
  6
CONTINUOUS
 70
0
 71
3
 72
11
 73
7
 74
0
 42
0.0000001
 43
0.0000001
 44
0.0000000001
 40
0.0
 40
0.0
 40
0.0
 40
0.0
 40
0.0977523023
 40
0.3140418043
 40
0.6303231361
 40
1.0
 40
1.0
 40
1.0
 40
1.0
 10
480.987887859
 20
158.7086838942
 30
0.0
 10
480.981146487
 20
158.7086838942
 30
0.0
 10
480.9694258487
 20
158.7342068946
 30
0.0
 10
480.9617446252
 20
158.7723812664
 30
0.0
 10
480.9544885046
 20
158.8364629676
 30
0.0
 10
480.9531582234
 20
158.8831895664
 30
0.0
 10
480.9531582234
 20
158.9086838942
 30
0.0
  0
SPLINE
  5
967
100
AcDbEntity
  8
11_COMPONENT
100
AcDbSpline
 62
9
  6
CONTINUOUS
 70
0
 71
3
 72
10
 73
6
 74
0
 42
0.0000001
 43
0.0000001
 44
0.0000000001
 40
0.0
 40
0.0
 40
0.0
 40
0.0
 40
0.1863705765
 40
0.5471248662
 40
1.0
 40
1.0
 40
1.0
 40
1.0
 10
472.0959341567
 20
158.7086838942
 30
0.0
 10
472.1114081607
 20
158.7086838942
 30
0.0
 10
472.1567053355
 20
158.7270935851
 30
0.0
 10
472.2002552419
 20
158.8035397177
 30
0.0
 10
472.210649444
 20
158.8710825101
 30
0.0
 10
472.210649444
 20
158.9086838942
 30
0.0
  0
SPLINE
  5
968
100
AcDbEntity
  8
11_COMPONENT
100
AcDbSpline
 62
9
  6
CONTINUOUS
 70
0
 71
3
 72
10
 73
6
 74
0
 42
0.0000001
 43
0.0000001
 44
0.0000000001
 40
0.0
 40
0.0
 40
0.0
 40
0.0
 40
0.1863705729
 40
0.5471248732
 40
1.0
 40
1.0
 40
1.0
 40
1.0
 10
472.0959341567
 20
286.7086838942
 30
0.0
 10
472.1114081604
 20
286.7086838942
 30
0.0
 10
472.156705336
 20
286.6902742046
 30
0.0
 10
472.2002552425
 20
286.6138280705
 30
0.0
 10
472.2106494418
 20
286.5462852777
 30
0.0
 10
472.2106494418
 20
286.5086838942
 30
0.0
  0
SPLINE
  5
969
100
AcDbEntity
  8
11_COMPONENT
100
AcDbSpline
 62
9
  6
CONTINUOUS
 70
0
 71
3
 72
9
 73
5
 74
0
 42
0.0000001
 43
0.0000001
 44
0.0000000001
 40
0.0
 40
0.0
 40
0.0
 40
0.0
 40
0.3005704758
 40
1.0
 40
1.0
 40
1.0
 40
1.0
 10
484.7142396813
 20
286.7086838942
 30
0.0
 10
484.703596454
 20
286.7086838942
 30
0.0
 10
484.6912573323
 20
286.6611471253
 30
0.0
 10
484.6866217836
 20
286.6333283967
 30
0.0
 10
484.6841629347
 20
286.6086838942
 30
0.0
  0
SPLINE
  5
96A
100
AcDbEntity
  8
11_COMPONENT
100
AcDbSpline
 62
9
  6
CONTINUOUS
 70
0
 71
3
 72
8
 73
4
 74
0
 42
0.0000001
 43
0.0000001
 44
0.0000000001
 40
0.0
 40
0.0
 40
0.0
 40
0.0
 40
1.0
 40
1.0
 40
1.0
 40
1.0
 10
484.6841629347
 20
286.6086838942
 30
0.0
 10
484.6808500279
 20
286.5754793577
 30
0.0
 10
484.6795100458
 20
286.5420532903
 30
0.0
 10
484.6795100458
 20
286.5086838942
 30
0.0
  0
SPLINE
  5
96B
100
AcDbEntity
  8
11_COMPONENT
100
AcDbSpline
 62
9
  6
CONTINUOUS
 70
0
 71
3
 72
11
 73
7
 74
0
 42
0.0000001
 43
0.0000001
 44
0.0000000001
 40
0.0
 40
0.0
 40
0.0
 40
0.0
 40
0.0977523018
 40
0.3140418047
 40
0.6303231366
 40
1.0
 40
1.0
 40
1.0
 40
1.0
 10
489.687887859
 20
286.7086838942
 30
0.0
 10
489.6811464871
 20
286.7086838942
 30
0.0
 10
489.6694258486
 20
286.6831608939
 30
0.0
 10
489.6617446252
 20
286.644986522
 30
0.0
 10
489.6544885045
 20
286.5809048208
 30
0.0
 10
489.6531582235
 20
286.5341782221
 30
0.0
 10
489.6531582235
 20
286.5086838942
 30
0.0
  0
SPLINE
  5
96C
100
AcDbEntity
  8
11_COMPONENT
100
AcDbSpline
 62
9
  6
CONTINUOUS
 70
0
 71
3
 72
11
 73
7
 74
0
 42
0.0000001
 43
0.0000001
 44
0.0000000001
 40
0.0
 40
0.0
 40
0.0
 40
0.0
 40
0.097752302
 40
0.3140418045
 40
0.6303231364
 40
1.0
 40
1.0
 40
1.0
 40
1.0
 10
479.3142396813
 20
286.7086838942
 30
0.0
 10
479.3074983094
 20
286.7086838942
 30
0.0
 10
479.295777671
 20
286.6831608939
 30
0.0
 10
479.2880964475
 20
286.6449865221
 30
0.0
 10
479.2808403269
 20
286.5809048208
 30
0.0
 10
479.2795100458
 20
286.5341782221
 30
0.0
 10
479.2795100458
 20
286.5086838942
 30
0.0
  0
SPLINE
  5
96D
100
AcDbEntity
  8
11_COMPONENT
100
AcDbSpline
 62
9
  6
CONTINUOUS
 70
0
 71
3
 72
11
 73
7
 74
0
 42
0.0000001
 43
0.0000001
 44
0.0000000001
 40
0.0
 40
0.0
 40
0.0
 40
0.0
 40
0.097752302
 40
0.3140418045
 40
0.6303231364
 40
1.0
 40
1.0
 40
1.0
 40
1.0
 10
482.2142396813
 20
286.7086838942
 30
0.0
 10
482.2074983094
 20
286.7086838942
 30
0.0
 10
482.195777671
 20
286.6831608939
 30
0.0
 10
482.1880964475
 20
286.6449865221
 30
0.0
 10
482.1808403269
 20
286.5809048208
 30
0.0
 10
482.1795100458
 20
286.5341782221
 30
0.0
 10
482.1795100458
 20
286.5086838942
 30
0.0
  0
SPLINE
  5
96E
100
AcDbEntity
  8
11_COMPONENT
100
AcDbSpline
 62
9
  6
CONTINUOUS
 70
0
 71
3
 72
9
 73
5
 74
0
 42
0.0000001
 43
0.0000001
 44
0.0000000001
 40
0.0
 40
0.0
 40
0.0
 40
0.0
 40
0.3005704748
 40
1.0
 40
1.0
 40
1.0
 40
1.0
 10
481.8142396813
 20
158.7086838942
 30
0.0
 10
481.8035964537
 20
158.7086838942
 30
0.0
 10
481.7912573321
 20
158.756220665
 30
0.0
 10
481.7866217833
 20
158.7840393944
 30
0.0
 10
481.7841629343
 20
158.8086838978
 30
0.0
  0
SPLINE
  5
96F
100
AcDbEntity
  8
11_COMPONENT
100
AcDbSpline
 62
9
  6
CONTINUOUS
 70
0
 71
3
 72
8
 73
4
 74
0
 42
0.0000001
 43
0.0000001
 44
0.0000000001
 40
0.0
 40
0.0
 40
0.0
 40
0.0
 40
1.0
 40
1.0
 40
1.0
 40
1.0
 10
481.7841629343
 20
158.8086838978
 30
0.0
 10
481.7808500278
 20
158.8418884331
 30
0.0
 10
481.7795100458
 20
158.8753144993
 30
0.0
 10
481.7795100458
 20
158.9086838942
 30
0.0
  0
SPLINE
  5
970
100
AcDbEntity
  8
11_COMPONENT
100
AcDbSpline
 62
9
  6
CONTINUOUS
 70
0
 71
3
 72
11
 73
7
 74
0
 42
0.0000001
 43
0.0000001
 44
0.0000000001
 40
0.0
 40
0.0
 40
0.0
 40
0.0
 40
0.0977523023
 40
0.3140418043
 40
0.6303231361
 40
1.0
 40
1.0
 40
1.0
 40
1.0
 10
478.087887859
 20
158.7086838942
 30
0.0
 10
478.081146487
 20
158.7086838942
 30
0.0
 10
478.0694258487
 20
158.7342068946
 30
0.0
 10
478.0617446252
 20
158.7723812664
 30
0.0
 10
478.0544885046
 20
158.8364629676
 30
0.0
 10
478.0531582234
 20
158.8831895664
 30
0.0
 10
478.0531582234
 20
158.9086838942
 30
0.0
  0
SPLINE
  5
971
100
AcDbEntity
  8
11_COMPONENT
100
AcDbSpline
 62
9
  6
CONTINUOUS
 70
0
 71
3
 72
11
 73
7
 74
0
 42
0.0000001
 43
0.0000001
 44
0.0000000001
 40
0.0
 40
0.0
 40
0.0
 40
0.0
 40
0.0977523022
 40
0.3140418045
 40
0.6303231363
 40
1.0
 40
1.0
 40
1.0
 40
1.0
 10
469.1932951483
 20
286.7086838942
 30
0.0
 10
469.1865537764
 20
286.7086838942
 30
0.0
 10
469.174833138
 20
286.6831608938
 30
0.0
 10
469.1671519145
 20
286.6449865221
 30
0.0
 10
469.1598957939
 20
286.5809048208
 30
0.0
 10
469.1585655128
 20
286.5341782221
 30
0.0
 10
469.1585655128
 20
286.5086838942
 30
0.0
  0
SPLINE
  5
972
100
AcDbEntity
  8
11_COMPONENT
100
AcDbSpline
 62
9
  6
CONTINUOUS
 70
0
 71
3
 72
11
 73
7
 74
0
 42
0.0000001
 43
0.0000001
 44
0.0000000001
 40
0.0
 40
0.0
 40
0.0
 40
0.0
 40
0.0977523018
 40
0.3140418047
 40
0.6303231366
 40
1.0
 40
1.0
 40
1.0
 40
1.0
 10
492.087887859
 20
158.7086838942
 30
0.0
 10
492.0811464871
 20
158.7086838942
 30
0.0
 10
492.0694258486
 20
158.7342068946
 30
0.0
 10
492.0617446253
 20
158.7723812664
 30
0.0
 10
492.0544885045
 20
158.8364629677
 30
0.0
 10
492.0531582234
 20
158.8831895664
 30
0.0
 10
492.0531582234
 20
158.9086838942
 30
0.0
  0
SPLINE
  5
973
100
AcDbEntity
  8
11_COMPONENT
100
AcDbSpline
 62
9
  6
CONTINUOUS
 70
0
 71
3
 72
11
 73
7
 74
0
 42
0.0000001
 43
0.0000001
 44
0.0000000001
 40
0.0
 40
0.0
 40
0.0
 40
0.0
 40
0.0977523023
 40
0.3140418043
 40
0.6303231361
 40
1.0
 40
1.0
 40
1.0
 40
1.0
 10
492.087887859
 20
286.7086838942
 30
0.0
 10
492.081146487
 20
286.7086838942
 30
0.0
 10
492.0694258487
 20
286.6831608938
 30
0.0
 10
492.0617446252
 20
286.6449865221
 30
0.0
 10
492.0544885046
 20
286.5809048208
 30
0.0
 10
492.0531582234
 20
286.5341782221
 30
0.0
 10
492.0531582234
 20
286.5086838942
 30
0.0
  0
SPLINE
  5
974
100
AcDbEntity
  8
11_COMPONENT
100
AcDbSpline
 62
9
  6
CONTINUOUS
 70
0
 71
3
 72
11
 73
7
 74
0
 42
0.0000001
 43
0.0000001
 44
0.0000000001
 40
0.0
 40
0.0
 40
0.0
 40
0.0
 40
0.0977523018
 40
0.3140418047
 40
0.6303231366
 40
1.0
 40
1.0
 40
1.0
 40
1.0
 10
478.087887859
 20
286.7086838942
 30
0.0
 10
478.0811464871
 20
286.7086838942
 30
0.0
 10
478.0694258486
 20
286.6831608939
 30
0.0
 10
478.0617446252
 20
286.644986522
 30
0.0
 10
478.0544885045
 20
286.5809048208
 30
0.0
 10
478.0531582235
 20
286.5341782221
 30
0.0
 10
478.0531582235
 20
286.5086838942
 30
0.0
  0
SPLINE
  5
975
100
AcDbEntity
  8
11_COMPONENT
100
AcDbSpline
 62
9
  6
CONTINUOUS
 70
0
 71
3
 72
11
 73
7
 74
0
 42
0.0000001
 43
0.0000001
 44
0.0000000001
 40
0.0
 40
0.0
 40
0.0
 40
0.0
 40
0.097752302
 40
0.3140418045
 40
0.6303231364
 40
1.0
 40
1.0
 40
1.0
 40
1.0
 10
485.1142396813
 20
286.7086838942
 30
0.0
 10
485.1074983094
 20
286.7086838942
 30
0.0
 10
485.095777671
 20
286.6831608939
 30
0.0
 10
485.0880964475
 20
286.6449865221
 30
0.0
 10
485.0808403269
 20
286.5809048208
 30
0.0
 10
485.0795100458
 20
286.5341782221
 30
0.0
 10
485.0795100458
 20
286.5086838942
 30
0.0
  0
SPLINE
  5
976
100
AcDbEntity
  8
11_COMPONENT
100
AcDbSpline
 62
9
  6
CONTINUOUS
 70
0
 71
3
 72
11
 73
7
 74
0
 42
0.0000001
 43
0.0000001
 44
0.0000000001
 40
0.0
 40
0.0
 40
0.0
 40
0.0
 40
0.0977523023
 40
0.3140418043
 40
0.6303231361
 40
1.0
 40
1.0
 40
1.0
 40
1.0
 10
489.187887859
 20
286.7086838942
 30
0.0
 10
489.181146487
 20
286.7086838942
 30
0.0
 10
489.1694258487
 20
286.6831608938
 30
0.0
 10
489.1617446252
 20
286.6449865221
 30
0.0
 10
489.1544885046
 20
286.5809048208
 30
0.0
 10
489.1531582234
 20
286.5341782221
 30
0.0
 10
489.1531582234
 20
286.5086838942
 30
0.0
  0
SPLINE
  5
977
100
AcDbEntity
  8
11_COMPONENT
100
AcDbSpline
 62
9
  6
CONTINUOUS
 70
0
 71
3
 72
11
 73
7
 74
0
 42
0.0000001
 43
0.0000001
 44
0.0000000001
 40
0.0
 40
0.0
 40
0.0
 40
0.0
 40
0.0977523023
 40
0.3140418043
 40
0.6303231361
 40
1.0
 40
1.0
 40
1.0
 40
1.0
 10
486.287887859
 20
286.7086838942
 30
0.0
 10
486.281146487
 20
286.7086838942
 30
0.0
 10
486.2694258487
 20
286.6831608938
 30
0.0
 10
486.2617446252
 20
286.6449865221
 30
0.0
 10
486.2544885046
 20
286.5809048208
 30
0.0
 10
486.2531582234
 20
286.5341782221
 30
0.0
 10
486.2531582234
 20
286.5086838942
 30
0.0
  0
SPLINE
  5
978
100
AcDbEntity
  8
11_COMPONENT
100
AcDbSpline
 62
9
  6
CONTINUOUS
 70
0
 71
3
 72
11
 73
7
 74
0
 42
0.0000001
 43
0.0000001
 44
0.0000000001
 40
0.0
 40
0.0
 40
0.0
 40
0.0
 40
0.0977522959
 40
0.3140418088
 40
0.6303231429
 40
1.0
 40
1.0
 40
1.0
 40
1.0
 10
469.1932951483
 20
158.7086838942
 30
0.0
 10
469.1865537768
 20
158.7086838942
 30
0.0
 10
469.174833137
 20
158.7342068938
 30
0.0
 10
469.1671519156
 20
158.772381267
 30
0.0
 10
469.1598957931
 20
158.8364629681
 30
0.0
 10
469.1585655124
 20
158.8831895668
 30
0.0
 10
469.1585655124
 20
158.9086838942
 30
0.0
  0
SPLINE
  5
979
100
AcDbEntity
  8
11_COMPONENT
100
AcDbSpline
 62
9
  6
CONTINUOUS
 70
0
 71
3
 72
11
 73
7
 74
0
 42
0.0000001
 43
0.0000001
 44
0.0000000001
 40
0.0
 40
0.0
 40
0.0
 40
0.0
 40
0.0977523018
 40
0.3140418047
 40
0.6303231366
 40
1.0
 40
1.0
 40
1.0
 40
1.0
 10
480.987887859
 20
286.7086838942
 30
0.0
 10
480.9811464871
 20
286.7086838942
 30
0.0
 10
480.9694258486
 20
286.6831608939
 30
0.0
 10
480.9617446252
 20
286.644986522
 30
0.0
 10
480.9544885045
 20
286.5809048208
 30
0.0
 10
480.9531582235
 20
286.5341782221
 30
0.0
 10
480.9531582235
 20
286.5086838942
 30
0.0
  0
SPLINE
  5
97A
100
AcDbEntity
  8
11_COMPONENT
100
AcDbSpline
 62
9
  6
CONTINUOUS
 70
0
 71
3
 72
11
 73
7
 74
0
 42
0.0000001
 43
0.0000001
 44
0.0000000001
 40
0.0
 40
0.0
 40
0.0
 40
0.0
 40
0.0977523018
 40
0.3140418047
 40
0.6303231366
 40
1.0
 40
1.0
 40
1.0
 40
1.0
 10
489.187887859
 20
158.7086838942
 30
0.0
 10
489.1811464871
 20
158.7086838942
 30
0.0
 10
489.1694258486
 20
158.7342068946
 30
0.0
 10
489.1617446253
 20
158.7723812664
 30
0.0
 10
489.1544885045
 20
158.8364629677
 30
0.0
 10
489.1531582234
 20
158.8831895664
 30
0.0
 10
489.1531582234
 20
158.9086838942
 30
0.0
  0
SPLINE
  5
97B
100
AcDbEntity
  8
11_COMPONENT
100
AcDbSpline
 62
9
  6
CONTINUOUS
 70
0
 71
3
 72
9
 73
5
 74
0
 42
0.0000001
 43
0.0000001
 44
0.0000000001
 40
0.0
 40
0.0
 40
0.0
 40
0.0
 40
0.3005704758
 40
1.0
 40
1.0
 40
1.0
 40
1.0
 10
481.8142396813
 20
286.7086838942
 30
0.0
 10
481.803596454
 20
286.7086838942
 30
0.0
 10
481.7912573323
 20
286.6611471253
 30
0.0
 10
481.7866217836
 20
286.6333283967
 30
0.0
 10
481.7841629347
 20
286.6086838942
 30
0.0
  0
SPLINE
  5
97C
100
AcDbEntity
  8
11_COMPONENT
100
AcDbSpline
 62
9
  6
CONTINUOUS
 70
0
 71
3
 72
8
 73
4
 74
0
 42
0.0000001
 43
0.0000001
 44
0.0000000001
 40
0.0
 40
0.0
 40
0.0
 40
0.0
 40
1.0
 40
1.0
 40
1.0
 40
1.0
 10
481.7841629347
 20
286.6086838942
 30
0.0
 10
481.7808500279
 20
286.5754793577
 30
0.0
 10
481.7795100458
 20
286.5420532903
 30
0.0
 10
481.7795100458
 20
286.5086838942
 30
0.0
  0
SPLINE
  5
97D
100
AcDbEntity
  8
11_COMPONENT
100
AcDbSpline
 62
9
  6
CONTINUOUS
 70
0
 71
3
 72
11
 73
7
 74
0
 42
0.0000001
 43
0.0000001
 44
0.0000000001
 40
0.0
 40
0.0
 40
0.0
 40
0.0
 40
0.0977523023
 40
0.3140418043
 40
0.6303231361
 40
1.0
 40
1.0
 40
1.0
 40
1.0
 10
483.387887859
 20
286.7086838942
 30
0.0
 10
483.381146487
 20
286.7086838942
 30
0.0
 10
483.3694258487
 20
286.6831608938
 30
0.0
 10
483.3617446252
 20
286.6449865221
 30
0.0
 10
483.3544885046
 20
286.5809048208
 30
0.0
 10
483.3531582234
 20
286.5341782221
 30
0.0
 10
483.3531582234
 20
286.5086838942
 30
0.0
  0
SPLINE
  5
97E
100
AcDbEntity
  8
11_COMPONENT
100
AcDbSpline
 62
9
  6
CONTINUOUS
 70
0
 71
3
 72
11
 73
7
 74
0
 42
0.0000001
 43
0.0000001
 44
0.0000000001
 40
0.0
 40
0.0
 40
0.0
 40
0.0
 40
0.0977523018
 40
0.3140418047
 40
0.6303231366
 40
1.0
 40
1.0
 40
1.0
 40
1.0
 10
483.887887859
 20
286.7086838942
 30
0.0
 10
483.8811464871
 20
286.7086838942
 30
0.0
 10
483.8694258486
 20
286.6831608939
 30
0.0
 10
483.8617446252
 20
286.644986522
 30
0.0
 10
483.8544885045
 20
286.5809048208
 30
0.0
 10
483.8531582235
 20
286.5341782221
 30
0.0
 10
483.8531582235
 20
286.5086838942
 30
0.0
  0
SPLINE
  5
97F
100
AcDbEntity
  8
11_COMPONENT
100
AcDbSpline
 62
9
  6
CONTINUOUS
 70
0
 71
3
 72
11
 73
7
 74
0
 42
0.0000001
 43
0.0000001
 44
0.0000000001
 40
0.0
 40
0.0
 40
0.0
 40
0.0
 40
0.0977523023
 40
0.3140418043
 40
0.6303231361
 40
1.0
 40
1.0
 40
1.0
 40
1.0
 10
480.487887859
 20
286.7086838942
 30
0.0
 10
480.481146487
 20
286.7086838942
 30
0.0
 10
480.4694258487
 20
286.6831608938
 30
0.0
 10
480.4617446252
 20
286.6449865221
 30
0.0
 10
480.4544885046
 20
286.5809048208
 30
0.0
 10
480.4531582234
 20
286.5341782221
 30
0.0
 10
480.4531582234
 20
286.5086838942
 30
0.0
  0
SPLINE
  5
980
100
AcDbEntity
  8
11_COMPONENT
100
AcDbSpline
 62
9
  6
CONTINUOUS
 70
0
 71
3
 72
11
 73
7
 74
0
 42
0.0000001
 43
0.0000001
 44
0.0000000001
 40
0.0
 40
0.0
 40
0.0
 40
0.0
 40
0.0977523018
 40
0.3140418047
 40
0.6303231366
 40
1.0
 40
1.0
 40
1.0
 40
1.0
 10
486.787887859
 20
286.7086838942
 30
0.0
 10
486.7811464871
 20
286.7086838942
 30
0.0
 10
486.7694258486
 20
286.6831608939
 30
0.0
 10
486.7617446252
 20
286.644986522
 30
0.0
 10
486.7544885045
 20
286.5809048208
 30
0.0
 10
486.7531582235
 20
286.5341782221
 30
0.0
 10
486.7531582235
 20
286.5086838942
 30
0.0
  0
SPLINE
  5
981
100
AcDbEntity
  8
11_COMPONENT
100
AcDbSpline
 62
9
  6
CONTINUOUS
 70
0
 71
3
 72
9
 73
5
 74
0
 42
0.0000001
 43
0.0000001
 44
0.0000000001
 40
0.0
 40
0.0
 40
0.0
 40
0.0
 40
0.3005704758
 40
1.0
 40
1.0
 40
1.0
 40
1.0
 10
478.9142396813
 20
286.7086838942
 30
0.0
 10
478.903596454
 20
286.7086838942
 30
0.0
 10
478.8912573323
 20
286.6611471253
 30
0.0
 10
478.8866217836
 20
286.6333283967
 30
0.0
 10
478.8841629347
 20
286.6086838942
 30
0.0
  0
SPLINE
  5
982
100
AcDbEntity
  8
11_COMPONENT
100
AcDbSpline
 62
9
  6
CONTINUOUS
 70
0
 71
3
 72
8
 73
4
 74
0
 42
0.0000001
 43
0.0000001
 44
0.0000000001
 40
0.0
 40
0.0
 40
0.0
 40
0.0
 40
1.0
 40
1.0
 40
1.0
 40
1.0
 10
478.8841629347
 20
286.6086838942
 30
0.0
 10
478.8808500279
 20
286.5754793577
 30
0.0
 10
478.8795100458
 20
286.5420532903
 30
0.0
 10
478.8795100458
 20
286.5086838942
 30
0.0
  0
SPLINE
  5
983
100
AcDbEntity
  8
11_COMPONENT
100
AcDbSpline
 62
9
  6
CONTINUOUS
 70
0
 71
3
 72
11
 73
7
 74
0
 42
0.0000001
 43
0.0000001
 44
0.0000000001
 40
0.0
 40
0.0
 40
0.0
 40
0.0
 40
0.097752302
 40
0.3140418045
 40
0.6303231364
 40
1.0
 40
1.0
 40
1.0
 40
1.0
 10
488.0142396813
 20
286.7086838942
 30
0.0
 10
488.0074983094
 20
286.7086838942
 30
0.0
 10
487.995777671
 20
286.6831608939
 30
0.0
 10
487.9880964475
 20
286.6449865221
 30
0.0
 10
487.9808403269
 20
286.5809048208
 30
0.0
 10
487.9795100458
 20
286.5341782221
 30
0.0
 10
487.9795100458
 20
286.5086838942
 30
0.0
  0
SPLINE
  5
984
100
AcDbEntity
  8
11_COMPONENT
100
AcDbSpline
 62
9
  6
CONTINUOUS
 70
0
 71
3
 72
11
 73
7
 74
0
 42
0.0000001
 43
0.0000001
 44
0.0000000001
 40
0.0
 40
0.0
 40
0.0
 40
0.0
 40
0.0977523023
 40
0.3140418043
 40
0.6303231361
 40
1.0
 40
1.0
 40
1.0
 40
1.0
 10
489.687887859
 20
158.7086838942
 30
0.0
 10
489.681146487
 20
158.7086838942
 30
0.0
 10
489.6694258487
 20
158.7342068946
 30
0.0
 10
489.6617446252
 20
158.7723812664
 30
0.0
 10
489.6544885046
 20
158.8364629676
 30
0.0
 10
489.6531582234
 20
158.8831895664
 30
0.0
 10
489.6531582234
 20
158.9086838942
 30
0.0
  0
SPLINE
  5
985
100
AcDbEntity
  8
11_COMPONENT
100
AcDbSpline
 62
9
  6
CONTINUOUS
 70
0
 71
3
 72
9
 73
5
 74
0
 42
0.0000001
 43
0.0000001
 44
0.0000000001
 40
0.0
 40
0.0
 40
0.0
 40
0.0
 40
0.3005704758
 40
1.0
 40
1.0
 40
1.0
 40
1.0
 10
487.6142396813
 20
286.7086838942
 30
0.0
 10
487.603596454
 20
286.7086838942
 30
0.0
 10
487.5912573323
 20
286.6611471253
 30
0.0
 10
487.5866217836
 20
286.6333283967
 30
0.0
 10
487.5841629347
 20
286.6086838942
 30
0.0
  0
SPLINE
  5
986
100
AcDbEntity
  8
11_COMPONENT
100
AcDbSpline
 62
9
  6
CONTINUOUS
 70
0
 71
3
 72
8
 73
4
 74
0
 42
0.0000001
 43
0.0000001
 44
0.0000000001
 40
0.0
 40
0.0
 40
0.0
 40
0.0
 40
1.0
 40
1.0
 40
1.0
 40
1.0
 10
487.5841629347
 20
286.6086838942
 30
0.0
 10
487.5808500279
 20
286.5754793577
 30
0.0
 10
487.5795100458
 20
286.5420532903
 30
0.0
 10
487.5795100458
 20
286.5086838942
 30
0.0
  0
SPLINE
  5
987
100
AcDbEntity
  8
11_COMPONENT
100
AcDbSpline
 62
9
  6
CONTINUOUS
 70
0
 71
3
 72
11
 73
7
 74
0
 42
0.0000001
 43
0.0000001
 44
0.0000000001
 40
0.0
 40
0.0
 40
0.0
 40
0.0
 40
0.0977523023
 40
0.3140418043
 40
0.6303231361
 40
1.0
 40
1.0
 40
1.0
 40
1.0
 10
472.6189913865
 20
286.7086838942
 30
0.0
 10
472.6122500146
 20
286.7086838942
 30
0.0
 10
472.6005293762
 20
286.6831608938
 30
0.0
 10
472.5928481527
 20
286.6449865221
 30
0.0
 10
472.5855920321
 20
286.5809048208
 30
0.0
 10
472.584261751
 20
286.5341782221
 30
0.0
 10
472.584261751
 20
286.5086838942
 30
0.0
  0
SPLINE
  5
988
100
AcDbEntity
  8
11_COMPONENT
100
AcDbSpline
 62
9
  6
CONTINUOUS
 70
0
 71
3
 72
11
 73
7
 74
0
 42
0.0000001
 43
0.0000001
 44
0.0000000001
 40
0.0
 40
0.0
 40
0.0
 40
0.0
 40
0.097752302
 40
0.3140418045
 40
0.6303231364
 40
1.0
 40
1.0
 40
1.0
 40
1.0
 10
490.9142396813
 20
286.7086838942
 30
0.0
 10
490.9074983094
 20
286.7086838942
 30
0.0
 10
490.895777671
 20
286.6831608939
 30
0.0
 10
490.8880964475
 20
286.6449865221
 30
0.0
 10
490.8808403269
 20
286.5809048208
 30
0.0
 10
490.8795100458
 20
286.5341782221
 30
0.0
 10
490.8795100458
 20
286.5086838942
 30
0.0
  0
SPLINE
  5
989
100
AcDbEntity
  8
11_COMPONENT
100
AcDbSpline
 62
9
  6
CONTINUOUS
 70
0
 71
3
 72
11
 73
7
 74
0
 42
0.0000001
 43
0.0000001
 44
0.0000000001
 40
0.0
 40
0.0
 40
0.0
 40
0.0
 40
0.0977523018
 40
0.3140418047
 40
0.6303231366
 40
1.0
 40
1.0
 40
1.0
 40
1.0
 10
497.397887859
 20
286.7086838942
 30
0.0
 10
497.3911464871
 20
286.7086838942
 30
0.0
 10
497.3794258486
 20
286.6831608939
 30
0.0
 10
497.3717446252
 20
286.644986522
 30
0.0
 10
497.3644885045
 20
286.5809048208
 30
0.0
 10
497.3631582235
 20
286.5341782221
 30
0.0
 10
497.3631582235
 20
286.5086838942
 30
0.0
  0
SPLINE
  5
98A
100
AcDbEntity
  8
11_COMPONENT
100
AcDbSpline
 62
9
  6
CONTINUOUS
 70
0
 71
3
 72
9
 73
5
 74
0
 42
0.0000001
 43
0.0000001
 44
0.0000000001
 40
0.0
 40
0.0
 40
0.0
 40
0.0
 40
0.3005704758
 40
1.0
 40
1.0
 40
1.0
 40
1.0
 10
490.5142396813
 20
286.7086838942
 30
0.0
 10
490.503596454
 20
286.7086838942
 30
0.0
 10
490.4912573323
 20
286.6611471253
 30
0.0
 10
490.4866217836
 20
286.6333283967
 30
0.0
 10
490.4841629347
 20
286.6086838942
 30
0.0
  0
SPLINE
  5
98B
100
AcDbEntity
  8
11_COMPONENT
100
AcDbSpline
 62
9
  6
CONTINUOUS
 70
0
 71
3
 72
8
 73
4
 74
0
 42
0.0000001
 43
0.0000001
 44
0.0000000001
 40
0.0
 40
0.0
 40
0.0
 40
0.0
 40
1.0
 40
1.0
 40
1.0
 40
1.0
 10
490.4841629347
 20
286.6086838942
 30
0.0
 10
490.4808500279
 20
286.5754793577
 30
0.0
 10
490.4795100458
 20
286.5420532903
 30
0.0
 10
490.4795100458
 20
286.5086838942
 30
0.0
  0
SPLINE
  5
98C
100
AcDbEntity
  8
11_COMPONENT
100
AcDbSpline
 62
9
  6
CONTINUOUS
 70
0
 71
3
 72
11
 73
7
 74
0
 42
0.0000001
 43
0.0000001
 44
0.0000000001
 40
0.0
 40
0.0
 40
0.0
 40
0.0
 40
0.0977523023
 40
0.3140418043
 40
0.6303231361
 40
1.0
 40
1.0
 40
1.0
 40
1.0
 10
488.0142396813
 20
158.7086838942
 30
0.0
 10
488.0074983094
 20
158.7086838942
 30
0.0
 10
487.995777671
 20
158.7342068946
 30
0.0
 10
487.9880964475
 20
158.7723812664
 30
0.0
 10
487.9808403269
 20
158.8364629676
 30
0.0
 10
487.9795100458
 20
158.8831895664
 30
0.0
 10
487.9795100458
 20
158.9086838942
 30
0.0
  0
SPLINE
  5
98D
100
AcDbEntity
  8
11_COMPONENT
100
AcDbSpline
 62
9
  6
CONTINUOUS
 70
0
 71
3
 72
9
 73
5
 74
0
 42
0.0000001
 43
0.0000001
 44
0.0000000001
 40
0.0
 40
0.0
 40
0.0
 40
0.0
 40
0.3005704748
 40
1.0
 40
1.0
 40
1.0
 40
1.0
 10
487.6142396813
 20
158.7086838942
 30
0.0
 10
487.6035964537
 20
158.7086838942
 30
0.0
 10
487.5912573321
 20
158.756220665
 30
0.0
 10
487.5866217833
 20
158.7840393944
 30
0.0
 10
487.5841629343
 20
158.8086838978
 30
0.0
  0
SPLINE
  5
98E
100
AcDbEntity
  8
11_COMPONENT
100
AcDbSpline
 62
9
  6
CONTINUOUS
 70
0
 71
3
 72
8
 73
4
 74
0
 42
0.0000001
 43
0.0000001
 44
0.0000000001
 40
0.0
 40
0.0
 40
0.0
 40
0.0
 40
1.0
 40
1.0
 40
1.0
 40
1.0
 10
487.5841629343
 20
158.8086838978
 30
0.0
 10
487.5808500278
 20
158.8418884331
 30
0.0
 10
487.5795100458
 20
158.8753144993
 30
0.0
 10
487.5795100458
 20
158.9086838942
 30
0.0
  0
SPLINE
  5
98F
100
AcDbEntity
  8
11_COMPONENT
100
AcDbSpline
 62
9
  6
CONTINUOUS
 70
0
 71
3
 72
11
 73
7
 74
0
 42
0.0000001
 43
0.0000001
 44
0.0000000001
 40
0.0
 40
0.0
 40
0.0
 40
0.0
 40
0.0977523023
 40
0.3140418043
 40
0.6303231361
 40
1.0
 40
1.0
 40
1.0
 40
1.0
 10
483.887887859
 20
158.7086838942
 30
0.0
 10
483.881146487
 20
158.7086838942
 30
0.0
 10
483.8694258487
 20
158.7342068946
 30
0.0
 10
483.8617446252
 20
158.7723812664
 30
0.0
 10
483.8544885046
 20
158.8364629676
 30
0.0
 10
483.8531582234
 20
158.8831895664
 30
0.0
 10
483.8531582234
 20
158.9086838942
 30
0.0
  0
SPLINE
  5
990
100
AcDbEntity
  8
11_COMPONENT
100
AcDbSpline
 62
9
  6
CONTINUOUS
 70
0
 71
3
 72
11
 73
7
 74
0
 42
0.0000001
 43
0.0000001
 44
0.0000000001
 40
0.0
 40
0.0
 40
0.0
 40
0.0
 40
0.0977523018
 40
0.3140418047
 40
0.6303231366
 40
1.0
 40
1.0
 40
1.0
 40
1.0
 10
486.287887859
 20
158.7086838942
 30
0.0
 10
486.2811464871
 20
158.7086838942
 30
0.0
 10
486.2694258486
 20
158.7342068946
 30
0.0
 10
486.2617446253
 20
158.7723812664
 30
0.0
 10
486.2544885045
 20
158.8364629677
 30
0.0
 10
486.2531582234
 20
158.8831895664
 30
0.0
 10
486.2531582234
 20
158.9086838942
 30
0.0
  0
SPLINE
  5
991
100
AcDbEntity
  8
11_COMPONENT
100
AcDbSpline
 62
9
  6
CONTINUOUS
 70
0
 71
3
 72
11
 73
7
 74
0
 42
0.0000001
 43
0.0000001
 44
0.0000000001
 40
0.0
 40
0.0
 40
0.0
 40
0.0
 40
0.0977523023
 40
0.3140418043
 40
0.6303231361
 40
1.0
 40
1.0
 40
1.0
 40
1.0
 10
485.1142396813
 20
158.7086838942
 30
0.0
 10
485.1074983094
 20
158.7086838942
 30
0.0
 10
485.095777671
 20
158.7342068946
 30
0.0
 10
485.0880964475
 20
158.7723812664
 30
0.0
 10
485.0808403269
 20
158.8364629676
 30
0.0
 10
485.0795100458
 20
158.8831895664
 30
0.0
 10
485.0795100458
 20
158.9086838942
 30
0.0
  0
SPLINE
  5
992
100
AcDbEntity
  8
11_COMPONENT
100
AcDbSpline
 62
9
  6
CONTINUOUS
 70
0
 71
3
 72
9
 73
5
 74
0
 42
0.0000001
 43
0.0000001
 44
0.0000000001
 40
0.0
 40
0.0
 40
0.0
 40
0.0
 40
0.3005704748
 40
1.0
 40
1.0
 40
1.0
 40
1.0
 10
484.7142396813
 20
158.7086838942
 30
0.0
 10
484.7035964537
 20
158.7086838942
 30
0.0
 10
484.6912573321
 20
158.756220665
 30
0.0
 10
484.6866217833
 20
158.7840393944
 30
0.0
 10
484.6841629343
 20
158.8086838978
 30
0.0
  0
SPLINE
  5
993
100
AcDbEntity
  8
11_COMPONENT
100
AcDbSpline
 62
9
  6
CONTINUOUS
 70
0
 71
3
 72
8
 73
4
 74
0
 42
0.0000001
 43
0.0000001
 44
0.0000000001
 40
0.0
 40
0.0
 40
0.0
 40
0.0
 40
1.0
 40
1.0
 40
1.0
 40
1.0
 10
484.6841629343
 20
158.8086838978
 30
0.0
 10
484.6808500278
 20
158.8418884331
 30
0.0
 10
484.6795100458
 20
158.8753144993
 30
0.0
 10
484.6795100458
 20
158.9086838942
 30
0.0
  0
SPLINE
  5
994
100
AcDbEntity
  8
11_COMPONENT
100
AcDbSpline
 62
9
  6
CONTINUOUS
 70
0
 71
3
 72
11
 73
7
 74
0
 42
0.0000001
 43
0.0000001
 44
0.0000000001
 40
0.0
 40
0.0
 40
0.0
 40
0.0
 40
0.0977523023
 40
0.3140418043
 40
0.6303231361
 40
1.0
 40
1.0
 40
1.0
 40
1.0
 10
486.787887859
 20
158.7086838942
 30
0.0
 10
486.781146487
 20
158.7086838942
 30
0.0
 10
486.7694258487
 20
158.7342068946
 30
0.0
 10
486.7617446252
 20
158.7723812664
 30
0.0
 10
486.7544885046
 20
158.8364629676
 30
0.0
 10
486.7531582234
 20
158.8831895664
 30
0.0
 10
486.7531582234
 20
158.9086838942
 30
0.0
  0
SPLINE
  5
995
100
AcDbEntity
  8
11_COMPONENT
100
AcDbSpline
 62
9
  6
CONTINUOUS
 70
0
 71
3
 72
11
 73
7
 74
0
 42
0.0000001
 43
0.0000001
 44
0.0000000001
 40
0.0
 40
0.0
 40
0.0
 40
0.0
 40
0.0977523018
 40
0.3140418047
 40
0.6303231366
 40
1.0
 40
1.0
 40
1.0
 40
1.0
 10
483.387887859
 20
158.7086838942
 30
0.0
 10
483.3811464871
 20
158.7086838942
 30
0.0
 10
483.3694258486
 20
158.7342068946
 30
0.0
 10
483.3617446253
 20
158.7723812664
 30
0.0
 10
483.3544885045
 20
158.8364629677
 30
0.0
 10
483.3531582234
 20
158.8831895664
 30
0.0
 10
483.3531582234
 20
158.9086838942
 30
0.0
  0
SPLINE
  5
996
100
AcDbEntity
  8
11_COMPONENT
100
AcDbSpline
 62
9
  6
CONTINUOUS
 70
0
 71
3
 72
11
 73
7
 74
0
 42
0.0000001
 43
0.0000001
 44
0.0000000001
 40
0.0
 40
0.0
 40
0.0
 40
0.0
 40
0.0977523023
 40
0.3140418043
 40
0.6303231361
 40
1.0
 40
1.0
 40
1.0
 40
1.0
 10
497.397887859
 20
158.7086838942
 30
0.0
 10
497.391146487
 20
158.7086838942
 30
0.0
 10
497.3794258487
 20
158.7342068946
 30
0.0
 10
497.3717446252
 20
158.7723812664
 30
0.0
 10
497.3644885046
 20
158.8364629676
 30
0.0
 10
497.3631582234
 20
158.8831895664
 30
0.0
 10
497.3631582234
 20
158.9086838942
 30
0.0
  0
SPLINE
  5
997
100
AcDbEntity
  8
11_COMPONENT
100
AcDbSpline
 62
9
  6
CONTINUOUS
 70
0
 71
3
 72
11
 73
7
 74
0
 42
0.0000001
 43
0.0000001
 44
0.0000000001
 40
0.0
 40
0.0
 40
0.0
 40
0.0
 40
0.0977522972
 40
0.3140418081
 40
0.6303231414
 40
1.0
 40
1.0
 40
1.0
 40
1.0
 10
472.6189913865
 20
158.7086838942
 30
0.0
 10
472.6122500149
 20
158.7086838942
 30
0.0
 10
472.6005293755
 20
158.734206894
 30
0.0
 10
472.5928481533
 20
158.7723812668
 30
0.0
 10
472.5855920317
 20
158.8364629681
 30
0.0
 10
472.5842617519
 20
158.8831895667
 30
0.0
 10
472.5842617519
 20
158.9086838942
 30
0.0
  0
SPLINE
  5
998
100
AcDbEntity
  8
11_COMPONENT
100
AcDbSpline
 62
7
  6
CONTINUOUS
 70
0
 71
3
 72
10
 73
6
 74
0
 42
0.0000001
 43
0.0000001
 44
0.0000000001
 40
0.0
 40
0.0
 40
0.0
 40
0.0
 40
0.6858171626
 40
0.894419735
 40
1.0
 40
1.0
 40
1.0
 40
1.0
 10
471.7663341346
 20
158.9086838942
 30
0.0
 10
471.7663341346
 20
158.8603134675
 30
0.0
 10
471.7606828585
 20
158.79498546
 30
0.0
 10
471.7434287761
 20
158.729857931
 30
0.0
 10
471.726926161
 20
158.7086838942
 30
0.0
 10
471.7194796246
 20
158.7086838942
 30
0.0
  0
SPLINE
  5
999
100
AcDbEntity
  8
11_COMPONENT
100
AcDbSpline
 62
7
  6
CONTINUOUS
 70
0
 71
3
 72
10
 73
6
 74
0
 42
0.0000001
 43
0.0000001
 44
0.0000000001
 40
0.0
 40
0.0
 40
0.0
 40
0.0
 40
0.6858171626
 40
0.894419735
 40
1.0
 40
1.0
 40
1.0
 40
1.0
 10
471.7663341346
 20
286.5086838942
 30
0.0
 10
471.7663341346
 20
286.557054321
 30
0.0
 10
471.7606828585
 20
286.6223823284
 30
0.0
 10
471.7434287761
 20
286.6875098574
 30
0.0
 10
471.726926161
 20
286.7086838942
 30
0.0
 10
471.7194796246
 20
286.7086838942
 30
0.0
  0
ENDSEC
  0
SECTION
  2
OBJECTS
  0
DICTIONARY
  5
99A
100
AcDbDictionary
  3
ACAD_GROUP
350
99B
  3
ACAD_MLINESTYLE
350
99C
  0
DICTIONARY
  5
99B
102
{ACAD_REACTORS
330
99A
102
}
100
AcDbDictionary
  0
DICTIONARY
  5
99C
102
{ACAD_REACTORS
330
99A
102
}
100
AcDbDictionary
  3
STANDARD
350
99D
  0
MLINESTYLE
  5
99D
102
{ACAD_REACTORS
330
99C
102
}
100
AcDbMlineStyle
  2
STANDARD
 70
0
  3

 62
256
 51
90.0
 52
90.0
 71
2
 49
0.5
 62
256
  6
BYLAYER
 49
-0.5
 62
256
  6
BYLAYER
  0
ENDSEC
  0
EOF
