  0
SECTION
  2
HEADER
  9
$ACADVER
  1
AC1014
  9
$DWGCODEPAGE
  3
ANSI_949
  9
$EXTMAX
 10
840.0
 20
594.0
 30
0.0
  9
$EXTMIN
 10
0.0
 20
0.0
 30
0.0
  9
$LIMMIN
 10
0.0
 20
0.0
  9
$LIMMAX
 10
840.0
 20
594.0
  9
$VIEWCTR
 10
420.0
 20
297.0
  9
$VIEWSIZE
 40
594.0
  9
$CLAYER
  8
0
  9
$LTSCALE
 40
46.2
  9
$CELTYPE
  6
BYLAYER
  9
$DIMSCALE
 40
1.0
  9
$DIMASZ
 40
4.0
  9
$DIMEXO
 40
5.25
  9
$DIMDLI
 40
31.92
  9
$DIMEXE
 40
15.12
  9
$DIMCEN
 40
7.56
  9
$DIMLFAC
 40
1.0
  9
$DIMBLK
  1
_ARROW_FILLED
  9
$DIMTXT
 40
6.0
  9
$DIMTOL
 70
1
  9
$DIMLIM
 70
0
  9
$DIMTFAC
 40
1.0
  9
$DIMTP
 40
0.016
  9
$DIMTM
 40
0.016
  9
$PDMODE
 70
3
  9
$PDSIZE
 40
1.0
  9
$HANDSEED
  5
733
  9
$TILEMODE
 70
1
  9
$MEASUREMENT
 70
1
  0
ENDSEC
  0
SECTION
  2
CLASSES
  0
ENDSEC
  0
SECTION
  2
TABLES
  0
TABLE
  2
VPORT
  5
8
100
AcDbSymbolTable
 70
2
  0
VPORT
  5
1F4
100
AcDbSymbolTableRecord
100
AcDbViewportTableRecord
  2
*ACTIVE
 70
0
 10
0.0
 20
0.0
 11
1.0
 21
1.0
 12
420.0
 22
297.0
 13
0.0
 23
0.0
 14
1.0
 24
1.0
 15
0.0
 25
0.0
 16
0.0
 26
0.0
 36
1.0
 17
0.0
 27
0.0
 37
0.0
 40
594.0
 41
1.4141414141
 42
50.0
 43
0.0
 44
0.0
 50
0.0
 51
0.0
 71
0
 72
100
 73
1
 74
1
 75
0
 76
0
 77
0
 78
0
  0
ENDTAB
  0
TABLE
  2
LTYPE
  5
5
100
AcDbSymbolTable
 70
6
  0
LTYPE
  5
14
100
AcDbSymbolTableRecord
100
AcDbLinetypeTableRecord
  2
BYBLOCK
 70
0
  3

 72
65
 73
0
 40
0.0
  0
LTYPE
  5
15
100
AcDbSymbolTableRecord
100
AcDbLinetypeTableRecord
  2
BYLAYER
 70
0
  3

 72
65
 73
0
 40
0.0
  0
LTYPE
  5
16
100
AcDbSymbolTableRecord
100
AcDbLinetypeTableRecord
  2
CONTINUOUS
 70
64
  3
Solid line
 72
65
 73
0
 40
0.0
  0
LTYPE
  5
1F5
100
AcDbSymbolTableRecord
100
AcDbLinetypeTableRecord
  2
CENTER
 70
64
  3
____ _ ____ _ ____ _ ____ _ ____ _ ____ _ ____
 72
65
 73
4
 40
0.6
 49
0.375
 74
0
 49
-0.075
 74
0
 49
0.075
 74
0
 49
-0.075
 74
0
  0
LTYPE
  5
1F6
100
AcDbSymbolTableRecord
100
AcDbLinetypeTableRecord
  2
HIDDEN
 70
64
  3
- - - - - - - - - - - - - - - - - - - -
 72
65
 73
2
 40
0.2
 49
0.1
 74
0
 49
-0.1
 74
0
  0
LTYPE
  5
1F7
100
AcDbSymbolTableRecord
100
AcDbLinetypeTableRecord
  2
PHANTOM
 70
64
  3
_____ _ _ _____ _ _ _____ _ _ _____
 72
65
 73
6
 40
0.8
 49
0.45
 74
0
 49
-0.05
 74
0
 49
0.1
 74
0
 49
-0.05
 74
0
 49
0.1
 74
0
 49
-0.05
 74
0
  0
LTYPE
  5
1F8
100
AcDbSymbolTableRecord
100
AcDbLinetypeTableRecord
  2
DOT
 70
64
  3
. . . . . . . . . . . . . . . . . . . .
 72
65
 73
2
 40
0.2
 49
0.1
 74
0
 49
-0.1
 74
0
  0
LTYPE
  5
1F9
100
AcDbSymbolTableRecord
100
AcDbLinetypeTableRecord
  2
DASHED
 70
64
  3
- - - - - - - - - - - - - - - - - - - -
 72
65
 73
2
 40
0.2
 49
0.1
 74
0
 49
-0.1
 74
0
  0
ENDTAB
  0
TABLE
  2
LAYER
  5
2
100
AcDbSymbolTable
 70
36
  0
LAYER
  5
10
100
AcDbSymbolTableRecord
100
AcDbLayerTableRecord
  2
0
 70
0
 62
7
  6
CONTINUOUS
  0
LAYER
  5
1FA
100
AcDbSymbolTableRecord
100
AcDbLayerTableRecord
  2
DEFAULT_1
 70
0
 62
7
  6
CENTER
  0
LAYER
  5
1FB
100
AcDbSymbolTableRecord
100
AcDbLayerTableRecord
  2
DEFAULT_2
 70
0
 62
7
  6
HIDDEN
  0
LAYER
  5
1FC
100
AcDbSymbolTableRecord
100
AcDbLayerTableRecord
  2
DEFAULT_3
 70
0
 62
7
  6
PHANTOM
  0
LAYER
  5
1FD
100
AcDbSymbolTableRecord
100
AcDbLayerTableRecord
  2
00_PLANE_DEF
 70
0
 62
7
  6
CONTINUOUS
  0
LAYER
  5
1FE
100
AcDbSymbolTableRecord
100
AcDbLayerTableRecord
  2
00_PLANE_DEFAULT
 70
0
 62
7
  6
CONTINUOUS
  0
LAYER
  5
1FF
100
AcDbSymbolTableRecord
100
AcDbLayerTableRecord
  2
01_PLANE_CREATE
 70
0
 62
7
  6
CONTINUOUS
  0
LAYER
  5
200
100
AcDbSymbolTableRecord
100
AcDbLayerTableRecord
  2
01___PRT_ALL_DTM_PLN
 70
0
 62
7
  6
CONTINUOUS
  0
LAYER
  5
201
100
AcDbSymbolTableRecord
100
AcDbLayerTableRecord
  2
01___PRT_DEF_DTM_PLN
 70
0
 62
7
  6
CONTINUOUS
  0
LAYER
  5
202
100
AcDbSymbolTableRecord
100
AcDbLayerTableRecord
  2
02_AXIS
 70
0
 62
7
  6
CONTINUOUS
  0
LAYER
  5
203
100
AcDbSymbolTableRecord
100
AcDbLayerTableRecord
  2
02___PRT_ALL_AXES
 70
0
 62
7
  6
CONTINUOUS
  0
LAYER
  5
204
100
AcDbSymbolTableRecord
100
AcDbLayerTableRecord
  2
03_CURVE
 70
0
 62
7
  6
CONTINUOUS
  0
LAYER
  5
205
100
AcDbSymbolTableRecord
100
AcDbLayerTableRecord
  2
03___PRT_ALL_CURVES
 70
0
 62
7
  6
CONTINUOUS
  0
LAYER
  5
206
100
AcDbSymbolTableRecord
100
AcDbLayerTableRecord
  2
04_POINT
 70
0
 62
7
  6
CONTINUOUS
  0
LAYER
  5
207
100
AcDbSymbolTableRecord
100
AcDbLayerTableRecord
  2
04___PRT_ALL_DTM_PNT
 70
0
 62
7
  6
CONTINUOUS
  0
LAYER
  5
208
100
AcDbSymbolTableRecord
100
AcDbLayerTableRecord
  2
05_CSYS
 70
0
 62
7
  6
CONTINUOUS
  0
LAYER
  5
209
100
AcDbSymbolTableRecord
100
AcDbLayerTableRecord
  2
05___PRT_ALL_DTM_CSYS
 70
0
 62
7
  6
CONTINUOUS
  0
LAYER
  5
20A
100
AcDbSymbolTableRecord
100
AcDbLayerTableRecord
  2
05___PRT_DEF_DTM_CSYS
 70
0
 62
7
  6
CONTINUOUS
  0
LAYER
  5
20B
100
AcDbSymbolTableRecord
100
AcDbLayerTableRecord
  2
06_QUILT
 70
0
 62
7
  6
CONTINUOUS
  0
LAYER
  5
20C
100
AcDbSymbolTableRecord
100
AcDbLayerTableRecord
  2
06___PRT_ALL_SURFS
 70
0
 62
7
  6
CONTINUOUS
  0
LAYER
  5
20D
100
AcDbSymbolTableRecord
100
AcDbLayerTableRecord
  2
07_SHARED_FEAT
 70
0
 62
7
  6
CONTINUOUS
  0
LAYER
  5
20E
100
AcDbSymbolTableRecord
100
AcDbLayerTableRecord
  2
08_COSMETIC
 70
0
 62
7
  6
CONTINUOUS
  0
LAYER
  5
20F
100
AcDbSymbolTableRecord
100
AcDbLayerTableRecord
  2
09_ANNOTATION
 70
0
 62
7
  6
CONTINUOUS
  0
LAYER
  5
210
100
AcDbSymbolTableRecord
100
AcDbLayerTableRecord
  2
11_COMPONENT
 70
0
 62
7
  6
CONTINUOUS
  0
LAYER
  5
211
100
AcDbSymbolTableRecord
100
AcDbLayerTableRecord
  2
12_SKELETON
 70
0
 62
7
  6
CONTINUOUS
  0
LAYER
  5
212
100
AcDbSymbolTableRecord
100
AcDbLayerTableRecord
  2
DARK_GREEN
 70
0
 62
7
  6
CONTINUOUS
  0
LAYER
  5
213
100
AcDbSymbolTableRecord
100
AcDbLayerTableRecord
  2
DEF_DRIVEN_DIM
 70
0
 62
7
  6
CONTINUOUS
  0
LAYER
  5
214
100
AcDbSymbolTableRecord
100
AcDbLayerTableRecord
  2
DEF_FEATURE
 70
0
 62
7
  6
CONTINUOUS
  0
LAYER
  5
215
100
AcDbSymbolTableRecord
100
AcDbLayerTableRecord
  2
DEF_GEOM_FEAT
 70
0
 62
7
  6
CONTINUOUS
  0
LAYER
  5
216
100
AcDbSymbolTableRecord
100
AcDbLayerTableRecord
  2
DEF_LAYER_AXIS
 70
0
 62
7
  6
CONTINUOUS
  0
LAYER
  5
217
100
AcDbSymbolTableRecord
100
AcDbLayerTableRecord
  2
DEF_LAYER_CUT_FEAT
 70
0
 62
7
  6
CONTINUOUS
  0
LAYER
  5
218
100
AcDbSymbolTableRecord
100
AcDbLayerTableRecord
  2
DEF_LAYER_DIM
 70
0
 62
7
  6
CONTINUOUS
  0
LAYER
  5
219
100
AcDbSymbolTableRecord
100
AcDbLayerTableRecord
  2
DEF_LAYER_ROUND_FEAT
 70
0
 62
7
  6
CONTINUOUS
  0
LAYER
  5
21A
100
AcDbSymbolTableRecord
100
AcDbLayerTableRecord
  2
DEF_PARAMETER_DIM
 70
0
 62
7
  6
CONTINUOUS
  0
LAYER
  5
21B
100
AcDbSymbolTableRecord
100
AcDbLayerTableRecord
  2
DEF_PROTRUSION_FEAT
 70
0
 62
7
  6
CONTINUOUS
  0
LAYER
  5
21C
100
AcDbSymbolTableRecord
100
AcDbLayerTableRecord
  2
GOLDEN_ORANGE
 70
0
 62
7
  6
CONTINUOUS
  0
LAYER
  5
21D
100
AcDbSymbolTableRecord
100
AcDbLayerTableRecord
  2
INTF_2
 70
0
 62
7
  6
CONTINUOUS
  0
LAYER
  5
21E
100
AcDbSymbolTableRecord
100
AcDbLayerTableRecord
  2
INTF_3
 70
0
 62
7
  6
CONTINUOUS
  0
LAYER
  5
21F
100
AcDbSymbolTableRecord
100
AcDbLayerTableRecord
  2
INTF_4
 70
0
 62
7
  6
CONTINUOUS
  0
LAYER
  5
220
100
AcDbSymbolTableRecord
100
AcDbLayerTableRecord
  2
INTF_CYAN
 70
0
 62
7
  6
CONTINUOUS
  0
LAYER
  5
221
100
AcDbSymbolTableRecord
100
AcDbLayerTableRecord
  2
INTF_GREEN
 70
0
 62
7
  6
CONTINUOUS
  0
LAYER
  5
222
100
AcDbSymbolTableRecord
100
AcDbLayerTableRecord
  2
INTF_MAGENTA
 70
0
 62
7
  6
CONTINUOUS
  0
LAYER
  5
223
100
AcDbSymbolTableRecord
100
AcDbLayerTableRecord
  2
INTF_RED
 70
0
 62
7
  6
CONTINUOUS
  0
LAYER
  5
224
100
AcDbSymbolTableRecord
100
AcDbLayerTableRecord
  2
INTF_YELLOW
 70
0
 62
7
  6
CONTINUOUS
  0
LAYER
  5
225
100
AcDbSymbolTableRecord
100
AcDbLayerTableRecord
  2
LAY0001
 70
0
 62
7
  6
CONTINUOUS
  0
LAYER
  5
226
100
AcDbSymbolTableRecord
100
AcDbLayerTableRecord
  2
LAY0002
 70
0
 62
7
  6
CONTINUOUS
  0
LAYER
  5
227
100
AcDbSymbolTableRecord
100
AcDbLayerTableRecord
  2
ORANGE
 70
0
 62
7
  6
CONTINUOUS
  0
LAYER
  5
228
100
AcDbSymbolTableRecord
100
AcDbLayerTableRecord
  2
STRONG_STONE
 70
0
 62
7
  6
CONTINUOUS
  0
LAYER
  5
229
100
AcDbSymbolTableRecord
100
AcDbLayerTableRecord
  2
XSEC_DATUMS
 70
0
 62
7
  6
CONTINUOUS
  0
ENDTAB
  0
TABLE
  2
STYLE
  5
3
100
AcDbSymbolTable
 70
1
  0
STYLE
  5
11
100
AcDbSymbolTableRecord
100
AcDbTextStyleTableRecord
  2
STANDARD
 70
0
 40
0.0
 41
0.8
 50
0.0
 71
0
 42
0.2
  3
SIMPLEX.SHX
  4

  0
STYLE
  5
22A
100
AcDbSymbolTableRecord
100
AcDbTextStyleTableRecord
  2
TEXTSTYLE_1
 70
0
 40
0.0
 41
0.8
 50
0.0
 71
0
 42
0.2
  3
gdt
  4

  0
STYLE
  5
22B
100
AcDbSymbolTableRecord
100
AcDbTextStyleTableRecord
  2
TEXTSTYLE_2
 70
0
 40
0.0
 41
0.8
 50
0.0
 71
0
 42
0.2
  3
BIGFONT.SHX
  4

  0
STYLE
  5
22C
100
AcDbSymbolTableRecord
100
AcDbTextStyleTableRecord
  2
TEXTSTYLE_3
 70
0
 40
0.0
 41
1.0
 50
0.0
 71
0
 42
0.2
  3
schlbkbi.ttf
  4

  0
ENDTAB
  0
TABLE
  2
VIEW
  5
6
100
AcDbSymbolTable
 70
0
  0
ENDTAB
  0
TABLE
  2
UCS
  5
7
100
AcDbSymbolTable
 70
0
  0
ENDTAB
  0
TABLE
  2
APPID
  5
9
100
AcDbSymbolTable
 70
1
  0
APPID
  5
22D
100
AcDbSymbolTableRecord
100
AcDbRegAppTableRecord
  2
ACAD
 70
0
  0
ENDTAB
  0
TABLE
  2
BLOCK_RECORD
  5
1
100
AcDbSymbolTable
 70
0
  0
BLOCK_RECORD
  5
1F
100
AcDbSymbolTableRecord
100
AcDbBlockTableRecord
  2
*MODEL_SPACE
  0
BLOCK_RECORD
  5
1B
100
AcDbSymbolTableRecord
100
AcDbBlockTableRecord
  2
*PAPER_SPACE
  0
BLOCK_RECORD
  5
22E
100
AcDbSymbolTableRecord
100
AcDbBlockTableRecord
  2
_ARROW_FILLED
  0
BLOCK_RECORD
  5
22F
100
AcDbSymbolTableRecord
100
AcDbBlockTableRecord
  2
*D0
  0
BLOCK_RECORD
  5
230
100
AcDbSymbolTableRecord
100
AcDbBlockTableRecord
  2
*D1
  0
BLOCK_RECORD
  5
231
100
AcDbSymbolTableRecord
100
AcDbBlockTableRecord
  2
*D2
  0
BLOCK_RECORD
  5
232
100
AcDbSymbolTableRecord
100
AcDbBlockTableRecord
  2
*D3
  0
ENDTAB
  0
TABLE
  2
DIMSTYLE
  5
A
100
AcDbSymbolTable
 70
1
  0
DIMSTYLE
105
233
100
AcDbSymbolTableRecord
100
AcDbDimStyleTableRecord
  2
STANDARD
 70
0
  3

  4

  5
_ARROW_FILLED
  6
_ARROW_FILLED
  7
_ARROW_FILLED
 40
1.0
 41
4.0
 42
0.0625
 43
0.38
 44
0.18
 45
0.0
 46
0.0
 47
0.016
 48
0.016
140
6.0
141
0.09
142
0.0
143
25.4
144
1.0
145
0.0
146
1.0
147
0.09
 71
1.0
 72
0.0
 73
0
 74
0
 75
0
 76
0
 77
1
 78
8
170
0
171
2
172
0
173
0
174
0
175
0
176
0
177
0
178
0
270
2
271
2
272
2
273
2
274
2
275
0
280
0
281
0
282
0
283
1
284
8
285
0
286
0
287
3
288
0
340
11
  0
DIMSTYLE
105
234
100
AcDbSymbolTableRecord
100
AcDbDimStyleTableRecord
  2
DIMSTYLE_1
 70
0
  3

  4

  5
_ARROW_FILLED
  6
_ARROW_FILLED
  7
_ARROW_FILLED
 40
1.0
 41
4.0
 42
0.0625
 43
0.38
 44
0.18
 45
0.0
 46
0.0
 47
0.1
 48
0.1
140
6.0
141
0.09
142
0.0
143
25.4
144
1.0
145
0.0
146
1.0
147
0.09
 71
0.0
 72
0.0
 73
0
 74
0
 75
0
 76
0
 77
1
 78
8
170
0
171
2
172
0
173
0
174
0
175
0
176
0
177
0
178
0
270
2
271
1
272
1
273
2
274
2
275
0
280
0
281
0
282
0
283
1
284
8
285
0
286
0
287
3
288
0
340
11
  0
DIMSTYLE
105
235
100
AcDbSymbolTableRecord
100
AcDbDimStyleTableRecord
  2
DIMSTYLE_2
 70
0
  3

  4

  5
_ARROW_FILLED
  6
_ARROW_FILLED
  7
_ARROW_FILLED
 40
1.0
 41
4.0
 42
0.0625
 43
0.38
 44
0.18
 45
0.0
 46
0.0
 47
0.000001
 48
0.000001
140
6.0
141
0.09
142
0.0
143
25.4
144
1.0
145
0.0
146
1.0
147
0.09
 71
0.0
 72
0.0
 73
1
 74
1
 75
0
 76
0
 77
1
 78
8
170
0
171
2
172
0
173
0
174
0
175
0
176
0
177
0
178
0
270
2
271
6
272
6
273
2
274
2
275
0
280
0
281
0
282
0
283
1
284
8
285
0
286
0
287
3
288
0
340
11
  0
ENDTAB
  0
ENDSEC
  0
SECTION
  2
BLOCKS
  0
BLOCK
  5
20
100
AcDbEntity
  8
0
100
AcDbBlockBegin
  2
*MODEL_SPACE
 70
0
 10
0.0
 20
0.0
 30
0.0
  3
*MODEL_SPACE
  1

  0
ENDBLK
  5
21
100
AcDbEntity
  8
0
100
AcDbBlockEnd
  0
BLOCK
  5
1C
100
AcDbEntity
  8
0
100
AcDbBlockBegin
  2
*PAPER_SPACE
 70
0
 10
0.0
 20
0.0
 30
0.0
  3
*PAPER_SPACE
  1

  0
ENDBLK
  5
1D
100
AcDbEntity
  8
0
100
AcDbBlockEnd
  0
BLOCK
  5
236
100
AcDbEntity
  8
0
100
AcDbBlockBegin
  2
_ARROW_FILLED
 70
64
 10
0.0
 20
0.0
  3
_ARROW_FILLED
  1

  0
SOLID
  5
237
100
AcDbEntity
  8
0
  6
BYBLOCK
 62
0
100
AcDbTrace
 10
0.0
 20
0.0
 11
-1.0
 21
0.175
 12
-1.0
 22
-0.175
 13
-1.0
 23
-0.175
  0
ENDBLK
  5
238
100
AcDbEntity
  8
0
  6
BYBLOCK
 62
0
100
AcDbBlockEnd
  0
BLOCK
  5
239
100
AcDbEntity
  8
0
100
AcDbBlockBegin
 62
7
  6
BYLAYER
  2
*D0
 70
65
 10
0.0
 20
0.0
  3
*D0
  1

  0
MTEXT
  5
23A
100
AcDbEntity
  8
0
100
AcDbMText
 62
7
  6
BYLAYER
  7
STANDARD
 71
2
 72
1
 10
460.4538103005
 20
430.849577196
 30
0.0
 11
1.0
 21
0.0
 31
0.0
  1
52
 40
6.0
 41
9.6
  0
LINE
  5
23B
100
AcDbEntity
  8
0
100
AcDbLine
 62
7
  6
BYLAYER
 10
434.472907966
 20
316.5259938334
 11
434.472907966
 21
425.349577196
  0
LINE
  5
23C
100
AcDbEntity
  8
0
100
AcDbLine
 62
7
  6
BYLAYER
 10
486.4347126351
 20
403.5672410285
 11
486.4347126351
 21
425.349577196
  0
LINE
  5
23D
100
AcDbEntity
  8
0
100
AcDbLine
 62
7
  6
BYLAYER
 10
434.472907966
 20
423.349577196
 11
460.4538103005
 21
423.349577196
  0
LINE
  5
23E
100
AcDbEntity
  8
0
100
AcDbLine
 62
7
  6
BYLAYER
 10
486.4347126351
 20
423.349577196
 11
460.4538103005
 21
423.349577196
  0
INSERT
  5
23F
100
AcDbEntity
  8
0
100
AcDbBlockReference
 62
7
  6
BYLAYER
  2
_ARROW_FILLED
 10
434.472907966
 20
423.349577196
 41
4.0
 42
4.0
 43
4.0
 50
180.0
  0
INSERT
  5
240
100
AcDbEntity
  8
0
100
AcDbBlockReference
 62
7
  6
BYLAYER
  2
_ARROW_FILLED
 10
486.4347126351
 20
423.349577196
 41
4.0
 42
4.0
 43
4.0
  0
ENDBLK
  5
241
100
AcDbEntity
  8
0
  6
BYBLOCK
 62
0
100
AcDbBlockEnd
  0
BLOCK
  5
242
100
AcDbEntity
  8
0
100
AcDbBlockBegin
 62
7
  6
BYLAYER
  2
*D1
 70
65
 10
0.0
 20
0.0
  3
*D1
  1

  0
MTEXT
  5
243
100
AcDbEntity
  8
0
100
AcDbMText
 62
7
  6
BYLAYER
  7
STANDARD
 71
2
 72
1
 10
243.8383161906
 20
261.074660557
 30
0.0
 11
1.0
 21
0.0
 31
0.0
  1
125.2
 40
6.0
 41
24.0
  0
LINE
  5
244
100
AcDbEntity
  8
0
100
AcDbLine
 62
7
  6
BYLAYER
 10
306.429611058
 20
320.3507349552
 11
306.429611058
 21
251.574660557
  0
LINE
  5
245
100
AcDbEntity
  8
0
100
AcDbLine
 62
7
  6
BYLAYER
 10
181.2470213233
 20
320.3508461892
 11
181.2470213233
 21
251.574660557
  0
LINE
  5
246
100
AcDbEntity
  8
0
100
AcDbLine
 62
7
  6
BYLAYER
 10
306.429611058
 20
253.574660557
 11
243.8383161906
 21
253.574660557
  0
LINE
  5
247
100
AcDbEntity
  8
0
100
AcDbLine
 62
7
  6
BYLAYER
 10
181.2470213233
 20
253.574660557
 11
243.8383161906
 21
253.574660557
  0
INSERT
  5
248
100
AcDbEntity
  8
0
100
AcDbBlockReference
 62
7
  6
BYLAYER
  2
_ARROW_FILLED
 10
306.429611058
 20
253.574660557
 41
4.0
 42
4.0
 43
4.0
  0
INSERT
  5
249
100
AcDbEntity
  8
0
100
AcDbBlockReference
 62
7
  6
BYLAYER
  2
_ARROW_FILLED
 10
181.2470213233
 20
253.574660557
 41
4.0
 42
4.0
 43
4.0
 50
180.0
  0
ENDBLK
  5
24A
100
AcDbEntity
  8
0
  6
BYBLOCK
 62
0
100
AcDbBlockEnd
  0
BLOCK
  5
24B
100
AcDbEntity
  8
0
100
AcDbBlockBegin
 62
7
  6
BYLAYER
  2
*D2
 70
65
 10
0.0
 20
0.0
  3
*D2
  1

  0
MTEXT
  5
24C
100
AcDbEntity
  8
0
100
AcDbMText
 62
7
  6
BYLAYER
  7
STANDARD
 71
2
 72
1
 10
329.9973524247
 20
345.6885894456
 30
0.0
 11
0.0
 21
1.0
 31
0.0
  1
115.3
 40
6.0
 41
24.0
  0
LINE
  5
24D
100
AcDbEntity
  8
0
100
AcDbLine
 62
7
  6
BYLAYER
 10
245.8383178436
 20
403.349577196
 11
339.4973524247
 21
403.349577196
  0
LINE
  5
24E
100
AcDbEntity
  8
0
100
AcDbLine
 62
7
  6
BYLAYER
 10
245.8383178436
 20
288.0276016952
 11
339.4973524247
 21
288.0276016952
  0
LINE
  5
24F
100
AcDbEntity
  8
0
100
AcDbLine
 62
7
  6
BYLAYER
 10
337.4973524247
 20
403.349577196
 11
337.4973524247
 21
345.6885894456
  0
LINE
  5
250
100
AcDbEntity
  8
0
100
AcDbLine
 62
7
  6
BYLAYER
 10
337.4973524247
 20
288.0276016952
 11
337.4973524247
 21
345.6885894456
  0
INSERT
  5
251
100
AcDbEntity
  8
0
100
AcDbBlockReference
 62
7
  6
BYLAYER
  2
_ARROW_FILLED
 10
337.4973524247
 20
403.349577196
 41
4.0
 42
4.0
 43
4.0
 50
90.0
  0
INSERT
  5
252
100
AcDbEntity
  8
0
100
AcDbBlockReference
 62
7
  6
BYLAYER
  2
_ARROW_FILLED
 10
337.4973524247
 20
288.0276016952
 41
4.0
 42
4.0
 43
4.0
 50
270.0
  0
ENDBLK
  5
253
100
AcDbEntity
  8
0
  6
BYBLOCK
 62
0
100
AcDbBlockEnd
  0
BLOCK
  5
254
100
AcDbEntity
  8
0
100
AcDbBlockBegin
 62
7
  6
BYLAYER
  2
*D3
 70
65
 10
0.0
 20
0.0
  3
*D3
  1

  0
MTEXT
  5
255
100
AcDbEntity
  8
0
100
AcDbMText
 62
7
  6
BYLAYER
  7
TEXTSTYLE_1
 71
3
 72
1
 10
423.6067281127
 20
279.4768923623
 30
0.0
 11
1.0
 21
0.0
 31
0.0
  1
{\Fgdt;n}\FSIMPLEX.SHX;46
 40
6.0
 41
17.6
  0
LINE
  5
256
100
AcDbEntity
  8
0
100
AcDbLine
 62
7
  6
BYLAYER
 10
444.1921694924
 20
295.7477621382
 11
427.3804318427
 21
271.9768923623
  0
LINE
  5
257
100
AcDbEntity
  8
0
100
AcDbLine
 62
7
  6
BYLAYER
 10
427.3804318427
 20
271.9768923623
 11
427.3803478427
 21
271.9768923623
  0
LINE
  5
258
100
AcDbEntity
  8
0
100
AcDbLine
 62
7
  6
BYLAYER
 10
427.3803478427
 20
271.9768923623
 11
400.0067281127
 21
271.9768923623
  0
INSERT
  5
259
100
AcDbEntity
  8
0
100
AcDbBlockReference
 62
7
  6
BYLAYER
  2
_ARROW_FILLED
 10
444.1921694924
 20
295.7477621382
 41
4.0
 42
4.0
 43
4.0
 50
54.7304775327
  0
ENDBLK
  5
25A
100
AcDbEntity
  8
0
  6
BYBLOCK
 62
0
100
AcDbBlockEnd
  0
ENDSEC
  0
SECTION
  2
ENTITIES
  0
MTEXT
  5
25B
100
AcDbEntity
  8
0
100
AcDbMText
 62
7
  6
BYLAYER
  7
TEXTSTYLE_2
 71
2
 72
1
 10
778.2213296299
 20
43.5182317847
 30
0.0
 11
1.0
 21
0.0
 31
0.0
  1
A2
 40
5.0
 41
7.6666666667
  0
MTEXT
  5
25C
100
AcDbEntity
  8
0
100
AcDbMText
 62
7
  6
BYLAYER
  7
STANDARD
 71
2
 72
1
 10
595.9479967434
 20
44.037347477
 30
0.0
 11
1.0
 21
0.0
 31
0.0
  1
Security & Imaging Processing Imaging Division
 40
5.0
 41
184.0
  0
DIMENSION
  5
25D
100
AcDbEntity
  8
0
100
AcDbDimension
 62
7
  6
BYLAYER
  2
*D0
 10
486.4347126351
 20
423.349577196
 11
455.6538103005
 21
427.849577196
 70
160
  3
DIMSTYLE_1
100
AcDbAlignedDimension
 13
434.472907966
 23
316.5259938334
 14
486.4347126351
 24
403.5672410285
100
AcDbRotatedDimension
  0
DIMENSION
  5
25E
100
AcDbEntity
  8
0
100
AcDbDimension
 62
7
  6
BYLAYER
  2
*D1
 10
181.2470213233
 20
253.574660557
 11
231.8383161906
 21
258.074660557
 70
160
  3
DIMSTYLE_1
100
AcDbAlignedDimension
 13
306.429611058
 23
320.3507349552
 14
181.2470213233
 24
320.3508461892
 50
180.0
100
AcDbRotatedDimension
  0
DIMENSION
  5
25F
100
AcDbEntity
  8
0
100
AcDbDimension
 62
7
  6
BYLAYER
  2
*D2
 10
337.4973524247
 20
288.0276016952
 11
338.3742358183
 21
334.9606294824
 70
160
  3
DIMSTYLE_1
100
AcDbAlignedDimension
 13
245.8383178436
 23
403.349577196
 14
245.8383178436
 24
288.0276016952
 50
270.0
100
AcDbRotatedDimension
  0
DIMENSION
  5
260
100
AcDbEntity
  8
0
100
AcDbDimension
 62
7
  6
BYLAYER
  2
*D3
 10
444.1921694924
 20
295.7477621382
 11
406.0067281127
 21
276.4768923623
 70
163
  1
<>
  3
DIMSTYLE_2
100
AcDbDiametricDimension
 15
470.7536464395
 25
333.3042255285
  0
LINE
  5
261
100
AcDbEntity
  8
0
100
AcDbLine
 62
7
  6
BYLAYER
 10
-564.3223215251
 20
-977.8148783651
 11
-498.3223215251
 21
-977.8148783651
  0
LINE
  5
262
100
AcDbEntity
  8
0
100
AcDbLine
 62
7
  6
BYLAYER
 10
-564.3223215251
 20
-977.8148783651
 11
-564.3223215251
 21
-989.8148783651
  0
LINE
  5
263
100
AcDbEntity
  8
0
100
AcDbLine
 62
7
  6
BYLAYER
 10
-564.3223215251
 20
-989.8148783651
 11
-498.3223215251
 21
-989.8148783651
  0
LINE
  5
264
100
AcDbEntity
  8
0
100
AcDbLine
 62
7
  6
BYLAYER
 10
-498.3223215251
 20
-977.8148783651
 11
-498.3223215251
 21
-989.8148783651
  0
LINE
  5
265
100
AcDbEntity
  8
0
100
AcDbLine
 62
7
  6
BYLAYER
 10
-554.5701970166
 20
-1020.1408594546
 11
-468.5701970166
 21
-1020.1408594546
  0
LINE
  5
266
100
AcDbEntity
  8
0
100
AcDbLine
 62
7
  6
BYLAYER
 10
-554.5701970166
 20
-1020.1408594546
 11
-554.5701970166
 21
-1032.1408594546
  0
LINE
  5
267
100
AcDbEntity
  8
0
100
AcDbLine
 62
7
  6
BYLAYER
 10
-554.5701970166
 20
-1032.1408594546
 11
-468.5701970166
 21
-1032.1408594546
  0
LINE
  5
268
100
AcDbEntity
  8
0
100
AcDbLine
 62
7
  6
BYLAYER
 10
-468.5701970166
 20
-1020.1408594546
 11
-468.5701970166
 21
-1032.1408594546
  0
LINE
  5
269
100
AcDbEntity
  8
0
100
AcDbLine
 62
7
  6
BYLAYER
 10
-520.5701970166
 20
-1006.0321990915
 11
-502.5701970166
 21
-1006.0321990915
  0
LINE
  5
26A
100
AcDbEntity
  8
0
100
AcDbLine
 62
7
  6
BYLAYER
 10
-520.5701970166
 20
-1006.0321990915
 11
-520.5701970166
 21
-1018.0321990915
  0
LINE
  5
26B
100
AcDbEntity
  8
0
100
AcDbLine
 62
7
  6
BYLAYER
 10
-520.5701970166
 20
-1018.0321990915
 11
-502.5701970166
 21
-1018.0321990915
  0
LINE
  5
26C
100
AcDbEntity
  8
0
100
AcDbLine
 62
7
  6
BYLAYER
 10
-502.5701970166
 20
-1006.0321990915
 11
-502.5701970166
 21
-1018.0321990915
  0
LINE
  5
26D
100
AcDbEntity
  8
0
100
AcDbLine
 62
7
  6
BYLAYER
 10
-527.5701970166
 20
-1002.2104670188
 11
-495.5701970166
 21
-1002.2104670188
  0
LINE
  5
26E
100
AcDbEntity
  8
0
100
AcDbLine
 62
7
  6
BYLAYER
 10
-527.5701970166
 20
-1002.2104670188
 11
-527.5701970166
 21
-1016.2104670188
  0
LINE
  5
26F
100
AcDbEntity
  8
0
100
AcDbLine
 62
7
  6
BYLAYER
 10
-527.5701970166
 20
-1016.2104670188
 11
-495.5701970166
 21
-1016.2104670188
  0
LINE
  5
270
100
AcDbEntity
  8
0
100
AcDbLine
 62
7
  6
BYLAYER
 10
-495.5701970166
 20
-1002.2104670188
 11
-495.5701970166
 21
-1016.2104670188
  0
LINE
  5
271
100
AcDbEntity
  8
0
100
AcDbLine
 62
7
  6
BYLAYER
 10
-499.1746083629
 20
-1017.9625915273
 11
-473.1746083629
 21
-1017.9625915273
  0
LINE
  5
272
100
AcDbEntity
  8
0
100
AcDbLine
 62
7
  6
BYLAYER
 10
-499.1746083629
 20
-1017.9625915273
 11
-499.1746083629
 21
-1039.9625915273
  0
LINE
  5
273
100
AcDbEntity
  8
0
100
AcDbLine
 62
7
  6
BYLAYER
 10
-499.1746083629
 20
-1039.9625915273
 11
-473.1746083629
 21
-1039.9625915273
  0
LINE
  5
274
100
AcDbEntity
  8
0
100
AcDbLine
 62
7
  6
BYLAYER
 10
-473.1746083629
 20
-1017.9625915273
 11
-473.1746083629
 21
-1039.9625915273
  0
LINE
  5
275
100
AcDbEntity
  8
0
100
AcDbLine
 62
7
  6
BYLAYER
 10
-535.8571253072
 20
-995.3887349462
 11
-509.8571253072
 21
-995.3887349462
  0
LINE
  5
276
100
AcDbEntity
  8
0
100
AcDbLine
 62
7
  6
BYLAYER
 10
-535.8571253072
 20
-995.3887349462
 11
-535.8571253072
 21
-1017.3887349462
  0
LINE
  5
277
100
AcDbEntity
  8
0
100
AcDbLine
 62
7
  6
BYLAYER
 10
-535.8571253072
 20
-1017.3887349462
 11
-509.8571253072
 21
-1017.3887349462
  0
LINE
  5
278
100
AcDbEntity
  8
0
100
AcDbLine
 62
7
  6
BYLAYER
 10
-509.8571253072
 20
-995.3887349462
 11
-509.8571253072
 21
-1017.3887349462
  0
LINE
  5
279
100
AcDbEntity
  8
0
100
AcDbLine
 62
7
  6
BYLAYER
 10
-519.1050007987
 20
-1013.6756632367
 11
-487.1050007987
 21
-1013.6756632367
  0
LINE
  5
27A
100
AcDbEntity
  8
0
100
AcDbLine
 62
7
  6
BYLAYER
 10
-519.1050007987
 20
-1013.6756632367
 11
-519.1050007987
 21
-1021.6756632367
  0
LINE
  5
27B
100
AcDbEntity
  8
0
100
AcDbLine
 62
7
  6
BYLAYER
 10
-519.1050007987
 20
-1021.6756632367
 11
-487.1050007987
 21
-1021.6756632367
  0
LINE
  5
27C
100
AcDbEntity
  8
0
100
AcDbLine
 62
7
  6
BYLAYER
 10
-487.1050007987
 20
-1013.6756632367
 11
-487.1050007987
 21
-1021.6756632367
  0
LINE
  5
27D
100
AcDbEntity
  8
0
100
AcDbLine
 62
7
  6
BYLAYER
 10
-568.709412145
 20
-994.5670028736
 11
-386.709412145
 21
-994.5670028736
  0
LINE
  5
27E
100
AcDbEntity
  8
0
100
AcDbLine
 62
7
  6
BYLAYER
 10
-568.709412145
 20
-994.5670028736
 11
-568.709412145
 21
-1012.5670028736
  0
LINE
  5
27F
100
AcDbEntity
  8
0
100
AcDbLine
 62
7
  6
BYLAYER
 10
-568.709412145
 20
-1012.5670028736
 11
-386.709412145
 21
-1012.5670028736
  0
LINE
  5
280
100
AcDbEntity
  8
0
100
AcDbLine
 62
7
  6
BYLAYER
 10
-386.709412145
 20
-994.5670028736
 11
-386.709412145
 21
-1012.5670028736
  0
LINE
  5
281
100
AcDbEntity
  8
0
100
AcDbLine
 62
7
  6
BYLAYER
 10
-579.9963404356
 20
-991.7452708009
 11
-397.9963404356
 21
-991.7452708009
  0
LINE
  5
282
100
AcDbEntity
  8
0
100
AcDbLine
 62
7
  6
BYLAYER
 10
-579.9963404356
 20
-991.7452708009
 11
-579.9963404356
 21
-1009.7452708009
  0
LINE
  5
283
100
AcDbEntity
  8
0
100
AcDbLine
 62
7
  6
BYLAYER
 10
-579.9963404356
 20
-1009.7452708009
 11
-397.9963404356
 21
-1009.7452708009
  0
LINE
  5
284
100
AcDbEntity
  8
0
100
AcDbLine
 62
7
  6
BYLAYER
 10
-397.9963404356
 20
-991.7452708009
 11
-397.9963404356
 21
-1009.7452708009
  0
LINE
  5
285
100
AcDbEntity
  8
0
100
AcDbLine
 62
7
  6
BYLAYER
 10
-542.2832687261
 20
-997.0321990915
 11
-458.2832687261
 21
-997.0321990915
  0
LINE
  5
286
100
AcDbEntity
  8
0
100
AcDbLine
 62
7
  6
BYLAYER
 10
-542.2832687261
 20
-997.0321990915
 11
-542.2832687261
 21
-1027.0321990915
  0
LINE
  5
287
100
AcDbEntity
  8
0
100
AcDbLine
 62
7
  6
BYLAYER
 10
-542.2832687261
 20
-1027.0321990915
 11
-458.2832687261
 21
-1027.0321990915
  0
LINE
  5
288
100
AcDbEntity
  8
0
100
AcDbLine
 62
7
  6
BYLAYER
 10
-458.2832687261
 20
-997.0321990915
 11
-458.2832687261
 21
-1027.0321990915
  0
LINE
  5
289
100
AcDbEntity
  8
0
100
AcDbLine
 62
7
  6
BYLAYER
 10
-472.4224838545
 20
-1009.6756632367
 11
-460.4224838545
 21
-1009.6756632367
  0
LINE
  5
28A
100
AcDbEntity
  8
0
100
AcDbLine
 62
7
  6
BYLAYER
 10
-472.4224838545
 20
-1009.6756632367
 11
-472.4224838545
 21
-1025.6756632367
  0
LINE
  5
28B
100
AcDbEntity
  8
0
100
AcDbLine
 62
7
  6
BYLAYER
 10
-472.4224838545
 20
-1025.6756632367
 11
-460.4224838545
 21
-1025.6756632367
  0
LINE
  5
28C
100
AcDbEntity
  8
0
100
AcDbLine
 62
7
  6
BYLAYER
 10
-460.4224838545
 20
-1009.6756632367
 11
-460.4224838545
 21
-1025.6756632367
  0
LINE
  5
28D
100
AcDbEntity
  8
0
100
AcDbLine
 62
7
  6
BYLAYER
 10
-545.787517743
 20
-1005.0321990915
 11
-533.787517743
 21
-1005.0321990915
  0
LINE
  5
28E
100
AcDbEntity
  8
0
100
AcDbLine
 62
7
  6
BYLAYER
 10
-545.787517743
 20
-1005.0321990915
 11
-545.787517743
 21
-1019.0321990915
  0
LINE
  5
28F
100
AcDbEntity
  8
0
100
AcDbLine
 62
7
  6
BYLAYER
 10
-545.787517743
 20
-1019.0321990915
 11
-533.787517743
 21
-1019.0321990915
  0
LINE
  5
290
100
AcDbEntity
  8
0
100
AcDbLine
 62
7
  6
BYLAYER
 10
-533.787517743
 20
-1005.0321990915
 11
-533.787517743
 21
-1019.0321990915
  0
LINE
  5
291
100
AcDbEntity
  8
0
100
AcDbLine
 62
7
  6
BYLAYER
 10
-514.8876800724
 20
-1000.5670028736
 11
-434.8876800724
 21
-1000.5670028736
  0
LINE
  5
292
100
AcDbEntity
  8
0
100
AcDbLine
 62
7
  6
BYLAYER
 10
-514.8876800724
 20
-1000.5670028736
 11
-514.8876800724
 21
-1006.5670028736
  0
LINE
  5
293
100
AcDbEntity
  8
0
100
AcDbLine
 62
7
  6
BYLAYER
 10
-514.8876800724
 20
-1006.5670028736
 11
-434.8876800724
 21
-1006.5670028736
  0
LINE
  5
294
100
AcDbEntity
  8
0
100
AcDbLine
 62
7
  6
BYLAYER
 10
-434.8876800724
 20
-1000.5670028736
 11
-434.8876800724
 21
-1006.5670028736
  0
LINE
  5
295
100
AcDbEntity
  8
0
100
AcDbLine
 62
7
  6
BYLAYER
 10
-521.9963404356
 20
-994.2104670188
 11
-455.9963404356
 21
-994.2104670188
  0
LINE
  5
296
100
AcDbEntity
  8
0
100
AcDbLine
 62
7
  6
BYLAYER
 10
-521.9963404356
 20
-994.2104670188
 11
-521.9963404356
 21
-1024.2104670188
  0
LINE
  5
297
100
AcDbEntity
  8
0
100
AcDbLine
 62
7
  6
BYLAYER
 10
-521.9963404356
 20
-1024.2104670188
 11
-455.9963404356
 21
-1024.2104670188
  0
LINE
  5
298
100
AcDbEntity
  8
0
100
AcDbLine
 62
7
  6
BYLAYER
 10
-455.9963404356
 20
-994.2104670188
 11
-455.9963404356
 21
-1024.2104670188
  0
LINE
  5
299
100
AcDbEntity
  8
0
100
AcDbLine
 62
7
  6
BYLAYER
 10
690.9054664893
 20
44.2880864908
 11
770.9054664893
 21
44.2880864908
  0
LINE
  5
29A
100
AcDbEntity
  8
0
100
AcDbLine
 62
7
  6
BYLAYER
 10
690.9054664893
 20
44.2880864908
 11
690.9054664893
 21
38.2880864908
  0
LINE
  5
29B
100
AcDbEntity
  8
0
100
AcDbLine
 62
7
  6
BYLAYER
 10
690.9054664893
 20
38.2880864908
 11
770.9054664893
 21
38.2880864908
  0
LINE
  5
29C
100
AcDbEntity
  8
0
100
AcDbLine
 62
7
  6
BYLAYER
 10
770.9054664893
 20
44.2880864908
 11
770.9054664893
 21
38.2880864908
  0
MTEXT
  5
29D
100
AcDbEntity
  8
0
100
AcDbMText
 62
7
  6
BYLAYER
  7
TEXTSTYLE_2
 71
3
 72
1
 10
770.7804664893
 20
43.7880864908
 30
0.0
 11
1.0
 21
0.0
 31
0.0
  1
SHOW_5010
 40
5.0
 41
31.6666666667
  0
LEADER
  5
29E
100
AcDbEntity
  8
0
100
AcDbLeader
 62
7
  6
BYLAYER
  3
STANDARD
 71
1
 72
0
 73
0
 74
1
 75
1
 40
6.0
 41
24.0
 76
3
 10
453.9543228365
 20
370.6567401408
 30
0.0
 10
441.3218279053
 20
389.5969121051
 30
0.0
 10
431.3218279053
 20
389.5969121051
 30
0.0
340
29F
211
1.0
221
0.0
231
0.0
1001
ACAD
1000
DSTYLE
1002
{
1070
77
1070
1
1002
}
  0
MTEXT
  5
29F
102
{ACAD_REACTORS
330
29E
102
}
100
AcDbEntity
  8
0
100
AcDbMText
 62
7
  6
BYLAYER
  7
STANDARD
 71
3
 72
1
 10
431.3218279053
 20
397.0969121051
 30
0.0
 11
1.0
 21
0.0
 31
0.0
  1
ACD12
 40
6.0
 41
24.0
  0
MTEXT
  5
2A0
100
AcDbEntity
  8
0
100
AcDbMText
 62
7
  6
BYLAYER
  7
STANDARD
 71
1
 72
1
 10
220.6141385435
 20
239.904937833
 30
0.0
 11
1.0
 21
0.0
 31
0.0
  1
무게 : 430g
 40
6.0
 41
44.8
  0
MTEXT
  5
2A1
100
AcDbEntity
  8
0
100
AcDbMText
 62
7
  6
BYLAYER
  7
TEXTSTYLE_3
 71
1
 72
1
 10
62.6642984014
 20
540.3481349911
 30
0.0
 11
1.0
 21
0.0
 31
0.0
  1
SNV-5010 MODELING
 40
10.0
 41
152.5454545455
  0
LEADER
  5
2A2
100
AcDbEntity
  8
0
100
AcDbLeader
 62
7
  6
BYLAYER
  3
STANDARD
 71
1
 72
0
 73
0
 74
0
 40
6.0
 41
62.4
 76
3
 10
294.0325255538
 20
158.6877060449
 30
0.0
 10
303.3286876486
 20
176.3241476454
 30
0.0
 10
313.3286876486
 20
176.3241476454
 30
0.0
340
2A3
211
1.0
221
0.0
231
0.0
1001
ACAD
1000
DSTYLE
1002
{
1070
77
1070
1
1002
}
  0
MTEXT
  5
2A3
102
{ACAD_REACTORS
330
2A2
102
}
100
AcDbEntity
  8
0
100
AcDbMText
 62
7
  6
BYLAYER
  7
STANDARD
 71
1
 72
1
 10
313.3286876486
 20
183.8241476454
 30
0.0
 11
1.0
 21
0.0
 31
0.0
  1
COLOR : IVORY
 40
6.0
 41
62.4
  0
LEADER
  5
2A4
100
AcDbEntity
  8
0
100
AcDbLeader
 62
7
  6
BYLAYER
  3
STANDARD
 71
1
 72
0
 73
0
 74
0
 40
6.0
 41
62.4
 76
3
 10
291.761536844
 20
136.3599857244
 30
0.0
 10
307.6466602923
 20
115.6026573435
 30
0.0
 10
317.6466602923
 20
115.6026573435
 30
0.0
340
2A5
211
1.0
221
0.0
231
0.0
1001
ACAD
1000
DSTYLE
1002
{
1070
77
1070
1
1002
}
  0
MTEXT
  5
2A5
102
{ACAD_REACTORS
330
2A4
102
}
100
AcDbEntity
  8
0
100
AcDbMText
 62
7
  6
BYLAYER
  7
STANDARD
 71
1
 72
1
 10
317.6466602923
 20
123.1026573435
 30
0.0
 11
1.0
 21
0.0
 31
0.0
  1
COLOR : IVORY
 40
6.0
 41
62.4
  0
LEADER
  5
2A6
100
AcDbEntity
  8
0
100
AcDbLeader
 62
7
  6
BYLAYER
  3
STANDARD
 71
1
 72
0
 73
0
 74
0
 40
6.0
 41
24.0
 76
3
 10
486.4347126351
 20
343.6740798587
 30
0.0
 10
497.6949896938
 20
329.2116131696
 30
0.0
 10
507.6949896938
 20
329.2116131696
 30
0.0
340
2A7
211
1.0
221
0.0
231
0.0
1001
ACAD
1000
DSTYLE
1002
{
1070
77
1070
1
1002
}
  0
MTEXT
  5
2A7
102
{ACAD_REACTORS
330
2A6
102
}
100
AcDbEntity
  8
0
100
AcDbMText
 62
7
  6
BYLAYER
  7
STANDARD
 71
1
 72
1
 10
507.6949896938
 20
336.7116131696
 30
0.0
 11
1.0
 21
0.0
 31
0.0
  1
ADC12
 40
6.0
 41
24.0
  0
LEADER
  5
2A8
100
AcDbEntity
  8
0
100
AcDbLeader
 62
7
  6
BYLAYER
  3
STANDARD
 71
1
 72
0
 73
0
 74
1
 75
1
 40
6.0
 41
25.6
 76
3
 10
451.3232566466
 20
292.3633724034
 30
0.0
 10
435.4479070266
 20
252.6196616774
 30
0.0
 10
425.4479070266
 20
252.6196616774
 30
0.0
340
2A9
211
1.0
221
0.0
231
0.0
1001
ACAD
1000
DSTYLE
1002
{
1070
77
1070
1
1002
}
  0
MTEXT
  5
2A9
102
{ACAD_REACTORS
330
2A8
102
}
100
AcDbEntity
  8
0
100
AcDbMText
 62
7
  6
BYLAYER
  7
STANDARD
 71
3
 72
1
 10
425.4479070266
 20
260.1196616774
 30
0.0
 11
1.0
 21
0.0
 31
0.0
  1
PC 투명
 40
6.0
 41
25.6
  0
LINE
  5
2AA
100
AcDbEntity
  8
0
100
AcDbLine
 62
7
  6
BYLAYER
 10
0.0
 20
0.0
 11
0.0
 21
594.0
  0
LINE
  5
2AB
100
AcDbEntity
  8
0
100
AcDbLine
 62
7
  6
BYLAYER
 10
50.0
 20
551.0
 11
50.0
 21
50.0
  0
LINE
  5
2AC
100
AcDbEntity
  8
0
100
AcDbLine
 62
7
  6
BYLAYER
 10
0.0
 20
0.0
 11
840.0
 21
0.0
  0
LINE
  5
2AD
100
AcDbEntity
  8
0
100
AcDbLine
 62
7
  6
BYLAYER
 10
50.0
 20
50.0
 11
781.0
 21
50.0
  0
LINE
  5
2AE
100
AcDbEntity
  8
0
100
AcDbLine
 62
7
  6
BYLAYER
 10
781.0
 20
551.0
 11
50.0
 21
551.0
  0
LINE
  5
2AF
100
AcDbEntity
  8
0
100
AcDbLine
 62
7
  6
BYLAYER
 10
0.0
 20
594.0
 11
840.0
 21
594.0
  0
LINE
  5
2B0
100
AcDbEntity
  8
0
100
AcDbLine
 62
7
  6
BYLAYER
 10
781.0
 20
50.0
 11
781.0
 21
551.0
  0
LINE
  5
2B1
100
AcDbEntity
  8
0
100
AcDbLine
 62
7
  6
BYLAYER
 10
840.0
 20
0.0
 11
840.0
 21
594.0
  0
LINE
  5
2B2
100
AcDbEntity
  8
11_COMPONENT
100
AcDbLine
 62
7
  6
BYLAYER
 10
244.6111252454
 20
394.0019328056
 11
243.8673579388
 21
393.7762147653
  0
LINE
  5
2B3
100
AcDbEntity
  8
11_COMPONENT
100
AcDbLine
 62
7
  6
BYLAYER
 10
243.0655104418
 20
391.0328705848
 11
243.8092777484
 21
391.2585886252
  0
LINE
  5
2B4
100
AcDbEntity
  8
11_COMPONENT
100
AcDbLine
 62
7
  6
BYLAYER
 10
196.6662724884
 20
310.4444069822
 11
197.2336336987
 21
309.9131446204
  0
LINE
  5
2B5
100
AcDbEntity
  8
11_COMPONENT
100
AcDbLine
 62
7
  6
BYLAYER
 10
200.0103631988
 20
310.5903964082
 11
199.4430019885
 21
311.1216587701
  0
LINE
  5
2B6
100
AcDbEntity
  8
11_COMPONENT
100
AcDbLine
 62
7
  6
BYLAYER
 10
197.2626737939
 20
309.8628457
 11
197.4390798902
 21
309.1058652979
  0
LINE
  5
2B7
100
AcDbEntity
  8
11_COMPONENT
100
AcDbLine
 62
7
  6
BYLAYER
 10
199.4139618933
 20
311.1719576904
 11
199.237555797
 21
311.9289380926
  0
LINE
  5
2B8
100
AcDbEntity
  8
11_COMPONENT
100
AcDbLine
 62
7
  6
BYLAYER
 10
242.7336336987
 20
393.1216587701
 11
242.1662724884
 21
392.5903964082
  0
LINE
  5
2B9
100
AcDbEntity
  8
11_COMPONENT
100
AcDbLine
 62
7
  6
BYLAYER
 10
197.4390798902
 20
311.9289380926
 11
197.2626737939
 21
311.1719576904
  0
LINE
  5
2BA
100
AcDbEntity
  8
11_COMPONENT
100
AcDbLine
 62
7
  6
BYLAYER
 10
199.237555797
 20
309.1058652979
 11
199.4139618933
 21
309.8628457
  0
LINE
  5
2BB
100
AcDbEntity
  8
11_COMPONENT
100
AcDbLine
 62
7
  6
BYLAYER
 10
244.9430019885
 20
391.9131446204
 11
245.5103631988
 21
392.4444069822
  0
LINE
  5
2BC
100
AcDbEntity
  8
11_COMPONENT
100
AcDbLine
 62
7
  6
BYLAYER
 10
198.3673579388
 20
309.2585886252
 11
199.1111252454
 21
309.0328705848
  0
LINE
  5
2BD
100
AcDbEntity
  8
11_COMPONENT
100
AcDbLine
 62
7
  6
BYLAYER
 10
198.3092777484
 20
311.7762147653
 11
197.5655104418
 21
312.0019328056
  0
LINE
  5
2BE
100
AcDbEntity
  8
11_COMPONENT
100
AcDbLine
 62
7
  6
BYLAYER
 10
220.9345205745
 20
312.4245489367
 11
220.8977436663
 21
312.825383073
  0
LINE
  5
2BF
100
AcDbEntity
  8
11_COMPONENT
100
AcDbLine
 62
7
  6
BYLAYER
 10
270.3478018627
 20
392.7322793723
 11
270.7087586667
 21
393.1445373327
  0
LINE
  5
2C0
100
AcDbEntity
  8
11_COMPONENT
100
AcDbLine
 62
7
  6
BYLAYER
 10
234.1383178436
 20
402.1794443242
 11
234.1383178436
 21
402.0772700423
  0
LINE
  5
2C1
100
AcDbEntity
  8
11_COMPONENT
100
AcDbLine
 62
7
  6
BYLAYER
 10
242.9390798902
 20
393.9289380926
 11
242.7626737939
 21
393.1719576904
  0
LINE
  5
2C2
100
AcDbEntity
  8
11_COMPONENT
100
AcDbLine
 62
7
  6
BYLAYER
 10
244.737555797
 20
391.1058652979
 11
244.9139618933
 21
391.8628457
  0
LINE
  5
2C3
100
AcDbEntity
  8
11_COMPONENT
100
AcDbLine
 62
7
  6
BYLAYER
 10
197.2336336987
 20
311.1216587701
 11
196.6662724884
 21
310.5903964082
  0
LINE
  5
2C4
100
AcDbEntity
  8
11_COMPONENT
100
AcDbLine
 62
7
  6
BYLAYER
 10
199.4430019885
 20
309.9131446204
 11
200.0103631988
 21
310.4444069822
  0
LINE
  5
2C5
100
AcDbEntity
  8
11_COMPONENT
100
AcDbLine
 62
7
  6
BYLAYER
 10
289.3673579388
 20
309.2585886252
 11
290.1111252454
 21
309.0328705848
  0
LINE
  5
2C6
100
AcDbEntity
  8
11_COMPONENT
100
AcDbLine
 62
7
  6
BYLAYER
 10
289.3092777484
 20
311.7762147653
 11
288.5655104418
 21
312.0019328056
  0
LINE
  5
2C7
100
AcDbEntity
  8
11_COMPONENT
100
AcDbLine
 62
7
  6
BYLAYER
 10
243.8383178411
 20
288.0275796055
 11
243.8383178436
 21
288.9103145639
  0
LINE
  5
2C8
100
AcDbEntity
  8
11_COMPONENT
100
AcDbLine
 62
7
  6
BYLAYER
 10
243.8383178437
 20
402.6887177242
 11
243.8383178436
 21
403.2732749985
  0
LINE
  5
2C9
100
AcDbEntity
  8
11_COMPONENT
100
AcDbLine
 62
7
  6
BYLAYER
 10
253.5383178436
 20
402.0772700423
 11
253.5383178436
 21
402.1794443242
  0
LINE
  5
2CA
100
AcDbEntity
  8
11_COMPONENT
100
AcDbLine
 62
7
  6
BYLAYER
 10
287.6662724884
 20
310.4444069822
 11
288.2336336987
 21
309.9131446204
  0
LINE
  5
2CB
100
AcDbEntity
  8
11_COMPONENT
100
AcDbLine
 62
7
  6
BYLAYER
 10
242.7626737939
 20
391.8628457
 11
242.9390798902
 21
391.1058652979
  0
LINE
  5
2CC
100
AcDbEntity
  8
11_COMPONENT
100
AcDbLine
 62
7
  6
BYLAYER
 10
199.1111252454
 20
312.0019328056
 11
198.3673579388
 21
311.7762147653
  0
LINE
  5
2CD
100
AcDbEntity
  8
11_COMPONENT
100
AcDbLine
 62
7
  6
BYLAYER
 10
197.5655104418
 20
309.0328705848
 11
198.3092777484
 21
309.2585886252
  0
LINE
  5
2CE
100
AcDbEntity
  8
11_COMPONENT
100
AcDbLine
 62
7
  6
BYLAYER
 10
291.0103631988
 20
310.5903964082
 11
290.4430019885
 21
311.1216587701
  0
LINE
  5
2CF
100
AcDbEntity
  8
11_COMPONENT
100
AcDbLine
 62
7
  6
BYLAYER
 10
217.3288339999
 20
392.732279172
 11
216.9678772797
 21
393.1445370367
  0
LINE
  5
2D0
100
AcDbEntity
  8
11_COMPONENT
100
AcDbLine
 62
7
  6
BYLAYER
 10
244.9139618933
 20
393.1719576904
 11
244.737555797
 21
393.9289380926
  0
LINE
  5
2D1
100
AcDbEntity
  8
11_COMPONENT
100
AcDbLine
 62
7
  6
BYLAYER
 10
266.7421151128
 20
312.4245489367
 11
266.778892021
 21
312.825383073
  0
LINE
  5
2D2
100
AcDbEntity
  8
11_COMPONENT
100
AcDbLine
 62
7
  6
BYLAYER
 10
290.1111252454
 20
312.0019328056
 11
289.3673579388
 21
311.7762147653
  0
LINE
  5
2D3
100
AcDbEntity
  8
11_COMPONENT
100
AcDbLine
 62
7
  6
BYLAYER
 10
242.1662724884
 20
392.4444069822
 11
242.7336336987
 21
391.9131446204
  0
LINE
  5
2D4
100
AcDbEntity
  8
11_COMPONENT
100
AcDbLine
 62
7
  6
BYLAYER
 10
245.5103631988
 20
392.5903964082
 11
244.9430019885
 21
393.1216587701
  0
LINE
  5
2D5
100
AcDbEntity
  8
11_COMPONENT
100
AcDbLine
 62
7
  6
BYLAYER
 10
288.2626737939
 20
309.8628457
 11
288.4390798902
 21
309.1058652979
  0
LINE
  5
2D6
100
AcDbEntity
  8
11_COMPONENT
100
AcDbLine
 62
7
  6
BYLAYER
 10
290.4139618933
 20
311.1719576904
 11
290.237555797
 21
311.9289380926
  0
LINE
  5
2D7
100
AcDbEntity
  8
11_COMPONENT
100
AcDbLine
 62
7
  6
BYLAYER
 10
288.5655104418
 20
309.0328705848
 11
289.3092777484
 21
309.2585886252
  0
LINE
  5
2D8
100
AcDbEntity
  8
11_COMPONENT
100
AcDbLine
 62
7
  6
BYLAYER
 10
288.4390798902
 20
311.9289380926
 11
288.2626737939
 21
311.1719576904
  0
LINE
  5
2D9
100
AcDbEntity
  8
11_COMPONENT
100
AcDbLine
 62
7
  6
BYLAYER
 10
290.237555797
 20
309.1058652979
 11
290.4139618933
 21
309.8628457
  0
LINE
  5
2DA
100
AcDbEntity
  8
11_COMPONENT
100
AcDbLine
 62
7
  6
BYLAYER
 10
288.2336336987
 20
311.1216587701
 11
287.6662724884
 21
310.5903964082
  0
LINE
  5
2DB
100
AcDbEntity
  8
11_COMPONENT
100
AcDbLine
 62
7
  6
BYLAYER
 10
290.4430019885
 20
309.9131446204
 11
291.0103631988
 21
310.4444069822
  0
LINE
  5
2DC
100
AcDbEntity
  8
11_COMPONENT
100
AcDbLine
 62
7
  6
BYLAYER
 10
243.8673579388
 20
391.2585886252
 11
244.6111252454
 21
391.0328705848
  0
LINE
  5
2DD
100
AcDbEntity
  8
11_COMPONENT
100
AcDbLine
 62
7
  6
BYLAYER
 10
243.8092777484
 20
393.7762147653
 11
243.0655104418
 21
394.0019328056
  0
LINE
  5
2DE
100
AcDbEntity
  8
11_COMPONENT
100
AcDbLine
 62
7
  6
BYLAYER
 10
181.246937994
 20
142.9003693646
 11
181.5897188204
 21
136.3599832195
  0
LINE
  5
2DF
100
AcDbEntity
  8
11_COMPONENT
100
AcDbLine
 62
7
  6
BYLAYER
 10
181.2470246293
 20
144.7400505942
 11
181.2470246293
 21
142.9003693646
  0
LINE
  5
2E0
100
AcDbEntity
  8
11_COMPONENT
100
AcDbLine
 62
7
  6
BYLAYER
 10
199.6478207333
 20
136.3599864265
 11
199.517106646
 21
142.9003693646
  0
LINE
  5
2E1
100
AcDbEntity
  8
11_COMPONENT
100
AcDbLine
 62
7
  6
BYLAYER
 10
199.517106646
 20
142.9003693646
 11
199.517106646
 21
145.0396690426
  0
LWPOLYLINE
  5
2E2
100
AcDbEntity
  8
11_COMPONENT
100
AcDbPolyline
 62
7
  6
BYLAYER
 90
16
 70
0
 10
202.397251109
 20
162.7443993119
 10
202.3459566005
 20
162.4232955191
 10
202.0833420915
 20
161.6815232577
 10
201.5998370617
 20
160.762808848
 10
200.9401381311
 20
159.7735313666
 10
200.1756264789
 20
158.815180826
 10
199.3867269674
 20
157.9672050329
 10
198.6011436966
 20
157.2362083126
 10
197.8085025394
 20
156.6016341773
 10
197.0026944161
 20
156.0615758693
 10
196.2259275823
 20
155.6519952316
 10
195.5516331942
 20
155.410975605
 10
195.0606904406
 20
155.3450976258
 10
194.7900040444
 20
155.4019153758
 10
194.6841013067
 20
155.5102772773
 10
194.6502020759
 20
155.668138154
  0
LWPOLYLINE
  5
2E3
100
AcDbEntity
  8
11_COMPONENT
100
AcDbPolyline
 62
7
  6
BYLAYER
 90
5
 70
0
 10
182.0311055219
 20
146.7626889841
 10
181.7975656152
 20
146.4724059898
 10
181.4525427866
 20
145.8314678351
 10
181.2717121631
 20
145.1241899109
 10
181.2470227877
 20
144.7400510083
  0
LINE
  5
2E4
100
AcDbEntity
  8
11_COMPONENT
100
AcDbLine
 62
7
  6
BYLAYER
 10
210.5175857016
 20
136.3599864258
 11
210.4453000785
 21
142.9003693646
  0
LINE
  5
2E5
100
AcDbEntity
  8
11_COMPONENT
100
AcDbLine
 62
7
  6
BYLAYER
 10
210.4453000785
 20
142.9003693646
 11
210.4453000785
 21
145.1866447785
  0
LWPOLYLINE
  5
2E6
100
AcDbEntity
  8
11_COMPONENT
100
AcDbPolyline
 62
7
  6
BYLAYER
 90
4
 70
0
 10
213.799517594
 20
175.6226610172
 10
203.9723768239
 20
168.1304056138
 10
192.9532445575
 20
158.1179658139
 10
182.0311075762
 20
146.7626884192
  0
LINE
  5
2E7
100
AcDbEntity
  8
11_COMPONENT
100
AcDbLine
 62
7
  6
BYLAYER
 10
213.8120623253
 20
175.6312958046
 11
213.7998710317
 21
175.6229037833
  0
LINE
  5
2E8
100
AcDbEntity
  8
11_COMPONENT
100
AcDbLine
 62
7
  6
BYLAYER
 10
214.6778024924
 20
176.1993199911
 11
213.811718426
 21
175.6310597181
  0
LINE
  5
2E9
100
AcDbEntity
  8
11_COMPONENT
100
AcDbLine
 62
7
  6
BYLAYER
 10
218.8584375572
 20
178.5499628104
 11
214.6778334756
 21
176.199339896
  0
LINE
  5
2EA
100
AcDbEntity
  8
11_COMPONENT
100
AcDbLine
 62
7
  6
BYLAYER
 10
246.5883178436
 20
124.3003693646
 11
241.0883178436
 21
124.3003693646
  0
LINE
  5
2EB
100
AcDbEntity
  8
11_COMPONENT
100
AcDbLine
 62
7
  6
BYLAYER
 10
305.6020486012
 20
135.9003693646
 11
182.0744936819
 21
135.9003693646
  0
LINE
  5
2EC
100
AcDbEntity
  8
11_COMPONENT
100
AcDbLine
 62
7
  6
BYLAYER
 10
306.0869170044
 20
136.3599862686
 11
181.5897187008
 21
136.3599858564
  0
LINE
  5
2ED
100
AcDbEntity
  8
11_COMPONENT
100
AcDbLine
 62
7
  6
BYLAYER
 10
181.2470355446
 20
142.9003693646
 11
306.4296028354
 21
142.9003693646
  0
LINE
  5
2EE
100
AcDbEntity
  8
11_COMPONENT
100
AcDbLine
 62
7
  6
BYLAYER
 10
199.517106646
 20
145.0396690426
 11
199.8454861238
 21
145.0462483203
  0
LINE
  5
2EF
100
AcDbEntity
  8
11_COMPONENT
100
AcDbLine
 62
7
  6
BYLAYER
 10
276.9194985535
 20
146.5443314538
 11
277.1809386081
 21
146.547557132
  0
LINE
  5
2F0
100
AcDbEntity
  8
11_COMPONENT
100
AcDbLine
 62
7
  6
BYLAYER
 10
210.4453000785
 20
145.1866447785
 11
210.6997486454
 21
145.1893965211
  0
LINE
  5
2F1
100
AcDbEntity
  8
11_COMPONENT
100
AcDbLine
 62
7
  6
BYLAYER
 10
276.9768870418
 20
145.1893965211
 11
277.2313356088
 21
145.1866447785
  0
LINE
  5
2F2
100
AcDbEntity
  8
11_COMPONENT
100
AcDbLine
 62
7
  6
BYLAYER
 10
210.4956970791
 20
146.547557132
 11
210.7571371337
 21
146.5443314538
  0
LINE
  5
2F3
100
AcDbEntity
  8
11_COMPONENT
100
AcDbLine
 62
7
  6
BYLAYER
 10
287.8311495635
 20
145.0462483203
 11
288.1595290413
 21
145.0396690426
  0
LINE
  5
2F4
100
AcDbEntity
  8
11_COMPONENT
100
AcDbLine
 62
7
  6
BYLAYER
 10
241.0883178436
 20
135.9003693646
 11
241.0883178436
 21
124.3003693646
  0
LINE
  5
2F5
100
AcDbEntity
  8
11_COMPONENT
100
AcDbLine
 62
7
  6
BYLAYER
 10
243.8383178436
 20
135.9003693646
 11
243.8383178436
 21
147.9527106482
  0
LINE
  5
2F6
100
AcDbEntity
  8
11_COMPONENT
100
AcDbLine
 62
7
  6
BYLAYER
 10
246.5883178436
 20
135.9003693646
 11
246.5883178436
 21
124.3003693646
  0
LWPOLYLINE
  5
2F7
100
AcDbEntity
  8
11_COMPONENT
100
AcDbPolyline
 62
7
  6
BYLAYER
 90
4
 70
0
 10
228.6222014402
 20
182.0594735084
 10
227.8890999682
 20
181.9098425613
 10
223.3147557836
 20
180.4847432108
 10
218.8584375572
 20
178.5499628104
  0
LINE
  5
2F8
100
AcDbEntity
  8
11_COMPONENT
100
AcDbLine
 62
7
  6
BYLAYER
 10
277.2313356088
 20
142.9003693646
 11
277.2313356088
 21
145.1866447785
  0
LINE
  5
2F9
100
AcDbEntity
  8
11_COMPONENT
100
AcDbLine
 62
7
  6
BYLAYER
 10
277.1590381346
 20
136.359986426
 11
277.2313356088
 21
142.9003693646
  0
LWPOLYLINE
  5
2FA
100
AcDbEntity
  8
11_COMPONENT
100
AcDbPolyline
 62
7
  6
BYLAYER
 90
5
 70
0
 10
272.9987945276
 20
176.199344511
 10
268.8382632087
 20
178.539940696
 10
264.3843983917
 20
180.4763805773
 10
259.812687816
 20
181.9034233427
 10
259.075149478
 20
182.0543653865
  0
LINE
  5
2FB
100
AcDbEntity
  8
11_COMPONENT
100
AcDbLine
 62
7
  6
BYLAYER
 10
273.865449713
 20
175.6306931855
 11
272.9988340518
 21
176.199319432
  0
LINE
  5
2FC
100
AcDbEntity
  8
11_COMPONENT
100
AcDbLine
 62
7
  6
BYLAYER
 10
273.8769143698
 20
175.6228009494
 11
273.8652464453
 21
175.6308328736
  0
LWPOLYLINE
  5
2FD
100
AcDbEntity
  8
11_COMPONENT
100
AcDbPolyline
 62
7
  6
BYLAYER
 90
4
 70
0
 10
305.6455270879
 20
146.7626895407
 10
294.7233911298
 20
158.1179658139
 10
283.7042588634
 20
168.1304056138
 10
273.8771188776
 20
175.6226604776
  0
LINE
  5
2FE
100
AcDbEntity
  8
11_COMPONENT
100
AcDbLine
 62
7
  6
BYLAYER
 10
288.1595290413
 20
142.9003693646
 11
288.1595290413
 21
145.0396690426
  0
LINE
  5
2FF
100
AcDbEntity
  8
11_COMPONENT
100
AcDbLine
 62
7
  6
BYLAYER
 10
288.0289637343
 20
136.3599864257
 11
288.1595290413
 21
142.9003693646
  0
LWPOLYLINE
  5
300
100
AcDbEntity
  8
11_COMPONENT
100
AcDbPolyline
 62
7
  6
BYLAYER
 90
16
 70
0
 10
293.026424433
 20
155.6681650083
 10
292.994175135
 20
155.5138018769
 10
292.890473626
 20
155.403952771
 10
292.6263738115
 20
155.3453996835
 10
292.1428918219
 20
155.4065209616
 10
291.4745370319
 20
155.641415418
 10
290.7018479745
 20
156.0448616092
 10
289.8988761679
 20
156.5790703717
 10
289.1085478639
 20
157.2077149172
 10
288.3254400027
 20
157.931832505
 10
287.5389939348
 20
158.7714069405
 10
286.7693265106
 20
159.7289275046
 10
286.0985376433
 20
160.7266576158
 10
285.6041688717
 20
161.6572337711
 10
285.3342502913
 20
162.4085546814
 10
285.2793423914
 20
162.7451304049
  0
LWPOLYLINE
  5
301
100
AcDbEntity
  8
11_COMPONENT
100
AcDbPolyline
 62
7
  6
BYLAYER
 90
5
 70
0
 10
306.4296109499
 20
144.7400512292
 10
306.404951639
 20
145.1239570879
 10
306.2241468378
 20
145.8313248088
 10
305.8791111696
 20
146.4723451986
 10
305.6455281446
 20
146.7626891715
  0
LINE
  5
302
100
AcDbEntity
  8
11_COMPONENT
100
AcDbLine
 62
7
  6
BYLAYER
 10
306.429611058
 20
142.9003693646
 11
306.429611058
 21
144.7400507767
  0
LINE
  5
303
100
AcDbEntity
  8
11_COMPONENT
100
AcDbLine
 62
7
  6
BYLAYER
 10
306.0869168707
 20
136.3599832934
 11
306.4296976932
 21
142.9003693646
  0
LINE
  5
304
100
AcDbEntity
  8
11_COMPONENT
100
AcDbLine
 62
7
  6
BYLAYER
 10
485.9750955738
 20
288.3703686407
 11
479.4347126351
 21
288.0276016952
  0
LINE
  5
305
100
AcDbEntity
  8
11_COMPONENT
100
AcDbLine
 62
7
  6
BYLAYER
 10
479.4347126351
 20
288.0276016952
 11
476.9883862594
 21
288.0276016952
  0
LINE
  5
306
100
AcDbEntity
  8
11_COMPONENT
100
AcDbLine
 62
7
  6
BYLAYER
 10
485.9750955737
 20
291.918050858
 11
479.4347126351
 21
291.5829952345
  0
LINE
  5
307
100
AcDbEntity
  8
11_COMPONENT
100
AcDbLine
 62
7
  6
BYLAYER
 10
485.975095574
 20
295.3103135126
 11
479.4347126351
 21
294.9933870459
  0
LINE
  5
308
100
AcDbEntity
  8
11_COMPONENT
100
AcDbLine
 62
7
  6
BYLAYER
 10
479.4347126351
 20
291.5829905052
 11
477.1484372212
 21
291.5829895008
  0
LINE
  5
309
100
AcDbEntity
  8
11_COMPONENT
100
AcDbLine
 62
7
  6
BYLAYER
 10
475.6321336837
 20
402.6887237313
 11
468.2410420363
 21
396.6347980083
  0
LINE
  5
30A
100
AcDbEntity
  8
11_COMPONENT
100
AcDbLine
 62
7
  6
BYLAYER
 10
479.4347126351
 20
294.9933795715
 11
477.295412957
 21
294.9933780907
  0
LWPOLYLINE
  5
30B
100
AcDbEntity
  8
11_COMPONENT
100
AcDbPolyline
 62
7
  6
BYLAYER
 90
4
 70
0
 10
470.3928309764
 20
291.3924225846
 10
471.371832831
 20
291.0855623178
 10
472.6018958143
 20
290.4512484675
 10
473.6789943981
 20
289.5913482191
  0
LWPOLYLINE
  5
30C
100
AcDbEntity
  8
11_COMPONENT
100
AcDbPolyline
 62
7
  6
BYLAYER
 90
3
 70
0
 10
467.4013906464
 20
395.7711486147
 10
466.8042807464
 20
395.1560538859
 10
465.2134107899
 20
393.516862839
  0
LINE
  5
30D
100
AcDbEntity
  8
11_COMPONENT
100
AcDbLine
 62
7
  6
BYLAYER
 10
465.2134107899
 20
393.516862839
 11
464.4459911952
 21
392.726414579
  0
LWPOLYLINE
  5
30E
100
AcDbEntity
  8
11_COMPONENT
100
AcDbPolyline
 62
7
  6
BYLAYER
 90
7
 70
0
 10
464.4460018325
 20
392.7264013471
 10
463.8201608436
 20
392.0821049673
 10
462.9823539991
 20
391.2202834027
 10
462.2045725851
 20
390.4210855242
 10
461.5194387219
 20
389.7179413588
 10
460.9599129127
 20
389.1444099044
 10
460.5559845363
 20
388.7308195073
  0
LINE
  5
30F
100
AcDbEntity
  8
11_COMPONENT
100
AcDbLine
 62
7
  6
BYLAYER
 10
468.2281585802
 20
396.6222930304
 11
468.1327249656
 21
396.5240796058
  0
LINE
  5
310
100
AcDbEntity
  8
11_COMPONENT
100
AcDbLine
 62
7
  6
BYLAYER
 10
468.1327249656
 20
396.5240796058
 11
467.4013906464
 21
395.7711486147
  0
LINE
  5
311
100
AcDbEntity
  8
11_COMPONENT
100
AcDbLine
 62
7
  6
BYLAYER
 10
460.5559845363
 20
388.7308195073
 11
460.3206568168
 21
388.4900544643
  0
LWPOLYLINE
  5
312
100
AcDbEntity
  8
11_COMPONENT
100
AcDbPolyline
 62
7
  6
BYLAYER
 90
6
 70
0
 10
460.2325850722
 20
388.3991162775
 10
453.8077918711
 20
379.9940943776
 10
448.3346859301
 20
370.8292894655
 10
443.9483720462
 20
361.0990308474
 10
440.7078159326
 20
350.9370292907
 10
438.6980677036
 20
340.8042351355
  0
LINE
  5
313
100
AcDbEntity
  8
11_COMPONENT
100
AcDbLine
 62
7
  6
BYLAYER
 10
465.6929543527
 20
306.7782470598
 11
465.6892168009
 21
306.7780506255
  0
LINE
  5
314
100
AcDbEntity
  8
11_COMPONENT
100
AcDbLine
 62
7
  6
BYLAYER
 10
461.2644048707
 20
314.4886469376
 11
461.2646733358
 21
314.4886326822
  0
LWPOLYLINE
  5
315
100
AcDbEntity
  8
11_COMPONENT
100
AcDbPolyline
 62
7
  6
BYLAYER
 90
7
 70
0
 10
461.2642401995
 20
314.4886713473
 10
462.1036148281
 20
314.3408331109
 10
463.2800749855
 20
313.8285770347
 10
464.3935614259
 20
313.0255570608
 10
465.303109648
 20
312.0950615918
 10
465.998848243
 20
311.1392548867
 10
466.4173706347
 20
310.3862628163
  0
LWPOLYLINE
  5
316
100
AcDbEntity
  8
11_COMPONENT
100
AcDbPolyline
 62
7
  6
BYLAYER
 90
3
 70
0
 10
440.1909209564
 20
334.6112896892
 10
440.1949303713
 20
334.341346125
 10
440.2819165636
 20
334.0587694324
  0
LINE
  5
317
100
AcDbEntity
  8
11_COMPONENT
100
AcDbLine
 62
7
  6
BYLAYER
 10
479.4347126351
 20
325.8768634943
 11
477.5738057883
 21
325.8768604191
  0
LINE
  5
318
100
AcDbEntity
  8
11_COMPONENT
100
AcDbLine
 62
7
  6
BYLAYER
 10
485.9750955738
 20
325.836033311
 11
479.4347126351
 21
325.8768814433
  0
LWPOLYLINE
  5
319
100
AcDbEntity
  8
11_COMPONENT
100
AcDbPolyline
 62
7
  6
BYLAYER
 90
9
 70
0
 10
466.4173946456
 20
310.3862515806
 10
466.6775639026
 20
309.7813355026
 10
466.9169458056
 20
308.953975004
 10
466.9901691841
 20
308.235296293
 10
466.9073084712
 20
307.647814205
 10
466.6784380181
 20
307.2088576176
 10
466.3053983564
 20
306.920926039
 10
465.7684378758
 20
306.7835844529
 10
465.6924989993
 20
306.7781855899
  0
LINE
  5
31A
100
AcDbEntity
  8
11_COMPONENT
100
AcDbLine
 62
7
  6
BYLAYER
 10
466.6347126351
 20
309.8809684147
 11
466.6347126351
 21
308.7674017018
  0
LINE
  5
31B
100
AcDbEntity
  8
11_COMPONENT
100
AcDbLine
 62
7
  6
BYLAYER
 10
477.5738057883
 20
325.8768604191
 11
477.5729242162
 21
326.0278551854
  0
LINE
  5
31C
100
AcDbEntity
  8
11_COMPONENT
100
AcDbLine
 62
7
  6
BYLAYER
 10
477.8827126351
 20
403.2732789858
 11
477.8827126351
 21
402.0772700423
  0
LINE
  5
31D
100
AcDbEntity
  8
11_COMPONENT
100
AcDbLine
 62
7
  6
BYLAYER
 10
477.9797126351
 20
402.0522088991
 11
477.9797126351
 21
403.349577196
  0
LINE
  5
31E
100
AcDbEntity
  8
11_COMPONENT
100
AcDbLine
 62
7
  6
BYLAYER
 10
477.3787387978
 20
393.1445373327
 11
477.3789217637
 21
393.2280759841
  0
LINE
  5
31F
100
AcDbEntity
  8
11_COMPONENT
100
AcDbLine
 62
7
  6
BYLAYER
 10
479.4347126351
 20
288.0276016952
 11
479.4347126351
 21
401.7151711693
  0
LINE
  5
320
100
AcDbEntity
  8
11_COMPONENT
100
AcDbLine
 62
7
  6
BYLAYER
 10
479.4347126351
 20
401.7151711693
 11
479.4347126351
 21
403.2733238771
  0
LINE
  5
321
100
AcDbEntity
  8
11_COMPONENT
100
AcDbLine
 62
7
  6
BYLAYER
 10
480.0338903559
 20
402.345426388
 11
480.0338903559
 21
402.7199261631
  0
LINE
  5
322
100
AcDbEntity
  8
11_COMPONENT
100
AcDbLine
 62
7
  6
BYLAYER
 10
480.0347126351
 20
402.8681443368
 11
480.0347126351
 21
403.2418792095
  0
LINE
  5
323
100
AcDbEntity
  8
11_COMPONENT
100
AcDbLine
 62
7
  6
BYLAYER
 10
480.0338903559
 20
402.7199261631
 11
480.0347126351
 21
402.8681443368
  0
LINE
  5
324
100
AcDbEntity
  8
11_COMPONENT
100
AcDbLine
 62
7
  6
BYLAYER
 10
477.2888336793
 20
294.8584598982
 11
477.295412957
 21
294.9933780907
  0
LINE
  5
325
100
AcDbEntity
  8
11_COMPONENT
100
AcDbLine
 62
7
  6
BYLAYER
 10
477.1456854786
 20
291.5283955427
 11
477.1484372212
 21
291.5829895008
  0
LINE
  5
326
100
AcDbEntity
  8
11_COMPONENT
100
AcDbLine
 62
7
  6
BYLAYER
 10
485.9750955739
 20
402.4036701042
 11
485.9750955738
 21
288.3703686407
  0
LINE
  5
327
100
AcDbEntity
  8
11_COMPONENT
100
AcDbLine
 62
7
  6
BYLAYER
 10
486.4347126351
 20
401.9128592154
 11
486.4347126351
 21
288.8547039651
  0
LINE
  5
328
100
AcDbEntity
  8
11_COMPONENT
100
AcDbLine
 62
7
  6
BYLAYER
 10
498.0347126351
 20
379.2674016952
 11
498.0347126351
 21
373.7674016952
  0
LINE
  5
329
100
AcDbEntity
  8
11_COMPONENT
100
AcDbLine
 62
7
  6
BYLAYER
 10
486.4347126351
 20
373.7674016952
 11
498.0347126351
 21
373.7674016952
  0
LINE
  5
32A
100
AcDbEntity
  8
11_COMPONENT
100
AcDbLine
 62
7
  6
BYLAYER
 10
486.4347126351
 20
379.2674016952
 11
498.0347126351
 21
379.2674016952
  0
LINE
  5
32B
100
AcDbEntity
  8
11_COMPONENT
100
AcDbLine
 62
7
  6
BYLAYER
 10
479.4347126351
 20
393.2280829364
 11
477.3789217637
 21
393.2280759841
  0
LINE
  5
32C
100
AcDbEntity
  8
11_COMPONENT
100
AcDbLine
 62
7
  6
BYLAYER
 10
485.9750955738
 20
392.970150345
 11
479.4347126351
 21
393.2281197504
  0
LINE
  5
32D
100
AcDbEntity
  8
11_COMPONENT
100
AcDbLine
 62
7
  6
BYLAYER
 10
477.8827126351
 20
403.2732789858
 11
477.4113413952
 21
403.2732772898
  0
LINE
  5
32E
100
AcDbEntity
  8
11_COMPONENT
100
AcDbLine
 62
7
  6
BYLAYER
 10
480.0338903559
 20
402.345426388
 11
485.9750957645
 21
402.0409054101
  0
LINE
  5
32F
100
AcDbEntity
  8
11_COMPONENT
100
AcDbLine
 62
7
  6
BYLAYER
 10
480.0347126351
 20
403.2418792095
 11
477.9797126351
 21
403.349577196
  0
LINE
  5
330
100
AcDbEntity
  8
11_COMPONENT
100
AcDbLine
 62
7
  6
BYLAYER
 10
485.9750955649
 20
402.4036701046
 11
481.0347126351
 21
402.6659817985
  0
LINE
  5
331
100
AcDbEntity
  8
11_COMPONENT
100
AcDbLine
 62
7
  6
BYLAYER
 10
634.344605888
 20
380.9599855142
 11
640.5414424771
 21
384.537730787
  0
LINE
  5
332
100
AcDbEntity
  8
11_COMPONENT
100
AcDbLine
 62
7
  6
BYLAYER
 10
634.7900720119
 20
380.7027955276
 11
640.5414424771
 21
384.0233508139
  0
LINE
  5
333
100
AcDbEntity
  8
11_COMPONENT
100
AcDbLine
 62
7
  6
BYLAYER
 10
634.7907572445
 20
380.4145160122
 11
640.7907572445
 21
383.8786176274
  0
LINE
  5
334
100
AcDbEntity
  8
11_COMPONENT
100
AcDbLine
 62
7
  6
BYLAYER
 10
634.2907572445
 20
373.1968464089
 11
633.8452911206
 21
372.9396564223
  0
LINE
  5
335
100
AcDbEntity
  8
11_COMPONENT
100
AcDbLine
 62
7
  6
BYLAYER
 10
647.2914424771
 20
380.7027955276
 11
647.736908601
 21
380.9599855142
  0
LINE
  5
336
100
AcDbEntity
  8
11_COMPONENT
100
AcDbLine
 62
7
  6
BYLAYER
 10
634.7900720119
 20
372.3320078628
 11
634.344605888
 21
372.0748178763
  0
LINE
  5
337
100
AcDbEntity
  8
11_COMPONENT
100
AcDbLine
 62
7
  6
BYLAYER
 10
647.7907572445
 20
379.8379569815
 11
648.2362233684
 21
380.0951469681
  0
LINE
  5
338
100
AcDbEntity
  8
11_COMPONENT
100
AcDbLine
 62
7
  6
BYLAYER
 10
617.0407572445
 20
344.0924016952
 11
617.0407572445
 21
314.5174016952
  0
LINE
  5
339
100
AcDbEntity
  8
11_COMPONENT
100
AcDbLine
 62
7
  6
BYLAYER
 10
607.8218903512
 20
292.3915554602
 11
607.7199110427
 21
291.9180785733
  0
LINE
  5
33A
100
AcDbEntity
  8
11_COMPONENT
100
AcDbLine
 62
7
  6
BYLAYER
 10
607.7200369535
 20
291.918050858
 11
607.6477394793
 21
291.5829952345
  0
LINE
  5
33B
100
AcDbEntity
  8
11_COMPONENT
100
AcDbLine
 62
7
  6
BYLAYER
 10
596.8501113538
 20
295.3103135126
 11
596.7195460469
 21
294.9933870459
  0
LINE
  5
33C
100
AcDbEntity
  8
11_COMPONENT
100
AcDbLine
 62
7
  6
BYLAYER
 10
597.0361782887
 20
295.7574827128
 11
596.8507634792
 21
295.310040432
  0
LINE
  5
33D
100
AcDbEntity
  8
11_COMPONENT
100
AcDbLine
 62
7
  6
BYLAYER
 10
641.2907572445
 20
369.156185763
 11
647.2907572445
 21
372.6202873782
  0
LINE
  5
33E
100
AcDbEntity
  8
11_COMPONENT
100
AcDbLine
 62
7
  6
BYLAYER
 10
647.2914424771
 20
372.3320078628
 11
641.5400720119
 21
369.0114525765
  0
LINE
  5
33F
100
AcDbEntity
  8
11_COMPONENT
100
AcDbLine
 62
7
  6
BYLAYER
 10
647.736908601
 20
372.0748178763
 11
641.5400720119
 21
368.4970726034
  0
LINE
  5
340
100
AcDbEntity
  8
11_COMPONENT
100
AcDbLine
 62
7
  6
BYLAYER
 10
702.6002702297
 20
325.7781390944
 11
703.0811269416
 21
325.8359589572
  0
LINE
  5
341
100
AcDbEntity
  8
11_COMPONENT
100
AcDbLine
 62
7
  6
BYLAYER
 10
703.0810086276
 20
325.8370671891
 11
703.4214572445
 21
325.8768814433
  0
LINE
  5
342
100
AcDbEntity
  8
11_COMPONENT
100
AcDbLine
 62
7
  6
BYLAYER
 10
617.0407572445
 20
314.5174016952
 11
665.0407572445
 21
314.5174016952
  0
LINE
  5
343
100
AcDbEntity
  8
11_COMPONENT
100
AcDbLine
 62
7
  6
BYLAYER
 10
579.4812442593
 20
325.7781390944
 11
578.6600572445
 21
325.8768814433
  0
LINE
  5
344
100
AcDbEntity
  8
11_COMPONENT
100
AcDbLine
 62
7
  6
BYLAYER
 10
667.2716147062
 20
392.6051250129
 11
667.590182296
 21
392.9699276104
  0
LINE
  5
345
100
AcDbEntity
  8
11_COMPONENT
100
AcDbLine
 62
7
  6
BYLAYER
 10
667.5896000285
 20
392.9704558989
 11
667.8156512139
 21
393.2281197504
  0
LINE
  5
346
100
AcDbEntity
  8
11_COMPONENT
100
AcDbLine
 62
7
  6
BYLAYER
 10
617.0407572445
 20
344.0924016952
 11
621.8907572445
 21
346.5174016952
  0
LINE
  5
347
100
AcDbEntity
  8
11_COMPONENT
100
AcDbLine
 62
7
  6
BYLAYER
 10
632.2053474571
 20
386.0882833302
 11
632.2053474571
 21
376.5174016952
  0
LINE
  5
348
100
AcDbEntity
  8
11_COMPONENT
100
AcDbLine
 62
7
  6
BYLAYER
 10
632.5250349107
 20
379.5212946916
 11
632.5250349107
 21
386.3413630068
  0
LINE
  5
349
100
AcDbEntity
  8
11_COMPONENT
100
AcDbLine
 62
7
  6
BYLAYER
 10
632.5407572445
 20
379.5212946916
 11
632.5407572445
 21
376.5174016952
  0
LINE
  5
34A
100
AcDbEntity
  8
11_COMPONENT
100
AcDbLine
 62
7
  6
BYLAYER
 10
633.8452911206
 20
372.9396564223
 11
633.8452911206
 21
380.0951469681
  0
LINE
  5
34B
100
AcDbEntity
  8
11_COMPONENT
100
AcDbLine
 62
7
  6
BYLAYER
 10
634.2907572445
 20
373.1968464089
 11
634.2907572445
 21
379.8379569815
  0
LINE
  5
34C
100
AcDbEntity
  8
11_COMPONENT
100
AcDbLine
 62
7
  6
BYLAYER
 10
634.5407572445
 20
373.0533000801
 11
634.5407572445
 21
379.9815033104
  0
LINE
  5
34D
100
AcDbEntity
  8
11_COMPONENT
100
AcDbLine
 62
7
  6
BYLAYER
 10
634.5407572445
 20
388.2010184298
 11
634.5407572445
 21
402.6659817985
  0
LINE
  5
34E
100
AcDbEntity
  8
11_COMPONENT
100
AcDbLine
 62
7
  6
BYLAYER
 10
635.5407572445
 20
388.7037424093
 11
635.5407572445
 21
402.8681443368
  0
LINE
  5
34F
100
AcDbEntity
  8
11_COMPONENT
100
AcDbLine
 62
7
  6
BYLAYER
 10
649.5342065354
 20
402.345426388
 11
649.4692132593
 21
402.0409137254
  0
LINE
  5
350
100
AcDbEntity
  8
11_COMPONENT
100
AcDbLine
 62
7
  6
BYLAYER
 10
649.3681217215
 20
401.5672492437
 11
649.469214075
 21
402.0409200771
  0
LINE
  5
351
100
AcDbEntity
  8
11_COMPONENT
100
AcDbLine
 62
7
  6
BYLAYER
 10
640.5414424771
 20
369.0114525765
 11
640.5414424771
 21
368.4970726034
  0
LINE
  5
352
100
AcDbEntity
  8
11_COMPONENT
100
AcDbLine
 62
7
  6
BYLAYER
 10
640.5414424771
 20
384.0233508139
 11
640.5414424771
 21
384.537730787
  0
LINE
  5
353
100
AcDbEntity
  8
11_COMPONENT
100
AcDbLine
 62
7
  6
BYLAYER
 10
641.0407572445
 20
288.8547039651
 11
641.0407572445
 21
288.0276016952
  0
LINE
  5
354
100
AcDbEntity
  8
11_COMPONENT
100
AcDbLine
 62
7
  6
BYLAYER
 10
641.0407572445
 20
403.2418792095
 11
641.0407572445
 21
403.349577196
  0
LINE
  5
355
100
AcDbEntity
  8
11_COMPONENT
100
AcDbLine
 62
7
  6
BYLAYER
 10
641.5400720119
 20
369.0114525765
 11
641.5400720119
 21
368.4970726034
  0
LINE
  5
356
100
AcDbEntity
  8
11_COMPONENT
100
AcDbLine
 62
7
  6
BYLAYER
 10
641.5400720119
 20
384.0233508139
 11
641.5400720119
 21
384.537730787
  0
LINE
  5
357
100
AcDbEntity
  8
11_COMPONENT
100
AcDbLine
 62
7
  6
BYLAYER
 10
646.5407572445
 20
402.8681440177
 11
646.5407572445
 21
388.7037424093
  0
LINE
  5
358
100
AcDbEntity
  8
11_COMPONENT
100
AcDbLine
 62
7
  6
BYLAYER
 10
647.5407572445
 20
373.0533000801
 11
647.5407572445
 21
379.9815033104
  0
LINE
  5
359
100
AcDbEntity
  8
11_COMPONENT
100
AcDbLine
 62
7
  6
BYLAYER
 10
647.5407572445
 20
388.2010184298
 11
647.5407572445
 21
402.6659817985
  0
LINE
  5
35A
100
AcDbEntity
  8
11_COMPONENT
100
AcDbLine
 62
7
  6
BYLAYER
 10
647.7907572445
 20
379.8379569815
 11
647.7907572445
 21
373.1968464089
  0
LINE
  5
35B
100
AcDbEntity
  8
11_COMPONENT
100
AcDbLine
 62
7
  6
BYLAYER
 10
648.2362233684
 20
380.0951469681
 11
648.2362233684
 21
372.9396564223
  0
LINE
  5
35C
100
AcDbEntity
  8
11_COMPONENT
100
AcDbLine
 62
7
  6
BYLAYER
 10
649.5407572445
 20
376.5174016952
 11
649.5407572445
 21
379.5212946916
  0
LINE
  5
35D
100
AcDbEntity
  8
11_COMPONENT
100
AcDbLine
 62
7
  6
BYLAYER
 10
649.5564795783
 20
379.5212946916
 11
649.5564795783
 21
386.3413630068
  0
LINE
  5
35E
100
AcDbEntity
  8
11_COMPONENT
100
AcDbLine
 62
7
  6
BYLAYER
 10
649.8761670319
 20
386.0882833302
 11
649.8761670319
 21
376.5174016952
  0
LINE
  5
35F
100
AcDbEntity
  8
11_COMPONENT
100
AcDbLine
 62
7
  6
BYLAYER
 10
662.6157572445
 20
346.5174016952
 11
621.8907572445
 21
346.5174016952
  0
LINE
  5
360
100
AcDbEntity
  8
11_COMPONENT
100
AcDbLine
 62
7
  6
BYLAYER
 10
632.7133542756
 20
401.5672410285
 11
632.6123299478
 21
402.0405847393
  0
LINE
  5
361
100
AcDbEntity
  8
11_COMPONENT
100
AcDbLine
 62
7
  6
BYLAYER
 10
632.5473079536
 20
402.345426388
 11
632.6122622689
 21
402.0409054101
  0
LINE
  5
362
100
AcDbEntity
  8
11_COMPONENT
100
AcDbLine
 62
7
  6
BYLAYER
 10
655.5907572445
 20
388.7524016952
 11
655.5907572445
 21
383.9024016952
  0
LINE
  5
363
100
AcDbEntity
  8
11_COMPONENT
100
AcDbLine
 62
7
  6
BYLAYER
 10
662.6157572445
 20
346.5174016952
 11
665.0407572445
 21
345.5474016952
  0
LINE
  5
364
100
AcDbEntity
  8
11_COMPONENT
100
AcDbLine
 62
7
  6
BYLAYER
 10
614.4915645577
 20
392.970150345
 11
614.2658632751
 21
393.2281197504
  0
LINE
  5
365
100
AcDbEntity
  8
11_COMPONENT
100
AcDbLine
 62
7
  6
BYLAYER
 10
614.8098997828
 20
392.6051250129
 11
614.4913209506
 21
392.969940486
  0
LINE
  5
366
100
AcDbEntity
  8
11_COMPONENT
100
AcDbLine
 62
7
  6
BYLAYER
 10
657.5307572445
 20
388.7524016952
 11
657.5307572445
 21
383.9024016952
  0
LINE
  5
367
100
AcDbEntity
  8
11_COMPONENT
100
AcDbLine
 62
7
  6
BYLAYER
 10
659.4707572445
 20
388.7524016952
 11
659.4707572445
 21
383.9024016952
  0
LINE
  5
368
100
AcDbEntity
  8
11_COMPONENT
100
AcDbLine
 62
7
  6
BYLAYER
 10
661.4107572445
 20
388.7524016952
 11
661.4107572445
 21
383.9024016952
  0
LINE
  5
369
100
AcDbEntity
  8
11_COMPONENT
100
AcDbLine
 62
7
  6
BYLAYER
 10
665.0407572445
 20
314.5174016952
 11
665.0407572445
 21
345.5474016952
  0
LINE
  5
36A
100
AcDbEntity
  8
11_COMPONENT
100
AcDbLine
 62
7
  6
BYLAYER
 10
640.5414424771
 20
368.4970726034
 11
634.344605888
 21
372.0748178763
  0
LINE
  5
36B
100
AcDbEntity
  8
11_COMPONENT
100
AcDbLine
 62
7
  6
BYLAYER
 10
640.5414424771
 20
369.0114525765
 11
634.7900720119
 21
372.3320078628
  0
LINE
  5
36C
100
AcDbEntity
  8
11_COMPONENT
100
AcDbLine
 62
7
  6
BYLAYER
 10
634.7907572445
 20
372.6202873782
 11
640.7907572445
 21
369.156185763
  0
LINE
  5
36D
100
AcDbEntity
  8
11_COMPONENT
100
AcDbLine
 62
7
  6
BYLAYER
 10
685.0453362003
 20
295.7574827128
 11
685.2307502041
 21
295.3100423761
  0
LINE
  5
36E
100
AcDbEntity
  8
11_COMPONENT
100
AcDbLine
 62
7
  6
BYLAYER
 10
685.2312543548
 20
295.3102518531
 11
685.3619684421
 21
294.9933870459
  0
LINE
  5
36F
100
AcDbEntity
  8
11_COMPONENT
100
AcDbLine
 62
7
  6
BYLAYER
 10
674.2596241378
 20
292.3915554602
 11
674.4337750097
 21
291.5829952345
  0
LINE
  5
370
100
AcDbEntity
  8
11_COMPONENT
100
AcDbLine
 62
7
  6
BYLAYER
 10
632.5407572445
 20
376.5174016952
 11
632.2053474571
 21
376.5174016952
  0
LINE
  5
371
100
AcDbEntity
  8
11_COMPONENT
100
AcDbLine
 62
7
  6
BYLAYER
 10
649.5407572445
 20
376.5174016952
 11
649.8761670319
 21
376.5174016952
  0
LINE
  5
372
100
AcDbEntity
  8
11_COMPONENT
100
AcDbLine
 62
7
  6
BYLAYER
 10
634.2907572445
 20
379.8379569815
 11
633.8452911206
 21
380.0951469681
  0
LINE
  5
373
100
AcDbEntity
  8
11_COMPONENT
100
AcDbLine
 62
7
  6
BYLAYER
 10
647.2914424771
 20
372.3320078628
 11
647.736908601
 21
372.0748178763
  0
LINE
  5
374
100
AcDbEntity
  8
11_COMPONENT
100
AcDbLine
 62
7
  6
BYLAYER
 10
634.7900720119
 20
380.7027955276
 11
634.344605888
 21
380.9599855142
  0
LINE
  5
375
100
AcDbEntity
  8
11_COMPONENT
100
AcDbLine
 62
7
  6
BYLAYER
 10
647.7907572445
 20
373.1968464089
 11
648.2362233684
 21
372.9396564223
  0
LINE
  5
376
100
AcDbEntity
  8
11_COMPONENT
100
AcDbLine
 62
7
  6
BYLAYER
 10
641.2907572445
 20
383.8786176274
 11
647.2907572445
 21
380.4145160122
  0
LINE
  5
377
100
AcDbEntity
  8
11_COMPONENT
100
AcDbLine
 62
7
  6
BYLAYER
 10
641.5400720119
 20
384.0233508139
 11
647.2914424771
 21
380.7027955276
  0
LINE
  5
378
100
AcDbEntity
  8
11_COMPONENT
100
AcDbLine
 62
7
  6
BYLAYER
 10
641.5400720119
 20
384.537730787
 11
647.736908601
 21
380.9599855142
  0
LINE
  5
379
100
AcDbEntity
  8
11_COMPONENT
100
AcDbLine
 62
7
  6
BYLAYER
 10
181.2470246293
 20
495.8257034872
 11
181.2470246293
 21
493.9860222576
  0
LINE
  5
37A
100
AcDbEntity
  8
11_COMPONENT
100
AcDbLine
 62
7
  6
BYLAYER
 10
181.4576178436
 20
495.8257034872
 11
181.4576178436
 21
493.9647966404
  0
LINE
  5
37B
100
AcDbEntity
  8
11_COMPONENT
100
AcDbLine
 62
7
  6
BYLAYER
 10
181.7980664605
 20
502.3660864258
 11
181.4576178436
 21
495.8257034872
  0
LINE
  5
37C
100
AcDbEntity
  8
11_COMPONENT
100
AcDbLine
 62
7
  6
BYLAYER
 10
181.5897188204
 20
502.3660896323
 11
181.246937994
 21
495.8257034872
  0
LWPOLYLINE
  5
37D
100
AcDbEntity
  8
11_COMPONENT
100
AcDbPolyline
 62
7
  6
BYLAYER
 90
5
 70
0
 10
181.2492477279
 20
493.9514042764
 10
181.2717121631
 20
493.6018829409
 10
181.4525427866
 20
492.8946050167
 10
181.7975656152
 20
492.2536668619
 10
182.0311055219
 20
491.9633838676
  0
LWPOLYLINE
  5
37E
100
AcDbEntity
  8
11_COMPONENT
100
AcDbPolyline
 62
7
  6
BYLAYER
 90
4
 70
0
 10
182.0311075762
 20
491.9633844326
 10
192.9532445575
 20
480.6081070379
 10
203.9723768239
 20
470.595667238
 10
213.799517594
 20
463.1034118346
  0
LINE
  5
37F
100
AcDbEntity
  8
11_COMPONENT
100
AcDbLine
 62
7
  6
BYLAYER
 10
217.0634238742
 20
495.8257034872
 11
217.0634238742
 21
493.7699126158
  0
LINE
  5
380
100
AcDbEntity
  8
11_COMPONENT
100
AcDbLine
 62
7
  6
BYLAYER
 10
217.2894750597
 20
502.3660864259
 11
217.0634238742
 21
495.8257034872
  0
LWPOLYLINE
  5
381
100
AcDbEntity
  8
11_COMPONENT
100
AcDbPolyline
 62
7
  6
BYLAYER
 90
5
 70
0
 10
214.6778334756
 20
462.5267329558
 10
218.8584375572
 20
460.1761100414
 10
223.3147557836
 20
458.2413296409
 10
227.8890999682
 20
456.8162302904
 10
232.5484621398
 20
455.8652230958
  0
LINE
  5
382
100
AcDbEntity
  8
11_COMPONENT
100
AcDbLine
 62
7
  6
BYLAYER
 10
214.650111965
 20
462.5454748419
 11
213.8120623253
 21
463.0947770472
  0
LINE
  5
383
100
AcDbEntity
  8
11_COMPONENT
100
AcDbLine
 62
7
  6
BYLAYER
 10
213.811718426
 20
463.0950131337
 11
214.6778024924
 21
462.5267528607
  0
LINE
  5
384
100
AcDbEntity
  8
11_COMPONENT
100
AcDbLine
 62
7
  6
BYLAYER
 10
214.6778024924
 20
462.5267528607
 11
214.6501120839
 21
462.5454750185
  0
LINE
  5
385
100
AcDbEntity
  8
11_COMPONENT
100
AcDbLine
 62
7
  6
BYLAYER
 10
213.8120623253
 20
463.0947770472
 11
213.7998710317
 21
463.1031690685
  0
LINE
  5
386
100
AcDbEntity
  8
11_COMPONENT
100
AcDbLine
 62
7
  6
BYLAYER
 10
232.5484621398
 20
455.8652230958
 11
236.8413604121
 21
455.3482661036
  0
LINE
  5
387
100
AcDbEntity
  8
11_COMPONENT
100
AcDbLine
 62
7
  6
BYLAYER
 10
236.8412785072
 20
455.3482733221
 11
236.8111371578
 21
455.3639359407
  0
LWPOLYLINE
  5
388
100
AcDbEntity
  8
11_COMPONENT
100
AcDbPolyline
 62
7
  6
BYLAYER
 90
6
 70
0
 10
250.8352774372
 20
455.3482671664
 10
255.1554985714
 20
455.8695252762
 10
259.812687816
 20
456.822649509
 10
264.3843983917
 20
458.2496922745
 10
268.8382632087
 20
460.1861321558
 10
272.9987945276
 20
462.5267283408
  0
LINE
  5
389
100
AcDbEntity
  8
11_COMPONENT
100
AcDbLine
 62
7
  6
BYLAYER
 10
250.8352775558
 20
455.3482658146
 11
250.8353614066
 21
455.3482732113
  0
LWPOLYLINE
  5
38A
100
AcDbEntity
  8
11_COMPONENT
100
AcDbPolyline
 62
7
  6
BYLAYER
 90
5
 70
0
 10
236.8412784632
 20
455.348272821
 10
240.1719718602
 20
455.1459637481
 10
243.8603448326
 20
455.0792408633
 10
247.5448878246
 20
455.147494034
 10
250.8353614066
 20
455.3482732113
  0
LINE
  5
38B
100
AcDbEntity
  8
11_COMPONENT
100
AcDbLine
 62
7
  6
BYLAYER
 10
237.3383178436
 20
502.8257034872
 11
237.3383178436
 21
497.4257034872
  0
LINE
  5
38C
100
AcDbEntity
  8
11_COMPONENT
100
AcDbLine
 62
7
  6
BYLAYER
 10
235.3448685527
 20
496.424881208
 11
235.4098618288
 21
502.3660866166
  0
LINE
  5
38D
100
AcDbEntity
  8
11_COMPONENT
100
AcDbLine
 62
7
  6
BYLAYER
 10
241.0883178436
 20
496.7257034872
 11
241.0883178436
 21
514.4257034872
  0
LINE
  5
38E
100
AcDbEntity
  8
11_COMPONENT
100
AcDbLine
 62
7
  6
BYLAYER
 10
242.3383178436
 20
496.4257034872
 11
242.3383178436
 21
496.8257034872
  0
LWPOLYLINE
  5
38F
100
AcDbEntity
  8
11_COMPONENT
100
AcDbPolyline
 62
7
  6
BYLAYER
 90
14
 70
0
 10
240.0442531998
 20
481.0365118048
 10
240.2060066904
 20
481.9287941169
 10
240.5718065583
 20
482.7302815002
 10
241.0964101272
 20
483.3992286935
 10
241.7579342974
 20
483.9319883534
 10
242.5338040855
 20
484.309676154
 10
243.3906923186
 20
484.5081827007
 10
244.2790785908
 20
484.5089756551
 10
245.1367977685
 20
484.3118221245
 10
245.9138729387
 20
483.9350364435
 10
246.5765852412
 20
483.4028879577
 10
247.1022821905
 20
482.7344381367
 10
247.4691866353
 20
481.9334733421
 10
247.6324428781
 20
481.0355729401
  0
LINE
  5
390
100
AcDbEntity
  8
11_COMPONENT
100
AcDbLine
 62
7
  6
BYLAYER
 10
253.5383178436
 20
494.3707034872
 11
254.9933178436
 21
495.8257034872
  0
LINE
  5
391
100
AcDbEntity
  8
11_COMPONENT
100
AcDbLine
 62
7
  6
BYLAYER
 10
255.1873178436
 20
495.8257034872
 11
253.6353178436
 21
494.2737034872
  0
LINE
  5
392
100
AcDbEntity
  8
11_COMPONENT
100
AcDbLine
 62
7
  6
BYLAYER
 10
243.8383178437
 20
492.0231287166
 11
243.8383178436
 21
496.4257034872
  0
LINE
  5
393
100
AcDbEntity
  8
11_COMPONENT
100
AcDbLine
 62
7
  6
BYLAYER
 10
245.3383178436
 20
496.4257034872
 11
245.3383178436
 21
496.8257034872
  0
LINE
  5
394
100
AcDbEntity
  8
11_COMPONENT
100
AcDbLine
 62
7
  6
BYLAYER
 10
246.5883178436
 20
496.7257034872
 11
246.5883178436
 21
514.4257034872
  0
LINE
  5
395
100
AcDbEntity
  8
11_COMPONENT
100
AcDbLine
 62
7
  6
BYLAYER
 10
234.0413178436
 20
494.2737034872
 11
232.4893178436
 21
495.8257034872
  0
LINE
  5
396
100
AcDbEntity
  8
11_COMPONENT
100
AcDbLine
 62
7
  6
BYLAYER
 10
232.6833178436
 20
495.8257034872
 11
234.1383178436
 21
494.3707034872
  0
LINE
  5
397
100
AcDbEntity
  8
11_COMPONENT
100
AcDbLine
 62
7
  6
BYLAYER
 10
252.3317671345
 20
496.424881208
 11
252.2668128192
 21
502.3660866166
  0
LINE
  5
398
100
AcDbEntity
  8
11_COMPONENT
100
AcDbLine
 62
7
  6
BYLAYER
 10
250.3383178436
 20
497.4257034872
 11
250.3383178436
 21
502.8257034872
  0
LINE
  5
399
100
AcDbEntity
  8
11_COMPONENT
100
AcDbLine
 62
7
  6
BYLAYER
 10
242.0883178436
 20
483.0257034872
 11
245.5883178436
 21
483.0257034872
  0
LINE
  5
39A
100
AcDbEntity
  8
11_COMPONENT
100
AcDbLine
 62
7
  6
BYLAYER
 10
245.7268830611
 20
484.0257034872
 11
241.9504497582
 21
484.0257034872
  0
LINE
  5
39B
100
AcDbEntity
  8
11_COMPONENT
100
AcDbLine
 62
7
  6
BYLAYER
 10
306.2190178436
 20
493.9647966404
 11
306.200751217
 21
493.9639150683
  0
LINE
  5
39C
100
AcDbEntity
  8
11_COMPONENT
100
AcDbLine
 62
7
  6
BYLAYER
 10
217.0634238742
 20
493.7699126158
 11
216.9678770205
 21
493.7697296499
  0
LINE
  5
39D
100
AcDbEntity
  8
11_COMPONENT
100
AcDbLine
 62
7
  6
BYLAYER
 10
234.0413178436
 20
494.2737034872
 11
253.6353178436
 21
494.2737034872
  0
LINE
  5
39E
100
AcDbEntity
  8
11_COMPONENT
100
AcDbLine
 62
7
  6
BYLAYER
 10
253.5383178436
 20
494.3707034872
 11
234.1383178436
 21
494.3707034872
  0
LINE
  5
39F
100
AcDbEntity
  8
11_COMPONENT
100
AcDbLine
 62
7
  6
BYLAYER
 10
306.4296028354
 20
495.8257034872
 11
254.9933178436
 21
495.8257034872
  0
LINE
  5
3A0
100
AcDbEntity
  8
11_COMPONENT
100
AcDbLine
 62
7
  6
BYLAYER
 10
254.9933178436
 20
495.8257034872
 11
232.6833178436
 21
495.8257034872
  0
LINE
  5
3A1
100
AcDbEntity
  8
11_COMPONENT
100
AcDbLine
 62
7
  6
BYLAYER
 10
232.6833178436
 20
495.8257034872
 11
181.2470355446
 21
495.8257034872
  0
LINE
  5
3A2
100
AcDbEntity
  8
11_COMPONENT
100
AcDbLine
 62
7
  6
BYLAYER
 10
270.7087586667
 20
493.7697296499
 11
270.6132118131
 21
493.7699126158
  0
LINE
  5
3A3
100
AcDbEntity
  8
11_COMPONENT
100
AcDbLine
 62
7
  6
BYLAYER
 10
181.4758844702
 20
493.9639150683
 11
181.4576178436
 21
493.9647966404
  0
LINE
  5
3A4
100
AcDbEntity
  8
11_COMPONENT
100
AcDbLine
 62
7
  6
BYLAYER
 10
238.338317801
 20
496.4257035037
 11
237.3433294885
 21
496.424881208
  0
LINE
  5
3A5
100
AcDbEntity
  8
11_COMPONENT
100
AcDbLine
 62
7
  6
BYLAYER
 10
252.3317671345
 20
496.424881208
 11
250.3333061988
 21
496.424881208
  0
LINE
  5
3A6
100
AcDbEntity
  8
11_COMPONENT
100
AcDbLine
 62
7
  6
BYLAYER
 10
237.3433294885
 20
496.424881208
 11
235.3448685527
 21
496.424881208
  0
LINE
  5
3A7
100
AcDbEntity
  8
11_COMPONENT
100
AcDbLine
 62
7
  6
BYLAYER
 10
249.3383178436
 20
496.4257034872
 11
238.3383178436
 21
496.4257034872
  0
LINE
  5
3A8
100
AcDbEntity
  8
11_COMPONENT
100
AcDbLine
 62
7
  6
BYLAYER
 10
237.6241750008
 20
496.7257034872
 11
242.3383178436
 21
496.7257034872
  0
LINE
  5
3A9
100
AcDbEntity
  8
11_COMPONENT
100
AcDbLine
 62
7
  6
BYLAYER
 10
245.3383178436
 20
496.7257034872
 11
250.0524606865
 21
496.7257034872
  0
LINE
  5
3AA
100
AcDbEntity
  8
11_COMPONENT
100
AcDbLine
 62
7
  6
BYLAYER
 10
242.3383178436
 20
496.8257034872
 11
245.3383178436
 21
496.8257034872
  0
LINE
  5
3AB
100
AcDbEntity
  8
11_COMPONENT
100
AcDbLine
 62
7
  6
BYLAYER
 10
250.3333061988
 20
496.424881208
 11
249.3383178436
 21
496.4257034872
  0
LINE
  5
3AC
100
AcDbEntity
  8
11_COMPONENT
100
AcDbLine
 62
7
  6
BYLAYER
 10
270.3875105304
 20
502.3660864259
 11
270.6132118131
 21
495.8257034872
  0
LINE
  5
3AD
100
AcDbEntity
  8
11_COMPONENT
100
AcDbLine
 62
7
  6
BYLAYER
 10
270.6132118131
 20
495.8257034872
 11
270.6132118131
 21
493.7699126158
  0
LINE
  5
3AE
100
AcDbEntity
  8
11_COMPONENT
100
AcDbLine
 62
7
  6
BYLAYER
 10
250.8353614066
 20
455.3482732113
 11
250.8654986049
 21
455.3639353115
  0
LINE
  5
3AF
100
AcDbEntity
  8
11_COMPONENT
100
AcDbLine
 62
7
  6
BYLAYER
 10
181.5897186822
 20
502.3660869951
 11
237.3383178496
 21
502.366086426
  0
LINE
  5
3B0
100
AcDbEntity
  8
11_COMPONENT
100
AcDbLine
 62
7
  6
BYLAYER
 10
250.3383178327
 20
502.366086426
 11
306.0869170267
 21
502.3660865829
  0
LINE
  5
3B1
100
AcDbEntity
  8
11_COMPONENT
100
AcDbLine
 62
7
  6
BYLAYER
 10
182.0744936819
 20
502.8257034872
 11
241.0883178436
 21
502.8257034872
  0
LINE
  5
3B2
100
AcDbEntity
  8
11_COMPONENT
100
AcDbLine
 62
7
  6
BYLAYER
 10
246.5883178436
 20
502.8257034872
 11
305.6020486012
 21
502.8257034872
  0
LWPOLYLINE
  5
3B3
100
AcDbEntity
  8
11_COMPONENT
100
AcDbPolyline
 62
7
  6
BYLAYER
 90
3
 70
0
 10
273.8771188776
 20
463.1034123741
 10
283.7042588634
 20
470.595667238
 10
294.7233911298
 20
480.6081070379
  0
LINE
  5
3B4
100
AcDbEntity
  8
11_COMPONENT
100
AcDbLine
 62
7
  6
BYLAYER
 10
273.8769143698
 20
463.1032719023
 11
273.8652464453
 21
463.0952399782
  0
LINE
  5
3B5
100
AcDbEntity
  8
11_COMPONENT
100
AcDbLine
 62
7
  6
BYLAYER
 10
272.998834211
 20
462.5267531648
 11
273.0265237683
 21
462.5454747735
  0
LINE
  5
3B6
100
AcDbEntity
  8
11_COMPONENT
100
AcDbLine
 62
7
  6
BYLAYER
 10
272.9988340518
 20
462.5267534198
 11
273.865449713
 21
463.0953796663
  0
LINE
  5
3B7
100
AcDbEntity
  8
11_COMPONENT
100
AcDbLine
 62
7
  6
BYLAYER
 10
273.8652464453
 20
463.0952399782
 11
273.0265237222
 21
462.5454748419
  0
LINE
  5
3B8
100
AcDbEntity
  8
11_COMPONENT
100
AcDbLine
 62
7
  6
BYLAYER
 10
294.7233911298
 20
480.6081070379
 11
305.6455270879
 21
491.9633833111
  0
LINE
  5
3B9
100
AcDbEntity
  8
11_COMPONENT
100
AcDbLine
 62
7
  6
BYLAYER
 10
241.0883178436
 20
514.4257034872
 11
246.5883178436
 21
514.4257034872
  0
LWPOLYLINE
  5
3BA
100
AcDbEntity
  8
11_COMPONENT
100
AcDbPolyline
 62
7
  6
BYLAYER
 90
4
 70
0
 10
305.6455281446
 20
491.9633836803
 10
305.8791111696
 20
492.2537276532
 10
306.2241468378
 20
492.8947480429
 10
306.404951639
 20
493.6021157638
  0
LINE
  5
3BB
100
AcDbEntity
  8
11_COMPONENT
100
AcDbLine
 62
7
  6
BYLAYER
 10
306.404951639
 20
493.6021157638
 11
306.4296109499
 21
493.9860216226
  0
LINE
  5
3BC
100
AcDbEntity
  8
11_COMPONENT
100
AcDbLine
 62
7
  6
BYLAYER
 10
306.4296976932
 20
495.8257034872
 11
306.0869168707
 21
502.3660895584
  0
LINE
  5
3BD
100
AcDbEntity
  8
11_COMPONENT
100
AcDbLine
 62
7
  6
BYLAYER
 10
305.8786935654
 20
502.366086426
 11
306.2190178436
 21
495.8257034872
  0
LINE
  5
3BE
100
AcDbEntity
  8
11_COMPONENT
100
AcDbLine
 62
7
  6
BYLAYER
 10
306.2190178436
 20
495.8257034872
 11
306.2190178436
 21
493.9647966404
  0
LINE
  5
3BF
100
AcDbEntity
  8
11_COMPONENT
100
AcDbLine
 62
7
  6
BYLAYER
 10
306.429611058
 20
493.986022075
 11
306.429611058
 21
495.8257034872
  0
ARC
  5
3C0
100
AcDbEntity
  8
11_COMPONENT
100
AcDbCircle
 62
7
  6
BYLAYER
 10
149.5511488634
 20
363.7986494964
 40
94.4628649715
100
AcDbArc
 50
310.3862428301
 51
313.4230126017
  0
ARC
  5
3C1
100
AcDbEntity
  8
11_COMPONENT
100
AcDbCircle
 62
7
  6
BYLAYER
 10
191.5541986316
 20
397.963396385
 40
72.795788532
100
AcDbArc
 50
262.2997573739
 51
262.625714061
  0
ARC
  5
3C2
100
AcDbEntity
  8
11_COMPONENT
100
AcDbCircle
 62
7
  6
BYLAYER
 10
200.1918238044
 20
312.8409374437
 40
106.8912209027
100
AcDbArc
 50
31.9731053959
 51
36.2934091434
  0
ARC
  5
3C3
100
AcDbEntity
  8
11_COMPONENT
100
AcDbCircle
 62
7
  6
BYLAYER
 10
200.2352000412
 20
312.9882194521
 40
106.7830618922
100
AcDbArc
 50
19.5414356154
 51
24.0024988841
  0
ARC
  5
3C4
100
AcDbEntity
  8
11_COMPONENT
100
AcDbCircle
 62
7
  6
BYLAYER
 10
200.3692701261
 20
312.8506618318
 40
106.7466346896
100
AcDbArc
 50
42.0116239743
 51
43.655134637
  0
ARC
  5
3C5
100
AcDbEntity
  8
11_COMPONENT
100
AcDbCircle
 62
7
  6
BYLAYER
 10
200.4364498277
 20
312.9933059515
 40
106.6030230986
100
AcDbArc
 50
30.703807036
 51
31.9732563921
  0
ARC
  5
3C6
100
AcDbEntity
  8
11_COMPONENT
100
AcDbCircle
 62
7
  6
BYLAYER
 10
200.5172784506
 20
312.9985283406
 40
106.5374749746
100
AcDbArc
 50
43.6525477882
 51
48.7884632095
  0
ARC
  5
3C7
100
AcDbEntity
  8
11_COMPONENT
100
AcDbCircle
 62
7
  6
BYLAYER
 10
200.6374685676
 20
313.1184402753
 40
106.368054471
100
AcDbArc
 50
44.1820291884
 51
48.7945701197
  0
ARC
  5
3C8
100
AcDbEntity
  8
11_COMPONENT
100
AcDbCircle
 62
7
  6
BYLAYER
 10
200.7148171063
 20
313.1770255311
 40
106.2658295871
100
AcDbArc
 50
6.9456200491
 51
12.5893623559
  0
ARC
  5
3C9
100
AcDbEntity
  8
11_COMPONENT
100
AcDbCircle
 62
7
  6
BYLAYER
 10
200.898613686
 20
313.3549632764
 40
106.0172884852
100
AcDbArc
 50
36.2956035586
 51
38.106320525
  0
ARC
  5
3CA
100
AcDbEntity
  8
11_COMPONENT
100
AcDbCircle
 62
7
  6
BYLAYER
 10
201.2671616838
 20
313.4828830868
 40
105.6387837432
100
AcDbArc
 50
25.0594237998
 51
30.7055502884
  0
ARC
  5
3CB
100
AcDbEntity
  8
11_COMPONENT
100
AcDbCircle
 62
7
  6
BYLAYER
 10
201.2250006721
 20
313.6010400043
 40
105.6086061103
100
AcDbArc
 50
38.110547463
 51
42.0198632188
  0
ARC
  5
3CC
100
AcDbEntity
  8
11_COMPONENT
100
AcDbCircle
 62
7
  6
BYLAYER
 10
210.933600909
 20
322.4803971395
 40
29.7644839737
100
AcDbArc
 50
238.6510672019
 51
239.1916723719
  0
ARC
  5
3CD
100
AcDbEntity
  8
11_COMPONENT
100
AcDbCircle
 62
7
  6
BYLAYER
 10
210.8784316388
 20
322.384199085
 40
29.6536050044
100
AcDbArc
 50
239.1880293589
 51
247.4720112606
  0
ARC
  5
3CE
100
AcDbEntity
  8
11_COMPONENT
100
AcDbCircle
 62
7
  6
BYLAYER
 10
210.8451738934
 20
322.3128214103
 40
29.5749388832
100
AcDbArc
 50
241.6855671962
 51
247.478550702
  0
ARC
  5
3CF
100
AcDbEntity
  8
11_COMPONENT
100
AcDbCircle
 62
7
  6
BYLAYER
 10
211.0941636636
 20
322.4527286989
 40
29.073565306
100
AcDbArc
 50
173.1332532595
 51
173.4488106746
  0
CIRCLE
  5
3D0
100
AcDbEntity
  8
11_COMPONENT
100
AcDbCircle
 62
7
  6
BYLAYER
 10
198.3383178436
 20
310.5174016952
 40
3.5954661239
  0
CIRCLE
  5
3D1
100
AcDbEntity
  8
11_COMPONENT
100
AcDbCircle
 62
7
  6
BYLAYER
 10
198.3383178436
 20
310.5174016952
 40
2.75
  0
CIRCLE
  5
3D2
100
AcDbEntity
  8
11_COMPONENT
100
AcDbCircle
 62
7
  6
BYLAYER
 10
198.3383178436
 20
310.5174016952
 40
1.75
  0
ARC
  5
3D3
100
AcDbEntity
  8
11_COMPONENT
100
AcDbCircle
 62
7
  6
BYLAYER
 10
199.5113523497
 20
311.1946534831
 40
0.1
100
AcDbArc
 50
193.1180380295
 51
226.8819619705
  0
ARC
  5
3D4
100
AcDbEntity
  8
11_COMPONENT
100
AcDbCircle
 62
7
  6
BYLAYER
 10
199.1401653406
 20
311.9062423
 40
0.1
100
AcDbArc
 50
13.1180380295
 51
106.8819619705
  0
ARC
  5
3D5
100
AcDbEntity
  8
11_COMPONENT
100
AcDbCircle
 62
7
  6
BYLAYER
 10
198.3383178436
 20
311.8719052709
 40
0.1
100
AcDbArc
 50
253.1180380295
 51
286.8819619705
  0
ARC
  5
3D6
100
AcDbEntity
  8
11_COMPONENT
100
AcDbCircle
 62
7
  6
BYLAYER
 10
197.5364703466
 20
311.9062423
 40
0.1
100
AcDbArc
 50
73.1180380295
 51
166.8819619705
  0
ARC
  5
3D7
100
AcDbEntity
  8
11_COMPONENT
100
AcDbCircle
 62
7
  6
BYLAYER
 10
197.1652833375
 20
311.1946534831
 40
0.1
100
AcDbArc
 50
313.1180380295
 51
346.8819619705
  0
ARC
  5
3D8
100
AcDbEntity
  8
11_COMPONENT
100
AcDbCircle
 62
7
  6
BYLAYER
 10
196.7346228496
 20
310.5174016952
 40
0.1
100
AcDbArc
 50
133.1180380295
 51
226.8819619705
  0
ARC
  5
3D9
100
AcDbEntity
  8
11_COMPONENT
100
AcDbCircle
 62
7
  6
BYLAYER
 10
197.1652833375
 20
309.8401499074
 40
0.1
100
AcDbArc
 50
13.1180380295
 51
46.8819619705
  0
ARC
  5
3DA
100
AcDbEntity
  8
11_COMPONENT
100
AcDbCircle
 62
7
  6
BYLAYER
 10
197.5364703466
 20
309.1285610905
 40
0.1
100
AcDbArc
 50
193.1180380295
 51
286.8819619705
  0
ARC
  5
3DB
100
AcDbEntity
  8
11_COMPONENT
100
AcDbCircle
 62
7
  6
BYLAYER
 10
198.3383178436
 20
309.1628981195
 40
0.1
100
AcDbArc
 50
73.1180380295
 51
106.8819619705
  0
ARC
  5
3DC
100
AcDbEntity
  8
11_COMPONENT
100
AcDbCircle
 62
7
  6
BYLAYER
 10
199.1401653406
 20
309.1285610905
 40
0.1
100
AcDbArc
 50
253.1180380295
 51
346.8819619705
  0
ARC
  5
3DD
100
AcDbEntity
  8
11_COMPONENT
100
AcDbCircle
 62
7
  6
BYLAYER
 10
199.5113523497
 20
309.8401499074
 40
0.1
100
AcDbArc
 50
133.1180380295
 51
166.8819619705
  0
ARC
  5
3DE
100
AcDbEntity
  8
11_COMPONENT
100
AcDbCircle
 62
7
  6
BYLAYER
 10
199.9420128376
 20
310.5174016952
 40
0.1
100
AcDbArc
 50
313.1180380295
 51
46.8819619705
  0
ARC
  5
3DF
100
AcDbEntity
  8
11_COMPONENT
100
AcDbCircle
 62
7
  6
BYLAYER
 10
243.8382653294
 20
314.5260513864
 40
23.000057553
100
AcDbArc
 50
270.0001308188
 51
354.7576049596
  0
ARC
  5
3E0
100
AcDbEntity
  8
11_COMPONENT
100
AcDbCircle
 62
7
  6
BYLAYER
 10
235.7973059416
 20
311.754892417
 40
18.0222248277
100
AcDbArc
 50
175.2847310794
 51
187.3434444816
  0
ARC
  5
3E1
100
AcDbEntity
  8
11_COMPONENT
100
AcDbCircle
 62
7
  6
BYLAYER
 10
235.1372415998
 20
311.686150813
 40
17.3587956846
100
AcDbArc
 50
187.3968806602
 51
200.9215879908
  0
ARC
  5
3E2
100
AcDbEntity
  8
11_COMPONENT
100
AcDbCircle
 62
7
  6
BYLAYER
 10
235.5154505274
 20
311.627414597
 40
17.2122358847
100
AcDbArc
 50
187.0576903061
 51
189.9746458689
  0
ARC
  5
3E3
100
AcDbEntity
  8
11_COMPONENT
100
AcDbCircle
 62
7
  6
BYLAYER
 10
235.4427822113
 20
311.6152932659
 40
17.1385664345
100
AcDbArc
 50
189.9768153348
 51
190.1815843703
  0
ARC
  5
3E4
100
AcDbEntity
  8
11_COMPONENT
100
AcDbCircle
 62
7
  6
BYLAYER
 10
235.3940654394
 20
311.6062415704
 40
17.08901678
100
AcDbArc
 50
190.1805866892
 51
192.800780429
  0
ARC
  5
3E5
100
AcDbEntity
  8
11_COMPONENT
100
AcDbCircle
 62
7
  6
BYLAYER
 10
236.8304576902
 20
314.3555689236
 40
16.2540153898
100
AcDbArc
 50
192.9522809244
 51
200.9575964519
  0
ARC
  5
3E6
100
AcDbEntity
  8
11_COMPONENT
100
AcDbCircle
 62
7
  6
BYLAYER
 10
236.5063604889
 20
314.2782458402
 40
15.9208332445
100
AcDbArc
 50
189.4024689722
 51
192.9425181764
  0
ARC
  5
3E7
100
AcDbEntity
  8
11_COMPONENT
100
AcDbCircle
 62
7
  6
BYLAYER
 10
236.337018253
 20
313.5591063141
 40
15.6489238308
100
AcDbArc
 50
184.2208619024
 51
186.9288648288
  0
ARC
  5
3E8
100
AcDbEntity
  8
11_COMPONENT
100
AcDbCircle
 62
7
  6
BYLAYER
 10
236.2868914081
 20
313.5550880812
 40
15.5986371987
100
AcDbArc
 50
183.3016259735
 51
184.2196940966
  0
ARC
  5
3E9
100
AcDbEntity
  8
11_COMPONENT
100
AcDbCircle
 62
7
  6
BYLAYER
 10
236.3366537828
 20
314.2418828512
 40
15.5037474814
100
AcDbArc
 50
182.656168871
 51
185.243368349
  0
ARC
  5
3EA
100
AcDbEntity
  8
11_COMPONENT
100
AcDbCircle
 62
7
  6
BYLAYER
 10
236.3364344152
 20
313.8377865513
 40
15.4666079057
100
AcDbArc
 50
180.6798200807
 51
185.2426249588
  0
ARC
  5
3EB
100
AcDbEntity
  8
11_COMPONENT
100
AcDbCircle
 62
7
  6
BYLAYER
 10
223.5335887205
 20
353.1418502672
 40
62.9137331491
100
AcDbArc
 50
249.2999434157
 51
249.8034585542
  0
ARC
  5
3EC
100
AcDbEntity
  8
11_COMPONENT
100
AcDbCircle
 62
7
  6
BYLAYER
 10
223.6950486228
 20
352.8719153764
 40
62.7047651192
100
AcDbArc
 50
254.7608232898
 51
257.8012369753
  0
ARC
  5
3ED
100
AcDbEntity
  8
11_COMPONENT
100
AcDbCircle
 62
7
  6
BYLAYER
 10
223.0612776818
 20
350.107262061
 40
59.8686332901
100
AcDbArc
 50
256.6014174722
 51
257.8350010318
  0
ARC
  5
3EE
100
AcDbEntity
  8
11_COMPONENT
100
AcDbCircle
 62
7
  6
BYLAYER
 10
223.725917768
 20
349.8753015453
 40
59.5207155585
100
AcDbArc
 50
246.1490311383
 51
246.5048081763
  0
ARC
  5
3EF
100
AcDbEntity
  8
11_COMPONENT
100
AcDbCircle
 62
7
  6
BYLAYER
 10
222.1118367567
 20
349.5199585031
 40
59.0226210892
100
AcDbArc
 50
247.4918557165
 51
247.8364849398
  0
ARC
  5
3F0
100
AcDbEntity
  8
11_COMPONENT
100
AcDbCircle
 62
7
  6
BYLAYER
 10
223.0125723499
 20
347.8855080303
 40
57.3622898078
100
AcDbArc
 50
257.3960974838
 51
257.6638609264
  0
ARC
  5
3F1
100
AcDbEntity
  8
11_COMPONENT
100
AcDbCircle
 62
7
  6
BYLAYER
 10
240.0765520663
 20
342.1931939126
 40
10.9693800676
100
AcDbArc
 50
346.6144927842
 51
349.5935568415
  0
ARC
  5
3F2
100
AcDbEntity
  8
11_COMPONENT
100
AcDbCircle
 62
7
  6
BYLAYER
 10
224.5325516885
 20
355.9678518889
 40
65.9112648733
100
AcDbArc
 50
251.3351327589
 51
252.6998381613
  0
ARC
  5
3F3
100
AcDbEntity
  8
11_COMPONENT
100
AcDbCircle
 62
7
  6
BYLAYER
 10
224.5030163652
 20
355.8606781733
 40
65.8008315083
100
AcDbArc
 50
251.3798570953
 51
254.464367892
  0
ARC
  5
3F4
100
AcDbEntity
  8
11_COMPONENT
100
AcDbCircle
 62
7
  6
BYLAYER
 10
224.4735374928
 20
355.7300749709
 40
65.6665691413
100
AcDbArc
 50
254.0493365421
 51
254.4586273977
  0
ARC
  5
3F5
100
AcDbEntity
  8
11_COMPONENT
100
AcDbCircle
 62
7
  6
BYLAYER
 10
224.2987864382
 20
355.1351498926
 40
65.047110617
100
AcDbArc
 50
254.4896740565
 51
254.7406016666
  0
ARC
  5
3F6
100
AcDbEntity
  8
11_COMPONENT
100
AcDbCircle
 62
7
  6
BYLAYER
 10
223.9109561224
 20
353.6227894142
 40
63.4854345288
100
AcDbArc
 50
255.3471401868
 51
256.0434077074
  0
ARC
  5
3F7
100
AcDbEntity
  8
11_COMPONENT
100
AcDbCircle
 62
7
  6
BYLAYER
 10
241.7045751225
 20
362.5813243966
 40
41.3285451757
100
AcDbArc
 50
71.2439720391
 51
73.1913295779
  0
ARC
  5
3F8
100
AcDbEntity
  8
11_COMPONENT
100
AcDbCircle
 62
7
  6
BYLAYER
 10
243.6181264328
 20
362.321347829
 40
41.0361204952
100
AcDbArc
 50
48.8648690504
 51
54.4017233394
  0
ARC
  5
3F9
100
AcDbEntity
  8
11_COMPONENT
100
AcDbCircle
 62
7
  6
BYLAYER
 10
243.7666470273
 20
362.3323030471
 40
40.9512500274
100
AcDbArc
 50
67.0987782791
 51
68.4683459395
  0
ARC
  5
3FA
100
AcDbEntity
  8
11_COMPONENT
100
AcDbCircle
 62
7
  6
BYLAYER
 10
243.8215808377
 20
362.4028358914
 40
40.870898081
100
AcDbArc
 50
83.3587261082
 51
84.7792599393
  0
ARC
  5
3FB
100
AcDbEntity
  8
11_COMPONENT
100
AcDbCircle
 62
7
  6
BYLAYER
 10
243.8356573286
 20
362.5376201816
 40
40.8119571011
100
AcDbArc
 50
76.2467710335
 51
89.9962649113
  0
ARC
  5
3FC
100
AcDbEntity
  8
11_COMPONENT
100
AcDbCircle
 62
7
  6
BYLAYER
 10
243.7911665305
 20
362.4818756283
 40
40.8032764333
100
AcDbArc
 50
62.7546563217
 51
63.875990994
  0
ARC
  5
3FD
100
AcDbEntity
  8
11_COMPONENT
100
AcDbCircle
 62
7
  6
BYLAYER
 10
243.8303020419
 20
362.4725649904
 40
40.8006282578
100
AcDbArc
 50
78.8959308232
 51
83.3595663252
  0
ARC
  5
3FE
100
AcDbEntity
  8
11_COMPONENT
100
AcDbCircle
 62
7
  6
BYLAYER
 10
243.7965334295
 20
362.4923438696
 40
40.7915126226
100
AcDbArc
 50
61.9218089253
 51
62.7546269466
  0
ARC
  5
3FF
100
AcDbEntity
  8
11_COMPONENT
100
AcDbCircle
 62
7
  6
BYLAYER
 10
243.8006997963
 20
362.5001799795
 40
40.782637766
100
AcDbArc
 50
61.4094687055
 51
61.9217917031
  0
ARC
  5
400
100
AcDbEntity
  8
11_COMPONENT
100
AcDbCircle
 62
7
  6
BYLAYER
 10
243.8054017445
 20
362.5117925862
 40
40.7701477152
100
AcDbArc
 50
63.8754402299
 51
67.05076187
  0
ARC
  5
401
100
AcDbEntity
  8
11_COMPONENT
100
AcDbCircle
 62
7
  6
BYLAYER
 10
243.823693503
 20
362.5406056206
 40
40.7361379888
100
AcDbArc
 50
56.1212961643
 51
61.4106562812
  0
ARC
  5
402
100
AcDbEntity
  8
11_COMPONENT
100
AcDbCircle
 62
7
  6
BYLAYER
 10
243.8315823041
 20
362.5555697649
 40
40.7192622345
100
AcDbArc
 50
48.8742371588
 51
77.2787358221
  0
ARC
  5
403
100
AcDbEntity
  8
11_COMPONENT
100
AcDbCircle
 62
7
  6
BYLAYER
 10
243.8339569902
 20
362.5642510429
 40
40.7090264806
100
AcDbArc
 50
84.7759343551
 51
89.9938623318
  0
ARC
  5
404
100
AcDbEntity
  8
11_COMPONENT
100
AcDbCircle
 62
7
  6
BYLAYER
 10
243.8341589758
 20
362.5680351239
 40
40.7052440743
100
AcDbArc
 50
84.7757323812
 51
89.9941460718
  0
ARC
  5
405
100
AcDbEntity
  8
11_COMPONENT
100
AcDbCircle
 62
7
  6
BYLAYER
 10
243.8349039364
 20
362.5679427119
 40
40.7033870076
100
AcDbArc
 50
124.0496097776
 51
124.3937499174
  0
ARC
  5
406
100
AcDbEntity
  8
11_COMPONENT
100
AcDbCircle
 62
7
  6
BYLAYER
 10
243.83110798
 20
362.5734771948
 40
40.6966758415
100
AcDbArc
 50
124.3937414325
 51
125.5431029557
  0
ARC
  5
407
100
AcDbEntity
  8
11_COMPONENT
100
AcDbCircle
 62
7
  6
BYLAYER
 10
243.8219515298
 20
362.5862037969
 40
40.6809975234
100
AcDbArc
 50
125.6844613213
 51
131.129624689
  0
ARC
  5
408
100
AcDbEntity
  8
11_COMPONENT
100
AcDbCircle
 62
7
  6
BYLAYER
 10
243.80031837
 20
362.5890789595
 40
40.6720363597
100
AcDbArc
 50
112.9034884336
 51
116.3331939046
  0
ARC
  5
409
100
AcDbEntity
  8
11_COMPONENT
100
AcDbCircle
 62
7
  6
BYLAYER
 10
243.8136822314
 20
362.6500583699
 40
40.6203581949
100
AcDbArc
 50
109.9403489534
 51
110.2136272744
  0
ARC
  5
40A
100
AcDbEntity
  8
11_COMPONENT
100
AcDbCircle
 62
7
  6
BYLAYER
 10
243.8098382958
 20
362.6599894788
 40
40.6097115326
100
AcDbArc
 50
106.1864426169
 51
109.9400292981
  0
ARC
  5
40B
100
AcDbEntity
  8
11_COMPONENT
100
AcDbCircle
 62
7
  6
BYLAYER
 10
243.8084847445
 20
362.6617477828
 40
40.6076463767
100
AcDbArc
 50
103.9175468916
 51
105.9004057377
  0
ARC
  5
40C
100
AcDbEntity
  8
11_COMPONENT
100
AcDbCircle
 62
7
  6
BYLAYER
 10
243.8074266755
 20
362.6725605959
 40
40.5968718178
100
AcDbArc
 50
101.8854007386
 51
103.1980008799
  0
ARC
  5
40D
100
AcDbEntity
  8
11_COMPONENT
100
AcDbCircle
 62
7
  6
BYLAYER
 10
243.804941142
 20
362.6746249835
 40
40.5942910393
100
AcDbArc
 50
105.923685499
 51
106.1855630467
  0
ARC
  5
40E
100
AcDbEntity
  8
11_COMPONENT
100
AcDbCircle
 62
7
  6
BYLAYER
 10
243.7722485546
 20
362.7039631756
 40
40.5583782811
100
AcDbArc
 50
124.9751134262
 51
125.582627886
  0
ARC
  5
40F
100
AcDbEntity
  8
11_COMPONENT
100
AcDbCircle
 62
7
  6
BYLAYER
 10
243.736100705
 20
362.7556941083
 40
40.4952692065
100
AcDbArc
 50
124.0825409507
 51
124.9751610333
  0
ARC
  5
410
100
AcDbEntity
  8
11_COMPONENT
100
AcDbCircle
 62
7
  6
BYLAYER
 10
243.703401151
 20
362.7889682219
 40
40.4498981719
100
AcDbArc
 50
116.335756139
 51
118.0126389969
  0
ARC
  5
411
100
AcDbEntity
  8
11_COMPONENT
100
AcDbCircle
 62
7
  6
BYLAYER
 10
243.7538410547
 20
362.3116418701
 40
40.4059871855
100
AcDbArc
 50
48.8397897761
 51
49.0259426995
  0
ARC
  5
412
100
AcDbEntity
  8
11_COMPONENT
100
AcDbCircle
 62
7
  6
BYLAYER
 10
243.6752201226
 20
362.8424954763
 40
40.3894062768
100
AcDbArc
 50
118.0130085333
 51
118.5775210692
  0
ARC
  5
413
100
AcDbEntity
  8
11_COMPONENT
100
AcDbCircle
 62
7
  6
BYLAYER
 10
243.6592984959
 20
362.8715607625
 40
40.3562659257
100
AcDbArc
 50
118.5774094722
 51
124.0844152253
  0
ARC
  5
414
100
AcDbEntity
  8
11_COMPONENT
100
AcDbCircle
 62
7
  6
BYLAYER
 10
243.0364703466
 20
393.9062423
 40
0.1
100
AcDbArc
 50
73.1180380295
 51
166.8819619705
  0
ARC
  5
415
100
AcDbEntity
  8
11_COMPONENT
100
AcDbCircle
 62
7
  6
BYLAYER
 10
242.6652833375
 20
393.1946534831
 40
0.1
100
AcDbArc
 50
313.1180380295
 51
346.8819619705
  0
ARC
  5
416
100
AcDbEntity
  8
11_COMPONENT
100
AcDbCircle
 62
7
  6
BYLAYER
 10
242.2346228496
 20
392.5174016952
 40
0.1
100
AcDbArc
 50
133.1180380295
 51
226.8819619705
  0
ARC
  5
417
100
AcDbEntity
  8
11_COMPONENT
100
AcDbCircle
 62
7
  6
BYLAYER
 10
242.6652833375
 20
391.8401499074
 40
0.1
100
AcDbArc
 50
13.1180380295
 51
46.8819619705
  0
ARC
  5
418
100
AcDbEntity
  8
11_COMPONENT
100
AcDbCircle
 62
7
  6
BYLAYER
 10
243.0364703466
 20
391.1285610905
 40
0.1
100
AcDbArc
 50
193.1180380295
 51
286.8819619705
  0
ARC
  5
419
100
AcDbEntity
  8
11_COMPONENT
100
AcDbCircle
 62
7
  6
BYLAYER
 10
91.4649097158
 20
470.6911087228
 40
206.2642937161
100
AcDbArc
 50
301.7475878006
 51
304.5620926452
  0
ARC
  5
41A
100
AcDbEntity
  8
11_COMPONENT
100
AcDbCircle
 62
7
  6
BYLAYER
 10
242.9539118613
 20
450.7077229737
 40
162.7747497132
100
AcDbArc
 50
281.5516944844
 51
282.0649373036
  0
ARC
  5
41B
100
AcDbEntity
  8
11_COMPONENT
100
AcDbCircle
 62
7
  6
BYLAYER
 10
202.5360704889
 20
487.3459131392
 40
162.6894637491
100
AcDbArc
 50
262.68386655
 51
262.8294386013
  0
ARC
  5
41C
100
AcDbEntity
  8
11_COMPONENT
100
AcDbCircle
 62
7
  6
BYLAYER
 10
243.497882448
 20
449.8903031691
 40
161.8804572494
100
AcDbArc
 50
274.486556709
 51
277.8763521328
  0
ARC
  5
41D
100
AcDbEntity
  8
11_COMPONENT
100
AcDbCircle
 62
7
  6
BYLAYER
 10
243.6228793888
 20
448.5312893022
 40
160.5157649146
100
AcDbArc
 50
274.4800228226
 51
276.0248031842
  0
ARC
  5
41E
100
AcDbEntity
  8
11_COMPONENT
100
AcDbCircle
 62
7
  6
BYLAYER
 10
243.7428121665
 20
447.8115286405
 40
159.7873977741
100
AcDbArc
 50
276.0091244917
 51
278.2581046542
  0
ARC
  5
41F
100
AcDbEntity
  8
11_COMPONENT
100
AcDbCircle
 62
7
  6
BYLAYER
 10
243.7986404872
 20
447.1413472376
 40
159.1137504894
100
AcDbArc
 50
268.0038669255
 51
270.0142875464
  0
ARC
  5
420
100
AcDbEntity
  8
11_COMPONENT
100
AcDbCircle
 62
7
  6
BYLAYER
 10
243.7482500344
 20
446.4562752
 40
158.4198593641
100
AcDbArc
 50
262.3020120449
 51
263.4472631206
  0
ARC
  5
421
100
AcDbEntity
  8
11_COMPONENT
100
AcDbCircle
 62
7
  6
BYLAYER
 10
243.7181376891
 20
445.6090122934
 40
157.5779681095
100
AcDbArc
 50
259.2728336312
 51
259.77786415
  0
ARC
  5
422
100
AcDbEntity
  8
11_COMPONENT
100
AcDbCircle
 62
7
  6
BYLAYER
 10
243.6912259707
 20
443.7661267845
 40
155.7368553852
100
AcDbArc
 50
265.9567946183
 51
267.4570205121
  0
ARC
  5
423
100
AcDbEntity
  8
11_COMPONENT
100
AcDbCircle
 62
7
  6
BYLAYER
 10
243.8383653656
 20
314.5260459151
 40
23.0000520818
100
AcDbArc
 50
185.2423826042
 51
269.9998816174
  0
ARC
  5
424
100
AcDbEntity
  8
11_COMPONENT
100
AcDbCircle
 62
7
  6
BYLAYER
 10
251.5082407924
 20
311.7335700191
 40
18.3938216049
100
AcDbArc
 50
3.4544401154
 51
4.6978291631
  0
ARC
  5
425
100
AcDbEntity
  8
11_COMPONENT
100
AcDbCircle
 62
7
  6
BYLAYER
 10
252.048754777
 20
311.7484614317
 40
17.8534012184
100
AcDbArc
 50
352.6548465776
 51
3.5112571621
  0
ARC
  5
426
100
AcDbEntity
  8
11_COMPONENT
100
AcDbCircle
 62
7
  6
BYLAYER
 10
252.3458750875
 20
311.7156592727
 40
17.5545262913
100
AcDbArc
 50
352.1603843413
 51
352.6370495313
  0
ARC
  5
427
100
AcDbEntity
  8
11_COMPONENT
100
AcDbCircle
 62
7
  6
BYLAYER
 10
252.5503291051
 20
311.6834320412
 40
17.3475878061
100
AcDbArc
 50
339.0155401364
 51
352.1737223564
  0
ARC
  5
428
100
AcDbEntity
  8
11_COMPONENT
100
AcDbCircle
 62
7
  6
BYLAYER
 10
252.124719609
 20
311.6319719665
 40
17.2490093905
100
AcDbArc
 50
352.1645957601
 51
352.9354450379
  0
ARC
  5
429
100
AcDbEntity
  8
11_COMPONENT
100
AcDbCircle
 62
7
  6
BYLAYER
 10
252.1937605716
 20
311.6222212779
 40
17.1792837212
100
AcDbArc
 50
349.8630443229
 51
352.1654210639
  0
ARC
  5
42A
100
AcDbEntity
  8
11_COMPONENT
100
AcDbCircle
 62
7
  6
BYLAYER
 10
252.2886109713
 20
311.6053176684
 40
17.0829388853
100
AcDbArc
 50
347.2359720156
 51
349.8628629095
  0
ARC
  5
42B
100
AcDbEntity
  8
11_COMPONENT
100
AcDbCircle
 62
7
  6
BYLAYER
 10
250.8434266052
 20
314.3562820999
 40
16.2568566293
100
AcDbArc
 50
338.9574681343
 51
347.0474429896
  0
ARC
  5
42C
100
AcDbEntity
  8
11_COMPONENT
100
AcDbCircle
 62
7
  6
BYLAYER
 10
251.3396175067
 20
313.5591063075
 40
15.648923758
100
AcDbArc
 50
353.0711397839
 51
355.7791381024
  0
ARC
  5
42D
100
AcDbEntity
  8
11_COMPONENT
100
AcDbCircle
 62
7
  6
BYLAYER
 10
251.3897341745
 20
313.5550887759
 40
15.5986473271
100
AcDbArc
 50
355.7803060898
 51
356.6975235652
  0
ARC
  5
42E
100
AcDbEntity
  8
11_COMPONENT
100
AcDbCircle
 62
7
  6
BYLAYER
 10
251.3399653963
 20
314.2418841867
 40
15.5037640426
100
AcDbArc
 50
354.7566323115
 51
357.3415569613
  0
ARC
  5
42F
100
AcDbEntity
  8
11_COMPONENT
100
AcDbCircle
 62
7
  6
BYLAYER
 10
251.3401887655
 20
313.8377876004
 40
15.4666204558
100
AcDbArc
 50
354.7573754043
 51
359.3177414426
  0
ARC
  5
430
100
AcDbEntity
  8
11_COMPONENT
100
AcDbCircle
 62
7
  6
BYLAYER
 10
263.8500217636
 20
353.3110599653
 40
63.162574127
100
AcDbArc
 50
283.385179611
 51
285.2818269315
  0
ARC
  5
431
100
AcDbEntity
  8
11_COMPONENT
100
AcDbCircle
 62
7
  6
BYLAYER
 10
264.2384658485
 20
351.82151748
 40
61.6238121746
100
AcDbArc
 50
282.1716829851
 51
285.2984553824
  0
ARC
  5
432
100
AcDbEntity
  8
11_COMPONENT
100
AcDbCircle
 62
7
  6
BYLAYER
 10
263.9498122557
 20
349.8773673409
 40
59.5229711491
100
AcDbArc
 50
293.4951985647
 51
293.8509621206
  0
ARC
  5
433
100
AcDbEntity
  8
11_COMPONENT
100
AcDbCircle
 62
7
  6
BYLAYER
 10
264.7596700231
 20
349.4705399109
 40
59.2157987253
100
AcDbArc
 50
282.1583260924
 51
283.3891734696
  0
ARC
  5
434
100
AcDbEntity
  8
11_COMPONENT
100
AcDbCircle
 62
7
  6
BYLAYER
 10
265.5648082155
 20
349.5199359044
 40
59.0225966575
100
AcDbArc
 50
292.1635149889
 51
292.5081443548
  0
ARC
  5
435
100
AcDbEntity
  8
11_COMPONENT
100
AcDbCircle
 62
7
  6
BYLAYER
 10
264.6640633167
 20
347.8855080402
 40
57.3622898082
100
AcDbArc
 50
282.3361390915
 51
282.6039025341
  0
ARC
  5
436
100
AcDbEntity
  8
11_COMPONENT
100
AcDbCircle
 62
7
  6
BYLAYER
 10
247.6000994603
 20
342.1931962403
 40
10.9693960109
100
AcDbArc
 50
190.4064407628
 51
193.3854997891
  0
ARC
  5
437
100
AcDbEntity
  8
11_COMPONENT
100
AcDbCircle
 62
7
  6
BYLAYER
 10
287.5208216248
 20
312.9566778505
 40
106.8684102306
100
AcDbArc
 50
155.2986291901
 51
160.5750895013
  0
ARC
  5
438
100
AcDbEntity
  8
11_COMPONENT
100
AcDbCircle
 62
7
  6
BYLAYER
 10
287.4500136744
 20
312.8646960083
 40
106.8491214487
100
AcDbArc
 50
143.9095758394
 51
148.0454794765
  0
ARC
  5
439
100
AcDbEntity
  8
11_COMPONENT
100
AcDbCircle
 62
7
  6
BYLAYER
 10
287.3517101595
 20
312.8090650938
 40
106.8074317037
100
AcDbArc
 50
136.7518155211
 51
137.2399170118
  0
ARC
  5
43A
100
AcDbEntity
  8
11_COMPONENT
100
AcDbCircle
 62
7
  6
BYLAYER
 10
287.2905585563
 20
313.1205358252
 40
106.5989894566
100
AcDbArc
 50
167.2532315765
 51
173.0456073107
  0
ARC
  5
43B
100
AcDbEntity
  8
11_COMPONENT
100
AcDbCircle
 62
7
  6
BYLAYER
 10
287.2049730081
 20
313.0148625646
 40
106.561737155
100
AcDbArc
 50
148.0442561584
 51
149.5233615931
  0
ARC
  5
43C
100
AcDbEntity
  8
11_COMPONENT
100
AcDbCircle
 62
7
  6
BYLAYER
 10
286.9812285273
 20
313.1825611946
 40
106.2816726
100
AcDbArc
 50
131.2046608184
 51
136.7616338536
  0
ARC
  5
43D
100
AcDbEntity
  8
11_COMPONENT
100
AcDbCircle
 62
7
  6
BYLAYER
 10
286.8983890442
 20
313.2669355091
 40
106.1635949493
100
AcDbArc
 50
131.201062738
 51
135.7614971579
  0
ARC
  5
43E
100
AcDbEntity
  8
11_COMPONENT
100
AcDbCircle
 62
7
  6
BYLAYER
 10
286.8812724842
 20
313.2781424672
 40
106.145983013
100
AcDbArc
 50
142.4824047771
 51
143.9090780701
  0
ARC
  5
43F
100
AcDbEntity
  8
11_COMPONENT
100
AcDbCircle
 62
7
  6
BYLAYER
 10
286.7665291802
 20
313.3402824019
 40
106.0171309515
100
AcDbArc
 50
137.2359850289
 51
142.4712760897
  0
ARC
  5
440
100
AcDbEntity
  8
11_COMPONENT
100
AcDbCircle
 62
7
  6
BYLAYER
 10
286.5822992862
 20
313.2947835224
 40
105.870866325
100
AcDbArc
 50
160.578734162
 51
161.8621092734
  0
ARC
  5
441
100
AcDbEntity
  8
11_COMPONENT
100
AcDbCircle
 62
7
  6
BYLAYER
 10
286.3233407015
 20
313.527481236
 40
105.5419212756
100
AcDbArc
 50
149.5204522288
 51
155.1514572449
  0
ARC
  5
442
100
AcDbEntity
  8
11_COMPONENT
100
AcDbCircle
 62
7
  6
BYLAYER
 10
276.7431614271
 20
322.4801853161
 40
29.7642371762
100
AcDbArc
 50
300.8086617289
 51
301.6463435354
  0
ARC
  5
443
100
AcDbEntity
  8
11_COMPONENT
100
AcDbCircle
 62
7
  6
BYLAYER
 10
276.5824720237
 20
322.4527286987
 40
29.0735653074
100
AcDbArc
 50
6.5511893259
 51
6.866746741
  0
CIRCLE
  5
444
100
AcDbEntity
  8
11_COMPONENT
100
AcDbCircle
 62
7
  6
BYLAYER
 10
289.3383178436
 20
310.5174016952
 40
3.5954661239
  0
CIRCLE
  5
445
100
AcDbEntity
  8
11_COMPONENT
100
AcDbCircle
 62
7
  6
BYLAYER
 10
289.3383178436
 20
310.5174016952
 40
2.75
  0
CIRCLE
  5
446
100
AcDbEntity
  8
11_COMPONENT
100
AcDbCircle
 62
7
  6
BYLAYER
 10
289.3383178436
 20
310.5174016952
 40
1.75
  0
ARC
  5
447
100
AcDbEntity
  8
11_COMPONENT
100
AcDbCircle
 62
7
  6
BYLAYER
 10
290.5113523497
 20
311.1946534831
 40
0.1
100
AcDbArc
 50
193.1180380295
 51
226.8819619705
  0
ARC
  5
448
100
AcDbEntity
  8
11_COMPONENT
100
AcDbCircle
 62
7
  6
BYLAYER
 10
290.1401653406
 20
311.9062423
 40
0.1
100
AcDbArc
 50
13.1180380295
 51
106.8819619705
  0
ARC
  5
449
100
AcDbEntity
  8
11_COMPONENT
100
AcDbCircle
 62
7
  6
BYLAYER
 10
289.3383178436
 20
311.8719052709
 40
0.1
100
AcDbArc
 50
253.1180380295
 51
286.8819619705
  0
ARC
  5
44A
100
AcDbEntity
  8
11_COMPONENT
100
AcDbCircle
 62
7
  6
BYLAYER
 10
288.5364703466
 20
311.9062423
 40
0.1
100
AcDbArc
 50
73.1180380295
 51
166.8819619705
  0
ARC
  5
44B
100
AcDbEntity
  8
11_COMPONENT
100
AcDbCircle
 62
7
  6
BYLAYER
 10
288.1652833375
 20
311.1946534831
 40
0.1
100
AcDbArc
 50
313.1180380295
 51
346.8819619705
  0
ARC
  5
44C
100
AcDbEntity
  8
11_COMPONENT
100
AcDbCircle
 62
7
  6
BYLAYER
 10
287.7346228496
 20
310.5174016952
 40
0.1
100
AcDbArc
 50
133.1180380295
 51
226.8819619705
  0
ARC
  5
44D
100
AcDbEntity
  8
11_COMPONENT
100
AcDbCircle
 62
7
  6
BYLAYER
 10
288.1652833375
 20
309.8401499074
 40
0.1
100
AcDbArc
 50
13.1180380295
 51
46.8819619705
  0
ARC
  5
44E
100
AcDbEntity
  8
11_COMPONENT
100
AcDbCircle
 62
7
  6
BYLAYER
 10
288.5364703466
 20
309.1285610905
 40
0.1
100
AcDbArc
 50
193.1180380295
 51
286.8819619705
  0
ARC
  5
44F
100
AcDbEntity
  8
11_COMPONENT
100
AcDbCircle
 62
7
  6
BYLAYER
 10
289.3383178436
 20
309.1628981195
 40
0.1
100
AcDbArc
 50
73.1180380295
 51
106.8819619705
  0
ARC
  5
450
100
AcDbEntity
  8
11_COMPONENT
100
AcDbCircle
 62
7
  6
BYLAYER
 10
290.1401653406
 20
309.1285610905
 40
0.1
100
AcDbArc
 50
253.1180380295
 51
346.8819619705
  0
ARC
  5
451
100
AcDbEntity
  8
11_COMPONENT
100
AcDbCircle
 62
7
  6
BYLAYER
 10
290.5113523497
 20
309.8401499074
 40
0.1
100
AcDbArc
 50
133.1180380295
 51
166.8819619705
  0
ARC
  5
452
100
AcDbEntity
  8
11_COMPONENT
100
AcDbCircle
 62
7
  6
BYLAYER
 10
290.9420128376
 20
310.5174016952
 40
0.1
100
AcDbArc
 50
313.1180380295
 51
46.8819619705
  0
ARC
  5
453
100
AcDbEntity
  8
11_COMPONENT
100
AcDbCircle
 62
7
  6
BYLAYER
 10
245.9720606123
 20
362.5813242477
 40
41.328545332
100
AcDbArc
 50
106.8086705945
 51
108.7560279569
  0
ARC
  5
454
100
AcDbEntity
  8
11_COMPONENT
100
AcDbCircle
 62
7
  6
BYLAYER
 10
243.9098244751
 20
362.3327062097
 40
40.9508147254
100
AcDbArc
 50
111.5341084812
 51
112.9050242313
  0
ARC
  5
455
100
AcDbEntity
  8
11_COMPONENT
100
AcDbCircle
 62
7
  6
BYLAYER
 10
243.9655735727
 20
362.4388519829
 40
40.886478551
100
AcDbArc
 50
125.5867826919
 51
131.1116269756
  0
ARC
  5
456
100
AcDbEntity
  8
11_COMPONENT
100
AcDbCircle
 62
7
  6
BYLAYER
 10
243.8550293183
 20
362.4056729116
 40
40.8680714559
100
AcDbArc
 50
95.4385037141
 51
96.9110767399
  0
ARC
  5
457
100
AcDbEntity
  8
11_COMPONENT
100
AcDbCircle
 62
7
  6
BYLAYER
 10
243.841536366
 20
362.5329944919
 40
40.8165828309
100
AcDbArc
 50
90.0045179615
 51
103.7524460937
  0
ARC
  5
458
100
AcDbEntity
  8
11_COMPONENT
100
AcDbCircle
 62
7
  6
BYLAYER
 10
243.880454206
 20
362.4916709916
 40
40.7922719777
100
AcDbArc
 50
117.1753527903
 51
118.0286548749
  0
ARC
  5
459
100
AcDbEntity
  8
11_COMPONENT
100
AcDbCircle
 62
7
  6
BYLAYER
 10
243.8448505713
 20
362.4833677215
 40
40.7897163799
100
AcDbArc
 50
96.9100149991
 51
101.8821087627
  0
ARC
  5
45A
100
AcDbEntity
  8
11_COMPONENT
100
AcDbCircle
 62
7
  6
BYLAYER
 10
243.8759693998
 20
362.5001181694
 40
40.7827080741
100
AcDbArc
 50
118.0649790259
 51
118.5951063157
  0
ARC
  5
45B
100
AcDbEntity
  8
11_COMPONENT
100
AcDbCircle
 62
7
  6
BYLAYER
 10
243.8588086654
 20
362.5309828157
 40
40.7473947624
100
AcDbArc
 50
118.5946912372
 51
124.0483612856
  0
ARC
  5
45C
100
AcDbEntity
  8
11_COMPONENT
100
AcDbCircle
 62
7
  6
BYLAYER
 10
243.8529920071
 20
362.5359024166
 40
40.7300983546
100
AcDbArc
 50
64.9243814328
 51
67.0992138394
  0
ARC
  5
45D
100
AcDbEntity
  8
11_COMPONENT
100
AcDbCircle
 62
7
  6
BYLAYER
 10
243.8460805543
 20
362.5540330874
 40
40.7210953496
100
AcDbArc
 50
103.2128746943
 51
131.1254294322
  0
ARC
  5
45E
100
AcDbEntity
  8
11_COMPONENT
100
AcDbCircle
 62
7
  6
BYLAYER
 10
243.8428837568
 20
362.5576746674
 40
40.7156028784
100
AcDbArc
 50
90.0064252408
 51
95.4417620341
  0
ARC
  5
45F
100
AcDbEntity
  8
11_COMPONENT
100
AcDbCircle
 62
7
  6
BYLAYER
 10
243.842780638
 20
362.5595246822
 40
40.7137545481
100
AcDbArc
 50
90.0062804152
 51
95.4418645318
  0
ARC
  5
460
100
AcDbEntity
  8
11_COMPONENT
100
AcDbCircle
 62
7
  6
BYLAYER
 10
243.8478627074
 20
362.5767886557
 40
40.692624006
100
AcDbArc
 50
54.455406789
 51
54.9359497244
  0
ARC
  5
461
100
AcDbEntity
  8
11_COMPONENT
100
AcDbCircle
 62
7
  6
BYLAYER
 10
243.8541837935
 20
362.5855738885
 40
40.6818011069
100
AcDbArc
 50
48.8704280492
 51
54.4554575759
  0
ARC
  5
462
100
AcDbEntity
  8
11_COMPONENT
100
AcDbCircle
 62
7
  6
BYLAYER
 10
243.8425758508
 20
362.5976772255
 40
40.6765660366
100
AcDbArc
 50
67.0518099209
 51
68.4306234808
  0
ARC
  5
463
100
AcDbEntity
  8
11_COMPONENT
100
AcDbCircle
 62
7
  6
BYLAYER
 10
243.8583522573
 20
362.6374945501
 40
40.6337371537
100
AcDbArc
 50
68.430670983
 51
70.4898926455
  0
ARC
  5
464
100
AcDbEntity
  8
11_COMPONENT
100
AcDbCircle
 62
7
  6
BYLAYER
 10
243.8609194754
 20
362.6375230793
 40
40.6328617255
100
AcDbArc
 50
77.2936407474
 51
78.8934979931
  0
ARC
  5
465
100
AcDbEntity
  8
11_COMPONENT
100
AcDbCircle
 62
7
  6
BYLAYER
 10
243.8681509862
 20
362.6617479436
 40
40.6076462103
100
AcDbArc
 50
74.0995933506
 51
76.0824531134
  0
ARC
  5
466
100
AcDbEntity
  8
11_COMPONENT
100
AcDbCircle
 62
7
  6
BYLAYER
 10
243.8681157172
 20
362.6645174423
 40
40.605005113
100
AcDbArc
 50
70.4901437381
 51
71.5234109895
  0
ARC
  5
467
100
AcDbEntity
  8
11_COMPONENT
100
AcDbCircle
 62
7
  6
BYLAYER
 10
243.870561638
 20
362.6715527936
 40
40.5975572573
100
AcDbArc
 50
71.5235383152
 51
73.8141100471
  0
ARC
  5
468
100
AcDbEntity
  8
11_COMPONENT
100
AcDbCircle
 62
7
  6
BYLAYER
 10
243.8716941105
 20
362.6746234907
 40
40.5942925941
100
AcDbArc
 50
73.8144369514
 51
74.0764234128
  0
ARC
  5
469
100
AcDbEntity
  8
11_COMPONENT
100
AcDbCircle
 62
7
  6
BYLAYER
 10
243.9144704541
 20
362.71818914
 40
40.5409413847
100
AcDbArc
 50
54.415802455
 51
55.4349116784
  0
ARC
  5
46A
100
AcDbEntity
  8
11_COMPONENT
100
AcDbCircle
 62
7
  6
BYLAYER
 10
243.9428760771
 20
362.728764672
 40
40.5173193866
100
AcDbArc
 50
62.5889147656
 51
64.92392142
  0
ARC
  5
46B
100
AcDbEntity
  8
11_COMPONENT
100
AcDbCircle
 62
7
  6
BYLAYER
 10
243.9497978875
 20
362.7692606773
 40
40.4788421424
100
AcDbArc
 50
55.4350765512
 51
55.9196675686
  0
ARC
  5
46C
100
AcDbEntity
  8
11_COMPONENT
100
AcDbCircle
 62
7
  6
BYLAYER
 10
243.9711334995
 20
362.8008158391
 40
40.4407509826
100
AcDbArc
 50
55.9196522605
 51
56.5738654346
  0
ARC
  5
46D
100
AcDbEntity
  8
11_COMPONENT
100
AcDbCircle
 62
7
  6
BYLAYER
 10
243.989275968
 20
362.8196694645
 40
40.4152596245
100
AcDbArc
 50
61.9444911657
 51
62.5879797016
  0
ARC
  5
46E
100
AcDbEntity
  8
11_COMPONENT
100
AcDbCircle
 62
7
  6
BYLAYER
 10
243.9227946513
 20
362.3116418484
 40
40.4059872136
100
AcDbArc
 50
130.9740573005
 51
131.1602102237
  0
ARC
  5
46F
100
AcDbEntity
  8
11_COMPONENT
100
AcDbCircle
 62
7
  6
BYLAYER
 10
244.0018188066
 20
362.8432412034
 40
40.3885585128
100
AcDbArc
 50
61.4270954434
 51
61.9444663963
  0
ARC
  5
470
100
AcDbEntity
  8
11_COMPONENT
100
AcDbCircle
 62
7
  6
BYLAYER
 10
244.0156908444
 20
362.8690560301
 40
40.3592530223
100
AcDbArc
 50
56.5732926355
 51
61.4268625144
  0
CIRCLE
  5
471
100
AcDbEntity
  8
11_COMPONENT
100
AcDbCircle
 62
7
  6
BYLAYER
 10
243.8383178436
 20
392.5174016952
 40
3.5954661239
  0
CIRCLE
  5
472
100
AcDbEntity
  8
11_COMPONENT
100
AcDbCircle
 62
7
  6
BYLAYER
 10
243.8383178436
 20
392.5174016952
 40
2.75
  0
CIRCLE
  5
473
100
AcDbEntity
  8
11_COMPONENT
100
AcDbCircle
 62
7
  6
BYLAYER
 10
243.8383178436
 20
392.5174016952
 40
1.75
  0
ARC
  5
474
100
AcDbEntity
  8
11_COMPONENT
100
AcDbCircle
 62
7
  6
BYLAYER
 10
245.0113523497
 20
393.1946534831
 40
0.1
100
AcDbArc
 50
193.1180380295
 51
226.8819619705
  0
ARC
  5
475
100
AcDbEntity
  8
11_COMPONENT
100
AcDbCircle
 62
7
  6
BYLAYER
 10
244.6401653406
 20
393.9062423
 40
0.1
100
AcDbArc
 50
13.1180380295
 51
106.8819619705
  0
ARC
  5
476
100
AcDbEntity
  8
11_COMPONENT
100
AcDbCircle
 62
7
  6
BYLAYER
 10
243.8383178436
 20
393.8719052709
 40
0.1
100
AcDbArc
 50
253.1180380295
 51
286.8819619705
  0
ARC
  5
477
100
AcDbEntity
  8
11_COMPONENT
100
AcDbCircle
 62
7
  6
BYLAYER
 10
243.8383178436
 20
391.1628981195
 40
0.1
100
AcDbArc
 50
73.1180380295
 51
106.8819619705
  0
ARC
  5
478
100
AcDbEntity
  8
11_COMPONENT
100
AcDbCircle
 62
7
  6
BYLAYER
 10
244.6401653406
 20
391.1285610905
 40
0.1
100
AcDbArc
 50
253.1180380295
 51
346.8819619705
  0
ARC
  5
479
100
AcDbEntity
  8
11_COMPONENT
100
AcDbCircle
 62
7
  6
BYLAYER
 10
245.0113523497
 20
391.8401499074
 40
0.1
100
AcDbArc
 50
133.1180380295
 51
166.8819619705
  0
ARC
  5
47A
100
AcDbEntity
  8
11_COMPONENT
100
AcDbCircle
 62
7
  6
BYLAYER
 10
245.4420128376
 20
392.5174016952
 40
0.1
100
AcDbArc
 50
313.1180380295
 51
46.8819619705
  0
ARC
  5
47B
100
AcDbEntity
  8
11_COMPONENT
100
AcDbCircle
 62
7
  6
BYLAYER
 10
263.0785596721
 20
356.1683625447
 40
66.1221998953
100
AcDbArc
 50
285.543928513
 51
288.6637418768
  0
ARC
  5
47C
100
AcDbEntity
  8
11_COMPONENT
100
AcDbCircle
 62
7
  6
BYLAYER
 10
263.1748214794
 20
355.8568986323
 40
65.7968680886
100
AcDbArc
 50
285.5358505656
 51
288.5584544498
  0
ARC
  5
47D
100
AcDbEntity
  8
11_COMPONENT
100
AcDbCircle
 62
7
  6
BYLAYER
 10
263.3019366097
 20
355.3750534702
 40
65.2980460251
100
AcDbArc
 50
285.2684060395
 51
285.5416310719
  0
ARC
  5
47E
100
AcDbEntity
  8
11_COMPONENT
100
AcDbCircle
 62
7
  6
BYLAYER
 10
263.8973192257
 20
353.775394673
 40
63.5930339181
100
AcDbArc
 50
288.7785976131
 51
291.7238309383
  0
ARC
  5
47F
100
AcDbEntity
  8
11_COMPONENT
100
AcDbCircle
 62
7
  6
BYLAYER
 10
338.1254868238
 20
363.7986494963
 40
94.4628649714
100
AcDbArc
 50
226.5769873983
 51
229.6137571699
  0
ARC
  5
480
100
AcDbEntity
  8
11_COMPONENT
100
AcDbCircle
 62
7
  6
BYLAYER
 10
296.1222907423
 20
397.9644092814
 40
72.7968118291
100
AcDbArc
 50
277.3742977806
 51
277.7002498318
  0
ARC
  5
481
100
AcDbEntity
  8
11_COMPONENT
100
AcDbCircle
 62
7
  6
BYLAYER
 10
396.2117259712
 20
470.6911087225
 40
206.2642937158
100
AcDbArc
 50
235.4379073548
 51
238.2524121994
  0
ARC
  5
482
100
AcDbEntity
  8
11_COMPONENT
100
AcDbCircle
 62
7
  6
BYLAYER
 10
285.1411187693
 20
487.3417188281
 40
162.6852331403
100
AcDbArc
 50
277.1705522105
 51
277.3161279881
  0
ARC
  5
483
100
AcDbEntity
  8
11_COMPONENT
100
AcDbCircle
 62
7
  6
BYLAYER
 10
244.2273862838
 20
450.4002799882
 40
162.3926748118
100
AcDbArc
 50
263.8878490657
 51
265.5124978003
  0
ARC
  5
484
100
AcDbEntity
  8
11_COMPONENT
100
AcDbCircle
 62
7
  6
BYLAYER
 10
244.4870751679
 20
449.5799981712
 40
161.6226847126
100
AcDbArc
 50
257.93326377
 51
259.2670302243
  0
ARC
  5
485
100
AcDbEntity
  8
11_COMPONENT
100
AcDbCircle
 62
7
  6
BYLAYER
 10
243.9792027805
 20
448.0166369961
 40
159.9968439348
100
AcDbArc
 50
261.6268216356
 51
265.4880756345
  0
ARC
  5
486
100
AcDbEntity
  8
11_COMPONENT
100
AcDbCircle
 62
7
  6
BYLAYER
 10
243.8784493725
 20
446.6245459118
 40
158.6052966572
100
AcDbArc
 50
257.9250051169
 51
261.2761392682
  0
ARC
  5
487
100
AcDbEntity
  8
11_COMPONENT
100
AcDbCircle
 62
7
  6
BYLAYER
 10
243.8806493795
 20
446.2223942575
 40
158.1947982261
100
AcDbArc
 50
269.9846681534
 51
282.0761728223
  0
ARC
  5
488
100
AcDbEntity
  8
11_COMPONENT
100
AcDbCircle
 62
7
  6
BYLAYER
 10
243.8795053231
 20
446.1681637771
 40
158.1405674455
100
AcDbArc
 50
269.9850773979
 51
273.8521495606
  0
ARC
  5
489
100
AcDbEntity
  8
11_COMPONENT
100
AcDbCircle
 62
7
  6
BYLAYER
 10
243.8789917268
 20
445.2870593997
 40
157.2615072076
100
AcDbArc
 50
274.1433824329
 51
274.3995219866
  0
ARC
  5
48A
100
AcDbEntity
  8
11_COMPONENT
100
AcDbCircle
 62
7
  6
BYLAYER
 10
244.0850743393
 20
445.0381145796
 40
156.9938987077
100
AcDbArc
 50
278.6778923432
 51
282.0447732769
  0
ARC
  5
48B
100
AcDbEntity
  8
11_COMPONENT
100
AcDbCircle
 62
7
  6
BYLAYER
 10
244.1463791113
 20
444.6677081055
 40
156.6182902943
100
AcDbArc
 50
278.6761670154
 51
281.5667710223
  0
ARC
  5
48C
100
AcDbEntity
  8
11_COMPONENT
100
AcDbCircle
 62
7
  6
BYLAYER
 10
244.2404424172
 20
444.135956537
 40
156.0786482676
100
AcDbArc
 50
277.8958068347
 51
278.1467089832
  0
ARC
  5
48D
100
AcDbEntity
  8
11_COMPONENT
100
AcDbCircle
 62
7
  6
BYLAYER
 10
244.2964809683
 20
443.744077092
 40
155.6827823622
100
AcDbArc
 50
278.1467308902
 51
278.3877986307
  0
ARC
  5
48E
100
AcDbEntity
  8
11_COMPONENT
100
AcDbCircle
 62
7
  6
BYLAYER
 10
244.3000436249
 20
443.7065735892
 40
155.6449742279
100
AcDbArc
 50
278.3885151176
 51
278.673619893
  0
ARC
  5
48F
100
AcDbEntity
  8
11_COMPONENT
100
AcDbCircle
 62
7
  6
BYLAYER
 10
244.336728264
 20
443.4709739588
 40
155.4067295309
100
AcDbArc
 50
278.3878065242
 51
278.6733487697
  0
ARC
  5
490
100
AcDbEntity
  8
11_COMPONENT
100
AcDbCircle
 62
7
  6
BYLAYER
 10
243.8392930698
 20
441.2502839825
 40
153.0218375732
100
AcDbArc
 50
269.9996348472
 51
282.4847432819
  0
ARC
  5
491
100
AcDbEntity
  8
11_COMPONENT
100
AcDbCircle
 62
7
  6
BYLAYER
 10
243.4637239525
 20
-3123.8453752292
 40
3269.1920924306
100
AcDbArc
 50
89.6055540933
 51
89.9934348767
  0
ARC
  5
492
100
AcDbEntity
  8
11_COMPONENT
100
AcDbCircle
 62
7
  6
BYLAYER
 10
166.136065979
 20
1441.24830563
 40
1296.6314897824
100
AcDbArc
 50
270.9493168625
 51
271.1931156841
  0
ARC
  5
493
100
AcDbEntity
  8
11_COMPONENT
100
AcDbCircle
 62
7
  6
BYLAYER
 10
-119.4629420108
 20
-45.6382786266
 40
440.5146930638
100
AcDbArc
 50
25.8660272653
 51
26.9555173954
  0
ARC
  5
494
100
AcDbEntity
  8
11_COMPONENT
100
AcDbCircle
 62
7
  6
BYLAYER
 10
199.2705580213
 20
117.6824217292
 40
28.9627327074
100
AcDbArc
 50
88.5634149645
 51
89.2331662797
  0
ARC
  5
495
100
AcDbEntity
  8
11_COMPONENT
100
AcDbCircle
 62
7
  6
BYLAYER
 10
241.7030813911
 20
181.6139408863
 40
28.8094461139
100
AcDbArc
 50
243.2744796794
 51
243.4157247466
  0
ARC
  5
496
100
AcDbEntity
  8
11_COMPONENT
100
AcDbCircle
 62
7
  6
BYLAYER
 10
241.3718107986
 20
181.1154599731
 40
28.7186123883
100
AcDbArc
 50
240.7549715535
 51
243.4074395205
  0
ARC
  5
497
100
AcDbEntity
  8
11_COMPONENT
100
AcDbCircle
 62
7
  6
BYLAYER
 10
241.0395515312
 20
180.5172711788
 40
28.03434601
100
AcDbArc
 50
240.1986388123
 51
240.7502024276
  0
ARC
  5
498
100
AcDbEntity
  8
11_COMPONENT
100
AcDbCircle
 62
7
  6
BYLAYER
 10
227.5605642776
 20
156.6070909421
 40
23.1813078909
100
AcDbArc
 50
122.198726922
 51
123.3323868262
  0
ARC
  5
499
100
AcDbEntity
  8
11_COMPONENT
100
AcDbCircle
 62
7
  6
BYLAYER
 10
227.1775449241
 20
157.1864331324
 40
22.4868020678
100
AcDbArc
 50
123.3281425661
 51
125.3530803071
  0
ARC
  5
49A
100
AcDbEntity
  8
11_COMPONENT
100
AcDbCircle
 62
7
  6
BYLAYER
 10
226.8567957242
 20
157.6424969482
 40
21.9292458662
100
AcDbArc
 50
125.3590400301
 51
125.9389499549
  0
ARC
  5
49B
100
AcDbEntity
  8
11_COMPONENT
100
AcDbCircle
 62
7
  6
BYLAYER
 10
225.014050191
 20
145.2972530873
 40
14.3147077956
100
AcDbArc
 50
179.9797319096
 51
180.4317087433
  0
ARC
  5
49C
100
AcDbEntity
  8
11_COMPONENT
100
AcDbCircle
 62
7
  6
BYLAYER
 10
229.1749028432
 20
166.0497028821
 40
8.5129501941
100
AcDbArc
 50
159.9247295229
 51
161.418295165
  0
ARC
  5
49D
100
AcDbEntity
  8
11_COMPONENT
100
AcDbCircle
 62
7
  6
BYLAYER
 10
229.0238516909
 20
165.0970004309
 40
8.4564417838
100
AcDbArc
 50
159.790556532
 51
164.3052415417
  0
ARC
  5
49E
100
AcDbEntity
  8
11_COMPONENT
100
AcDbCircle
 62
7
  6
BYLAYER
 10
229.0306423398
 20
166.0982424262
 40
8.3607425116
100
AcDbArc
 50
161.4185666623
 51
162.8879941217
  0
ARC
  5
49F
100
AcDbEntity
  8
11_COMPONENT
100
AcDbCircle
 62
7
  6
BYLAYER
 10
226.6474603775
 20
168.979089474
 40
8.3462747749
100
AcDbArc
 50
163.9711290384
 51
165.9661090448
  0
ARC
  5
4A0
100
AcDbEntity
  8
11_COMPONENT
100
AcDbCircle
 62
7
  6
BYLAYER
 10
226.6247018359
 20
168.9849032405
 40
8.3227857068
100
AcDbArc
 50
165.9669447139
 51
166.538106551
  0
ARC
  5
4A1
100
AcDbEntity
  8
11_COMPONENT
100
AcDbCircle
 62
7
  6
BYLAYER
 10
226.6119012582
 20
168.9879370083
 40
8.3096305685
100
AcDbArc
 50
166.5379028581
 51
168.4497334911
  0
ARC
  5
4A2
100
AcDbEntity
  8
11_COMPONENT
100
AcDbCircle
 62
7
  6
BYLAYER
 10
228.75244907
 20
166.1813234572
 40
8.0704190345
100
AcDbArc
 50
162.8705818966
 51
170.3593482123
  0
ARC
  5
4A3
100
AcDbEntity
  8
11_COMPONENT
100
AcDbCircle
 62
7
  6
BYLAYER
 10
182.0740965036
 20
136.3853693646
 40
0.485
100
AcDbArc
 50
183.0001163576
 51
269.9999999949
  0
ARC
  5
4A4
100
AcDbEntity
  8
11_COMPONENT
100
AcDbCircle
 62
7
  6
BYLAYER
 10
154.0564470289
 20
2050.8149586637
 40
1906.3176089814
100
AcDbArc
 50
271.1746141266
 51
271.3306702915
  0
ARC
  5
4A5
100
AcDbEntity
  8
11_COMPONENT
100
AcDbCircle
 62
7
  6
BYLAYER
 10
245.2083267587
 20
-3411.1274744899
 40
3556.4744341045
100
AcDbArc
 50
90.0220712203
 51
90.384661905
  0
ARC
  5
4A6
100
AcDbEntity
  8
11_COMPONENT
100
AcDbCircle
 62
7
  6
BYLAYER
 10
323.0694082219
 20
1523.1990894536
 40
1378.5963561635
100
AcDbArc
 50
268.8136774521
 51
269.047023066
  0
ARC
  5
4A7
100
AcDbEntity
  8
11_COMPONENT
100
AcDbCircle
 62
7
  6
BYLAYER
 10
607.1395776969
 20
-45.638278626
 40
440.5146930624
100
AcDbArc
 50
153.0444826046
 51
154.1339727347
  0
ARC
  5
4A8
100
AcDbEntity
  8
11_COMPONENT
100
AcDbCircle
 62
7
  6
BYLAYER
 10
288.4060551866
 20
117.6835906529
 40
28.9615635876
100
AcDbArc
 50
90.7668202019
 51
91.4365985539
  0
ARC
  5
4A9
100
AcDbEntity
  8
11_COMPONENT
100
AcDbCircle
 62
7
  6
BYLAYER
 10
246.2297125879
 20
181.2565388258
 40
28.8783907016
100
AcDbArc
 50
296.6036176728
 51
299.495488214
  0
ARC
  5
4AA
100
AcDbEntity
  8
11_COMPONENT
100
AcDbCircle
 62
7
  6
BYLAYER
 10
245.9737461885
 20
181.6147555658
 40
28.810087845
100
AcDbArc
 50
296.5827692851
 51
296.7239535289
  0
ARC
  5
4AB
100
AcDbEntity
  8
11_COMPONENT
100
AcDbCircle
 62
7
  6
BYLAYER
 10
260.1176576662
 20
156.6095281182
 40
23.1784002916
100
AcDbArc
 50
56.6675365255
 51
57.8013809309
  0
ARC
  5
4AC
100
AcDbEntity
  8
11_COMPONENT
100
AcDbCircle
 62
7
  6
BYLAYER
 10
243.8383278219
 20
164.8622025247
 40
22.999971509
100
AcDbArc
 50
5.1611540303
 51
174.8383054258
  0
ARC
  5
4AD
100
AcDbEntity
  8
11_COMPONENT
100
AcDbCircle
 62
7
  6
BYLAYER
 10
260.4913441193
 20
157.1749576453
 40
22.5006468263
100
AcDbArc
 50
54.7072053298
 51
56.671387111
  0
ARC
  5
4AE
100
AcDbEntity
  8
11_COMPONENT
100
AcDbCircle
 62
7
  6
BYLAYER
 10
260.8122940618
 20
157.6319522919
 40
21.9422127784
100
AcDbArc
 50
54.0562010578
 51
54.7018045554
  0
ARC
  5
4AF
100
AcDbEntity
  8
11_COMPONENT
100
AcDbCircle
 62
7
  6
BYLAYER
 10
262.6625659815
 20
145.2972523923
 40
14.314727392
100
AcDbArc
 50
359.5682946296
 51
0.0202708772
  0
ARC
  5
4B0
100
AcDbEntity
  8
11_COMPONENT
100
AcDbCircle
 62
7
  6
BYLAYER
 10
259.8293112695
 20
169.0531644284
 40
9.5504546418
100
AcDbArc
 50
349.2670404918
 51
351.4082578932
  0
ARC
  5
4B1
100
AcDbEntity
  8
11_COMPONENT
100
AcDbCircle
 62
7
  6
BYLAYER
 10
258.5021547907
 20
166.0498488645
 40
8.5125037252
100
AcDbArc
 50
18.5816837299
 51
20.0670610752
  0
ARC
  5
4B2
100
AcDbEntity
  8
11_COMPONENT
100
AcDbCircle
 62
7
  6
BYLAYER
 10
258.6531995137
 20
165.0971346878
 40
8.4560053043
100
AcDbArc
 50
15.6927321665
 51
20.2032027141
  0
ARC
  5
4B3
100
AcDbEntity
  8
11_COMPONENT
100
AcDbCircle
 62
7
  6
BYLAYER
 10
258.6459930926
 20
166.0982423453
 40
8.360742779
100
AcDbArc
 50
17.1120058941
 51
18.5814386563
  0
ARC
  5
4B4
100
AcDbEntity
  8
11_COMPONENT
100
AcDbCircle
 62
7
  6
BYLAYER
 10
261.0611432367
 20
168.9869375426
 40
8.3134050611
100
AcDbArc
 50
13.6448205746
 51
14.010090754
  0
ARC
  5
4B5
100
AcDbEntity
  8
11_COMPONENT
100
AcDbCircle
 62
7
  6
BYLAYER
 10
261.0755760212
 20
168.9903871823
 40
8.2985657071
100
AcDbArc
 50
11.4985342566
 51
13.4608835595
  0
ARC
  5
4B6
100
AcDbEntity
  8
11_COMPONENT
100
AcDbCircle
 62
7
  6
BYLAYER
 10
258.9998214173
 20
166.1993220856
 40
7.9928397069
100
AcDbArc
 50
9.6018776663
 51
17.1658088015
  0
ARC
  5
4B7
100
AcDbEntity
  8
11_COMPONENT
100
AcDbCircle
 62
7
  6
BYLAYER
 10
305.6025409797
 20
136.3853693646
 40
0.485
100
AcDbArc
 50
270.0000000045
 51
356.999881294
  0
ARC
  5
4B8
100
AcDbEntity
  8
11_COMPONENT
100
AcDbCircle
 62
7
  6
BYLAYER
 10
252.9085462018
 20
7301.6350160701
 40
7155.2148427821
100
AcDbArc
 50
269.6624683029
 51
269.9273696241
  0
ARC
  5
4B9
100
AcDbEntity
  8
11_COMPONENT
100
AcDbCircle
 62
7
  6
BYLAYER
 10
332.1089291773
 20
1981.7434317747
 40
1837.2296165756
100
AcDbArc
 50
268.6663608971
 51
268.8267103519
  0
ARC
  5
4BA
100
AcDbEntity
  8
11_COMPONENT
100
AcDbCircle
 62
7
  6
BYLAYER
 10
-865.459740499
 20
316.0829333251
 40
1343.0694056685
100
AcDbArc
 50
0.0311700783
 51
0.2985448289
  0
ARC
  5
4BB
100
AcDbEntity
  8
11_COMPONENT
100
AcDbCircle
 62
7
  6
BYLAYER
 10
-751.9099444976
 20
316.7271416737
 40
1229.5177955484
100
AcDbArc
 50
0.2960964159
 51
0.4263826913
  0
ARC
  5
4BC
100
AcDbEntity
  8
11_COMPONENT
100
AcDbCircle
 62
7
  6
BYLAYER
 10
273.1546230025
 20
298.8960608481
 40
204.1240702665
100
AcDbArc
 50
357.652923432
 51
357.9315137183
  0
ARC
  5
4BD
100
AcDbEntity
  8
11_COMPONENT
100
AcDbCircle
 62
7
  6
BYLAYER
 10
276.5537484262
 20
298.7581924887
 40
200.7221503395
100
AcDbArc
 50
357.5192981987
 51
357.6525092861
  0
ARC
  5
4BE
100
AcDbEntity
  8
11_COMPONENT
100
AcDbCircle
 62
7
  6
BYLAYER
 10
457.472907966
 20
314.5259938334
 40
23.0
100
AcDbArc
 50
133.4298701988
 51
296.4623946559
  0
ARC
  5
4BF
100
AcDbEntity
  8
11_COMPONENT
100
AcDbCircle
 62
7
  6
BYLAYER
 10
433.2417144502
 20
335.453065549
 40
6.9999999924
100
AcDbArc
 50
353.093298547
 51
24.0351669773
  0
ARC
  5
4C0
100
AcDbEntity
  8
11_COMPONENT
100
AcDbCircle
 62
7
  6
BYLAYER
 10
481.1189351587
 20
295.6013240799
 40
5.4288819255
100
AcDbArc
 50
181.7278074699
 51
183.2955344551
  0
ARC
  5
4C1
100
AcDbEntity
  8
11_COMPONENT
100
AcDbCircle
 62
7
  6
BYLAYER
 10
460.8665856886
 20
311.0601508974
 40
3.6544339647
100
AcDbArc
 50
83.2269367282
 51
85.0081014132
  0
ARC
  5
4C2
100
AcDbEntity
  8
11_COMPONENT
100
AcDbCircle
 62
7
  6
BYLAYER
 10
476.9883861295
 20
291.0275809686
 40
3.0000011809
100
AcDbArc
 50
248.9154987551
 51
270.0000024807
  0
ARC
  5
4C3
100
AcDbEntity
  8
11_COMPONENT
100
AcDbCircle
 62
7
  6
BYLAYER
 10
470.6211912122
 20
292.3659998535
 40
1.0000000009
100
AcDbArc
 50
224.2708798667
 51
256.7995193774
  0
ARC
  5
4C4
100
AcDbEntity
  8
11_COMPONENT
100
AcDbCircle
 62
7
  6
BYLAYER
 10
467.6347126351
 20
308.7674016952
 40
1.0
100
AcDbArc
 50
180.0
 51
227.5204781275
  0
ARC
  5
4C5
100
AcDbEntity
  8
11_COMPONENT
100
AcDbCircle
 62
7
  6
BYLAYER
 10
439.6882476686
 20
340.6644367529
 40
1.0
100
AcDbArc
 50
171.9638201041
 51
203.3746002235
  0
ARC
  5
4C6
100
AcDbEntity
  8
11_COMPONENT
100
AcDbCircle
 62
7
  6
BYLAYER
 10
475.0757542176
 20
289.6308839235
 40
1.0000000006
100
AcDbArc
 50
226.1015078153
 51
248.1349926206
  0
ARC
  5
4C7
100
AcDbEntity
  8
11_COMPONENT
100
AcDbCircle
 62
7
  6
BYLAYER
 10
485.9497126351
 20
288.8547041831
 40
0.485
100
AcDbArc
 50
272.9999986521
 51
359.9999742455
  0
ARC
  5
4C8
100
AcDbEntity
  8
11_COMPONENT
100
AcDbCircle
 62
7
  6
BYLAYER
 10
466.1465626905
 20
362.5830983841
 40
41.3266747926
100
AcDbArc
 50
71.2439594111
 51
73.3615141938
  0
ARC
  5
4C9
100
AcDbEntity
  8
11_COMPONENT
100
AcDbCircle
 62
7
  6
BYLAYER
 10
468.1159875149
 20
362.6634605815
 40
40.6058775588
100
AcDbArc
 50
73.8146248867
 51
75.9412664363
  0
ARC
  5
4CA
100
AcDbEntity
  8
11_COMPONENT
100
AcDbCircle
 62
7
  6
BYLAYER
 10
477.4113601214
 20
400.2732757777
 40
2.9999986066
100
AcDbArc
 50
90.0003576433
 51
126.3754790773
  0
ARC
  5
4CB
100
AcDbEntity
  8
11_COMPONENT
100
AcDbCircle
 62
7
  6
BYLAYER
 10
714.4468983907
 20
297.6435843632
 40
238.7265358211
100
AcDbArc
 50
181.3913846028
 51
181.6147534311
  0
ARC
  5
4CC
100
AcDbEntity
  8
11_COMPONENT
100
AcDbCircle
 62
7
  6
BYLAYER
 10
510.1222483718
 20
376.9656260543
 40
95.1042716123
100
AcDbArc
 50
248.1349390363
 51
248.9155911824
  0
ARC
  5
4CD
100
AcDbEntity
  8
11_COMPONENT
100
AcDbCircle
 62
7
  6
BYLAYER
 10
577.5554794545
 20
396.7918077497
 40
149.204261083
100
AcDbArc
 50
223.3786142488
 51
225.867301991
  0
ARC
  5
4CE
100
AcDbEntity
  8
11_COMPONENT
100
AcDbCircle
 62
7
  6
BYLAYER
 10
573.5667928583
 20
395.6375453497
 40
145.2107082889
100
AcDbArc
 50
208.6660535922
 51
208.8372067455
  0
ARC
  5
4CF
100
AcDbEntity
  8
11_COMPONENT
100
AcDbCircle
 62
7
  6
BYLAYER
 10
572.8611089409
 20
391.9576060009
 40
142.4658158339
100
AcDbArc
 50
225.9133197736
 51
226.1683442924
  0
ARC
  5
4D0
100
AcDbEntity
  8
11_COMPONENT
100
AcDbCircle
 62
7
  6
BYLAYER
 10
581.4575336482
 20
400.5516322801
 40
154.6227129885
100
AcDbArc
 50
222.9538079297
 51
223.3981656981
  0
ARC
  5
4D1
100
AcDbEntity
  8
11_COMPONENT
100
AcDbCircle
 62
7
  6
BYLAYER
 10
580.2997669487
 20
399.1907210145
 40
152.8481656969
100
AcDbArc
 50
220.0547304463
 51
222.7837754396
  0
ARC
  5
4D2
100
AcDbEntity
  8
11_COMPONENT
100
AcDbCircle
 62
7
  6
BYLAYER
 10
583.4030030842
 20
402.6465292356
 40
158.5512238986
100
AcDbArc
 50
205.5872339237
 51
206.5383451443
  0
ARC
  5
4D3
100
AcDbEntity
  8
11_COMPONENT
100
AcDbCircle
 62
7
  6
BYLAYER
 10
583.9343424933
 20
401.5183835248
 40
157.1291499296
100
AcDbArc
 50
208.8922942579
 51
219.7935486949
  0
ARC
  5
4D4
100
AcDbEntity
  8
11_COMPONENT
100
AcDbCircle
 62
7
  6
BYLAYER
 10
583.993003099
 20
402.9398770742
 40
159.2101273576
100
AcDbArc
 50
206.5871270619
 51
223.1969662519
  0
ARC
  5
4D5
100
AcDbEntity
  8
11_COMPONENT
100
AcDbCircle
 62
7
  6
BYLAYER
 10
583.989783761
 20
402.9419634158
 40
159.2092104274
100
AcDbArc
 50
223.3061076691
 51
224.1278722962
  0
ARC
  5
4D6
100
AcDbEntity
  8
11_COMPONENT
100
AcDbCircle
 62
7
  6
BYLAYER
 10
584.3494547408
 20
403.1889854825
 40
159.795
100
AcDbArc
 50
205.6339675042
 51
224.2587400625
  0
ARC
  5
4D7
100
AcDbEntity
  8
11_COMPONENT
100
AcDbCircle
 62
7
  6
BYLAYER
 10
584.3494547408
 20
403.1889854825
 40
158.595
100
AcDbArc
 50
203.3747165229
 51
226.1014939148
  0
ARC
  5
4D8
100
AcDbEntity
  8
11_COMPONENT
100
AcDbCircle
 62
7
  6
BYLAYER
 10
831.7867893561
 20
521.8128938217
 40
432.7592843055
100
AcDbArc
 50
204.941715314
 51
205.0719015847
  0
ARC
  5
4D9
100
AcDbEntity
  8
11_COMPONENT
100
AcDbCircle
 62
7
  6
BYLAYER
 10
551.7092769977
 20
483.3472072582
 40
202.8382538614
100
AcDbArc
 50
246.7705361445
 51
247.9921705628
  0
ARC
  5
4DA
100
AcDbEntity
  8
11_COMPONENT
100
AcDbCircle
 62
7
  6
BYLAYER
 10
530.919984171
 20
425.6317415099
 40
144.6983988707
100
AcDbArc
 50
244.3520407755
 51
247.6047280259
  0
ARC
  5
4DB
100
AcDbEntity
  8
11_COMPONENT
100
AcDbCircle
 62
7
  6
BYLAYER
 10
-826.4782625513
 20
1645.8804736084
 40
1799.1344601109
100
AcDbArc
 50
315.6683698461
 51
315.8505995314
  0
ARC
  5
4DC
100
AcDbEntity
  8
11_COMPONENT
100
AcDbCircle
 62
7
  6
BYLAYER
 10
7705.1008869209
 20
395.3957786424
 40
7227.7224987238
100
AcDbArc
 50
180.0178460958
 51
180.1429063618
  0
ARC
  5
4DD
100
AcDbEntity
  8
11_COMPONENT
100
AcDbCircle
 62
7
  6
BYLAYER
 10
597.92276223
 20
313.191332534
 40
106.2586342162
100
AcDbArc
 50
6.8565257531
 51
48.8705892689
  0
ARC
  5
4DE
100
AcDbEntity
  8
11_COMPONENT
100
AcDbCircle
 62
7
  6
BYLAYER
 10
608.0439652283
 20
322.3107248734
 40
29.5715981269
100
AcDbArc
 50
239.1761865808
 51
247.4835184305
  0
ARC
  5
4DF
100
AcDbEntity
  8
11_COMPONENT
100
AcDbCircle
 62
7
  6
BYLAYER
 10
608.0430916734
 20
322.3075490835
 40
29.5683368096
100
AcDbArc
 50
239.1744866703
 51
247.4827310479
  0
ARC
  5
4E0
100
AcDbEntity
  8
11_COMPONENT
100
AcDbCircle
 62
7
  6
BYLAYER
 10
595.3712723606
 20
310.047034249
 40
6.3450372543
100
AcDbArc
 50
290.7786139391
 51
314.5277594841
  0
CIRCLE
  5
4E1
100
AcDbEntity
  8
11_COMPONENT
100
AcDbCircle
 62
7
  6
BYLAYER
 10
599.7907572445
 20
303.156185763
 40
2.4
  0
CIRCLE
  5
4E2
100
AcDbEntity
  8
11_COMPONENT
100
AcDbCircle
 62
7
  6
BYLAYER
 10
595.5407572445
 20
310.5174016952
 40
1.275
  0
ARC
  5
4E3
100
AcDbEntity
  8
11_COMPONENT
100
AcDbCircle
 62
7
  6
BYLAYER
 10
621.8005154161
 20
356.1683625448
 40
66.1221998955
100
AcDbArc
 50
251.3362581233
 51
254.456071487
  0
ARC
  5
4E4
100
AcDbEntity
  8
11_COMPONENT
100
AcDbCircle
 62
7
  6
BYLAYER
 10
621.7038495724
 20
355.8553156665
 40
65.7952347419
100
AcDbArc
 50
251.3287717135
 51
254.4641192088
  0
ARC
  5
4E5
100
AcDbEntity
  8
11_COMPONENT
100
AcDbCircle
 62
7
  6
BYLAYER
 10
621.5771384837
 20
355.3750534894
 40
65.298046045
100
AcDbArc
 50
254.4583689281
 51
254.7315939604
  0
ARC
  5
4E6
100
AcDbEntity
  8
11_COMPONENT
100
AcDbCircle
 62
7
  6
BYLAYER
 10
621.5045073692
 20
355.1471070808
 40
65.059509909
100
AcDbArc
 50
254.4662072416
 51
254.7404362071
  0
ARC
  5
4E7
100
AcDbEntity
  8
11_COMPONENT
100
AcDbCircle
 62
7
  6
BYLAYER
 10
620.8244341512
 20
353.3002331448
 40
63.0930577205
100
AcDbArc
 50
247.5390955007
 51
251.2177578991
  0
ARC
  5
4E8
100
AcDbEntity
  8
11_COMPONENT
100
AcDbCircle
 62
7
  6
BYLAYER
 10
620.7999130077
 20
353.2590614856
 40
63.0456482391
100
AcDbArc
 50
247.5453971834
 51
251.2268091939
  0
ARC
  5
4E9
100
AcDbEntity
  8
11_COMPONENT
100
AcDbCircle
 62
7
  6
BYLAYER
 10
620.6406092396
 20
351.8215174798
 40
61.6238121745
100
AcDbArc
 50
254.7015446176
 51
257.8283170149
  0
ARC
  5
4EA
100
AcDbEntity
  8
11_COMPONENT
100
AcDbCircle
 62
7
  6
BYLAYER
 10
620.5938856171
 20
351.5922953814
 40
61.3898963311
100
AcDbArc
 50
254.6871599791
 51
257.8258388018
  0
ARC
  5
4EB
100
AcDbEntity
  8
11_COMPONENT
100
AcDbCircle
 62
7
  6
BYLAYER
 10
638.9070144759
 20
362.5813242477
 40
41.328545332
100
AcDbArc
 50
71.2439720431
 51
73.1913294055
  0
ARC
  5
4EC
100
AcDbEntity
  8
11_COMPONENT
100
AcDbCircle
 62
7
  6
BYLAYER
 10
640.9692506131
 20
362.3327062098
 40
40.9508147253
100
AcDbArc
 50
67.0949757687
 51
68.4658915189
  0
ARC
  5
4ED
100
AcDbEntity
  8
11_COMPONENT
100
AcDbCircle
 62
7
  6
BYLAYER
 10
640.9724111521
 20
362.3595088105
 40
40.9247234565
100
AcDbArc
 50
68.4562339838
 51
73.8014152926
  0
ARC
  5
4EE
100
AcDbEntity
  8
11_COMPONENT
100
AcDbCircle
 62
7
  6
BYLAYER
 10
640.9121528484
 20
362.4370386509
 40
40.8887380532
100
AcDbArc
 50
48.8548836245
 51
54.4131590981
  0
ARC
  5
4EF
100
AcDbEntity
  8
11_COMPONENT
100
AcDbCircle
 62
7
  6
BYLAYER
 10
641.0331094743
 20
362.4784617276
 40
40.8711161839
100
AcDbArc
 50
80.8332341882
 51
89.9892788601
  0
ARC
  5
4F0
100
AcDbEntity
  8
11_COMPONENT
100
AcDbCircle
 62
7
  6
BYLAYER
 10
640.9987503978
 20
362.4919413266
 40
40.7919724845
100
AcDbArc
 50
61.9350263236
 51
67.0460662448
  0
ARC
  5
4F1
100
AcDbEntity
  8
11_COMPONENT
100
AcDbCircle
 62
7
  6
BYLAYER
 10
641.0295967886
 20
362.6032062349
 40
40.7449657383
100
AcDbArc
 50
99.2822031806
 51
103.756277288
  0
ARC
  5
4F2
100
AcDbEntity
  8
11_COMPONENT
100
AcDbCircle
 62
7
  6
BYLAYER
 10
641.0351974577
 20
362.5033612517
 40
40.7385183372
100
AcDbArc
 50
82.2330624862
 51
89.9921805619
  0
ARC
  5
4F3
100
AcDbEntity
  8
11_COMPONENT
100
AcDbCircle
 62
7
  6
BYLAYER
 10
641.0386181181
 20
362.547026886
 40
40.7262970472
100
AcDbArc
 50
80.8060534086
 51
89.9969905706
  0
ARC
  5
4F4
100
AcDbEntity
  8
11_COMPONENT
100
AcDbCircle
 62
7
  6
BYLAYER
 10
641.0349666404
 20
362.5714455602
 40
40.6991539746
100
AcDbArc
 50
124.0474997014
 51
125.5445208048
  0
ARC
  5
4F5
100
AcDbEntity
  8
11_COMPONENT
100
AcDbCircle
 62
7
  6
BYLAYER
 10
641.0248912946
 20
362.5855738884
 40
40.681801107
100
AcDbArc
 50
125.5445424241
 51
131.1295719508
  0
ARC
  5
4F6
100
AcDbEntity
  8
11_COMPONENT
100
AcDbCircle
 62
7
  6
BYLAYER
 10
641.0364992374
 20
362.5976772252
 40
40.6765660369
100
AcDbArc
 50
111.5693765192
 51
112.9481900791
  0
ARC
  5
4F7
100
AcDbEntity
  8
11_COMPONENT
100
AcDbCircle
 62
7
  6
BYLAYER
 10
641.0351340856
 20
362.570818696
 40
40.6701685453
100
AcDbArc
 50
99.2631229616
 51
102.0461250008
  0
ARC
  5
4F8
100
AcDbEntity
  8
11_COMPONENT
100
AcDbCircle
 62
7
  6
BYLAYER
 10
641.0284291074
 20
362.6090527748
 40
40.6627548654
100
AcDbArc
 50
99.2780250427
 51
103.7829439948
  0
ARC
  5
4F9
100
AcDbEntity
  8
11_COMPONENT
100
AcDbCircle
 62
7
  6
BYLAYER
 10
641.0294118344
 20
362.6244769101
 40
40.6480431914
100
AcDbArc
 50
105.9113566704
 51
106.1949052843
  0
ARC
  5
4FA
100
AcDbEntity
  8
11_COMPONENT
100
AcDbCircle
 62
7
  6
BYLAYER
 10
641.0195090662
 20
362.6387999494
 40
40.6320769599
100
AcDbArc
 50
106.187906088
 51
111.5684140389
  0
ARC
  5
4FB
100
AcDbEntity
  8
11_COMPONENT
100
AcDbCircle
 62
7
  6
BYLAYER
 10
641.0161679277
 20
362.6713500353
 40
40.599335102
100
AcDbArc
 50
104.4951531341
 51
105.9115172242
  0
ARC
  5
4FC
100
AcDbEntity
  8
11_COMPONENT
100
AcDbCircle
 62
7
  6
BYLAYER
 10
641.0067506707
 20
362.7071684199
 40
40.5622997376
100
AcDbArc
 50
103.7862229008
 51
104.4949381164
  0
ARC
  5
4FD
100
AcDbEntity
  8
11_COMPONENT
100
AcDbCircle
 62
7
  6
BYLAYER
 10
640.950201729
 20
362.703386058
 40
40.5462878277
100
AcDbArc
 50
112.8941073398
 51
118.0535497796
  0
ARC
  5
4FE
100
AcDbEntity
  8
11_COMPONENT
100
AcDbCircle
 62
7
  6
BYLAYER
 10
640.9537264598
 20
362.7336080565
 40
40.5220717817
100
AcDbArc
 50
124.0807170959
 51
125.584374923
  0
ARC
  5
4FF
100
AcDbEntity
  8
11_COMPONENT
100
AcDbCircle
 62
7
  6
BYLAYER
 10
640.8772562814
 20
362.8432412036
 40
40.3885585125
100
AcDbArc
 50
118.0555336037
 51
118.5729045566
  0
ARC
  5
500
100
AcDbEntity
  8
11_COMPONENT
100
AcDbCircle
 62
7
  6
BYLAYER
 10
640.8687352959
 20
362.8600657208
 40
40.3697076818
100
AcDbArc
 50
118.5737044106
 51
124.0813813287
  0
ARC
  5
501
100
AcDbEntity
  8
11_COMPONENT
100
AcDbCircle
 62
7
  6
BYLAYER
 10
641.0350919383
 20
362.5709617374
 40
40.3586550668
100
AcDbArc
 50
99.2600412886
 51
102.0461503581
  0
ARC
  5
502
100
AcDbEntity
  8
11_COMPONENT
100
AcDbCircle
 62
7
  6
BYLAYER
 10
641.0343743682
 20
362.5749930383
 40
39.870224212
100
AcDbArc
 50
99.3734532999
 51
102.046333062
  0
ARC
  5
503
100
AcDbEntity
  8
11_COMPONENT
100
AcDbCircle
 62
7
  6
BYLAYER
 10
635.0407572445
 20
373.0533000801
 40
0.5
100
AcDbArc
 50
180.0
 51
240.0
  0
ARC
  5
504
100
AcDbEntity
  8
11_COMPONENT
100
AcDbCircle
 62
7
  6
BYLAYER
 10
640.8891996372
 20
448.1242994583
 40
160.1050989991
100
AcDbArc
 50
274.4664933615
 51
278.3713464496
  0
ARC
  5
505
100
AcDbEntity
  8
11_COMPONENT
100
AcDbCircle
 62
7
  6
BYLAYER
 10
640.8967294012
 20
448.041649461
 40
160.0220474528
100
AcDbArc
 50
274.4661100598
 51
278.3729875571
  0
ARC
  5
506
100
AcDbEntity
  8
11_COMPONENT
100
AcDbCircle
 62
7
  6
BYLAYER
 10
640.9664043493
 20
446.8013345914
 40
158.7853873622
100
AcDbArc
 50
278.6933611498
 51
282.1675444561
  0
ARC
  5
507
100
AcDbEntity
  8
11_COMPONENT
100
AcDbCircle
 62
7
  6
BYLAYER
 10
640.9741994194
 20
446.7761209991
 40
158.7590926003
100
AcDbArc
 50
278.6919556547
 51
282.1667127083
  0
ARC
  5
508
100
AcDbEntity
  8
11_COMPONENT
100
AcDbCircle
 62
7
  6
BYLAYER
 10
640.9958500047
 20
445.8482230695
 40
157.8206277634
100
AcDbArc
 50
265.6176384666
 51
270.0163032893
  0
ARC
  5
509
100
AcDbEntity
  8
11_COMPONENT
100
AcDbCircle
 62
7
  6
BYLAYER
 10
640.9925744346
 20
445.7868838602
 40
157.7592895229
100
AcDbArc
 50
265.6171222983
 51
270.0174992655
  0
ARC
  5
50A
100
AcDbEntity
  8
11_COMPONENT
100
AcDbCircle
 62
7
  6
BYLAYER
 10
640.8340284393
 20
445.2913170503
 40
157.2500491903
100
AcDbArc
 50
257.8166052117
 51
261.3216097601
  0
ARC
  5
50B
100
AcDbEntity
  8
11_COMPONENT
100
AcDbCircle
 62
7
  6
BYLAYER
 10
640.8210619205
 20
445.2039046729
 40
157.1618738483
100
AcDbArc
 50
257.8145008792
 51
261.3214743809
  0
ARC
  5
50C
100
AcDbEntity
  8
11_COMPONENT
100
AcDbCircle
 62
7
  6
BYLAYER
 10
640.5790314621
 20
443.7065735816
 40
155.6449742203
100
AcDbArc
 50
261.326380107
 51
261.6114848824
  0
ARC
  5
50D
100
AcDbEntity
  8
11_COMPONENT
100
AcDbCircle
 62
7
  6
BYLAYER
 10
640.5423468239
 20
443.4709739579
 40
155.4067295299
100
AcDbArc
 50
261.3266512303
 51
261.6121934758
  0
ARC
  5
50E
100
AcDbEntity
  8
11_COMPONENT
100
AcDbCircle
 62
7
  6
BYLAYER
 10
640.0425707344
 20
376.5168420713
 40
12.3707136605
100
AcDbArc
 50
127.422526622
 51
129.3110726286
  0
CIRCLE
  5
50F
100
AcDbEntity
  8
11_COMPONENT
100
AcDbCircle
 62
7
  6
BYLAYER
 10
622.1303857325
 20
386.0060386061
 40
2.25
  0
ARC
  5
510
100
AcDbEntity
  8
11_COMPONENT
100
AcDbCircle
 62
7
  6
BYLAYER
 10
633.2083604214
 20
386.0879778947
 40
1.0030130108
100
AcDbArc
 50
129.2749634259
 51
179.9825524048
  0
ARC
  5
511
100
AcDbEntity
  8
11_COMPONENT
100
AcDbCircle
 62
7
  6
BYLAYER
 10
635.0407572445
 20
379.9815033104
 40
0.5
100
AcDbArc
 50
120.0
 51
180.0
  0
ARC
  5
512
100
AcDbEntity
  8
11_COMPONENT
100
AcDbCircle
 62
7
  6
BYLAYER
 10
660.2832341013
 20
356.1611023588
 40
66.1146062971
100
AcDbArc
 50
285.5434046284
 51
288.6632331103
  0
ARC
  5
513
100
AcDbEntity
  8
11_COMPONENT
100
AcDbCircle
 62
7
  6
BYLAYER
 10
660.3785319378
 20
355.8525008071
 40
65.7922904901
100
AcDbArc
 50
285.5354643393
 51
288.670607198
  0
ARC
  5
514
100
AcDbEntity
  8
11_COMPONENT
100
AcDbCircle
 62
7
  6
BYLAYER
 10
660.5044553335
 20
355.3747652236
 40
65.2977470635
100
AcDbArc
 50
285.2682571681
 51
285.5412836083
  0
ARC
  5
515
100
AcDbEntity
  8
11_COMPONENT
100
AcDbCircle
 62
7
  6
BYLAYER
 10
660.5770772763
 20
355.1468519972
 40
65.0592453538
100
AcDbArc
 50
285.259414435
 51
285.5334439391
  0
ARC
  5
516
100
AcDbEntity
  8
11_COMPONENT
100
AcDbCircle
 62
7
  6
BYLAYER
 10
661.1760856483
 20
352.9049660999
 40
62.7387475013
100
AcDbArc
 50
282.1994733248
 51
285.2705117862
  0
ARC
  5
517
100
AcDbEntity
  8
11_COMPONENT
100
AcDbCircle
 62
7
  6
BYLAYER
 10
661.1860851373
 20
352.8252057119
 40
62.6586802476
100
AcDbArc
 50
282.2059473109
 51
285.2809006126
  0
ARC
  5
518
100
AcDbEntity
  8
11_COMPONENT
100
AcDbCircle
 62
7
  6
BYLAYER
 10
661.6119774308
 20
352.3571481921
 40
62.08593372
100
AcDbArc
 50
288.7531141632
 51
292.4907434667
  0
ARC
  5
519
100
AcDbEntity
  8
11_COMPONENT
100
AcDbCircle
 62
7
  6
BYLAYER
 10
661.6815489338
 20
352.1958299514
 40
61.9102786099
100
AcDbArc
 50
288.7401424238
 51
292.4883621458
  0
ARC
  5
51A
100
AcDbEntity
  8
11_COMPONENT
100
AcDbCircle
 62
7
  6
BYLAYER
 10
643.1744999656
 20
362.5813243966
 40
41.3285451757
100
AcDbArc
 50
106.8086704221
 51
108.7560279609
  0
ARC
  5
51B
100
AcDbEntity
  8
11_COMPONENT
100
AcDbCircle
 62
7
  6
BYLAYER
 10
641.1488697321
 20
362.243170887
 40
41.0475367593
100
AcDbArc
 50
106.2065873436
 51
111.5333091496
  0
ARC
  5
51C
100
AcDbEntity
  8
11_COMPONENT
100
AcDbCircle
 62
7
  6
BYLAYER
 10
641.2609486554
 20
362.3213478289
 40
41.0361204953
100
AcDbArc
 50
125.5982766606
 51
131.1351309496
  0
ARC
  5
51D
100
AcDbEntity
  8
11_COMPONENT
100
AcDbCircle
 62
7
  6
BYLAYER
 10
641.1124280607
 20
362.3323030474
 40
40.9512500272
100
AcDbArc
 50
111.5316540605
 51
112.9012217209
  0
ARC
  5
51E
100
AcDbEntity
  8
11_COMPONENT
100
AcDbCircle
 62
7
  6
BYLAYER
 10
641.0484050147
 20
362.4784617276
 40
40.8711161838
100
AcDbArc
 50
90.0107211399
 51
99.1667658118
  0
ARC
  5
51F
100
AcDbEntity
  8
11_COMPONENT
100
AcDbCircle
 62
7
  6
BYLAYER
 10
641.08275282
 20
362.4919625046
 40
40.7919484918
100
AcDbArc
 50
112.9501213148
 51
118.0782006393
  0
ARC
  5
520
100
AcDbEntity
  8
11_COMPONENT
100
AcDbCircle
 62
7
  6
BYLAYER
 10
641.045573325
 20
362.5137464091
 40
40.7595777526
100
AcDbArc
 50
90.0067699692
 51
99.1869684376
  0
ARC
  5
521
100
AcDbEntity
  8
11_COMPONENT
100
AcDbCircle
 62
7
  6
BYLAYER
 10
641.0519177004
 20
362.6032062349
 40
40.7449657383
100
AcDbArc
 50
76.243722712
 51
80.7177968191
  0
ARC
  5
522
100
AcDbEntity
  8
11_COMPONENT
100
AcDbCircle
 62
7
  6
BYLAYER
 10
641.0463146999
 20
362.5033610946
 40
40.738518494
100
AcDbArc
 50
90.0078161591
 51
97.7669341744
  0
ARC
  5
523
100
AcDbEntity
  8
11_COMPONENT
100
AcDbCircle
 62
7
  6
BYLAYER
 10
641.0465549451
 20
362.5714556544
 40
40.6991416373
100
AcDbArc
 50
54.4569337956
 51
55.9504017183
  0
ARC
  5
524
100
AcDbEntity
  8
11_COMPONENT
100
AcDbCircle
 62
7
  6
BYLAYER
 10
641.0569975657
 20
362.586047324
 40
40.681198256
100
AcDbArc
 50
48.8703866089
 51
54.4569543396
  0
ARC
  5
525
100
AcDbEntity
  8
11_COMPONENT
100
AcDbCircle
 62
7
  6
BYLAYER
 10
641.0449761502
 20
362.5975816874
 40
40.6766692638
100
AcDbArc
 50
67.0479914128
 51
68.4281441205
  0
ARC
  5
526
100
AcDbEntity
  8
11_COMPONENT
100
AcDbCircle
 62
7
  6
BYLAYER
 10
641.0463804065
 20
362.5708187127
 40
40.6701685282
100
AcDbArc
 50
77.9538749986
 51
80.7368770505
  0
ARC
  5
527
100
AcDbEntity
  8
11_COMPONENT
100
AcDbCircle
 62
7
  6
BYLAYER
 10
641.0530855119
 20
362.6090533913
 40
40.6627542357
100
AcDbArc
 50
76.2170559765
 51
80.7219566389
  0
ARC
  5
528
100
AcDbEntity
  8
11_COMPONENT
100
AcDbCircle
 62
7
  6
BYLAYER
 10
641.0521026493
 20
362.6244768916
 40
40.6480432106
100
AcDbArc
 50
73.8050947158
 51
74.0886433296
  0
ARC
  5
529
100
AcDbEntity
  8
11_COMPONENT
100
AcDbCircle
 62
7
  6
BYLAYER
 10
641.06199183
 20
362.6387610236
 40
40.6321181319
100
AcDbArc
 50
68.4291079849
 51
73.8120908071
  0
ARC
  5
52A
100
AcDbEntity
  8
11_COMPONENT
100
AcDbCircle
 62
7
  6
BYLAYER
 10
641.0983412387
 20
362.6341458742
 40
40.6229005421
100
AcDbArc
 50
61.964621801
 51
67.0972187098
  0
ARC
  5
52B
100
AcDbEntity
  8
11_COMPONENT
100
AcDbCircle
 62
7
  6
BYLAYER
 10
641.0653465615
 20
362.6713500363
 40
40.5993351009
100
AcDbArc
 50
74.0884827758
 51
75.5048468659
  0
ARC
  5
52C
100
AcDbEntity
  8
11_COMPONENT
100
AcDbCircle
 62
7
  6
BYLAYER
 10
641.0747638187
 20
362.7071684217
 40
40.5622997358
100
AcDbArc
 50
75.5050618836
 51
76.2137770993
  0
ARC
  5
52D
100
AcDbEntity
  8
11_COMPONENT
100
AcDbCircle
 62
7
  6
BYLAYER
 10
641.1277818665
 20
362.733600359
 40
40.5220816215
100
AcDbArc
 50
54.4170855327
 51
55.9171736128
  0
ARC
  5
52E
100
AcDbEntity
  8
11_COMPONENT
100
AcDbCircle
 62
7
  6
BYLAYER
 10
641.2041602053
 20
362.8430604281
 40
40.3887641421
100
AcDbArc
 50
61.4224758232
 51
61.9578246699
  0
ARC
  5
52F
100
AcDbEntity
  8
11_COMPONENT
100
AcDbCircle
 62
7
  6
BYLAYER
 10
641.04639914
 20
362.5708371781
 40
40.35878177
100
AcDbArc
 50
77.9539106
 51
80.7399543573
  0
ARC
  5
530
100
AcDbEntity
  8
11_COMPONENT
100
AcDbCircle
 62
7
  6
BYLAYER
 10
641.2197765922
 20
362.8715607624
 40
40.3562659257
100
AcDbArc
 50
55.9155847747
 51
61.4225905278
  0
ARC
  5
531
100
AcDbEntity
  8
11_COMPONENT
100
AcDbCircle
 62
7
  6
BYLAYER
 10
641.0471213842
 20
362.5748938679
 40
39.8703251098
100
AcDbArc
 50
77.953726909
 51
80.626543345
  0
ARC
  5
532
100
AcDbEntity
  8
11_COMPONENT
100
AcDbCircle
 62
7
  6
BYLAYER
 10
647.0407572445
 20
373.0533000801
 40
0.5
100
AcDbArc
 50
300.0
 51
360.0
  0
ARC
  5
533
100
AcDbEntity
  8
11_COMPONENT
100
AcDbCircle
 62
7
  6
BYLAYER
 10
641.0407572445
 20
369.5891984649
 40
0.5
100
AcDbArc
 50
240.0
 51
300.0
  0
ARC
  5
534
100
AcDbEntity
  8
11_COMPONENT
100
AcDbCircle
 62
7
  6
BYLAYER
 10
684.158752259
 20
313.191332534
 40
106.2586342162
100
AcDbArc
 50
131.1294107311
 51
173.1434742469
  0
ARC
  5
535
100
AcDbEntity
  8
11_COMPONENT
100
AcDbCircle
 62
7
  6
BYLAYER
 10
673.9978480996
 20
322.3883231905
 40
29.658492326
100
AcDbArc
 50
292.5299188358
 51
300.8125279233
  0
ARC
  5
536
100
AcDbEntity
  8
11_COMPONENT
100
AcDbCircle
 62
7
  6
BYLAYER
 10
674.0006434493
 20
322.3841990851
 40
29.6536050044
100
AcDbArc
 50
292.5279887394
 51
300.8119706411
  0
ARC
  5
537
100
AcDbEntity
  8
11_COMPONENT
100
AcDbCircle
 62
7
  6
BYLAYER
 10
686.7069724878
 20
310.0422376271
 40
6.3394278324
100
AcDbArc
 50
225.4787312457
 51
249.2653863749
  0
CIRCLE
  5
538
100
AcDbEntity
  8
11_COMPONENT
100
AcDbCircle
 62
7
  6
BYLAYER
 10
682.2907572445
 20
303.156185763
 40
2.4
  0
CIRCLE
  5
539
100
AcDbEntity
  8
11_COMPONENT
100
AcDbCircle
 62
7
  6
BYLAYER
 10
686.5407572445
 20
310.5174016952
 40
1.275
  0
ARC
  5
53A
100
AcDbEntity
  8
11_COMPONENT
100
AcDbCircle
 62
7
  6
BYLAYER
 10
641.0407572445
 20
376.5174016952
 40
13.37
100
AcDbArc
 50
50.705290718
 51
129.294709282
  0
ARC
  5
53B
100
AcDbEntity
  8
11_COMPONENT
100
AcDbCircle
 62
7
  6
BYLAYER
 10
641.0407572445
 20
376.5174016952
 40
9.03
100
AcDbArc
 50
19.4301260783
 51
160.5698739217
  0
ARC
  5
53C
100
AcDbEntity
  8
11_COMPONENT
100
AcDbCircle
 62
7
  6
BYLAYER
 10
641.0407572445
 20
376.5174016952
 40
8.8354097874
100
AcDbArc
 50
180.0
 51
360.0
  0
ARC
  5
53D
100
AcDbEntity
  8
11_COMPONENT
100
AcDbCircle
 62
7
  6
BYLAYER
 10
641.0407572445
 20
376.5174016952
 40
8.5
100
AcDbArc
 50
180.0
 51
360.0
  0
ARC
  5
53E
100
AcDbEntity
  8
11_COMPONENT
100
AcDbCircle
 62
7
  6
BYLAYER
 10
641.0407572445
 20
376.5174016952
 40
6.75
100
AcDbArc
 50
284.6998380218
 51
315.111367931
  0
ARC
  5
53F
100
AcDbEntity
  8
11_COMPONENT
100
AcDbCircle
 62
7
  6
BYLAYER
 10
641.0407572445
 20
376.5174016952
 40
6.75
100
AcDbArc
 50
224.888632069
 51
255.3001619782
  0
ARC
  5
540
100
AcDbEntity
  8
11_COMPONENT
100
AcDbCircle
 62
7
  6
BYLAYER
 10
641.0407572445
 20
376.5174016952
 40
6.75
100
AcDbArc
 50
164.5703016949
 51
195.4296983051
  0
ARC
  5
541
100
AcDbEntity
  8
11_COMPONENT
100
AcDbCircle
 62
7
  6
BYLAYER
 10
641.0407572445
 20
376.5174016952
 40
6.75
100
AcDbArc
 50
104.6998380218
 51
135.111367931
  0
ARC
  5
542
100
AcDbEntity
  8
11_COMPONENT
100
AcDbCircle
 62
7
  6
BYLAYER
 10
641.0407572445
 20
376.5174016952
 40
6.75
100
AcDbArc
 50
44.888632069
 51
75.3001619782
  0
ARC
  5
543
100
AcDbEntity
  8
11_COMPONENT
100
AcDbCircle
 62
7
  6
BYLAYER
 10
641.0407572445
 20
376.5174016952
 40
6.75
100
AcDbArc
 50
344.5703016949
 51
15.4296983051
  0
ARC
  5
544
100
AcDbEntity
  8
11_COMPONENT
100
AcDbCircle
 62
7
  6
BYLAYER
 10
641.0407572445
 20
376.5174016952
 40
6.6379590237
100
AcDbArc
 50
131.7017404172
 51
168.2982595828
  0
ARC
  5
545
100
AcDbEntity
  8
11_COMPONENT
100
AcDbCircle
 62
7
  6
BYLAYER
 10
641.0407572445
 20
376.5174016952
 40
6.6379590237
100
AcDbArc
 50
71.7017404172
 51
108.2982595828
  0
ARC
  5
546
100
AcDbEntity
  8
11_COMPONENT
100
AcDbCircle
 62
7
  6
BYLAYER
 10
641.0407572445
 20
376.5174016952
 40
6.6379590237
100
AcDbArc
 50
11.7017404172
 51
48.2982595828
  0
ARC
  5
547
100
AcDbEntity
  8
11_COMPONENT
100
AcDbCircle
 62
7
  6
BYLAYER
 10
641.0407572445
 20
376.5174016952
 40
6.6379590237
100
AcDbArc
 50
311.7017404172
 51
348.2982595828
  0
ARC
  5
548
100
AcDbEntity
  8
11_COMPONENT
100
AcDbCircle
 62
7
  6
BYLAYER
 10
641.0407572445
 20
376.5174016952
 40
6.6379590237
100
AcDbArc
 50
251.7017404172
 51
288.2982595828
  0
ARC
  5
549
100
AcDbEntity
  8
11_COMPONENT
100
AcDbCircle
 62
7
  6
BYLAYER
 10
641.0407572445
 20
376.5174016952
 40
6.6379590237
100
AcDbArc
 50
191.7017404172
 51
228.2982595828
  0
CIRCLE
  5
54A
100
AcDbEntity
  8
11_COMPONENT
100
AcDbCircle
 62
7
  6
BYLAYER
 10
641.0407572445
 20
376.5174016952
 40
3.9
  0
CIRCLE
  5
54B
100
AcDbEntity
  8
11_COMPONENT
100
AcDbCircle
 62
7
  6
BYLAYER
 10
641.0407572445
 20
376.5174016952
 40
3.5593869717
  0
CIRCLE
  5
54C
100
AcDbEntity
  8
11_COMPONENT
100
AcDbCircle
 62
7
  6
BYLAYER
 10
641.0407572445
 20
376.5174016952
 40
3.2695162995
  0
CIRCLE
  5
54D
100
AcDbEntity
  8
11_COMPONENT
100
AcDbCircle
 62
7
  6
BYLAYER
 10
641.0407572445
 20
376.5174016952
 40
2.75
  0
ARC
  5
54E
100
AcDbEntity
  8
11_COMPONENT
100
AcDbCircle
 62
7
  6
BYLAYER
 10
641.0407572445
 20
383.4456049255
 40
0.5
100
AcDbArc
 50
60.0
 51
120.0
  0
ARC
  5
54F
100
AcDbEntity
  8
11_COMPONENT
100
AcDbCircle
 62
7
  6
BYLAYER
 10
642.0389437542
 20
376.5168420709
 40
12.3707136611
100
AcDbArc
 50
50.6889273714
 51
52.577473378
  0
CIRCLE
  5
550
100
AcDbEntity
  8
11_COMPONENT
100
AcDbCircle
 62
7
  6
BYLAYER
 10
641.0407572445
 20
392.5174016952
 40
1.5
  0
ARC
  5
551
100
AcDbEntity
  8
11_COMPONENT
100
AcDbCircle
 62
7
  6
BYLAYER
 10
647.0407572445
 20
379.9815033104
 40
0.5
100
AcDbArc
 50
0.0
 51
60.0
  0
ARC
  5
552
100
AcDbEntity
  8
11_COMPONENT
100
AcDbCircle
 62
7
  6
BYLAYER
 10
648.8731540676
 20
386.0879778947
 40
1.0030130108
100
AcDbArc
 50
0.0174475953
 51
50.725036574
  0
ARC
  5
553
100
AcDbEntity
  8
11_COMPONENT
100
AcDbCircle
 62
7
  6
BYLAYER
 10
641.3540275859
 20
449.560903946
 40
161.5499424134
100
AcDbArc
 50
261.6424656364
 51
265.5139094943
  0
ARC
  5
554
100
AcDbEntity
  8
11_COMPONENT
100
AcDbCircle
 62
7
  6
BYLAYER
 10
641.3318062219
 20
449.3476008146
 40
161.3354887621
100
AcDbArc
 50
261.6392629435
 51
265.5158518692
  0
ARC
  5
555
100
AcDbEntity
  8
11_COMPONENT
100
AcDbCircle
 62
7
  6
BYLAYER
 10
641.1291544273
 20
444.7073224762
 40
156.6797457174
100
AcDbArc
 50
269.9676742789
 51
274.3963863156
  0
ARC
  5
556
100
AcDbEntity
  8
11_COMPONENT
100
AcDbCircle
 62
7
  6
BYLAYER
 10
641.1354207533
 20
444.5673324621
 40
156.5397593896
100
AcDbArc
 50
269.9653518066
 51
274.3980272856
  0
ARC
  5
557
100
AcDbEntity
  8
11_COMPONENT
100
AcDbCircle
 62
7
  6
BYLAYER
 10
641.5020907984
 20
443.7091876634
 40
155.6476175614
100
AcDbArc
 50
278.3847559221
 51
278.670477266
  0
ARC
  5
558
100
AcDbEntity
  8
11_COMPONENT
100
AcDbCircle
 62
7
  6
BYLAYER
 10
641.5387615331
 20
443.4736808558
 40
155.4094667225
100
AcDbArc
 50
278.3840416544
 51
278.6702012342
  0
ARC
  5
559
100
AcDbEntity
  8
11_COMPONENT
100
AcDbCircle
 62
7
  6
BYLAYER
 10
660.4455411668
 20
382.5236729993
 40
3.6842278373
100
AcDbArc
 50
74.8320050075
 51
105.4399184059
  0
ARC
  5
55A
100
AcDbEntity
  8
11_COMPONENT
100
AcDbCircle
 62
7
  6
BYLAYER
 10
660.4463266361
 20
382.531574582
 40
3.6785702375
100
AcDbArc
 50
152.4939314739
 51
155.2938577936
  0
ARC
  5
55B
100
AcDbEntity
  8
11_COMPONENT
100
AcDbCircle
 62
7
  6
BYLAYER
 10
660.4443478589
 20
382.5324243184
 40
3.6764226965
100
AcDbArc
 50
142.9615475145
 51
152.4914348161
  0
ARC
  5
55C
100
AcDbEntity
  8
11_COMPONENT
100
AcDbCircle
 62
7
  6
BYLAYER
 10
660.433195866
 20
382.5377661184
 40
3.6640535741
100
AcDbArc
 50
155.2959936678
 51
172.9830492457
  0
ARC
  5
55D
100
AcDbEntity
  8
11_COMPONENT
100
AcDbCircle
 62
7
  6
BYLAYER
 10
660.339977139
 20
382.3567364642
 40
3.3842579536
100
AcDbArc
 50
150.8560865859
 51
152.301171589
  0
ARC
  5
55E
100
AcDbEntity
  8
11_COMPONENT
100
AcDbCircle
 62
7
  6
BYLAYER
 10
660.3279621651
 20
382.3634789808
 40
3.3704804461
100
AcDbArc
 50
146.7207194109
 51
150.856725033
  0
ARC
  5
55F
100
AcDbEntity
  8
11_COMPONENT
100
AcDbCircle
 62
7
  6
BYLAYER
 10
660.3246864369
 20
382.3642568974
 40
3.3672238706
100
AcDbArc
 50
152.2935337478
 51
167.9495318077
  0
ARC
  5
560
100
AcDbEntity
  8
11_COMPONENT
100
AcDbCircle
 62
7
  6
BYLAYER
 10
660.3184833376
 20
382.3786253973
 40
3.3517128532
100
AcDbArc
 50
70.9867566436
 51
104.7799945732
  0
ARC
  5
561
100
AcDbEntity
  8
11_COMPONENT
100
AcDbCircle
 62
7
  6
BYLAYER
 10
660.4407572445
 20
382.5174016952
 40
3.0550132754
100
AcDbArc
 50
71.3133855977
 51
108.6866144023
  0
ARC
  5
562
100
AcDbEntity
  8
11_COMPONENT
100
AcDbCircle
 62
7
  6
BYLAYER
 10
660.4407572445
 20
382.5174016952
 40
1.0659297339
100
AcDbArc
 50
45.7829272671
 51
134.2106055813
  0
ARC
  5
563
100
AcDbEntity
  8
11_COMPONENT
100
AcDbCircle
 62
7
  6
BYLAYER
 10
660.4407572445
 20
383.9024016952
 40
0.97
100
AcDbArc
 50
180.0
 51
360.0
  0
ARC
  5
564
100
AcDbEntity
  8
11_COMPONENT
100
AcDbCircle
 62
7
  6
BYLAYER
 10
660.4407572445
 20
388.7524016952
 40
0.97
100
AcDbArc
 50
0.0
 51
180.0
  0
ARC
  5
565
100
AcDbEntity
  8
11_COMPONENT
100
AcDbCircle
 62
7
  6
BYLAYER
 10
656.5607572445
 20
383.9024016952
 40
0.97
100
AcDbArc
 50
180.0
 51
360.0
  0
ARC
  5
566
100
AcDbEntity
  8
11_COMPONENT
100
AcDbCircle
 62
7
  6
BYLAYER
 10
656.5607572445
 20
388.7524016952
 40
0.97
100
AcDbArc
 50
0.0
 51
180.0
  0
ARC
  5
567
100
AcDbEntity
  8
11_COMPONENT
100
AcDbCircle
 62
7
  6
BYLAYER
 10
660.4407572445
 20
382.5174016952
 40
0.775
100
AcDbArc
 50
48.0121326504
 51
131.9819583205
  0
ARC
  5
568
100
AcDbEntity
  8
11_COMPONENT
100
AcDbCircle
 62
7
  6
BYLAYER
 10
242.1721141864
 20
-9186.6153144806
 40
9680.4177901223
100
AcDbArc
 50
89.9901381903
 51
90.1486117261
  0
ARC
  5
569
100
AcDbEntity
  8
11_COMPONENT
100
AcDbCircle
 62
7
  6
BYLAYER
 10
211.2531896355
 20
554.0942737191
 40
110.4406056668
100
AcDbArc
 50
304.0098447588
 51
304.5292242828
  0
ARC
  5
56A
100
AcDbEntity
  8
11_COMPONENT
100
AcDbCircle
 62
7
  6
BYLAYER
 10
243.7742207814
 20
552.0340545164
 40
96.9446927704
100
AcDbArc
 50
268.271749888
 51
269.6168232267
  0
ARC
  5
56B
100
AcDbEntity
  8
11_COMPONENT
100
AcDbCircle
 62
7
  6
BYLAYER
 10
243.3665150319
 20
538.3166390934
 40
83.2212214416
100
AcDbArc
 50
267.3616704877
 51
268.267492112
  0
ARC
  5
56C
100
AcDbEntity
  8
11_COMPONENT
100
AcDbCircle
 62
7
  6
BYLAYER
 10
242.8310300216
 20
523.1246061227
 40
68.0275504241
100
AcDbArc
 50
262.4880791139
 51
264.9231420045
  0
ARC
  5
56D
100
AcDbEntity
  8
11_COMPONENT
100
AcDbCircle
 62
7
  6
BYLAYER
 10
242.6129171482
 20
522.7819451011
 40
67.6683156801
100
AcDbArc
 50
265.6311744687
 51
267.3936064181
  0
ARC
  5
56E
100
AcDbEntity
  8
11_COMPONENT
100
AcDbCircle
 62
7
  6
BYLAYER
 10
241.6853283014
 20
513.9867359128
 40
58.8183532394
100
AcDbArc
 50
261.6488368444
 51
262.4308524595
  0
ARC
  5
56F
100
AcDbEntity
  8
11_COMPONENT
100
AcDbCircle
 62
7
  6
BYLAYER
 10
241.2372761466
 20
510.9397465543
 40
55.7385976844
100
AcDbArc
 50
259.856309628
 51
261.6496152384
  0
ARC
  5
570
100
AcDbEntity
  8
11_COMPONENT
100
AcDbCircle
 62
7
  6
BYLAYER
 10
241.7017025777
 20
510.3852066603
 40
55.2381962825
100
AcDbArc
 50
264.9531637008
 51
265.5940683905
  0
ARC
  5
571
100
AcDbEntity
  8
11_COMPONENT
100
AcDbCircle
 62
7
  6
BYLAYER
 10
240.4270320927
 20
506.4049403068
 40
51.131976161
100
AcDbArc
 50
256.8678031516
 51
259.8551005417
  0
ARC
  5
572
100
AcDbEntity
  8
11_COMPONENT
100
AcDbCircle
 62
7
  6
BYLAYER
 10
239.7805694554
 20
503.5232713558
 40
48.1787984908
100
AcDbArc
 50
255.2702698792
 51
256.8378886296
  0
ARC
  5
573
100
AcDbEntity
  8
11_COMPONENT
100
AcDbCircle
 62
7
  6
BYLAYER
 10
239.5772761007
 20
501.8318261835
 40
46.5175337162
100
AcDbArc
 50
243.3863248915
 51
243.833820166
  0
ARC
  5
574
100
AcDbEntity
  8
11_COMPONENT
100
AcDbCircle
 62
7
  6
BYLAYER
 10
239.1997849294
 20
501.3339691771
 40
45.9137757587
100
AcDbArc
 50
250.2303458605
 51
255.2765668161
  0
ARC
  5
575
100
AcDbEntity
  8
11_COMPONENT
100
AcDbCircle
 62
7
  6
BYLAYER
 10
238.8933501748
 20
500.3895363035
 40
44.9214618561
100
AcDbArc
 50
243.8055315567
 51
249.1807248367
  0
ARC
  5
576
100
AcDbEntity
  8
11_COMPONENT
100
AcDbCircle
 62
7
  6
BYLAYER
 10
238.8240143233
 20
500.2171707196
 40
44.735707376
100
AcDbArc
 50
249.1852667056
 51
250.1994504249
  0
ARC
  5
577
100
AcDbEntity
  8
11_COMPONENT
100
AcDbCircle
 62
7
  6
BYLAYER
 10
243.8382882551
 20
473.8639609812
 40
23.0000621632
100
AcDbArc
 50
270.0000737083
 51
311.5493889042
  0
ARC
  5
578
100
AcDbEntity
  8
11_COMPONENT
100
AcDbCircle
 62
7
  6
BYLAYER
 10
243.8382772958
 20
480.3663115972
 40
4.2657508544
100
AcDbArc
 50
84.5923659049
 51
95.5804681665
  0
ARC
  5
579
100
AcDbEntity
  8
11_COMPONENT
100
AcDbCircle
 62
7
  6
BYLAYER
 10
243.8375902115
 20
480.3805675291
 40
4.2516236046
100
AcDbArc
 50
73.2886668126
 51
84.5650426267
  0
ARC
  5
57A
100
AcDbEntity
  8
11_COMPONENT
100
AcDbCircle
 62
7
  6
BYLAYER
 10
243.5947763864
 20
480.6344899868
 40
3.8819113551
100
AcDbArc
 50
173.2178570481
 51
176.9873901946
  0
ARC
  5
57B
100
AcDbEntity
  8
11_COMPONENT
100
AcDbCircle
 62
7
  6
BYLAYER
 10
184.4869097627
 20
493.96083584
 40
3.0110268669
100
AcDbArc
 50
179.9414064285
 51
221.4086958965
  0
ARC
  5
57C
100
AcDbEntity
  8
11_COMPONENT
100
AcDbCircle
 62
7
  6
BYLAYER
 10
184.4666486396
 20
493.95995206
 40
3.0090350096
100
AcDbArc
 50
179.9077531073
 51
221.4369187323
  0
ARC
  5
57D
100
AcDbEntity
  8
11_COMPONENT
100
AcDbCircle
 62
7
  6
BYLAYER
 10
242.0883178436
 20
484.0257034872
 40
1.0
100
AcDbArc
 50
211.0977495335
 51
270.0
  0
ARC
  5
57E
100
AcDbEntity
  8
11_COMPONENT
100
AcDbCircle
 62
7
  6
BYLAYER
 10
238.3383178436
 20
497.4257034872
 40
1.0
100
AcDbArc
 50
180.0
 51
270.0
  0
ARC
  5
57F
100
AcDbEntity
  8
11_COMPONENT
100
AcDbCircle
 62
7
  6
BYLAYER
 10
182.0740965036
 20
502.3407034872
 40
0.485
100
AcDbArc
 50
90.0000000051
 51
172.5368359173
  0
ARC
  5
580
100
AcDbEntity
  8
11_COMPONENT
100
AcDbCircle
 62
7
  6
BYLAYER
 10
216.6301470262
 20
5206.1039340944
 40
4712.334171135
100
AcDbArc
 50
269.8592144705
 51
269.9755842387
  0
ARC
  5
581
100
AcDbEntity
  8
11_COMPONENT
100
AcDbCircle
 62
7
  6
BYLAYER
 10
209.5613739271
 20
3010.6228950129
 40
2516.8429474606
100
AcDbArc
 50
269.4710058222
 51
269.8973249135
  0
ARC
  5
582
100
AcDbEntity
  8
11_COMPONENT
100
AcDbCircle
 62
7
  6
BYLAYER
 10
248.549244501
 20
-6672.0236382767
 40
7165.8275190425
100
AcDbArc
 50
89.8235829427
 51
90.0376671409
  0
ARC
  5
583
100
AcDbEntity
  8
11_COMPONENT
100
AcDbCircle
 62
7
  6
BYLAYER
 10
276.4229288089
 20
554.0935121235
 40
110.4396850364
100
AcDbArc
 50
235.4711079834
 51
235.9901566817
  0
ARC
  5
584
100
AcDbEntity
  8
11_COMPONENT
100
AcDbCircle
 62
7
  6
BYLAYER
 10
243.8383889379
 20
557.6055633217
 40
102.5165096473
100
AcDbArc
 50
269.6017854001
 51
270.4367414073
  0
ARC
  5
585
100
AcDbEntity
  8
11_COMPONENT
100
AcDbCircle
 62
7
  6
BYLAYER
 10
243.909487582
 20
551.6644596948
 40
96.5750401191
100
AcDbArc
 50
270.4214286198
 51
271.7641408426
  0
ARC
  5
586
100
AcDbEntity
  8
11_COMPONENT
100
AcDbCircle
 62
7
  6
BYLAYER
 10
244.3261655186
 20
537.902001065
 40
82.8062773719
100
AcDbArc
 50
271.7691224437
 51
272.6687967557
  0
ARC
  5
587
100
AcDbEntity
  8
11_COMPONENT
100
AcDbCircle
 62
7
  6
BYLAYER
 10
245.0742003534
 20
522.6281558382
 40
67.5141777316
100
AcDbArc
 50
272.6382149871
 51
274.3664635332
  0
ARC
  5
588
100
AcDbEntity
  8
11_COMPONENT
100
AcDbCircle
 62
7
  6
BYLAYER
 10
244.9961534627
 20
521.7913234189
 40
66.6861837275
100
AcDbArc
 50
275.0493878266
 51
277.2730160613
  0
ARC
  5
589
100
AcDbEntity
  8
11_COMPONENT
100
AcDbCircle
 62
7
  6
BYLAYER
 10
245.9026072132
 20
514.6118948919
 40
59.4497656889
100
AcDbArc
 50
277.2824000636
 51
278.3488421641
  0
ARC
  5
58A
100
AcDbEntity
  8
11_COMPONENT
100
AcDbCircle
 62
7
  6
BYLAYER
 10
245.9733628412
 20
510.4037736124
 40
55.2568293814
100
AcDbArc
 50
274.4018796658
 51
275.0468662982
  0
ARC
  5
58B
100
AcDbEntity
  8
11_COMPONENT
100
AcDbCircle
 62
7
  6
BYLAYER
 10
246.5361203826
 20
510.3453182825
 40
55.1364192459
100
AcDbArc
 50
278.3412626162
 51
280.1639473037
  0
ARC
  5
58C
100
AcDbEntity
  8
11_COMPONENT
100
AcDbCircle
 62
7
  6
BYLAYER
 10
247.412553618
 20
505.6138819855
 40
50.3245816242
100
AcDbArc
 50
280.1323596452
 51
283.1929557667
  0
ARC
  5
58D
100
AcDbEntity
  8
11_COMPONENT
100
AcDbCircle
 62
7
  6
BYLAYER
 10
247.9919752205
 20
503.1374527762
 40
47.7812708257
100
AcDbArc
 50
283.1942381474
 51
284.8621143316
  0
ARC
  5
58E
100
AcDbEntity
  8
11_COMPONENT
100
AcDbCircle
 62
7
  6
BYLAYER
 10
248.0745413136
 20
501.8818454552
 40
46.5733714708
100
AcDbArc
 50
296.2227603161
 51
296.6868114026
  0
ARC
  5
58F
100
AcDbEntity
  8
11_COMPONENT
100
AcDbCircle
 62
7
  6
BYLAYER
 10
248.6140274878
 20
500.8943280199
 40
45.4536426707
100
AcDbArc
 50
284.8294733476
 51
289.8958503538
  0
ARC
  5
590
100
AcDbEntity
  8
11_COMPONENT
100
AcDbCircle
 62
7
  6
BYLAYER
 10
248.6620660222
 20
500.6681009139
 40
45.2249379388
100
AcDbArc
 50
290.8819629831
 51
296.2344785863
  0
ARC
  5
591
100
AcDbEntity
  8
11_COMPONENT
100
AcDbCircle
 62
7
  6
BYLAYER
 10
248.8571433398
 20
500.2050302452
 40
44.7227524571
100
AcDbArc
 50
289.9034999749
 51
290.8599207214
  0
ARC
  5
592
100
AcDbEntity
  8
11_COMPONENT
100
AcDbCircle
 62
7
  6
BYLAYER
 10
243.8383521661
 20
473.8639500037
 40
23.0000511857
100
AcDbArc
 50
228.4977183066
 51
269.9999144988
  0
ARC
  5
593
100
AcDbEntity
  8
11_COMPONENT
100
AcDbCircle
 62
7
  6
BYLAYER
 10
243.8389907107
 20
480.3805347289
 40
4.2516650219
100
AcDbArc
 50
95.6086755256
 51
106.7620368102
  0
ARC
  5
594
100
AcDbEntity
  8
11_COMPONENT
100
AcDbCircle
 62
7
  6
BYLAYER
 10
244.0779727104
 20
480.6340918302
 40
3.8858135045
100
AcDbArc
 50
3.0154606312
 51
6.7693009811
  0
ARC
  5
595
100
AcDbEntity
  8
11_COMPONENT
100
AcDbCircle
 62
7
  6
BYLAYER
 10
303.1897252544
 20
493.9608358386
 40
3.0110268406
100
AcDbArc
 50
318.59131264
 51
0.0585935994
  0
ARC
  5
596
100
AcDbEntity
  8
11_COMPONENT
100
AcDbCircle
 62
7
  6
BYLAYER
 10
303.2099872648
 20
493.9599516095
 40
3.0090344792
100
AcDbArc
 50
318.5630849734
 51
0.0922554877
  0
ARC
  5
597
100
AcDbEntity
  8
11_COMPONENT
100
AcDbCircle
 62
7
  6
BYLAYER
 10
245.5883178436
 20
484.0257034872
 40
1.0
100
AcDbArc
 50
270.0
 51
328.9208301552
  0
ARC
  5
598
100
AcDbEntity
  8
11_COMPONENT
100
AcDbCircle
 62
7
  6
BYLAYER
 10
249.3383178436
 20
497.4257034872
 40
1.0
100
AcDbArc
 50
270.0
 51
360.0
  0
ARC
  5
599
100
AcDbEntity
  8
11_COMPONENT
100
AcDbCircle
 62
7
  6
BYLAYER
 10
305.6025409797
 20
502.3407034872
 40
0.485
100
AcDbArc
 50
3.000118706
 51
89.9999999955
  0
ARC
  5
59A
100
AcDbEntity
  8
11_COMPONENT
100
AcDbCircle
 62
7
  6
BYLAYER
 10
249.3644321763
 20
11879.5980018099
 40
11387.5762182769
100
AcDbArc
 50
269.9721957478
 51
270.1050777877
  0
ARC
  5
59B
100
AcDbEntity
  8
11_COMPONENT
100
AcDbCircle
 62
7
  6
BYLAYER
 10
271.1963508397
 20
5102.4175432948
 40
4608.6477246024
100
AcDbArc
 50
270.0233369888
 51
270.1422147802
  0
ARC
  5
59C
100
AcDbEntity
  8
11_COMPONENT
100
AcDbCircle
 62
7
  6
BYLAYER
 10
278.1241613282
 20
3009.0825068704
 40
2515.3025372182
100
AcDbArc
 50
270.1027641736
 51
270.5292026923
  0
LINE
  5
59D
100
AcDbEntity
  8
11_COMPONENT
100
AcDbLine
 62
7
  6
BYLAYER
 10
306.2190178436
 20
325.8768814433
 11
306.2008012894
 21
326.0274604952
  0
LINE
  5
59E
100
AcDbEntity
  8
11_COMPONENT
100
AcDbLine
 62
7
  6
BYLAYER
 10
270.7085295939
 20
393.1447811344
 11
270.6132118131
 21
393.2281197504
  0
SPLINE
  5
59F
100
AcDbEntity
  8
11_COMPONENT
100
AcDbSpline
 62
7
  6
BYLAYER
 70
0
 71
3
 72
13
 73
9
 74
0
 42
0.0000001
 43
0.0000001
 44
0.0000000001
 40
0.0
 40
0.0
 40
0.0
 40
0.0
 40
0.1217632573
 40
0.2449311732
 40
0.3692739576
 40
0.4945770396
 40
0.7466054202
 40
1.0
 40
1.0
 40
1.0
 40
1.0
 10
292.3597021948
 20
297.1418059455
 30
0.0
 10
293.5213314766
 20
297.8577411877
 30
0.0
 10
295.7623502026
 20
299.4606614172
 30
0.0
 10
298.7669948256
 20
302.3247794427
 30
0.0
 10
301.3698904099
 20
305.611366972
 30
0.0
 10
304.2075540629
 20
310.4834360779
 30
0.0
 10
306.4192403162
 20
317.3034719216
 30
0.0
 10
306.5580249709
 20
323.0575414738
 30
0.0
 10
306.2190178436
 20
325.8768814433
 30
0.0
  0
LINE
  5
5A0
100
AcDbEntity
  8
11_COMPONENT
100
AcDbLine
 62
7
  6
BYLAYER
 10
280.4977266966
 20
292.3813739438
 11
280.620042576
 21
292.4148711134
  0
LINE
  5
5A1
100
AcDbEntity
  8
11_COMPONENT
100
AcDbLine
 62
7
  6
BYLAYER
 10
280.620042576
 20
292.4148711134
 11
280.6745299005
 21
292.4298755203
  0
LINE
  5
5A2
100
AcDbEntity
  8
11_COMPONENT
100
AcDbLine
 62
7
  6
BYLAYER
 10
280.6745299005
 20
292.4298755203
 11
280.7979386725
 21
292.4640473739
  0
LINE
  5
5A3
100
AcDbEntity
  8
11_COMPONENT
100
AcDbLine
 62
7
  6
BYLAYER
 10
284.1161217757
 20
293.4815045079
 11
284.2387341871
 21
293.5228079583
  0
LINE
  5
5A4
100
AcDbEntity
  8
11_COMPONENT
100
AcDbLine
 62
7
  6
BYLAYER
 10
284.2387341871
 20
293.5228079583
 11
284.3688566558
 21
293.5669378042
  0
LINE
  5
5A5
100
AcDbEntity
  8
11_COMPONENT
100
AcDbLine
 62
7
  6
BYLAYER
 10
284.3688566558
 20
293.5669378042
 11
284.4150756149
 21
293.5826862487
  0
LINE
  5
5A6
100
AcDbEntity
  8
11_COMPONENT
100
AcDbLine
 62
7
  6
BYLAYER
 10
266.6934930922
 20
289.6809536954
 11
267.006268194
 21
289.7267522871
  0
LINE
  5
5A7
100
AcDbEntity
  8
11_COMPONENT
100
AcDbLine
 62
7
  6
BYLAYER
 10
276.9771160826
 20
291.528450709
 11
277.2313356088
 21
291.5829952345
  0
LINE
  5
5A8
100
AcDbEntity
  8
11_COMPONENT
100
AcDbLine
 62
7
  6
BYLAYER
 10
210.4453000785
 20
291.5829952345
 11
210.6995191455
 21
291.5284508071
  0
LINE
  5
5A9
100
AcDbEntity
  8
11_COMPONENT
100
AcDbLine
 62
7
  6
BYLAYER
 10
219.8223932649
 20
289.8541842605
 11
219.9128786937
 21
289.8403584578
  0
LINE
  5
5AA
100
AcDbEntity
  8
11_COMPONENT
100
AcDbLine
 62
7
  6
BYLAYER
 10
231.3927995529
 20
288.5156259557
 11
231.5215225661
 21
288.5054982033
  0
LINE
  5
5AB
100
AcDbEntity
  8
11_COMPONENT
100
AcDbLine
 62
7
  6
BYLAYER
 10
203.3070329147
 20
293.5671917255
 11
203.3464709863
 21
293.5537838158
  0
LINE
  5
5AC
100
AcDbEntity
  8
11_COMPONENT
100
AcDbLine
 62
7
  6
BYLAYER
 10
203.3464709863
 20
293.5537838158
 11
203.4386527017
 21
293.5225540827
  0
LINE
  5
5AD
100
AcDbEntity
  8
11_COMPONENT
100
AcDbLine
 62
7
  6
BYLAYER
 10
203.4386527017
 20
293.5225540827
 11
203.493305223
 21
293.5041110379
  0
LINE
  5
5AE
100
AcDbEntity
  8
11_COMPONENT
100
AcDbLine
 62
7
  6
BYLAYER
 10
206.8790793239
 20
292.4639411094
 11
206.9044059656
 21
292.456907036
  0
LINE
  5
5AF
100
AcDbEntity
  8
11_COMPONENT
100
AcDbLine
 62
7
  6
BYLAYER
 10
207.1790720793
 20
292.381329452
 11
207.2131663574
 21
292.3720383051
  0
SPLINE
  5
5B0
100
AcDbEntity
  8
11_COMPONENT
100
AcDbSpline
 62
7
  6
BYLAYER
 70
0
 71
3
 72
13
 73
9
 74
0
 42
0.0000001
 43
0.0000001
 44
0.0000000001
 40
0.0
 40
0.0
 40
0.0
 40
0.0
 40
0.2534292045
 40
0.5054784875
 40
0.6307837024
 40
0.7551202517
 40
0.878268136
 40
1.0
 40
1.0
 40
1.0
 40
1.0
 10
181.4576178436
 20
325.8768814433
 30
0.0
 10
181.1170164526
 20
323.0442828397
 30
0.0
 10
181.2603869141
 20
317.2625379594
 30
0.0
 10
183.4966062878
 20
310.4143291825
 30
0.0
 10
186.3624305172
 20
305.5285183608
 30
0.0
 10
188.9891442997
 20
302.2365958505
 30
0.0
 10
192.0195742257
 20
299.3728822149
 30
0.0
 10
194.2783194524
 20
297.7740392541
 30
0.0
 10
195.4486679164
 20
297.0610864401
 30
0.0
  0
LINE
  5
5B1
100
AcDbEntity
  8
11_COMPONENT
100
AcDbLine
 62
7
  6
BYLAYER
 10
217.0634238742
 20
393.2281197504
 11
216.9681060934
 21
393.1447811344
  0
LINE
  5
5B2
100
AcDbEntity
  8
11_COMPONENT
100
AcDbLine
 62
7
  6
BYLAYER
 10
181.4758343979
 20
326.0274604952
 11
181.4576178436
 21
325.8768814433
  0
LINE
  5
5B3
100
AcDbEntity
  8
11_COMPONENT
100
AcDbLine
 62
7
  6
BYLAYER
 10
217.081562884
 20
393.2439505478
 11
217.0634238742
 21
393.2281197504
  0
LINE
  5
5B4
100
AcDbEntity
  8
11_COMPONENT
100
AcDbLine
 62
7
  6
BYLAYER
 10
234.0208096957
 20
402.1441383638
 11
234.1383178436
 21
402.1794443242
  0
LINE
  5
5B5
100
AcDbEntity
  8
11_COMPONENT
100
AcDbLine
 62
7
  6
BYLAYER
 10
253.5383178436
 20
402.1794443242
 11
253.6558258748
 21
402.1441383991
  0
SPLINE
  5
5B6
100
AcDbEntity
  8
11_COMPONENT
100
AcDbSpline
 62
7
  6
BYLAYER
 70
0
 71
3
 72
15
 73
11
 74
0
 42
0.0000001
 43
0.0000001
 44
0.0000000001
 40
0.0
 40
0.0
 40
0.0
 40
0.0
 40
0.134658544
 40
0.2682411382
 40
0.3997235679
 40
0.5281203497
 40
0.6526017297
 40
0.7726313557
 40
0.8881879512
 40
1.0
 40
1.0
 40
1.0
 40
1.0
 10
243.8383178436
 20
331.5983726365
 30
0.0
 10
245.3515599743
 20
331.5983726365
 30
0.0
 10
248.3728415229
 20
331.3301668606
 30
0.0
 10
252.7284161229
 20
330.1425224758
 30
0.0
 10
256.7420402179
 20
328.2307283233
 30
0.0
 10
260.2623425108
 20
325.6861866252
 30
0.0
 10
263.1602859532
 20
322.6237928244
 30
0.0
 10
265.3269355353
 20
319.172829678
 30
0.0
 10
266.6747382698
 20
315.4773142209
 30
0.0
 10
266.9883176661
 20
312.9134393762
 30
0.0
 10
266.9883178436
 20
311.6569375755
 30
0.0
  0
LINE
  5
5B7
100
AcDbEntity
  8
11_COMPONENT
100
AcDbLine
 62
7
  6
BYLAYER
 10
255.0089388815
 20
401.7112520608
 11
254.9932671957
 21
401.7157198294
  0
LINE
  5
5B8
100
AcDbEntity
  8
11_COMPONENT
100
AcDbLine
 62
7
  6
BYLAYER
 10
306.2190178435
 20
325.8768604191
 11
306.2007512171
 21
326.0278551854
  0
SPLINE
  5
5B9
100
AcDbEntity
  8
11_COMPONENT
100
AcDbSpline
 62
7
  6
BYLAYER
 70
0
 71
3
 72
11
 73
7
 74
0
 42
0.0000001
 43
0.0000001
 44
0.0000000001
 40
0.0
 40
0.0
 40
0.0
 40
0.0
 40
0.2499756115
 40
0.4999792356
 40
0.7500003134
 40
1.0
 40
1.0
 40
1.0
 40
1.0
 10
306.200751217
 20
326.0278551854
 30
0.0
 10
305.4202431455
 20
332.440791896
 30
0.0
 10
302.6797154838
 20
345.1548702636
 30
0.0
 10
295.1770227083
 20
363.139666894
 30
0.0
 10
284.5358286481
 20
379.4654081289
 30
0.0
 10
275.5701734128
 20
388.8889955174
 30
0.0
 10
270.7087586667
 20
393.1445373327
 30
0.0
  0
LINE
  5
5BA
100
AcDbEntity
  8
11_COMPONENT
100
AcDbLine
 62
7
  6
BYLAYER
 10
270.7087586668
 20
393.1445373328
 11
270.6132118128
 21
393.2280759838
  0
SPLINE
  5
5BB
100
AcDbEntity
  8
11_COMPONENT
100
AcDbSpline
 62
7
  6
BYLAYER
 70
0
 71
3
 72
11
 73
7
 74
0
 42
0.0000001
 43
0.0000001
 44
0.0000000001
 40
0.0
 40
0.0
 40
0.0
 40
0.0
 40
0.2496291339
 40
0.5010032353
 40
0.751875356
 40
1.0
 40
1.0
 40
1.0
 40
1.0
 10
304.8294638561
 20
334.4518402287
 30
0.0
 10
303.8222616553
 20
339.383160743
 30
0.0
 10
301.0932641084
 20
349.1505991278
 30
0.0
 10
294.9569480422
 20
363.0676719532
 30
0.0
 10
286.9152316953
 20
375.9416726768
 30
0.0
 10
280.4038487969
 20
383.663052259
 30
0.0
 10
276.9171104286
 20
387.250614461
 30
0.0
  0
SPLINE
  5
5BC
100
AcDbEntity
  8
11_COMPONENT
100
AcDbSpline
 62
7
  6
BYLAYER
 70
0
 71
3
 72
11
 73
7
 74
0
 42
0.0000001
 43
0.0000001
 44
0.0000000001
 40
0.0
 40
0.0
 40
0.0
 40
0.0
 40
0.2499514727
 40
0.4999938808
 40
0.7500267518
 40
1.0
 40
1.0
 40
1.0
 40
1.0
 10
288.1595290413
 20
294.9933780907
 30
0.0
 10
291.1033955706
 20
296.2132783411
 30
0.0
 10
296.6354481592
 20
299.6390838855
 30
0.0
 10
302.8321347494
 20
307.1349699454
 30
0.0
 10
306.3265367498
 20
316.2114013457
 30
0.0
 10
306.5994812612
 20
322.7127612228
 30
0.0
 10
306.2190178436
 20
325.8768604191
 30
0.0
  0
SPLINE
  5
5BD
100
AcDbEntity
  8
11_COMPONENT
100
AcDbSpline
 62
7
  6
BYLAYER
 70
0
 71
3
 72
9
 73
5
 74
0
 42
0.0000001
 43
0.0000001
 44
0.0000000001
 40
0.0
 40
0.0
 40
0.0
 40
0.0
 40
0.4999982432
 40
1.0
 40
1.0
 40
1.0
 40
1.0
 10
277.2313356088
 20
291.5829895008
 30
0.0
 10
279.0405907774
 20
291.9726719529
 30
0.0
 10
282.6237538389
 20
292.9214429339
 30
0.0
 10
286.1171483767
 20
294.1602444947
 30
0.0
 10
287.8311495635
 20
294.8584598982
 30
0.0
  0
LINE
  5
5BE
100
AcDbEntity
  8
11_COMPONENT
100
AcDbLine
 62
7
  6
BYLAYER
 10
284.2385569086
 20
293.5233321276
 11
284.3686837368
 21
293.5674450487
  0
LINE
  5
5BF
100
AcDbEntity
  8
11_COMPONENT
100
AcDbLine
 62
7
  6
BYLAYER
 10
276.9768870417
 20
291.5283955432
 11
277.2313356089
 21
291.5829895001
  0
LINE
  5
5C0
100
AcDbEntity
  8
11_COMPONENT
100
AcDbLine
 62
7
  6
BYLAYER
 10
255.9426335696
 20
288.4889401677
 11
256.1610115148
 21
288.5058937563
  0
LINE
  5
5C1
100
AcDbEntity
  8
11_COMPONENT
100
AcDbLine
 62
7
  6
BYLAYER
 10
276.8459318894
 20
291.5004630278
 11
276.9769222972
 21
291.5284040703
  0
LINE
  5
5C2
100
AcDbEntity
  8
11_COMPONENT
100
AcDbLine
 62
7
  6
BYLAYER
 10
276.9769222972
 20
291.5284040703
 11
277.2313356088
 21
291.5829905052
  0
LINE
  5
5C3
100
AcDbEntity
  8
11_COMPONENT
100
AcDbLine
 62
7
  6
BYLAYER
 10
210.4453000783
 20
291.5829895001
 11
210.6997486455
 21
291.5283955432
  0
SPLINE
  5
5C4
100
AcDbEntity
  8
11_COMPONENT
100
AcDbSpline
 62
7
  6
BYLAYER
 70
0
 71
3
 72
11
 73
7
 74
0
 42
0.0000001
 43
0.0000001
 44
0.0000000001
 40
0.0
 40
0.0
 40
0.0
 40
0.0
 40
0.2499921368
 40
0.4999888776
 40
0.7499911416
 40
1.0
 40
1.0
 40
1.0
 40
1.0
 10
210.6997486454
 20
291.5283955427
 30
0.0
 10
213.4199713783
 20
290.9470017202
 30
0.0
 10
218.8914413772
 20
289.9228729893
 30
0.0
 10
227.1690591531
 20
288.8346459153
 30
0.0
 10
235.4915607292
 20
288.169860718
 30
0.0
 10
241.0564721171
 20
288.0276159544
 30
0.0
 10
243.8383178436
 20
288.0276016952
 30
0.0
  0
LINE
  5
5C5
100
AcDbEntity
  8
11_COMPONENT
100
AcDbLine
 62
7
  6
BYLAYER
 10
210.4453000785
 20
291.5829905052
 11
210.699713365
 21
291.5284040757
  0
LINE
  5
5C6
100
AcDbEntity
  8
11_COMPONENT
100
AcDbLine
 62
7
  6
BYLAYER
 10
231.5215173238
 20
288.5054322429
 11
231.6293295855
 21
288.4970282711
  0
SPLINE
  5
5C7
100
AcDbEntity
  8
11_COMPONENT
100
AcDbSpline
 62
7
  6
BYLAYER
 70
0
 71
3
 72
9
 73
5
 74
0
 42
0.0000001
 43
0.0000001
 44
0.0000000001
 40
0.0
 40
0.0
 40
0.0
 40
0.0
 40
0.5000025845
 40
1.0
 40
1.0
 40
1.0
 40
1.0
 10
199.8454861238
 20
294.8584598982
 30
0.0
 10
201.5594899691
 20
294.1602429436
 30
0.0
 10
205.0528857496
 20
292.9214453118
 30
0.0
 10
208.6360475391
 20
291.9726695314
 30
0.0
 10
210.4453000785
 20
291.5829895008
 30
0.0
  0
LINE
  5
5C8
100
AcDbEntity
  8
11_COMPONENT
100
AcDbLine
 62
7
  6
BYLAYER
 10
203.3929832414
 20
293.5385849827
 11
203.4388300073
 21
293.5230783459
  0
LINE
  5
5C9
100
AcDbEntity
  8
11_COMPONENT
100
AcDbLine
 62
7
  6
BYLAYER
 10
206.8792222583
 20
292.46445734
 11
207.0325826764
 21
292.4220089569
  0
SPLINE
  5
5CA
100
AcDbEntity
  8
11_COMPONENT
100
AcDbSpline
 62
7
  6
BYLAYER
 70
0
 71
3
 72
11
 73
7
 74
0
 42
0.0000001
 43
0.0000001
 44
0.0000000001
 40
0.0
 40
0.0
 40
0.0
 40
0.0
 40
0.2499671899
 40
0.5000020059
 40
0.7500513508
 40
1.0
 40
1.0
 40
1.0
 40
1.0
 10
181.4576178436
 20
325.8768604191
 30
0.0
 10
181.0771633866
 20
322.7128316094
 30
0.0
 10
181.350039368
 20
316.2115606294
 30
0.0
 10
184.8440625551
 20
307.1348395076
 30
0.0
 10
191.0413451541
 20
299.639307066
 30
0.0
 10
196.5732709176
 20
296.2132750502
 30
0.0
 10
199.517106646
 20
294.9933780907
 30
0.0
  0
LINE
  5
5CB
100
AcDbEntity
  8
11_COMPONENT
100
AcDbLine
 62
7
  6
BYLAYER
 10
181.4758844702
 20
326.0278551854
 11
181.4576178437
 21
325.8768604191
  0
SPLINE
  5
5CC
100
AcDbEntity
  8
11_COMPONENT
100
AcDbSpline
 62
7
  6
BYLAYER
 70
0
 71
3
 72
11
 73
7
 74
0
 42
0.0000001
 43
0.0000001
 44
0.0000000001
 40
0.0
 40
0.0
 40
0.0
 40
0.0
 40
0.2480998272
 40
0.4989643103
 40
0.7503468822
 40
1.0
 40
1.0
 40
1.0
 40
1.0
 10
210.8383360692
 20
387.3316182802
 30
0.0
 10
207.3475958112
 20
383.7475450919
 30
0.0
 10
200.8273889134
 20
376.0323837601
 30
0.0
 10
192.7712116441
 20
363.1651471376
 30
0.0
 10
186.6195051565
 20
349.251680262
 30
0.0
 10
183.8801611505
 20
339.4847681122
 30
0.0
 10
182.8679200246
 20
334.5531739585
 30
0.0
  0
LINE
  5
5CD
100
AcDbEntity
  8
11_COMPONENT
100
AcDbLine
 62
7
  6
BYLAYER
 10
217.0634238744
 20
393.2280759838
 11
216.9678770205
 21
393.1445373328
  0
SPLINE
  5
5CE
100
AcDbEntity
  8
11_COMPONENT
100
AcDbSpline
 62
7
  6
BYLAYER
 70
0
 71
3
 72
11
 73
7
 74
0
 42
0.0000001
 43
0.0000001
 44
0.0000000001
 40
0.0
 40
0.0
 40
0.0
 40
0.0
 40
0.2499883004
 40
0.5000036711
 40
0.7500163219
 40
1.0
 40
1.0
 40
1.0
 40
1.0
 10
216.9678770205
 20
393.1445373327
 30
0.0
 10
212.1067128588
 20
388.8891476942
 30
0.0
 10
203.1408657497
 20
379.4663447315
 30
0.0
 10
192.5000671204
 20
363.1405175776
 30
0.0
 10
184.9971452932
 20
345.1555197562
 30
0.0
 10
182.256420428
 20
332.4410040295
 30
0.0
 10
181.4758844702
 20
326.0278551854
 30
0.0
  0
LINE
  5
5CF
100
AcDbEntity
  8
11_COMPONENT
100
AcDbLine
 62
7
  6
BYLAYER
 10
232.6833691108
 20
401.7157200058
 11
232.6676225941
 21
401.711230888
  0
LINE
  5
5D0
100
AcDbEntity
  8
11_COMPONENT
100
AcDbLine
 62
7
  6
BYLAYER
 10
224.7116318166
 20
398.499527097
 11
224.6888223011
 21
398.4873751372
  0
LINE
  5
5D1
100
AcDbEntity
  8
11_COMPONENT
100
AcDbLine
 62
7
  6
BYLAYER
 10
220.1735100524
 20
395.6874845761
 11
220.0918733282
 21
395.6290085817
  0
SPLINE
  5
5D2
100
AcDbEntity
  8
11_COMPONENT
100
AcDbSpline
 62
7
  6
BYLAYER
 70
0
 71
3
 72
15
 73
11
 74
0
 42
0.0000001
 43
0.0000001
 44
0.0000000001
 40
0.0
 40
0.0
 40
0.0
 40
0.0
 40
0.111811963
 40
0.2273685557
 40
0.3473981795
 40
0.4718795325
 40
0.6002762907
 40
0.7317587274
 40
0.8653413424
 40
1.0
 40
1.0
 40
1.0
 40
1.0
 10
220.6883178436
 20
311.6569363107
 30
0.0
 10
220.6883176795
 20
312.9134371932
 30
0.0
 10
221.0018971019
 20
315.4773111108
 30
0.0
 10
222.3496982977
 20
319.1728261268
 30
0.0
 10
224.5163471467
 20
322.6237895449
 30
0.0
 10
227.41428971
 20
325.6861835426
 30
0.0
 10
230.9345912283
 20
328.2307257507
 30
0.0
 10
234.948215136
 20
330.1425207593
 30
0.0
 10
239.3037911665
 20
331.3301666624
 30
0.0
 10
242.3250743807
 20
331.5983726365
 30
0.0
 10
243.8383178436
 20
331.5983726365
 30
0.0
  0
SPLINE
  5
5D3
100
AcDbEntity
  8
11_COMPONENT
100
AcDbSpline
 62
7
  6
BYLAYER
 70
0
 71
3
 72
9
 73
5
 74
0
 42
0.0000001
 43
0.0000001
 44
0.0000000001
 40
0.0
 40
0.0
 40
0.0
 40
0.0
 40
0.2480577797
 40
1.0
 40
1.0
 40
1.0
 40
1.0
 10
220.8023833226
 20
311.6712676984
 30
0.0
 10
220.8518171729
 20
311.2644336407
 30
0.0
 10
221.1149987308
 20
309.6325542054
 30
0.0
 10
221.6362322503
 20
308.0439024516
 30
0.0
 10
222.1513268051
 20
306.9134057998
 30
0.0
  0
SPLINE
  5
5D4
100
AcDbEntity
  8
11_COMPONENT
100
AcDbSpline
 62
7
  6
BYLAYER
 70
0
 71
3
 72
9
 73
5
 74
0
 42
0.0000001
 43
0.0000001
 44
0.0000000001
 40
0.0
 40
0.0
 40
0.0
 40
0.0
 40
0.2530809585
 40
1.0
 40
1.0
 40
1.0
 40
1.0
 10
265.5376095086
 20
306.9404653492
 30
0.0
 10
265.7092705436
 20
307.3189758109
 30
0.0
 10
266.332528141
 20
308.8388321301
 30
0.0
 10
266.726296766
 20
310.453611848
 30
0.0
 10
266.8742525169
 20
311.6712689512
 30
0.0
  0
SPLINE
  5
5D5
100
AcDbEntity
  8
11_COMPONENT
100
AcDbSpline
 62
7
  6
BYLAYER
 70
0
 71
3
 72
11
 73
7
 74
0
 42
0.0000001
 43
0.0000001
 44
0.0000000001
 40
0.0
 40
0.0
 40
0.0
 40
0.0
 40
0.2499717074
 40
0.5000146484
 40
0.7500356729
 40
1.0
 40
1.0
 40
1.0
 40
1.0
 10
288.0184585915
 20
295.4376359127
 30
0.0
 10
290.8596712511
 20
296.6937979979
 30
0.0
 10
296.1802430154
 20
300.1355487858
 30
0.0
 10
302.133599574
 20
307.5028632211
 30
0.0
 10
305.5111049598
 20
316.352833554
 30
0.0
 10
305.8084620591
 20
322.6822441153
 30
0.0
 10
305.4658147898
 20
325.769711617
 30
0.0
  0
SPLINE
  5
5D6
100
AcDbEntity
  8
11_COMPONENT
100
AcDbSpline
 62
7
  6
BYLAYER
 70
0
 71
3
 72
12
 73
8
 74
0
 42
0.0000001
 43
0.0000001
 44
0.0000000001
 40
0.0
 40
0.0
 40
0.0
 40
0.0
 40
0.2423292015
 40
0.4897701973
 40
0.7424368118
 40
0.8707787621
 40
1.0
 40
1.0
 40
1.0
 40
1.0
 10
273.0265237222
 20
325.9794277282
 30
0.0
 10
271.5786374097
 20
327.5921856312
 30
0.0
 10
268.543734271
 20
330.7587579543
 30
0.0
 10
263.4415804299
 20
335.0383410481
 30
0.0
 10
258.5365901134
 20
337.8731207719
 30
0.0
 10
254.2443774019
 20
339.4501655878
 30
0.0
 10
252.0006098731
 20
339.9944799382
 30
0.0
 10
250.8654986022
 20
340.211797519
 30
0.0
  0
SPLINE
  5
5D7
100
AcDbEntity
  8
11_COMPONENT
100
AcDbSpline
 62
7
  6
BYLAYER
 70
0
 71
3
 72
12
 73
8
 74
0
 42
0.0000001
 43
0.0000001
 44
0.0000000001
 40
0.0
 40
0.0
 40
0.0
 40
0.0
 40
0.0976062394
 40
0.2048882119
 40
0.4453079995
 40
0.7134967042
 40
1.0
 40
1.0
 40
1.0
 40
1.0
 10
270.3478018627
 20
392.7322793723
 30
0.0
 10
269.4918821369
 20
391.1207726468
 30
0.0
 10
267.7981464269
 20
387.6830602417
 30
0.0
 10
264.4462174764
 20
380.061012476
 30
0.0
 10
260.3470961039
 20
369.2950016287
 30
0.0
 10
255.5780231191
 20
355.2153874506
 30
0.0
 10
252.4571791971
 20
345.3258830779
 30
0.0
 10
250.8654986022
 20
340.211797519
 30
0.0
  0
SPLINE
  5
5D8
100
AcDbEntity
  8
11_COMPONENT
100
AcDbSpline
 62
7
  6
BYLAYER
 70
0
 71
3
 72
11
 73
7
 74
0
 42
0.0000001
 43
0.0000001
 44
0.0000000001
 40
0.0
 40
0.0
 40
0.0
 40
0.0
 40
0.249977817
 40
0.4999826156
 40
0.7500032864
 40
1.0
 40
1.0
 40
1.0
 40
1.0
 10
305.4480282697
 20
325.9288491139
 30
0.0
 10
304.6989787754
 20
332.3077481197
 30
0.0
 10
302.0251265193
 20
344.9592083224
 30
0.0
 10
294.6268522849
 20
362.8656632899
 30
0.0
 10
284.0866129099
 20
379.123257593
 30
0.0
 10
275.1812936687
 20
388.5020286083
 30
0.0
 10
270.3478018627
 20
392.7322793723
 30
0.0
  0
SPLINE
  5
5D9
100
AcDbEntity
  8
11_COMPONENT
100
AcDbSpline
 62
7
  6
BYLAYER
 70
0
 71
3
 72
15
 73
11
 74
0
 42
0.0000001
 43
0.0000001
 44
0.0000000001
 40
0.0
 40
0.0
 40
0.0
 40
0.0
 40
0.1090737205
 40
0.2250077679
 40
0.3545709092
 40
0.4999964368
 40
0.6454234537
 40
0.7749883482
 40
0.8909252878
 40
1.0
 40
1.0
 40
1.0
 40
1.0
 10
239.7182298625
 20
392.7262770965
 30
0.0
 10
239.7413367946
 20
393.1783892211
 30
0.0
 10
239.9461938012
 20
394.1101897581
 30
0.0
 10
240.7428398864
 20
395.3824471368
 30
0.0
 10
242.0789684032
 20
396.3759284278
 30
0.0
 10
243.8382841823
 20
396.7716707743
 30
0.0
 10
245.5975954542
 20
396.3759159383
 30
0.0
 10
246.9337819069
 20
395.382488317
 30
0.0
 10
247.7305009113
 20
394.1102217591
 30
0.0
 10
247.9352753877
 20
393.1783921407
 30
0.0
 10
247.9584058247
 20
392.7262770965
 30
0.0
  0
SPLINE
  5
5DA
100
AcDbEntity
  8
11_COMPONENT
100
AcDbSpline
 62
7
  6
BYLAYER
 70
0
 71
3
 72
15
 73
11
 74
0
 42
0.0000001
 43
0.0000001
 44
0.0000000001
 40
0.0
 40
0.0
 40
0.0
 40
0.0
 40
0.1094143284
 40
0.2246734034
 40
0.3535837542
 40
0.4999415042
 40
0.6463117406
 40
0.7752406982
 40
0.8905127454
 40
1.0
 40
1.0
 40
1.0
 40
1.0
 10
247.9584058247
 20
392.7262770965
 30
0.0
 10
247.9831552661
 20
392.2428182724
 30
0.0
 10
247.8554838311
 20
391.2321547519
 30
0.0
 10
247.1006143057
 20
389.8217066739
 30
0.0
 10
245.7221977201
 20
388.6971912702
 30
0.0
 10
243.8390750499
 20
388.2407582409
 30
0.0
 10
241.9556205406
 20
388.6964835468
 30
0.0
 10
240.5768482949
 20
389.8208414377
 30
0.0
 10
239.8211187331
 20
391.231380915
 30
0.0
 10
239.6934564552
 20
392.2424964226
 30
0.0
 10
239.7182298625
 20
392.7262770965
 30
0.0
  0
SPLINE
  5
5DB
100
AcDbEntity
  8
11_COMPONENT
100
AcDbSpline
 62
7
  6
BYLAYER
 70
0
 71
3
 72
11
 73
7
 74
0
 42
0.0000001
 43
0.0000001
 44
0.0000000001
 40
0.0
 40
0.0
 40
0.0
 40
0.0
 40
0.249755176
 40
0.499999669
 40
0.7502445414
 40
1.0
 40
1.0
 40
1.0
 40
1.0
 10
250.8654986022
 20
340.211797519
 30
0.0
 10
249.7111989202
 20
340.4337759141
 30
0.0
 10
247.3697387382
 20
340.7210361023
 30
0.0
 10
243.8383207588
 20
340.8458764002
 30
0.0
 10
240.3069015239
 20
340.7210353759
 30
0.0
 10
237.9654381261
 20
340.4337758911
 30
0.0
 10
236.811137085
 20
340.211797519
 30
0.0
  0
SPLINE
  5
5DC
100
AcDbEntity
  8
11_COMPONENT
100
AcDbSpline
 62
7
  6
BYLAYER
 70
0
 71
3
 72
12
 73
8
 74
0
 42
0.0000001
 43
0.0000001
 44
0.0000000001
 40
0.0
 40
0.0
 40
0.0
 40
0.0
 40
0.0976062394
 40
0.2048882119
 40
0.4453079995
 40
0.7134967042
 40
1.0
 40
1.0
 40
1.0
 40
1.0
 10
217.3288338245
 20
392.7322793723
 30
0.0
 10
218.1847535504
 20
391.1207726468
 30
0.0
 10
219.8784892604
 20
387.6830602417
 30
0.0
 10
223.2304182108
 20
380.061012476
 30
0.0
 10
227.3295395833
 20
369.2950016287
 30
0.0
 10
232.0986125681
 20
355.2153874506
 30
0.0
 10
235.2194564901
 20
345.3258830779
 30
0.0
 10
236.811137085
 20
340.211797519
 30
0.0
  0
SPLINE
  5
5DD
100
AcDbEntity
  8
11_COMPONENT
100
AcDbSpline
 62
7
  6
BYLAYER
 70
0
 71
3
 72
11
 73
7
 74
0
 42
0.0000001
 43
0.0000001
 44
0.0000000001
 40
0.0
 40
0.0
 40
0.0
 40
0.0
 40
0.2499761816
 40
0.4999871614
 40
0.7500138131
 40
1.0
 40
1.0
 40
1.0
 40
1.0
 10
243.8383178439
 20
402.6887236148
 30
0.0
 10
241.4414177623
 20
402.6887308442
 30
0.0
 10
236.6364334039
 20
402.2576621194
 30
0.0
 10
229.6664284507
 20
400.3411286835
 30
0.0
 10
223.1491083096
 20
397.2141930038
 30
0.0
 10
219.2383536517
 20
394.389356508
 30
0.0
 10
217.4279314739
 20
392.8183818264
 30
0.0
  0
SPLINE
  5
5DE
100
AcDbEntity
  8
11_COMPONENT
100
AcDbSpline
 62
7
  6
BYLAYER
 70
0
 71
3
 72
11
 73
7
 74
0
 42
0.0000001
 43
0.0000001
 44
0.0000000001
 40
0.0
 40
0.0
 40
0.0
 40
0.0
 40
0.2500078327
 40
0.5000373477
 40
0.7500382822
 40
1.0
 40
1.0
 40
1.0
 40
1.0
 10
270.2487042133
 20
392.8183818264
 30
0.0
 10
268.4381211628
 20
394.389488003
 30
0.0
 10
264.5271736007
 20
397.2144760863
 30
0.0
 10
258.0096399398
 20
400.3412889042
 30
0.0
 10
251.0398329737
 20
402.2577403179
 30
0.0
 10
246.2350793748
 20
402.6887211572
 30
0.0
 10
243.8383178439
 20
402.6887236148
 30
0.0
  0
SPLINE
  5
5DF
100
AcDbEntity
  8
11_COMPONENT
100
AcDbSpline
 62
7
  6
BYLAYER
 70
0
 71
3
 72
12
 73
8
 74
0
 42
0.0000001
 43
0.0000001
 44
0.0000000001
 40
0.0
 40
0.0
 40
0.0
 40
0.0
 40
0.1292223193
 40
0.2575649033
 40
0.5102314287
 40
0.7576716375
 40
1.0
 40
1.0
 40
1.0
 40
1.0
 10
236.811137085
 20
340.211797519
 30
0.0
 10
235.6760113687
 20
339.9945044312
 30
0.0
 10
233.4322378214
 20
339.450140973
 30
0.0
 10
229.1400131619
 20
337.873098299
 30
0.0
 10
224.2350225323
 20
335.0383193305
 30
0.0
 10
219.132885862
 20
330.7587416341
 30
0.0
 10
216.0979920213
 20
327.5921809376
 30
0.0
 10
214.650111965
 20
325.9794277282
 30
0.0
  0
SPLINE
  5
5E0
100
AcDbEntity
  8
11_COMPONENT
100
AcDbSpline
 62
7
  6
BYLAYER
 70
0
 71
3
 72
9
 73
5
 74
0
 42
0.0000001
 43
0.0000001
 44
0.0000000001
 40
0.0
 40
0.0
 40
0.0
 40
0.0
 40
0.5000198189
 40
1.0
 40
1.0
 40
1.0
 40
1.0
 10
182.2286074176
 20
325.9288491139
 30
0.0
 10
187.6226686418
 20
326.2811082168
 30
0.0
 10
198.4423803036
 20
326.5078172954
 30
0.0
 10
209.2482951325
 20
326.1684393166
 30
0.0
 10
214.650111965
 20
325.9794277282
 30
0.0
  0
SPLINE
  5
5E1
100
AcDbEntity
  8
11_COMPONENT
100
AcDbSpline
 62
7
  6
BYLAYER
 70
0
 71
3
 72
11
 73
7
 74
0
 42
0.0000001
 43
0.0000001
 44
0.0000000001
 40
0.0
 40
0.0
 40
0.0
 40
0.0
 40
0.249985054
 40
0.4999999439
 40
0.750013942
 40
1.0
 40
1.0
 40
1.0
 40
1.0
 10
217.3288338245
 20
392.7322793723
 30
0.0
 10
212.4956064638
 20
388.5021728864
 30
0.0
 10
203.590083185
 20
379.1242092549
 30
0.0
 10
193.0502390932
 20
362.8665298426
 30
0.0
 10
185.6517374853
 20
344.9598677438
 30
0.0
 10
182.9776845769
 20
332.307963658
 30
0.0
 10
182.2286074176
 20
325.9288491139
 30
0.0
  0
SPLINE
  5
5E2
100
AcDbEntity
  8
11_COMPONENT
100
AcDbSpline
 62
7
  6
BYLAYER
 70
0
 71
3
 72
15
 73
11
 74
0
 42
0.0000001
 43
0.0000001
 44
0.0000000001
 40
0.0
 40
0.0
 40
0.0
 40
0.0
 40
0.1222645419
 40
0.2319963337
 40
0.337807256
 40
0.4468226653
 40
0.5663067319
 40
0.7031579727
 40
0.8543150073
 40
1.0
 40
1.0
 40
1.0
 40
1.0
 10
202.5266608008
 20
310.3959825568
 30
0.0
 10
202.5122773303
 20
309.8730059129
 30
0.0
 10
202.2946136198
 20
308.8753427842
 30
0.0
 10
201.4956511417
 20
307.6394053985
 30
0.0
 10
200.3828038754
 20
306.7671007644
 30
0.0
 10
199.0047834658
 20
306.2917620339
 30
0.0
 10
197.4060938547
 20
306.3247232325
 30
0.0
 10
195.7631533467
 20
307.0518026572
 30
0.0
 10
194.5084248019
 20
308.5089658781
 30
0.0
 10
194.1804203612
 20
309.7881567793
 30
0.0
 10
194.1630183823
 20
310.4113052023
 30
0.0
  0
SPLINE
  5
5E3
100
AcDbEntity
  8
11_COMPONENT
100
AcDbSpline
 62
7
  6
BYLAYER
 70
0
 71
3
 72
16
 73
12
 74
0
 42
0.0000001
 43
0.0000001
 44
0.0000000001
 40
0.0
 40
0.0
 40
0.0
 40
0.0
 40
0.1281264239
 40
0.2440843463
 40
0.3539420517
 40
0.463540968
 40
0.5794344209
 40
0.7099575772
 40
0.7830180295
 40
0.8587709779
 40
1.0
 40
1.0
 40
1.0
 40
1.0
 10
194.1630183823
 20
310.4113052023
 30
0.0
 10
194.1472182426
 20
310.9796751456
 30
0.0
 10
194.3428390605
 20
312.0822648946
 30
0.0
 10
195.2064528679
 20
313.4353088552
 30
0.0
 10
196.4230423776
 20
314.346012979
 30
0.0
 10
197.8786403886
 20
314.7806716064
 30
0.0
 10
199.4903076523
 20
314.6666288002
 30
0.0
 10
200.7967565432
 20
314.007501982
 30
0.0
 10
201.6737708693
 20
313.11710319
 30
0.0
 10
202.3459403668
 20
312.0082002412
 30
0.0
 10
202.5439216308
 20
311.022480033
 30
0.0
 10
202.5266608008
 20
310.3959825568
 30
0.0
  0
SPLINE
  5
5E4
100
AcDbEntity
  8
11_COMPONENT
100
AcDbSpline
 62
7
  6
BYLAYER
 70
0
 71
3
 72
13
 73
9
 74
0
 42
0.0000001
 43
0.0000001
 44
0.0000000001
 40
0.0
 40
0.0
 40
0.0
 40
0.0
 40
0.2674725254
 40
0.5221317767
 40
0.6447215604
 40
0.7642873696
 40
0.8817737955
 40
1.0
 40
1.0
 40
1.0
 40
1.0
 10
214.650111965
 20
325.9794277282
 30
0.0
 10
213.0422376944
 20
324.142696005
 30
0.0
 10
210.283946133
 20
320.2081603763
 30
0.0
 10
207.9542113936
 20
314.7489465805
 30
0.0
 10
206.9634518449
 20
310.3123949692
 30
0.0
 10
206.7163574222
 20
307.0240683445
 30
0.0
 10
207.0861998983
 20
303.780481553
 30
0.0
 10
207.8995724745
 20
301.7405721658
 30
0.0
 10
208.4784428626
 20
300.8300127569
 30
0.0
  0
SPLINE
  5
5E5
100
AcDbEntity
  8
11_COMPONENT
100
AcDbSpline
 62
7
  6
BYLAYER
 70
0
 71
3
 72
11
 73
7
 74
0
 42
0.0000001
 43
0.0000001
 44
0.0000000001
 40
0.0
 40
0.0
 40
0.0
 40
0.0
 40
0.2499584185
 40
0.4999809606
 40
0.7500307659
 40
1.0
 40
1.0
 40
1.0
 40
1.0
 10
182.2108208974
 20
325.769711617
 30
0.0
 10
181.8681816619
 20
322.6823106954
 30
0.0
 10
182.1654870902
 20
316.3529823676
 30
0.0
 10
185.5426507605
 20
307.5027666929
 30
0.0
 10
191.496482818
 20
300.1356920897
 30
0.0
 10
196.8169899056
 20
296.6937953466
 30
0.0
 10
199.6581770957
 20
295.4376359127
 30
0.0
  0
SPLINE
  5
5E6
100
AcDbEntity
  8
11_COMPONENT
100
AcDbSpline
 62
7
  6
BYLAYER
 70
0
 71
3
 72
9
 73
5
 74
0
 42
0.0000001
 43
0.0000001
 44
0.0000000001
 40
0.0
 40
0.0
 40
0.0
 40
0.0
 40
0.4857351912
 40
1.0
 40
1.0
 40
1.0
 40
1.0
 10
208.4784428626
 20
300.8300127569
 30
0.0
 10
209.1923046758
 20
299.6909409463
 30
0.0
 10
210.9782788798
 20
297.5339893183
 30
0.0
 10
213.2389918189
 20
295.8818648398
 30
0.0
 10
214.4829650636
 20
295.1903985089
 30
0.0
  0
SPLINE
  5
5E7
100
AcDbEntity
  8
11_COMPONENT
100
AcDbSpline
 62
7
  6
BYLAYER
 70
0
 71
3
 72
9
 73
5
 74
0
 42
0.0000001
 43
0.0000001
 44
0.0000000001
 40
0.0
 40
0.0
 40
0.0
 40
0.0
 40
0.5000015701
 40
1.0
 40
1.0
 40
1.0
 40
1.0
 10
199.9966685547
 20
295.2892381924
 30
0.0
 10
201.691191207
 20
294.5717232082
 30
0.0
 10
205.1494271144
 20
293.29718328
 30
0.0
 10
208.7013916095
 20
292.314368837
 30
0.0
 10
210.4956970791
 20
291.9061285637
 30
0.0
  0
SPLINE
  5
5E8
100
AcDbEntity
  8
11_COMPONENT
100
AcDbSpline
 62
7
  6
BYLAYER
 70
0
 71
3
 72
11
 73
7
 74
0
 42
0.0000001
 43
0.0000001
 44
0.0000000001
 40
0.0
 40
0.0
 40
0.0
 40
0.0
 40
0.2395479632
 40
0.4882583664
 40
0.7427899984
 40
1.0
 40
1.0
 40
1.0
 40
1.0
 10
214.4829650636
 20
295.1903985089
 30
0.0
 10
216.6002114232
 20
294.0096529456
 30
0.0
 10
221.1412423888
 20
291.9910787578
 30
0.0
 10
228.4227493944
 20
290.0386510889
 30
0.0
 10
236.0525904822
 20
288.9293661284
 30
0.0
 10
241.2353474222
 20
288.7028179357
 30
0.0
 10
243.8383178436
 20
288.7028200448
 30
0.0
  0
SPLINE
  5
5E9
100
AcDbEntity
  8
11_COMPONENT
100
AcDbSpline
 62
7
  6
BYLAYER
 70
0
 71
3
 72
11
 73
7
 74
0
 42
0.0000001
 43
0.0000001
 44
0.0000000001
 40
0.0
 40
0.0
 40
0.0
 40
0.0
 40
0.2499941015
 40
0.4999910684
 40
0.7499924557
 40
1.0
 40
1.0
 40
1.0
 40
1.0
 10
210.7571371337
 20
291.846861065
 30
0.0
 10
213.4702048315
 20
291.2484169903
 30
0.0
 10
218.928660151
 20
290.1915082094
 30
0.0
 10
227.1911106652
 20
289.0648008954
 30
0.0
 10
235.5017017382
 20
288.376234313
 30
0.0
 10
241.0598827101
 20
288.2284610507
 30
0.0
 10
243.8383178436
 20
288.2284464123
 30
0.0
  0
SPLINE
  5
5EA
100
AcDbEntity
  8
11_COMPONENT
100
AcDbSpline
 62
7
  6
BYLAYER
 70
0
 71
3
 72
18
 73
14
 74
0
 42
0.0000001
 43
0.0000001
 44
0.0000000001
 40
0.0
 40
0.0
 40
0.0
 40
0.0
 40
0.1409046893
 40
0.2769984252
 40
0.4051481477
 40
0.466208044
 40
0.5254915048
 40
0.5834799766
 40
0.6407768671
 40
0.6980300418
 40
0.7558544153
 40
0.8747297019
 40
1.0
 40
1.0
 40
1.0
 40
1.0
 10
243.8383178436
 20
289.5913138197
 30
0.0
 10
241.221551973
 20
289.5908759163
 30
0.0
 10
236.0630207685
 20
290.0656044716
 30
0.0
 10
228.7961558892
 20
292.195351394
 30
0.0
 10
223.4620425896
 20
295.1772302296
 30
0.0
 10
219.9674810455
 20
298.2128545384
 30
0.0
 10
217.8045497604
 20
300.7381228687
 30
0.0
 10
216.0999512201
 20
303.5121455317
 30
0.0
 10
214.8846184428
 20
306.4929153204
 30
0.0
 10
214.1844842131
 20
309.6321410543
 30
0.0
 10
213.9447100743
 20
313.9877700792
 30
0.0
 10
215.0132542683
 20
319.5895131263
 30
0.0
 10
217.1454951214
 20
323.6662885914
 30
0.0
 10
218.4799849753
 20
325.5718993197
 30
0.0
  0
SPLINE
  5
5EB
100
AcDbEntity
  8
11_COMPONENT
100
AcDbSpline
 62
7
  6
BYLAYER
 70
0
 71
3
 72
11
 73
7
 74
0
 42
0.0000001
 43
0.0000001
 44
0.0000000001
 40
0.0
 40
0.0
 40
0.0
 40
0.0
 40
0.2395618409
 40
0.488098046
 40
0.7425946845
 40
1.0
 40
1.0
 40
1.0
 40
1.0
 10
218.4799849753
 20
325.5718993197
 30
0.0
 10
219.8271327906
 20
327.4955852303
 30
0.0
 10
223.0981635315
 20
331.0678993968
 30
0.0
 10
229.2152636052
 20
335.1354342008
 30
0.0
 10
236.2767892941
 20
337.725283712
 30
0.0
 10
241.3149103993
 20
338.3161797196
 30
0.0
 10
243.8383178436
 20
338.316385195
 30
0.0
  0
SPLINE
  5
5EC
100
AcDbEntity
  8
11_COMPONENT
100
AcDbSpline
 62
7
  6
BYLAYER
 70
0
 71
3
 72
11
 73
7
 74
0
 42
0.0000001
 43
0.0000001
 44
0.0000000001
 40
0.0
 40
0.0
 40
0.0
 40
0.0
 40
0.2574053809
 40
0.5119019897
 40
0.760438247
 40
1.0
 40
1.0
 40
1.0
 40
1.0
 10
243.8383178436
 20
338.316385195
 30
0.0
 10
246.3617567283
 20
338.3161795073
 30
0.0
 10
251.399940582
 20
337.7252703345
 30
0.0
 10
258.4615418856
 20
335.1353532221
 30
0.0
 10
264.5786888618
 20
331.067725321
 30
0.0
 10
267.8497216631
 20
327.495331041
 30
0.0
 10
269.1968617174
 20
325.5716057536
 30
0.0
  0
SPLINE
  5
5ED
100
AcDbEntity
  8
11_COMPONENT
100
AcDbSpline
 62
7
  6
BYLAYER
 70
0
 71
3
 72
18
 73
14
 74
0
 42
0.0000001
 43
0.0000001
 44
0.0000000001
 40
0.0
 40
0.0
 40
0.0
 40
0.0
 40
0.1252702639
 40
0.2441455079
 40
0.3019699467
 40
0.3592232262
 40
0.4165203897
 40
0.4745089153
 40
0.5337927309
 40
0.5948528514
 40
0.7230022749
 40
0.859095351
 40
1.0
 40
1.0
 40
1.0
 40
1.0
 10
269.1968617174
 20
325.5716057536
 30
0.0
 10
270.5313188044
 20
323.665991831
 30
0.0
 10
272.6634834731
 20
319.5892087628
 30
0.0
 10
273.7319166783
 20
313.9874873278
 30
0.0
 10
273.4921152404
 20
309.6318906072
 30
0.0
 10
272.7919737791
 20
306.49267382
 30
0.0
 10
271.5765311183
 20
303.5119678585
 30
0.0
 10
269.87199376
 20
300.7379192435
 30
0.0
 10
267.7089797082
 20
298.2127301328
 30
0.0
 10
264.2144415287
 20
295.1771263992
 30
0.0
 10
258.8803396527
 20
292.1953324251
 30
0.0
 10
251.6135528666
 20
290.0655854427
 30
0.0
 10
246.4550654815
 20
289.5908775123
 30
0.0
 10
243.8383178436
 20
289.5913138197
 30
0.0
  0
SPLINE
  5
5EE
100
AcDbEntity
  8
11_COMPONENT
100
AcDbSpline
 62
7
  6
BYLAYER
 70
0
 71
3
 72
12
 73
8
 74
0
 42
0.0000001
 43
0.0000001
 44
0.0000000001
 40
0.0
 40
0.0
 40
0.0
 40
0.0
 40
0.2422444052
 40
0.4896612088
 40
0.7423786526
 40
0.8707519665
 40
1.0
 40
1.0
 40
1.0
 40
1.0
 10
272.4684045771
 20
325.4539271838
 30
0.0
 10
271.0473539229
 20
327.0453681195
 30
0.0
 10
268.0704438103
 20
330.1732139734
 30
0.0
 10
263.0750302683
 20
334.4190871616
 30
0.0
 10
258.2765173677
 20
337.2632393011
 30
0.0
 10
254.0678738889
 20
338.867684122
 30
0.0
 10
251.8637766662
 20
339.4284869211
 30
0.0
 10
250.7479430774
 20
339.6537622931
 30
0.0
  0
SPLINE
  5
5EF
100
AcDbEntity
  8
11_COMPONENT
100
AcDbSpline
 62
7
  6
BYLAYER
 70
0
 71
3
 72
14
 73
10
 74
0
 42
0.0000001
 43
0.0000001
 44
0.0000000001
 40
0.0
 40
0.0
 40
0.0
 40
0.0
 40
0.1178580058
 40
0.2351016339
 40
0.354553476
 40
0.4771156011
 40
0.6030258543
 40
0.7322729347
 40
1.0
 40
1.0
 40
1.0
 40
1.0
 10
278.858130758
 20
300.9059336916
 30
0.0
 10
279.4111582206
 20
301.8020058092
 30
0.0
 10
280.1697312711
 20
303.8091162717
 30
0.0
 10
280.4712471999
 20
306.983666308
 30
0.0
 10
280.1758169426
 20
310.1943006576
 30
0.0
 10
279.412597602
 20
313.4005832821
 30
0.0
 10
278.2367433029
 20
316.5722265502
 30
0.0
 10
276.1467614922
 20
320.7565303175
 30
0.0
 10
274.061580613
 20
323.6697359297
 30
0.0
 10
272.4684045771
 20
325.4539271838
 30
0.0
  0
SPLINE
  5
5F0
100
AcDbEntity
  8
11_COMPONENT
100
AcDbSpline
 62
7
  6
BYLAYER
 70
0
 71
3
 72
9
 73
5
 74
0
 42
0.0000001
 43
0.0000001
 44
0.0000000001
 40
0.0
 40
0.0
 40
0.0
 40
0.0
 40
0.5145566948
 40
1.0
 40
1.0
 40
1.0
 40
1.0
 10
272.9898145634
 20
295.3479406437
 30
0.0
 10
274.209932369
 20
296.0292230992
 30
0.0
 10
276.4238180143
 20
297.6577106631
 30
0.0
 10
278.165704764
 20
299.7840379258
 30
0.0
 10
278.858130758
 20
300.9059336916
 30
0.0
  0
SPLINE
  5
5F1
100
AcDbEntity
  8
11_COMPONENT
100
AcDbSpline
 62
7
  6
BYLAYER
 70
0
 71
3
 72
11
 73
7
 74
0
 42
0.0000001
 43
0.0000001
 44
0.0000000001
 40
0.0
 40
0.0
 40
0.0
 40
0.0
 40
0.2571266684
 40
0.511637819
 40
0.760399106
 40
1.0
 40
1.0
 40
1.0
 40
1.0
 10
243.8383178436
 20
288.9103146345
 30
0.0
 10
246.4223295251
 20
288.9103153396
 30
0.0
 10
251.567946796
 20
289.134293827
 30
0.0
 10
259.1445384562
 20
290.2326532839
 30
0.0
 10
266.377148065
 20
292.1683522333
 30
0.0
 10
270.8874642928
 20
294.1740434346
 30
0.0
 10
272.9898145634
 20
295.3479406437
 30
0.0
  0
SPLINE
  5
5F2
100
AcDbEntity
  8
11_COMPONENT
100
AcDbSpline
 62
7
  6
BYLAYER
 70
0
 71
3
 72
11
 73
7
 74
0
 42
0.0000001
 43
0.0000001
 44
0.0000000001
 40
0.0
 40
0.0
 40
0.0
 40
0.0
 40
0.2396008515
 40
0.4883625948
 40
0.7428735712
 40
1.0
 40
1.0
 40
1.0
 40
1.0
 10
214.6868211238
 20
295.3479406437
 30
0.0
 10
216.789163736
 20
294.1740308524
 30
0.0
 10
221.2994925249
 20
292.1683514711
 30
0.0
 10
228.532106032
 20
290.2326675749
 30
0.0
 10
236.108695526
 20
289.1342950138
 30
0.0
 10
241.2543087036
 20
288.9103127789
 30
0.0
 10
243.8383178436
 20
288.9103146345
 30
0.0
  0
SPLINE
  5
5F3
100
AcDbEntity
  8
11_COMPONENT
100
AcDbSpline
 62
7
  6
BYLAYER
 70
0
 71
3
 72
9
 73
5
 74
0
 42
0.0000001
 43
0.0000001
 44
0.0000000001
 40
0.0
 40
0.0
 40
0.0
 40
0.0
 40
0.4854448471
 40
1.0
 40
1.0
 40
1.0
 40
1.0
 10
208.8185049293
 20
300.9059336916
 30
0.0
 10
209.5109235247
 20
299.7840289669
 30
0.0
 10
211.252852438
 20
297.6577467616
 30
0.0
 10
213.4666834469
 20
296.0291779427
 30
0.0
 10
214.6868211238
 20
295.3479406437
 30
0.0
  0
SPLINE
  5
5F4
100
AcDbEntity
  8
11_COMPONENT
100
AcDbSpline
 62
7
  6
BYLAYER
 70
0
 71
3
 72
11
 73
7
 74
0
 42
0.0000001
 43
0.0000001
 44
0.0000000001
 40
0.0
 40
0.0
 40
0.0
 40
0.0
 40
0.2463065689
 40
0.4922624793
 40
0.7422169555
 40
1.0
 40
1.0
 40
1.0
 40
1.0
 10
266.9883178436
 20
311.6569375755
 30
0.0
 10
266.9883179985
 20
310.5603783069
 30
0.0
 10
266.7538234994
 20
308.3610151652
 30
0.0
 10
265.6893211909
 20
305.2061354637
 30
0.0
 10
263.9532412801
 20
302.3069193694
 30
0.0
 10
262.416125199
 20
300.6273526401
 30
0.0
 10
261.5683718556
 20
299.8537759626
 30
0.0
  0
SPLINE
  5
5F5
100
AcDbEntity
  8
11_COMPONENT
100
AcDbSpline
 62
7
  6
BYLAYER
 70
0
 71
3
 72
14
 73
10
 74
0
 42
0.0000001
 43
0.0000001
 44
0.0000000001
 40
0.0
 40
0.0
 40
0.0
 40
0.0
 40
0.2676798683
 40
0.3969086786
 40
0.5228109268
 40
0.6453753596
 40
0.7648395962
 40
0.882102367
 40
1.0
 40
1.0
 40
1.0
 40
1.0
 10
215.2082311101
 20
325.4539271838
 30
0.0
 10
213.6153409603
 20
323.6700472041
 30
0.0
 10
211.5305386307
 20
320.7573351372
 30
0.0
 10
209.440476525
 20
316.5737992039
 30
0.0
 10
208.2647366878
 20
313.4023476898
 30
0.0
 10
207.5010935212
 20
310.196116506
 30
0.0
 10
207.2053715761
 20
306.9851952241
 30
0.0
 10
207.5066496945
 20
303.8099946867
 30
0.0
 10
208.2652704733
 20
301.8022936265
 30
0.0
 10
208.8185049293
 20
300.9059336916
 30
0.0
  0
SPLINE
  5
5F6
100
AcDbEntity
  8
11_COMPONENT
100
AcDbSpline
 62
7
  6
BYLAYER
 70
0
 71
3
 72
12
 73
8
 74
0
 42
0.0000001
 43
0.0000001
 44
0.0000000001
 40
0.0
 40
0.0
 40
0.0
 40
0.0
 40
0.1292491421
 40
0.2576230703
 40
0.5103404184
 40
0.7577564382
 40
1.0
 40
1.0
 40
1.0
 40
1.0
 10
236.9286926098
 20
339.6537622931
 30
0.0
 10
235.8128447322
 20
339.428508791
 30
0.0
 10
233.6087415553
 20
338.8676600673
 30
0.0
 10
229.4000859765
 20
337.2632173323
 30
0.0
 10
224.6015737032
 20
334.4190649353
 30
0.0
 10
219.6061763743
 20
330.1731980886
 30
0.0
 10
216.6292755596
 20
327.0453634859
 30
0.0
 10
215.2082311101
 20
325.4539271838
 30
0.0
  0
SPLINE
  5
5F7
100
AcDbEntity
  8
11_COMPONENT
100
AcDbSpline
 62
7
  6
BYLAYER
 70
0
 71
3
 72
9
 73
5
 74
0
 42
0.0000001
 43
0.0000001
 44
0.0000000001
 40
0.0
 40
0.0
 40
0.0
 40
0.0
 40
0.2624205429
 40
1.0
 40
1.0
 40
1.0
 40
1.0
 10
278.858130758
 20
300.9059337479
 30
0.0
 10
278.8868311275
 20
300.8955226702
 30
0.0
 10
278.9973252995
 20
300.8591680979
 30
0.0
 10
279.1126076754
 20
300.8362336967
 30
0.0
 10
279.1981928198
 20
300.8300127671
 30
0.0
  0
SPLINE
  5
5F8
100
AcDbEntity
  8
11_COMPONENT
100
AcDbSpline
 62
7
  6
BYLAYER
 70
0
 71
3
 72
9
 73
5
 74
0
 42
0.0000001
 43
0.0000001
 44
0.0000000001
 40
0.0
 40
0.0
 40
0.0
 40
0.0
 40
0.2734976646
 40
1.0
 40
1.0
 40
1.0
 40
1.0
 10
272.9898145634
 20
295.3479407353
 30
0.0
 10
273.0067065454
 20
295.3315739781
 30
0.0
 10
273.0698993486
 20
295.2733100644
 30
0.0
 10
273.139261955
 20
295.2211104164
 30
0.0
 10
273.1936706172
 20
295.1903985355
 30
0.0
  0
SPLINE
  5
5F9
100
AcDbEntity
  8
11_COMPONENT
100
AcDbSpline
 62
7
  6
BYLAYER
 70
0
 71
3
 72
9
 73
5
 74
0
 42
0.0000001
 43
0.0000001
 44
0.0000000001
 40
0.0
 40
0.0
 40
0.0
 40
0.0
 40
0.2734977553
 40
1.0
 40
1.0
 40
1.0
 40
1.0
 10
214.6868211238
 20
295.347940636
 30
0.0
 10
214.669929148
 20
295.3315739272
 30
0.0
 10
214.6067363888
 20
295.2733102142
 30
0.0
 10
214.537373825
 20
295.2211107801
 30
0.0
 10
214.4829652048
 20
295.190399089
 30
0.0
  0
SPLINE
  5
5FA
100
AcDbEntity
  8
11_COMPONENT
100
AcDbSpline
 62
7
  6
BYLAYER
 70
0
 71
3
 72
9
 73
5
 74
0
 42
0.0000001
 43
0.0000001
 44
0.0000000001
 40
0.0
 40
0.0
 40
0.0
 40
0.0
 40
0.2624205526
 40
1.0
 40
1.0
 40
1.0
 40
1.0
 10
208.8185049293
 20
300.905934051
 30
0.0
 10
208.7898045775
 20
300.8955229973
 30
0.0
 10
208.6793104806
 20
300.8591685143
 30
0.0
 10
208.5640281927
 20
300.8362341885
 30
0.0
 10
208.4784431197
 20
300.8300133019
 30
0.0
  0
SPLINE
  5
5FB
100
AcDbEntity
  8
11_COMPONENT
100
AcDbSpline
 62
7
  6
BYLAYER
 70
0
 71
3
 72
9
 73
5
 74
0
 42
0.0000001
 43
0.0000001
 44
0.0000000001
 40
0.0
 40
0.0
 40
0.0
 40
0.0
 40
0.7576487583
 40
1.0
 40
1.0
 40
1.0
 40
1.0
 10
215.2082311101
 20
325.4539272062
 30
0.0
 10
215.0479777656
 20
325.5633350395
 30
0.0
 10
214.8528171025
 20
325.734082013
 30
0.0
 10
214.6877993618
 20
325.9301115092
 30
0.0
 10
214.6501120839
 20
325.9794277207
 30
0.0
  0
SPLINE
  5
5FC
100
AcDbEntity
  8
11_COMPONENT
100
AcDbSpline
 62
7
  6
BYLAYER
 70
0
 71
3
 72
9
 73
5
 74
0
 42
0.0000001
 43
0.0000001
 44
0.0000000001
 40
0.0
 40
0.0
 40
0.0
 40
0.0
 40
0.7576487384
 40
1.0
 40
1.0
 40
1.0
 40
1.0
 10
272.4684045771
 20
325.4539272004
 30
0.0
 10
272.628657963
 20
325.5633350232
 30
0.0
 10
272.8238186802
 20
325.7340820037
 30
0.0
 10
272.9888364743
 20
325.9301115122
 30
0.0
 10
273.0265237683
 20
325.9794277311
 30
0.0
  0
SPLINE
  5
5FD
100
AcDbEntity
  8
11_COMPONENT
100
AcDbSpline
 62
7
  6
BYLAYER
 70
0
 71
3
 72
13
 73
9
 74
0
 42
0.0000001
 43
0.0000001
 44
0.0000000001
 40
0.0
 40
0.0
 40
0.0
 40
0.0
 40
0.2723309966
 40
0.4046067844
 40
0.532553809
 40
0.7733228982
 40
0.8879122802
 40
1.0
 40
1.0
 40
1.0
 40
1.0
 10
243.838321077
 20
291.3924231554
 30
0.0
 10
246.5889265226
 20
291.3918948156
 30
0.0
 10
250.6997304511
 20
291.8593739989
 30
0.0
 10
255.8516196363
 20
293.4496432902
 30
0.0
 10
260.4556557925
 20
295.5721457789
 30
0.0
 10
264.4279739456
 20
298.5828293694
 30
0.0
 10
267.3082652782
 20
302.3520177513
 30
0.0
 10
268.3417222783
 20
304.4140682694
 30
0.0
 10
268.7473830985
 20
305.471005412
 30
0.0
  0
SPLINE
  5
5FE
100
AcDbEntity
  8
11_COMPONENT
100
AcDbSpline
 62
7
  6
BYLAYER
 70
0
 71
3
 72
15
 73
11
 74
0
 42
0.0000001
 43
0.0000001
 44
0.0000000001
 40
0.0
 40
0.0
 40
0.0
 40
0.0
 40
0.1123100503
 40
0.2285896386
 40
0.3492103312
 40
0.4739605927
 40
0.6022588011
 40
0.7333040552
 40
0.8661880562
 40
1.0
 40
1.0
 40
1.0
 40
1.0
 10
269.840268181
 20
313.2400377621
 30
0.0
 10
269.7275278634
 20
314.6122150567
 30
0.0
 10
269.1824367707
 20
317.3869155518
 30
0.0
 10
267.4995442075
 20
321.3528016516
 30
0.0
 10
264.9942126379
 20
325.043255769
 30
0.0
 10
261.7506121554
 20
328.3133205356
 30
0.0
 10
257.8721504789
 20
331.0264184778
 30
0.0
 10
253.4889865155
 20
333.0626889283
 30
0.0
 10
248.7552806479
 20
334.3262502336
 30
0.0
 10
245.4787099971
 20
334.6110904446
 30
0.0
 10
243.8383188484
 20
334.6112947845
 30
0.0
  0
SPLINE
  5
5FF
100
AcDbEntity
  8
11_COMPONENT
100
AcDbSpline
 62
7
  6
BYLAYER
 70
0
 71
3
 72
15
 73
11
 74
0
 42
0.0000001
 43
0.0000001
 44
0.0000000001
 40
0.0
 40
0.0
 40
0.0
 40
0.0
 40
0.1337724993
 40
0.266618477
 40
0.3976390748
 40
0.5259415288
 40
0.6507204968
 40
0.7713814606
 40
0.8876912399
 40
1.0
 40
1.0
 40
1.0
 40
1.0
 10
243.8383188484
 20
334.6112947845
 30
0.0
 10
242.1982497307
 20
334.6110712721
 30
0.0
 10
238.9223075354
 20
334.3263855551
 30
0.0
 10
234.1893085779
 20
333.0632179267
 30
0.0
 10
229.8061926899
 20
331.0274326601
 30
0.0
 10
225.9271089109
 20
328.3142185924
 30
0.0
 10
222.6824077312
 20
325.0433214024
 30
0.0
 10
220.1762012042
 20
321.3514288828
 30
0.0
 10
218.4932034447
 20
317.3841510519
 30
0.0
 10
217.9486230019
 20
314.6087066746
 30
0.0
 10
217.8360770565
 20
313.2363932348
 30
0.0
  0
SPLINE
  5
600
100
AcDbEntity
  8
11_COMPONENT
100
AcDbSpline
 62
7
  6
BYLAYER
 70
0
 71
3
 72
13
 73
9
 74
0
 42
0.0000001
 43
0.0000001
 44
0.0000000001
 40
0.0
 40
0.0
 40
0.0
 40
0.0
 40
0.1120873787
 40
0.2266715422
 40
0.4674252719
 40
0.5953714826
 40
0.7276514707
 40
1.0
 40
1.0
 40
1.0
 40
1.0
 10
218.9229113888
 20
305.4874990701
 30
0.0
 10
219.3277125803
 20
304.4295347491
 30
0.0
 10
220.359852097
 20
302.365362153
 30
0.0
 10
223.2387454182
 20
298.5918698349
 30
0.0
 10
227.2118206081
 20
295.5774493971
 30
0.0
 10
231.8177409864
 20
293.4522865396
 30
0.0
 10
236.9725106737
 20
291.8599732862
 30
0.0
 10
241.0859470381
 20
291.391906642
 30
0.0
 10
243.838321077
 20
291.3924231579
 30
0.0
  0
SPLINE
  5
601
100
AcDbEntity
  8
11_COMPONENT
100
AcDbSpline
 62
7
  6
BYLAYER
 70
0
 71
3
 72
14
 73
10
 74
0
 42
0.0000001
 43
0.0000001
 44
0.0000000001
 40
0.0
 40
0.0
 40
0.0
 40
0.0
 40
0.4295283013
 40
0.6017619225
 40
0.7439770754
 40
0.855456092
 40
0.9355411137
 40
0.9838073152
 40
1.0
 40
1.0
 40
1.0
 40
1.0
 10
217.427931474
 20
392.8183818264
 30
0.0
 10
217.376039596
 20
392.8773081412
 30
0.0
 10
217.3032940198
 20
392.9600081355
 30
0.0
 10
217.2131880494
 20
393.0614610871
 30
0.0
 10
217.1615007673
 20
393.1205572646
 30
0.0
 10
217.1209213564
 20
393.1638619764
 30
0.0
 10
217.0915694699
 20
393.2015808643
 30
0.0
 10
217.0738559577
 20
393.2120963518
 30
0.0
 10
217.0656551353
 20
393.2300210448
 30
0.0
 10
217.0634238743
 20
393.228075984
 30
0.0
  0
SPLINE
  5
602
100
AcDbEntity
  8
11_COMPONENT
100
AcDbSpline
 62
7
  6
BYLAYER
 70
0
 71
3
 72
14
 73
10
 74
0
 42
0.0000001
 43
0.0000001
 44
0.0000000001
 40
0.0
 40
0.0
 40
0.0
 40
0.0
 40
0.4295282033
 40
0.6017617884
 40
0.743976922
 40
0.85545594
 40
0.9355409871
 40
0.98380724
 40
1.0
 40
1.0
 40
1.0
 40
1.0
 10
270.2486998627
 20
392.8183768232
 30
0.0
 10
270.3005915089
 20
392.877302857
 30
0.0
 10
270.3733367557
 20
392.9600024468
 30
0.0
 10
270.4634423496
 20
393.0614549279
 30
0.0
 10
270.5151293689
 20
393.1205507937
 30
0.0
 10
270.5557087068
 20
393.1638554013
 30
0.0
 10
270.5850602403
 20
393.2015739346
 30
0.0
 10
270.6027740867
 20
393.2120897534
 30
0.0
 10
270.6109744509
 20
393.2300140586
 30
0.0
 10
270.6132058638
 20
393.228069171
 30
0.0
  0
SPLINE
  5
603
100
AcDbEntity
  8
11_COMPONENT
100
AcDbSpline
 62
7
  6
BYLAYER
 70
0
 71
3
 72
11
 73
7
 74
0
 42
0.0000001
 43
0.0000001
 44
0.0000000001
 40
0.0
 40
0.0
 40
0.0
 40
0.0
 40
0.4229651868
 40
0.7331271641
 40
0.9262632053
 40
1.0
 40
1.0
 40
1.0
 40
1.0
 10
305.8580759364
 20
325.9809653357
 30
0.0
 10
305.9064073276
 20
325.9871902863
 30
0.0
 10
305.990003586
 20
325.9985645802
 30
0.0
 10
306.0963161988
 20
326.0109964383
 30
0.0
 10
306.1612227902
 20
326.0230259068
 30
0.0
 10
306.1926839231
 20
326.0243985192
 30
0.0
 10
306.2005183996
 20
326.0276836445
 30
0.0
  0
LINE
  5
604
100
AcDbEntity
  8
11_COMPONENT
100
AcDbLine
 62
7
  6
BYLAYER
 10
306.2005183996
 20
326.0276836445
 11
306.2007505204
 21
326.0278551006
  0
SPLINE
  5
605
100
AcDbEntity
  8
11_COMPONENT
100
AcDbSpline
 62
7
  6
BYLAYER
 70
0
 71
3
 72
13
 73
9
 74
0
 42
0.0000001
 43
0.0000001
 44
0.0000000001
 40
0.0
 40
0.0
 40
0.0
 40
0.0
 40
0.4322766855
 40
0.7456085853
 40
0.8561805834
 40
0.9355346908
 40
0.9834593884
 40
1.0
 40
1.0
 40
1.0
 40
1.0
 10
305.87637243
 20
325.8240342969
 30
0.0
 10
305.9259010371
 20
325.8307763732
 30
0.0
 10
306.010929538
 20
325.8427240879
 30
0.0
 10
306.1099721762
 20
325.8565036247
 30
0.0
 10
306.1660494335
 20
325.8661141144
 30
0.0
 10
306.1954885143
 20
325.8698638352
 30
0.0
 10
306.2076436533
 20
325.8747244676
 30
0.0
 10
306.2192461356
 20
325.8749614544
 30
0.0
 10
306.2190178434
 20
325.8768604191
 30
0.0
  0
SPLINE
  5
606
100
AcDbEntity
  8
11_COMPONENT
100
AcDbSpline
 62
7
  6
BYLAYER
 70
0
 71
3
 72
13
 73
9
 74
0
 42
0.0000001
 43
0.0000001
 44
0.0000000001
 40
0.0
 40
0.0
 40
0.0
 40
0.0
 40
0.4281425336
 40
0.7407245639
 40
0.8515963448
 40
0.9315511921
 40
0.9805205039
 40
1.0
 40
1.0
 40
1.0
 40
1.0
 10
288.0184582274
 20
295.4376367539
 30
0.0
 10
288.0415816982
 20
295.3750036338
 30
0.0
 10
288.0809176853
 20
295.2666975932
 30
0.0
 10
288.124345919
 20
295.1403332351
 30
0.0
 10
288.1471200763
 20
295.0663096701
 30
0.0
 10
288.1574161152
 20
295.0285026346
 30
0.0
 10
288.1609087777
 20
295.0088796923
 30
0.0
 10
288.1623350148
 20
294.9945416748
 30
0.0
 10
288.1595287323
 20
294.9933788364
 30
0.0
  0
SPLINE
  5
607
100
AcDbEntity
  8
11_COMPONENT
100
AcDbSpline
 62
7
  6
BYLAYER
 70
0
 71
3
 72
14
 73
10
 74
0
 42
0.0000001
 43
0.0000001
 44
0.0000000001
 40
0.0
 40
0.0
 40
0.0
 40
0.0
 40
0.4300166407
 40
0.6018731965
 40
0.7435953426
 40
0.8546077604
 40
0.9344024196
 40
0.9827260628
 40
1.0
 40
1.0
 40
1.0
 40
1.0
 10
287.6799671346
 20
295.2892381874
 30
0.0
 10
287.7033067146
 20
295.2280108405
 30
0.0
 10
287.7358048817
 20
295.1421474299
 30
0.0
 10
287.7747749444
 20
295.0359728328
 30
0.0
 10
287.7969193805
 20
294.9747200743
 30
0.0
 10
287.8126585484
 20
294.9277348612
 30
0.0
 10
287.8256519088
 20
294.8909644869
 30
0.0
 10
287.8284008768
 20
294.87334298
 30
0.0
 10
287.8335872781
 20
294.8594527916
 30
0.0
 10
287.8311495636
 20
294.8584598979
 30
0.0
  0
SPLINE
  5
608
100
AcDbEntity
  8
11_COMPONENT
100
AcDbSpline
 62
7
  6
BYLAYER
 70
0
 71
3
 72
13
 73
9
 74
0
 42
0.0000001
 43
0.0000001
 44
0.0000000001
 40
0.0
 40
0.0
 40
0.0
 40
0.0
 40
0.4316243745
 40
0.7445585836
 40
0.8550350848
 40
0.9343793445
 40
0.9824731797
 40
1.0
 40
1.0
 40
1.0
 40
1.0
 10
277.1809387684
 20
291.906127844
 30
0.0
 10
277.1896115396
 20
291.8597989283
 30
0.0
 10
277.2041705241
 20
291.780087209
 30
0.0
 10
277.2203603663
 20
291.6873382709
 30
0.0
 10
277.2280349782
 20
291.6340030853
 30
0.0
 10
277.2320693143
 20
291.6066278912
 30
0.0
 10
277.2319271634
 20
291.5937112809
 30
0.0
 10
277.2332068711
 20
291.5833914346
 30
0.0
 10
277.2313358273
 20
291.5829884863
 30
0.0
  0
SPLINE
  5
609
100
AcDbEntity
  8
11_COMPONENT
100
AcDbSpline
 62
7
  6
BYLAYER
 70
0
 71
3
 72
13
 73
9
 74
0
 42
0.0000001
 43
0.0000001
 44
0.0000000001
 40
0.0
 40
0.0
 40
0.0
 40
0.0
 40
0.4325045168
 40
0.745918154
 40
0.8564696686
 40
0.9357491503
 40
0.983551635
 40
1.0
 40
1.0
 40
1.0
 40
1.0
 10
276.9194985545
 20
291.8468610606
 30
0.0
 10
276.9285588492
 20
291.8010707963
 30
0.0
 10
276.9437831193
 20
291.7223583732
 30
0.0
 10
276.9616781373
 20
291.6307204881
 30
0.0
 10
276.9702082473
 20
291.5783176521
 30
0.0
 10
276.9758768034
 20
291.5512160782
 30
0.0
 10
276.9752451369
 20
291.5390517883
 30
0.0
 10
276.9786230428
 20
291.5287664806
 30
0.0
 10
276.9768870418
 20
291.528395543
 30
0.0
  0
SPLINE
  5
60A
100
AcDbEntity
  8
11_COMPONENT
100
AcDbSpline
 62
7
  6
BYLAYER
 70
0
 71
3
 72
13
 73
9
 74
0
 42
0.0000001
 43
0.0000001
 44
0.0000000001
 40
0.0
 40
0.0
 40
0.0
 40
0.0
 40
0.4325044883
 40
0.7459181135
 40
0.8564696289
 40
0.9357491166
 40
0.9835516131
 40
1.0
 40
1.0
 40
1.0
 40
1.0
 10
210.7571372102
 20
291.8468614163
 30
0.0
 10
210.7480769112
 20
291.8010711635
 30
0.0
 10
210.7328526329
 20
291.7223587573
 30
0.0
 10
210.7149576163
 20
291.6307208967
 30
0.0
 10
210.706427503
 20
291.578318063
 30
0.0
 10
210.7007589606
 20
291.5512165009
 30
0.0
 10
210.7013906152
 20
291.5390521908
 30
0.0
 10
210.6980127312
 20
291.5287668965
 30
0.0
 10
210.6997487328
 20
291.5283959515
 30
0.0
  0
SPLINE
  5
60B
100
AcDbEntity
  8
11_COMPONENT
100
AcDbSpline
 62
7
  6
BYLAYER
 70
0
 71
3
 72
13
 73
9
 74
0
 42
0.0000001
 43
0.0000001
 44
0.0000000001
 40
0.0
 40
0.0
 40
0.0
 40
0.0
 40
0.4316244863
 40
0.744558733
 40
0.8550352252
 40
0.9343794576
 40
0.9824732465
 40
1.0
 40
1.0
 40
1.0
 40
1.0
 10
210.495697077
 20
291.9061285539
 30
0.0
 10
210.4870243191
 20
291.8597996692
 30
0.0
 10
210.4724653578
 20
291.7800880118
 30
0.0
 10
210.4562755363
 20
291.6873391357
 30
0.0
 10
210.4486009348
 20
291.6340040142
 30
0.0
 10
210.4445665994
 20
291.6066288343
 30
0.0
 10
210.4447087519
 20
291.5937122876
 30
0.0
 10
210.4434290399
 20
291.5833924303
 30
0.0
 10
210.4453000786
 20
291.5829895012
 30
0.0
  0
SPLINE
  5
60C
100
AcDbEntity
  8
11_COMPONENT
100
AcDbSpline
 62
7
  6
BYLAYER
 70
0
 71
3
 72
14
 73
10
 74
0
 42
0.0000001
 43
0.0000001
 44
0.0000000001
 40
0.0
 40
0.0
 40
0.0
 40
0.0
 40
0.4300166187
 40
0.6018731694
 40
0.7435953144
 40
0.8546077347
 40
0.9344023998
 40
0.9827260521
 40
1.0
 40
1.0
 40
1.0
 40
1.0
 10
199.9966684455
 20
295.2892379309
 30
0.0
 10
199.9733288602
 20
295.2280105699
 30
0.0
 10
199.9408306855
 20
295.1421471392
 30
0.0
 10
199.901860613
 20
295.0359725158
 30
0.0
 10
199.8797161706
 20
294.9747197418
 30
0.0
 10
199.8639769974
 20
294.9277345118
 30
0.0
 10
199.8509836315
 20
294.8909641312
 30
0.0
 10
199.8482346617
 20
294.8733426051
 30
0.0
 10
199.8430482554
 20
294.8594524205
 30
0.0
 10
199.84548597
 20
294.8584595207
 30
0.0
  0
SPLINE
  5
60D
100
AcDbEntity
  8
11_COMPONENT
100
AcDbSpline
 62
7
  6
BYLAYER
 70
0
 71
3
 72
13
 73
9
 74
0
 42
0.0000001
 43
0.0000001
 44
0.0000000001
 40
0.0
 40
0.0
 40
0.0
 40
0.0
 40
0.4281427502
 40
0.7407248691
 40
0.8515966421
 40
0.9315514435
 40
0.980520665
 40
1.0
 40
1.0
 40
1.0
 40
1.0
 10
199.6581770875
 20
295.4376358937
 30
0.0
 10
199.6350536505
 20
295.375002749
 30
0.0
 10
199.5957177239
 20
295.2666966851
 30
0.0
 10
199.5522895267
 20
295.1403322913
 30
0.0
 10
199.5295153871
 20
295.0663087715
 30
0.0
 10
199.5192193213
 20
295.0285017346
 30
0.0
 10
199.5157266777
 20
295.0088789186
 30
0.0
 10
199.5143003735
 20
294.9945408851
 30
0.0
 10
199.5171066442
 20
294.9933780865
 30
0.0
  0
SPLINE
  5
60E
100
AcDbEntity
  8
11_COMPONENT
100
AcDbSpline
 62
7
  6
BYLAYER
 70
0
 71
3
 72
13
 73
9
 74
0
 42
0.0000001
 43
0.0000001
 44
0.0000000001
 40
0.0
 40
0.0
 40
0.0
 40
0.0
 40
0.4322765473
 40
0.7456083996
 40
0.856180408
 40
0.9355345483
 40
0.9834593019
 40
1.0
 40
1.0
 40
1.0
 40
1.0
 10
181.8002631285
 20
325.8240342435
 30
0.0
 10
181.7507345074
 20
325.8307763161
 30
0.0
 10
181.6657059683
 20
325.8427240269
 30
0.0
 10
181.5666633171
 20
325.8565035744
 30
0.0
 10
181.5105859971
 20
325.8661140787
 30
0.0
 10
181.4811469423
 20
325.8698638221
 30
0.0
 10
181.4689916901
 20
325.874724466
 30
0.0
 10
181.4573892719
 20
325.8749614769
 30
0.0
 10
181.4576175299
 20
325.8768604568
 30
0.0
  0
SPLINE
  5
60F
100
AcDbEntity
  8
11_COMPONENT
100
AcDbSpline
 62
7
  6
BYLAYER
 70
0
 71
3
 72
11
 73
7
 74
0
 42
0.0000001
 43
0.0000001
 44
0.0000000001
 40
0.0
 40
0.0
 40
0.0
 40
0.0
 40
0.4229639849
 40
0.7331255439
 40
0.926261983
 40
1.0
 40
1.0
 40
1.0
 40
1.0
 10
181.8185591973
 20
325.9809654559
 30
0.0
 10
181.7702279341
 20
325.9871903941
 30
0.0
 10
181.6866317978
 20
325.9985645679
 30
0.0
 10
181.5803194468
 20
326.0109967242
 30
0.0
 10
181.5154124459
 20
326.0230256344
 30
0.0
 10
181.4839513974
 20
326.0243988521
 30
0.0
 10
181.4761166532
 20
326.0276837077
 30
0.0
  0
LINE
  5
610
100
AcDbEntity
  8
11_COMPONENT
100
AcDbLine
 62
7
  6
BYLAYER
 10
181.4761166532
 20
326.0276837077
 11
181.4758844703
 21
326.0278551854
  0
SPLINE
  5
611
100
AcDbEntity
  8
11_COMPONENT
100
AcDbSpline
 62
7
  6
BYLAYER
 70
0
 71
3
 72
15
 73
11
 74
0
 42
0.0000001
 43
0.0000001
 44
0.0000000001
 40
0.0
 40
0.0
 40
0.0
 40
0.0
 40
0.1282556515
 40
0.2432578342
 40
0.3519252009
 40
0.4603450417
 40
0.5752225573
 40
0.70568467
 40
0.8563658276
 40
1.0
 40
1.0
 40
1.0
 40
1.0
 10
194.6504481745
 20
310.5174016952
 30
0.0
 10
194.6360244394
 20
311.0429360516
 30
0.0
 10
194.8188622924
 20
312.0579973735
 30
0.0
 10
195.6140559518
 20
313.2984600028
 30
0.0
 10
196.7229491253
 20
314.1344915714
 30
0.0
 10
198.0481522374
 20
314.5461812442
 30
0.0
 10
199.5284613191
 20
314.4680624983
 30
0.0
 10
201.0378966477
 20
313.7512099107
 30
0.0
 10
202.1712681677
 20
312.3391071684
 30
0.0
 10
202.4173368506
 20
311.1058475238
 30
0.0
 10
202.3977929771
 20
310.5174016952
 30
0.0
  0
SPLINE
  5
612
100
AcDbEntity
  8
11_COMPONENT
100
AcDbSpline
 62
7
  6
BYLAYER
 70
0
 71
3
 72
16
 73
12
 74
0
 42
0.0000001
 43
0.0000001
 44
0.0000000001
 40
0.0
 40
0.0
 40
0.0
 40
0.0
 40
0.1219178874
 40
0.2304309696
 40
0.334714604
 40
0.4419686431
 40
0.5597194197
 40
0.6963022278
 40
0.7728948101
 40
0.8516778838
 40
1.0
 40
1.0
 40
1.0
 40
1.0
 10
202.3977929771
 20
310.5174016952
 30
0.0
 10
202.3818147964
 20
310.0360154579
 30
0.0
 10
202.1757236213
 20
309.1223806289
 30
0.0
 10
201.4398667787
 20
307.9959936232
 30
0.0
 10
200.429539437
 20
307.2001116866
 30
0.0
 10
199.1827327847
 20
306.7538861867
 30
0.0
 10
197.7239349021
 20
306.7522193592
 30
0.0
 10
196.4757520922
 20
307.2670778425
 30
0.0
 10
195.6022237972
 20
308.0352544558
 30
0.0
 10
194.9065601223
 20
309.0239939883
 30
0.0
 10
194.6665569939
 20
309.9316587288
 30
0.0
 10
194.6504481745
 20
310.5174016952
 30
0.0
  0
SPLINE
  5
613
100
AcDbEntity
  8
11_COMPONENT
100
AcDbSpline
 62
7
  6
BYLAYER
 70
0
 71
3
 72
15
 73
11
 74
0
 42
0.0000001
 43
0.0000001
 44
0.0000000001
 40
0.0
 40
0.0
 40
0.0
 40
0.0
 40
0.1437565978
 40
0.2943936454
 40
0.4248202144
 40
0.5396874462
 40
0.6481043891
 40
0.7567726894
 40
0.8717686555
 40
1.0
 40
1.0
 40
1.0
 40
1.0
 10
285.2788427101
 20
310.5174016952
 30
0.0
 10
285.2592570387
 20
311.106348058
 30
0.0
 10
285.505785732
 20
312.3399602517
 30
0.0
 10
286.6395927745
 20
313.7518328192
 30
0.0
 10
288.1488173164
 20
314.4682394958
 30
0.0
 10
289.6289263554
 20
314.5461118111
 30
0.0
 10
290.9540331601
 20
314.1343137949
 30
0.0
 10
292.062831524
 20
313.2981997455
 30
0.0
 10
292.857801713
 20
312.0577566995
 30
0.0
 10
293.0406334588
 20
311.0428355999
 30
0.0
 10
293.0261875127
 20
310.5174016952
 30
0.0
  0
SPLINE
  5
614
100
AcDbEntity
  8
11_COMPONENT
100
AcDbSpline
 62
7
  6
BYLAYER
 70
0
 71
3
 72
16
 73
12
 74
0
 42
0.0000001
 43
0.0000001
 44
0.0000000001
 40
0.0
 40
0.0
 40
0.0
 40
0.0
 40
0.1483359444
 40
0.2271271615
 40
0.3037258773
 40
0.4403158487
 40
0.5580568915
 40
0.6652988473
 40
0.7695796496
 40
0.8780910215
 40
1.0
 40
1.0
 40
1.0
 40
1.0
 10
293.0261875127
 20
310.5174016952
 30
0.0
 10
293.0100440963
 20
309.931605454
 30
0.0
 10
292.7700327824
 20
309.0238510235
 30
0.0
 10
292.0742387511
 20
308.0350594407
 30
0.0
 10
291.2005892626
 20
307.2668916986
 30
0.0
 10
289.9523382588
 20
306.7521538031
 30
0.0
 10
288.4936035602
 20
306.7539410852
 30
0.0
 10
287.2469338847
 20
307.2002332044
 30
0.0
 10
286.2366773926
 20
307.9960911393
 30
0.0
 10
285.5008941779
 20
309.1224636818
 30
0.0
 10
285.294824826
 20
310.0360511516
 30
0.0
 10
285.2788427101
 20
310.5174016952
 30
0.0
  0
SPLINE
  5
615
100
AcDbEntity
  8
11_COMPONENT
100
AcDbSpline
 62
7
  6
BYLAYER
 70
0
 71
3
 72
13
 73
9
 74
0
 42
0.0000001
 43
0.0000001
 44
0.0000000001
 40
0.0
 40
0.0
 40
0.0
 40
0.0
 40
0.1522126021
 40
0.2970881404
 40
0.4315959269
 40
0.5565765304
 40
0.7853503147
 40
1.0
 40
1.0
 40
1.0
 40
1.0
 10
243.8380819668
 20
396.1128678114
 30
0.0
 10
244.1296063843
 20
396.1128693673
 30
0.0
 10
244.7009203562
 20
396.0473957636
 30
0.0
 10
245.4858290523
 20
395.7685446438
 30
0.0
 10
246.1498345837
 20
395.3592166574
 30
0.0
 10
246.8383726372
 20
394.719346812
 30
0.0
 10
247.423877143
 20
393.7741712737
 30
0.0
 10
247.6098348926
 20
392.9278904855
 30
0.0
 10
247.6323669353
 20
392.5174016952
 30
0.0
  0
SPLINE
  5
616
100
AcDbEntity
  8
11_COMPONENT
100
AcDbSpline
 62
7
  6
BYLAYER
 70
0
 71
3
 72
13
 73
9
 74
0
 42
0.0000001
 43
0.0000001
 44
0.0000000001
 40
0.0
 40
0.0
 40
0.0
 40
0.0
 40
0.2146522687
 40
0.4434247784
 40
0.5684033704
 40
0.7029116433
 40
0.8477868059
 40
1.0
 40
1.0
 40
1.0
 40
1.0
 10
240.0442687519
 20
392.5174016952
 30
0.0
 10
240.0667887849
 20
392.9278625623
 30
0.0
 10
240.252738367
 20
393.7740754891
 30
0.0
 10
240.8381501605
 20
394.7191927304
 30
0.0
 10
241.5265885834
 20
395.3590471438
 30
0.0
 10
242.1905014074
 20
395.7684005226
 30
0.0
 10
242.9753215513
 20
396.0472809148
 30
0.0
 10
243.5465801619
 20
396.1128662556
 30
0.0
 10
243.8380819668
 20
396.1128678114
 30
0.0
  0
SPLINE
  5
617
100
AcDbEntity
  8
11_COMPONENT
100
AcDbSpline
 62
7
  6
BYLAYER
 70
0
 71
3
 72
15
 73
11
 74
0
 42
0.0000001
 43
0.0000001
 44
0.0000000001
 40
0.0
 40
0.0
 40
0.0
 40
0.0
 40
0.1079848147
 40
0.2221064357
 40
0.3509670132
 40
0.4999441528
 40
0.6489337151
 40
0.7778141205
 40
0.8919486662
 40
1.0
 40
1.0
 40
1.0
 40
1.0
 10
247.6323669353
 20
392.5174016952
 30
0.0
 10
247.656591141
 20
392.0762353748
 30
0.0
 10
247.5458797626
 20
391.1522485983
 30
0.0
 10
246.8682741758
 20
389.850327706
 30
0.0
 10
245.6027736891
 20
388.7895039693
 30
0.0
 10
243.8389919539
 20
388.3499018452
 30
0.0
 10
242.0748957734
 20
388.7888516554
 30
0.0
 10
240.8090593539
 20
389.8495603034
 30
0.0
 10
240.1307815636
 20
391.1516027884
 30
0.0
 10
240.0200268143
 20
392.0759637689
 30
0.0
 10
240.0442687519
 20
392.5174016952
 30
0.0
  0
SPLINE
  5
618
100
AcDbEntity
  8
11_COMPONENT
100
AcDbSpline
 62
7
  6
BYLAYER
 70
0
 71
3
 72
11
 73
7
 74
0
 42
0.0000001
 43
0.0000001
 44
0.0000000001
 40
0.0
 40
0.0
 40
0.0
 40
0.0
 40
0.2497583481
 40
0.4999996372
 40
0.7502413409
 40
1.0
 40
1.0
 40
1.0
 40
1.0
 10
250.7479430774
 20
339.6537622931
 30
0.0
 10
249.6144269506
 20
339.8825455753
 30
0.0
 10
247.3124269067
 20
340.180336032
 30
0.0
 10
243.8383209855
 20
340.3114170455
 30
0.0
 10
240.364213669
 20
340.1803357518
 30
0.0
 10
238.0622101779
 20
339.8825457142
 30
0.0
 10
236.9286926098
 20
339.6537622931
 30
0.0
  0
SPLINE
  5
619
100
AcDbEntity
  8
11_COMPONENT
100
AcDbSpline
 62
7
  6
BYLAYER
 70
0
 71
3
 72
11
 73
7
 74
0
 42
0.0000001
 43
0.0000001
 44
0.0000000001
 40
0.0
 40
0.0
 40
0.0
 40
0.0
 40
0.2577578835
 40
0.5077087422
 40
0.7536764241
 40
1.0
 40
1.0
 40
1.0
 40
1.0
 10
226.0952582992
 20
299.8656545003
 30
0.0
 10
225.2494111053
 20
300.6389187473
 30
0.0
 10
223.715857142
 20
302.3174816473
 30
0.0
 10
221.9840388849
 20
305.2139301029
 30
0.0
 10
220.9222194891
 20
308.3651559611
 30
0.0
 10
220.6883179866
 20
310.5617406492
 30
0.0
 10
220.6883178436
 20
311.6569363107
 30
0.0
  0
SPLINE
  5
61A
100
AcDbEntity
  8
11_COMPONENT
100
AcDbSpline
 62
7
  6
BYLAYER
 70
0
 71
3
 72
15
 73
11
 74
0
 42
0.0000001
 43
0.0000001
 44
0.0000000001
 40
0.0
 40
0.0
 40
0.0
 40
0.0
 40
0.135526009
 40
0.2698673952
 40
0.4018815837
 40
0.5304689462
 40
0.6547172935
 40
0.7741131161
 40
0.8888331782
 40
1.0
 40
1.0
 40
1.0
 40
1.0
 10
243.8383185365
 20
334.0584215197
 30
0.0
 10
242.0480814664
 20
334.0581666045
 30
0.0
 10
238.4735710773
 20
333.7121816466
 30
0.0
 10
233.3565771831
 20
332.1832813383
 30
0.0
 10
228.7098755248
 20
329.7385953826
 30
0.0
 10
224.7334112443
 20
326.5177383988
 30
0.0
 10
221.5894701319
 20
322.6917809376
 30
0.0
 10
219.4043939144
 20
318.4492742157
 30
0.0
 10
218.2685633265
 20
313.9906028097
 30
0.0
 10
218.253161308
 20
310.9699014775
 30
0.0
 10
218.4336327864
 20
309.5125702025
 30
0.0
  0
SPLINE
  5
61B
100
AcDbEntity
  8
11_COMPONENT
100
AcDbSpline
 62
7
  6
BYLAYER
 70
0
 71
3
 72
13
 73
9
 74
0
 42
0.0000001
 43
0.0000001
 44
0.0000000001
 40
0.0
 40
0.0
 40
0.0
 40
0.0
 40
0.1138591915
 40
0.2290063614
 40
0.3469511946
 40
0.4688986587
 40
0.7262342974
 40
1.0
 40
1.0
 40
1.0
 40
1.0
 10
218.7297733321
 20
307.8199685914
 30
0.0
 10
218.9666031124
 20
306.7777376609
 30
0.0
 10
219.6440423802
 20
304.7215767587
 30
0.0
 10
221.2318266674
 20
301.8579168056
 30
0.0
 10
223.3545958826
 20
299.2660057386
 30
0.0
 10
226.8916869491
 20
296.1914068466
 30
0.0
 10
232.4044282061
 20
293.313620604
 30
0.0
 10
237.3151783773
 20
292.1888019964
 30
0.0
 10
239.8681745058
 20
291.8949835233
 30
0.0
  0
SPLINE
  5
61C
100
AcDbEntity
  8
11_COMPONENT
100
AcDbSpline
 62
7
  6
BYLAYER
 70
0
 71
3
 72
13
 73
9
 74
0
 42
0.0000001
 43
0.0000001
 44
0.0000000001
 40
0.0
 40
0.0
 40
0.0
 40
0.0
 40
0.2737778755
 40
0.5311199477
 40
0.6530651104
 40
0.7710036408
 40
0.8861433918
 40
1.0
 40
1.0
 40
1.0
 40
1.0
 10
247.7904200651
 20
291.8929120652
 30
0.0
 10
250.3463492411
 20
292.1856928893
 30
0.0
 10
255.2629533153
 20
293.3096088457
 30
0.0
 10
260.782452514
 20
296.1891720209
 30
0.0
 10
264.3232262674
 20
299.2670085067
 30
0.0
 10
266.4477852791
 20
301.8618275213
 30
0.0
 10
268.0360346945
 20
304.7290108202
 30
0.0
 10
268.7129978419
 20
306.7876312743
 30
0.0
 10
268.9494006599
 20
307.8310776244
 30
0.0
  0
SPLINE
  5
61D
100
AcDbEntity
  8
11_COMPONENT
100
AcDbSpline
 62
7
  6
BYLAYER
 70
0
 71
3
 72
15
 73
11
 74
0
 42
0.0000001
 43
0.0000001
 44
0.0000000001
 40
0.0
 40
0.0
 40
0.0
 40
0.0
 40
0.1111817751
 40
0.2258916316
 40
0.3452467661
 40
0.4694549131
 40
0.598024199
 40
0.7300551906
 40
0.8644335823
 40
1.0
 40
1.0
 40
1.0
 40
1.0
 10
269.2427781752
 20
309.5105583162
 30
0.0
 10
269.4234182598
 20
310.9681433233
 30
0.0
 10
269.4083791024
 20
313.9890763817
 30
0.0
 10
268.2728288001
 20
318.4475761007
 30
0.0
 10
266.0886345445
 20
322.6894188787
 30
0.0
 10
262.9458896658
 20
326.5149640935
 30
0.0
 10
258.9702368192
 20
329.7363495431
 30
0.0
 10
254.3232320887
 20
332.1821016176
 30
0.0
 10
249.2049042935
 20
333.7119219343
 30
0.0
 10
245.6291808519
 20
334.0581853206
 30
0.0
 10
243.8383185365
 20
334.0584215197
 30
0.0
  0
SPLINE
  5
61E
100
AcDbEntity
  8
11_COMPONENT
100
AcDbSpline
 62
7
  6
BYLAYER
 70
0
 71
3
 72
11
 73
7
 74
0
 42
0.0000001
 43
0.0000001
 44
0.0000000001
 40
0.0
 40
0.0
 40
0.0
 40
0.0
 40
0.2572102416
 40
0.5117420526
 40
0.7604519787
 40
1.0
 40
1.0
 40
1.0
 40
1.0
 10
243.8383178436
 20
288.7028200448
 30
0.0
 10
246.4412907801
 20
288.7028198483
 30
0.0
 10
251.6240519742
 20
288.9293653671
 30
0.0
 10
259.2538938639
 20
290.0386426976
 30
0.0
 10
266.5353983456
 20
291.9910784257
 30
0.0
 10
271.0764174489
 20
294.0096637948
 30
0.0
 10
273.1936706236
 20
295.1903985089
 30
0.0
  0
SPLINE
  5
61F
100
AcDbEntity
  8
11_COMPONENT
100
AcDbSpline
 62
7
  6
BYLAYER
 70
0
 71
3
 72
9
 73
5
 74
0
 42
0.0000001
 43
0.0000001
 44
0.0000000001
 40
0.0
 40
0.0
 40
0.0
 40
0.0
 40
0.5142660512
 40
1.0
 40
1.0
 40
1.0
 40
1.0
 10
273.1936706236
 20
295.1903985089
 30
0.0
 10
274.4376228965
 20
295.8819105421
 30
0.0
 10
276.6983883522
 20
297.5339543089
 30
0.0
 10
278.4843263435
 20
299.6909474432
 30
0.0
 10
279.1981928246
 20
300.8300127569
 30
0.0
  0
SPLINE
  5
620
100
AcDbEntity
  8
11_COMPONENT
100
AcDbSpline
 62
7
  6
BYLAYER
 70
0
 71
3
 72
9
 73
5
 74
0
 42
0.0000001
 43
0.0000001
 44
0.0000000001
 40
0.0
 40
0.0
 40
0.0
 40
0.0
 40
0.4999993418
 40
1.0
 40
1.0
 40
1.0
 40
1.0
 10
277.1809386081
 20
291.9061285637
 30
0.0
 10
278.9752467752
 20
292.314372184
 30
0.0
 10
282.527212796
 20
293.2971808122
 30
0.0
 10
285.9854475619
 20
294.5717244942
 30
0.0
 10
287.6799671325
 20
295.2892381924
 30
0.0
  0
SPLINE
  5
621
100
AcDbEntity
  8
11_COMPONENT
100
AcDbSpline
 62
7
  6
BYLAYER
 70
0
 71
3
 72
15
 73
11
 74
0
 42
0.0000001
 43
0.0000001
 44
0.0000000001
 40
0.0
 40
0.0
 40
0.0
 40
0.0
 40
0.1456996831
 40
0.2968717728
 40
0.4337318106
 40
0.5532072478
 40
0.6622074042
 40
0.7680144544
 40
0.8777440702
 40
1.0
 40
1.0
 40
1.0
 40
1.0
 10
293.513617305
 20
310.4113052023
 30
0.0
 10
293.4961363014
 20
309.7880966258
 30
0.0
 10
293.1681951068
 20
308.5087723922
 30
0.0
 10
291.9132107118
 20
307.0515429237
 30
0.0
 10
290.2701227557
 20
306.3246281167
 30
0.0
 10
288.6715030557
 20
306.2918681167
 30
0.0
 10
287.2936374577
 20
306.7672431372
 30
0.0
 10
286.1808868593
 20
307.6395194137
 30
0.0
 10
285.3820009675
 20
308.8754313141
 30
0.0
 10
285.1643676136
 20
309.8730434691
 30
0.0
 10
285.1499748865
 20
310.3959825568
 30
0.0
  0
SPLINE
  5
622
100
AcDbEntity
  8
11_COMPONENT
100
AcDbSpline
 62
7
  6
BYLAYER
 70
0
 71
3
 72
16
 73
12
 74
0
 42
0.0000001
 43
0.0000001
 44
0.0000000001
 40
0.0
 40
0.0
 40
0.0
 40
0.0
 40
0.1413431763
 40
0.2170820629
 40
0.2901198888
 40
0.4206063317
 40
0.5364887941
 40
0.6460858364
 40
0.7559457454
 40
0.8718980524
 40
1.0
 40
1.0
 40
1.0
 40
1.0
 10
285.1499748865
 20
310.3959825568
 30
0.0
 10
285.1326331745
 20
311.0229833832
 30
0.0
 10
285.3312106016
 20
312.0091203994
 30
0.0
 10
286.0036781362
 20
313.118204681
 30
0.0
 10
286.8807508396
 20
314.0081051976
 30
0.0
 10
288.187010529
 20
314.6668040432
 30
0.0
 10
289.7984639039
 20
314.7806070257
 30
0.0
 10
291.2539595523
 20
314.3458250776
 30
0.0
 10
292.4704766774
 20
313.4350436105
 30
0.0
 10
293.3338086584
 20
312.0819993947
 30
0.0
 10
293.5294775166
 20
310.9795637285
 30
0.0
 10
293.513617305
 20
310.4113052023
 30
0.0
  0
SPLINE
  5
623
100
AcDbEntity
  8
11_COMPONENT
100
AcDbSpline
 62
7
  6
BYLAYER
 70
0
 71
3
 72
14
 73
10
 74
0
 42
0.0000001
 43
0.0000001
 44
0.0000000001
 40
0.0
 40
0.0
 40
0.0
 40
0.0
 40
0.1181399499
 40
0.2355598705
 40
0.3550659767
 40
0.4776040709
 40
0.6034457186
 40
0.7325855118
 40
1.0
 40
1.0
 40
1.0
 40
1.0
 10
279.1981928246
 20
300.8300127569
 30
0.0
 10
279.7768308071
 20
301.7402933511
 30
0.0
 10
280.5901645339
 20
303.7795677912
 30
0.0
 10
280.9602310836
 20
307.0225372097
 30
0.0
 10
280.7132877653
 20
310.3103668852
 30
0.0
 10
279.9805614076
 20
313.5976995977
 30
0.0
 10
278.8212274101
 20
316.8524431426
 30
0.0
 10
276.7348028609
 20
321.1480145929
 30
0.0
 10
274.6346904932
 20
324.1423707933
 30
0.0
 10
273.0265237222
 20
325.9794277282
 30
0.0
  0
SPLINE
  5
624
100
AcDbEntity
  8
11_COMPONENT
100
AcDbSpline
 62
7
  6
BYLAYER
 70
0
 71
3
 72
9
 73
5
 74
0
 42
0.0000001
 43
0.0000001
 44
0.0000000001
 40
0.0
 40
0.0
 40
0.0
 40
0.0
 40
0.5000198189
 40
1.0
 40
1.0
 40
1.0
 40
1.0
 10
305.4480282697
 20
325.9288491139
 30
0.0
 10
300.0539670455
 20
326.2811082168
 30
0.0
 10
289.2342553836
 20
326.5078172954
 30
0.0
 10
278.4283405547
 20
326.1684393166
 30
0.0
 10
273.0265237222
 20
325.9794277282
 30
0.0
  0
SPLINE
  5
625
100
AcDbEntity
  8
11_COMPONENT
100
AcDbSpline
 62
7
  6
BYLAYER
 70
0
 71
3
 72
10
 73
6
 74
0
 42
0.0000001
 43
0.0000001
 44
0.0000000001
 40
0.0
 40
0.0
 40
0.0
 40
0.0
 40
0.3567949276
 40
0.6554440545
 40
1.0
 40
1.0
 40
1.0
 40
1.0
 10
287.8428967994
 20
135.9003693646
 30
0.0
 10
287.9044214939
 20
135.9003685214
 30
0.0
 10
287.9790764944
 20
136.0298721897
 30
0.0
 10
288.0158411572
 20
136.1870896751
 30
0.0
 10
288.0271198242
 20
136.300584003
 30
0.0
 10
288.0283116089
 20
136.3599862884
 30
0.0
  0
SPLINE
  5
626
100
AcDbEntity
  8
11_COMPONENT
100
AcDbSpline
 62
7
  6
BYLAYER
 70
0
 71
3
 72
11
 73
7
 74
0
 42
0.0000001
 43
0.0000001
 44
0.0000000001
 40
0.0
 40
0.0
 40
0.0
 40
0.0
 40
0.1060044733
 40
0.3206793996
 40
0.6324210341
 40
1.0
 40
1.0
 40
1.0
 40
1.0
 10
277.0571847369
 20
135.9003693646
 30
0.0
 10
277.0742655588
 20
135.9003694617
 30
0.0
 10
277.1095658142
 20
135.9537914763
 30
0.0
 10
277.1318367436
 20
136.0462125108
 30
0.0
 10
277.1538084261
 20
136.192125178
 30
0.0
 10
277.1585105115
 20
136.3007609499
 30
0.0
 10
277.1591640454
 20
136.3599864564
 30
0.0
  0
SPLINE
  5
627
100
AcDbEntity
  8
11_COMPONENT
100
AcDbSpline
 62
7
  6
BYLAYER
 70
0
 71
3
 72
11
 73
7
 74
0
 42
0.0000001
 43
0.0000001
 44
0.0000000001
 40
0.0
 40
0.0
 40
0.0
 40
0.0
 40
0.1060029635
 40
0.3206770729
 40
0.6324193805
 40
1.0
 40
1.0
 40
1.0
 40
1.0
 10
210.6194509503
 20
135.9003693646
 30
0.0
 10
210.6023703503
 20
135.9003686598
 30
0.0
 10
210.5670687796
 20
135.953790159
 30
0.0
 10
210.5447983842
 20
136.0462109666
 30
0.0
 10
210.5228261317
 20
136.1921240788
 30
0.0
 10
210.5181241299
 20
136.3007603527
 30
0.0
 10
210.5174706125
 20
136.3599862001
 30
0.0
  0
SPLINE
  5
628
100
AcDbEntity
  8
11_COMPONENT
100
AcDbSpline
 62
7
  6
BYLAYER
 70
0
 71
3
 72
10
 73
6
 74
0
 42
0.0000001
 43
0.0000001
 44
0.0000000001
 40
0.0
 40
0.0
 40
0.0
 40
0.0
 40
0.3567960953
 40
0.6554448154
 40
1.0
 40
1.0
 40
1.0
 40
1.0
 10
199.8337388879
 20
135.9003693646
 30
0.0
 10
199.772214026
 20
135.9003692796
 30
0.0
 10
199.697559512
 20
136.0298725732
 30
0.0
 10
199.6607948632
 20
136.1870902371
 30
0.0
 10
199.649516504
 20
136.3005842741
 30
0.0
 10
199.648324884
 20
136.3599863987
 30
0.0
  0
SPLINE
  5
629
100
AcDbEntity
  8
11_COMPONENT
100
AcDbSpline
 62
7
  6
BYLAYER
 70
0
 71
3
 72
14
 73
10
 74
0
 42
0.0000001
 43
0.0000001
 44
0.0000000001
 40
0.0
 40
0.0
 40
0.0
 40
0.0
 40
0.3004032652
 40
0.44322073
 40
0.5771979234
 40
0.7002042512
 40
0.8110318794
 40
0.9100404757
 40
1.0
 40
1.0
 40
1.0
 40
1.0
 10
243.8383178436
 20
154.325423783
 30
0.0
 10
240.8553261433
 20
154.325423783
 30
0.0
 10
236.4189149417
 20
154.9156045901
 30
0.0
 10
231.0117138888
 20
156.8598199044
 30
0.0
 10
227.5025613809
 20
158.7529441048
 30
0.0
 10
224.6039890314
 20
161.0060716821
 30
0.0
 10
222.4176557531
 20
163.5184723791
 30
0.0
 10
221.0296512211
 20
166.1892529524
 30
0.0
 10
220.6883180105
 20
168.0744920807
 30
0.0
 10
220.6883178436
 20
168.9677863471
 30
0.0
  0
SPLINE
  5
62A
100
AcDbEntity
  8
11_COMPONENT
100
AcDbSpline
 62
7
  6
BYLAYER
 70
0
 71
3
 72
14
 73
10
 74
0
 42
0.0000001
 43
0.0000001
 44
0.0000000001
 40
0.0
 40
0.0
 40
0.0
 40
0.0
 40
0.0899594545
 40
0.1889680408
 40
0.2997956596
 40
0.4228019546
 40
0.5567791177
 40
0.6995965859
 40
1.0
 40
1.0
 40
1.0
 40
1.0
 10
266.9883178436
 20
168.9677872309
 30
0.0
 10
266.9883180242
 20
168.0744936331
 30
0.0
 10
266.6469848479
 20
166.1892552589
 30
0.0
 10
265.258981809
 20
163.5184749095
 30
0.0
 10
263.0726492286
 20
161.0060740812
 30
0.0
 10
260.1740777813
 20
158.7529463934
 30
0.0
 10
256.6649260101
 20
156.8598218393
 30
0.0
 10
251.2577239957
 20
154.9156051576
 30
0.0
 10
246.8213111032
 20
154.325423783
 30
0.0
 10
243.8383178436
 20
154.325423783
 30
0.0
  0
SPLINE
  5
62B
100
AcDbEntity
  8
11_COMPONENT
100
AcDbSpline
 62
7
  6
BYLAYER
 70
0
 71
3
 72
9
 73
5
 74
0
 42
0.0000001
 43
0.0000001
 44
0.0000000001
 40
0.0
 40
0.0
 40
0.0
 40
0.0
 40
0.2562225785
 40
1.0
 40
1.0
 40
1.0
 40
1.0
 10
287.6799671325
 20
146.6360510246
 30
0.0
 10
286.9783557621
 20
147.7098966088
 30
0.0
 10
284.220524729
 20
151.8880789487
 30
0.0
 10
281.3774682697
 20
156.0106493974
 30
0.0
 10
279.1981928246
 20
159.0298996605
 30
0.0
  0
SPLINE
  5
62C
100
AcDbEntity
  8
11_COMPONENT
100
AcDbSpline
 62
7
  6
BYLAYER
 70
0
 71
3
 72
9
 73
5
 74
0
 42
0.0000001
 43
0.0000001
 44
0.0000000001
 40
0.0
 40
0.0
 40
0.0
 40
0.0
 40
0.2550095276
 40
1.0
 40
1.0
 40
1.0
 40
1.0
 10
277.1809386081
 20
146.547557132
 30
0.0
 10
278.0733836011
 20
146.555737901
 30
0.0
 10
281.5730530344
 20
146.5860692246
 30
0.0
 10
285.0727421073
 20
146.6140237291
 30
0.0
 10
287.6799671325
 20
146.6360510246
 30
0.0
  0
SPLINE
  5
62D
100
AcDbEntity
  8
11_COMPONENT
100
AcDbSpline
 62
7
  6
BYLAYER
 70
0
 71
3
 72
23
 73
19
 74
0
 42
0.0000001
 43
0.0000001
 44
0.0000000001
 40
0.0
 40
0.0
 40
0.0
 40
0.0
 40
0.0420396059
 40
0.0935674592
 40
0.2187464803
 40
0.3639507823
 40
0.5204814043
 40
0.6005904883
 40
0.6802816082
 40
0.7575406489
 40
0.828923378
 40
0.8886998167
 40
0.9122579866
 40
0.931303782
 40
0.9472198759
 40
0.9626776699
 40
0.9799667607
 40
1.0
 40
1.0
 40
1.0
 40
1.0
 10
194.6504481745
 20
155.6635340408
 30
0.0
 10
194.6417051628
 20
155.8309665039
 30
0.0
 10
194.7073520704
 20
156.2059177477
 30
0.0
 10
195.0292857826
 20
157.0179830714
 30
0.0
 10
195.7151695797
 20
158.11351816
 30
0.0
 10
196.7699192344
 20
159.4504808533
 30
0.0
 10
197.8081397253
 20
160.5674854179
 30
0.0
 10
198.7188863321
 20
161.4408460327
 30
0.0
 10
199.4300679835
 20
162.0642192898
 30
0.0
 10
200.1479092287
 20
162.6262094585
 30
0.0
 10
200.8418628669
 20
163.0838159756
 30
0.0
 10
201.4012419034
 20
163.3579835684
 30
0.0
 10
201.8018298983
 20
163.4478787246
 30
0.0
 10
202.03921899
 20
163.4412296783
 30
0.0
 10
202.2282989394
 20
163.352974027
 30
0.0
 10
202.3466453331
 20
163.1905964948
 30
0.0
 10
202.399247647
 20
162.9836935496
 30
0.0
 10
202.4019754417
 20
162.83397487
 30
0.0
 10
202.3977929771
 20
162.7541887007
 30
0.0
  0
SPLINE
  5
62E
100
AcDbEntity
  8
11_COMPONENT
100
AcDbSpline
 62
7
  6
BYLAYER
 70
0
 71
3
 72
9
 73
5
 74
0
 42
0.0000001
 43
0.0000001
 44
0.0000000001
 40
0.0
 40
0.0
 40
0.0
 40
0.0
 40
0.2288808128
 40
1.0
 40
1.0
 40
1.0
 40
1.0
 10
202.5266608008
 20
162.9532243114
 30
0.0
 10
202.524570371
 20
162.9085857028
 30
0.0
 10
202.5068107341
 20
162.7139537621
 30
0.0
 10
202.4613624926
 20
162.5227579093
 30
0.0
 10
202.4185357355
 20
162.3784214288
 30
0.0
  0
SPLINE
  5
62F
100
AcDbEntity
  8
11_COMPONENT
100
AcDbSpline
 62
7
  6
BYLAYER
 70
0
 71
3
 72
15
 73
11
 74
0
 42
0.0000001
 43
0.0000001
 44
0.0000000001
 40
0.0
 40
0.0
 40
0.0
 40
0.0
 40
0.100054285
 40
0.2161152901
 40
0.4781619858
 40
0.6184985233
 40
0.7596716432
 40
0.8925112012
 40
0.9507249177
 40
1.0
 40
1.0
 40
1.0
 40
1.0
 10
202.4185357355
 20
162.3784214288
 30
0.0
 10
202.3181694106
 20
162.0401627543
 30
0.0
 10
202.0096214148
 20
161.337712788
 30
0.0
 10
201.1447119895
 20
159.8887095917
 30
0.0
 10
199.9811650723
 20
158.4622063857
 30
0.0
 10
198.5890428438
 20
157.1416328503
 30
0.0
 10
197.4280195846
 20
156.2502047835
 30
0.0
 10
196.4086654083
 20
155.6591380208
 30
0.0
 10
195.6155869067
 20
155.3560077938
 30
0.0
 10
195.2427217873
 20
155.2735385931
 30
0.0
 10
195.0696902653
 20
155.257586819
 30
0.0
  0
SPLINE
  5
630
100
AcDbEntity
  8
11_COMPONENT
100
AcDbSpline
 62
7
  6
BYLAYER
 70
0
 71
3
 72
11
 73
7
 74
0
 42
0.0000001
 43
0.0000001
 44
0.0000000001
 40
0.0
 40
0.0
 40
0.0
 40
0.0
 40
0.312646932
 40
0.5582737396
 40
0.7724316009
 40
1.0
 40
1.0
 40
1.0
 40
1.0
 10
195.0696902653
 20
155.257586819
 30
0.0
 10
194.9415235506
 20
155.2457711309
 30
0.0
 10
194.7090889848
 20
155.24530788
 30
0.0
 10
194.3988365096
 20
155.3535728543
 30
0.0
 10
194.205812655
 20
155.5783033985
 30
0.0
 10
194.1684176612
 20
155.7627728035
 30
0.0
 10
194.1630183823
 20
155.8563022408
 30
0.0
  0
SPLINE
  5
631
100
AcDbEntity
  8
11_COMPONENT
100
AcDbSpline
 62
7
  6
BYLAYER
 70
0
 71
3
 72
23
 73
19
 74
0
 42
0.0000001
 43
0.0000001
 44
0.0000000001
 40
0.0
 40
0.0
 40
0.0
 40
0.0
 40
0.0401796409
 40
0.0902378831
 40
0.2144429376
 40
0.360924383
 40
0.519951452
 40
0.6013838992
 40
0.6821872671
 40
0.7600963698
 40
0.8314471469
 40
0.8906613362
 40
0.9140000892
 40
0.9330025514
 40
0.9489078283
 40
0.9640876674
 40
0.9807623909
 40
1.0
 40
1.0
 40
1.0
 40
1.0
 10
194.1630183823
 20
155.8563022408
 30
0.0
 10
194.1534774825
 20
156.022366018
 30
0.0
 10
194.22365109
 20
156.3980499022
 30
0.0
 10
194.5736008154
 20
157.2153820912
 30
0.0
 10
195.3244114253
 20
158.3224486603
 30
0.0
 10
196.4792852784
 20
159.6757318911
 30
0.0
 10
197.6164228283
 20
160.8072910321
 30
0.0
 10
198.6118417056
 20
161.6897149121
 30
0.0
 10
199.3849910854
 20
162.3151988461
 30
0.0
 10
200.1587736319
 20
162.8723538529
 30
0.0
 10
200.8983306894
 20
163.3175580235
 30
0.0
 10
201.4872562584
 20
163.5758033169
 30
0.0
 10
201.9028635887
 20
163.6526912244
 30
0.0
 10
202.1472549316
 20
163.6395431107
 30
0.0
 10
202.3418742024
 20
163.5502283443
 30
0.0
 10
202.4677844903
 20
163.3892600908
 30
0.0
 10
202.5261156038
 20
163.182415064
 30
0.0
 10
202.5303925077
 20
163.0327776242
 30
0.0
 10
202.5266608008
 20
162.9532243114
 30
0.0
  0
SPLINE
  5
632
100
AcDbEntity
  8
11_COMPONENT
100
AcDbSpline
 62
7
  6
BYLAYER
 70
0
 71
3
 72
11
 73
7
 74
0
 42
0.0000001
 43
0.0000001
 44
0.0000000001
 40
0.0
 40
0.0
 40
0.0
 40
0.0
 40
0.2278848847
 40
0.4422588938
 40
0.6877789139
 40
1.0
 40
1.0
 40
1.0
 40
1.0
 10
293.513617305
 20
155.8563022408
 30
0.0
 10
293.5082081332
 20
155.7630350071
 30
0.0
 10
293.4710142312
 20
155.5791657264
 30
0.0
 10
293.2793452661
 20
155.3547614911
 30
0.0
 10
292.9709009229
 20
155.24590383
 30
0.0
 10
292.7396350458
 20
155.245683551
 30
0.0
 10
292.6121459943
 20
155.2570925355
 30
0.0
  0
SPLINE
  5
633
100
AcDbEntity
  8
11_COMPONENT
100
AcDbSpline
 62
7
  6
BYLAYER
 70
0
 71
3
 72
15
 73
11
 74
0
 42
0.0000001
 43
0.0000001
 44
0.0000000001
 40
0.0
 40
0.0
 40
0.0
 40
0.0
 40
0.0490684927
 40
0.1070529939
 40
0.2394998177
 40
0.3804147811
 40
0.5206035452
 40
0.7827736723
 40
0.899195881
 40
1.0
 40
1.0
 40
1.0
 40
1.0
 10
292.6121459943
 20
155.2570925355
 30
0.0
 10
292.4404836522
 20
155.2724545841
 30
0.0
 10
292.0703885556
 20
155.3532808973
 30
0.0
 10
291.2824471675
 20
155.6522357925
 30
0.0
 10
290.2685196846
 20
156.2371417259
 30
0.0
 10
289.1124068529
 20
157.1207559791
 30
0.0
 10
287.7234001956
 20
158.4321130232
 30
0.0
 10
286.5602213948
 20
159.850688218
 30
0.0
 10
285.6902543746
 20
161.2939371919
 30
0.0
 10
285.3767520786
 20
161.9947659216
 30
0.0
 10
285.2718979466
 20
162.3329484931
 30
0.0
  0
SPLINE
  5
634
100
AcDbEntity
  8
11_COMPONENT
100
AcDbSpline
 62
7
  6
BYLAYER
 70
0
 71
3
 72
9
 73
5
 74
0
 42
0.0000001
 43
0.0000001
 44
0.0000000001
 40
0.0
 40
0.0
 40
0.0
 40
0.0
 40
0.2719577656
 40
1.0
 40
1.0
 40
1.0
 40
1.0
 10
285.2718979466
 20
162.3329484931
 30
0.0
 10
285.254905121
 20
162.3877548927
 30
0.0
 10
285.196932911
 20
162.5904581965
 30
0.0
 10
285.1571654567
 20
162.7997832849
 30
0.0
 10
285.1499748865
 20
162.9532243114
 30
0.0
  0
SPLINE
  5
635
100
AcDbEntity
  8
11_COMPONENT
100
AcDbSpline
 62
7
  6
BYLAYER
 70
0
 71
3
 72
9
 73
5
 74
0
 42
0.0000001
 43
0.0000001
 44
0.0000000001
 40
0.0
 40
0.0
 40
0.0
 40
0.0
 40
0.2562225785
 40
1.0
 40
1.0
 40
1.0
 40
1.0
 10
199.9966685547
 20
146.6360510246
 30
0.0
 10
200.6982799252
 20
147.7098966088
 30
0.0
 10
203.4561109582
 20
151.8880789487
 30
0.0
 10
206.2991674175
 20
156.0106493974
 30
0.0
 10
208.4784428626
 20
159.0298996605
 30
0.0
  0
SPLINE
  5
636
100
AcDbEntity
  8
11_COMPONENT
100
AcDbSpline
 62
7
  6
BYLAYER
 70
0
 71
3
 72
23
 73
19
 74
0
 42
0.0000001
 43
0.0000001
 44
0.0000000001
 40
0.0
 40
0.0
 40
0.0
 40
0.0
 40
0.0192546766
 40
0.0359471571
 40
0.0511357123
 40
0.0670501908
 40
0.0860533574
 40
0.1094006257
 40
0.1686190339
 40
0.2399621127
 40
0.3178615523
 40
0.3986603776
 40
0.4800895134
 40
0.6391137736
 40
0.7855939198
 40
0.9097828079
 40
0.9598293785
 40
1.0
 40
1.0
 40
1.0
 40
1.0
 10
285.1499748865
 20
162.9532243114
 30
0.0
 10
285.1462261552
 20
163.0328468786
 30
0.0
 10
285.1505002648
 20
163.1826462908
 30
0.0
 10
285.2091170269
 20
163.3895914146
 30
0.0
 10
285.3352426871
 20
163.550623447
 30
0.0
 10
285.5301565915
 20
163.6394790244
 30
0.0
 10
285.7745665971
 20
163.6526619788
 30
0.0
 10
286.1902153092
 20
163.5754931486
 30
0.0
 10
286.7790738329
 20
163.3171840634
 30
0.0
 10
287.5185398305
 20
162.8719117506
 30
0.0
 10
288.2922120515
 20
162.3147852736
 30
0.0
 10
289.0652657391
 20
161.6893088915
 30
0.0
 10
290.0606257235
 20
160.8069038039
 30
0.0
 10
291.1977028881
 20
159.6753463146
 30
0.0
 10
292.3524960473
 20
158.3221259802
 30
0.0
 10
293.1031654061
 20
157.2151140007
 30
0.0
 10
293.4530137356
 20
156.3979278554
 30
0.0
 10
293.5231958782
 20
156.0223250282
 30
0.0
 10
293.513617305
 20
155.8563022408
 30
0.0
  0
SPLINE
  5
637
100
AcDbEntity
  8
11_COMPONENT
100
AcDbSpline
 62
7
  6
BYLAYER
 70
0
 71
3
 72
13
 73
9
 74
0
 42
0.0000001
 43
0.0000001
 44
0.0000000001
 40
0.0
 40
0.0
 40
0.0
 40
0.0
 40
0.1351827074
 40
0.2589633458
 40
0.3777801344
 40
0.4954386513
 40
0.7364747315
 40
1.0
 40
1.0
 40
1.0
 40
1.0
 10
279.1981928246
 20
159.0298996605
 30
0.0
 10
279.7269722811
 20
159.72505145
 30
0.0
 10
280.5135686619
 20
161.2437483636
 30
0.0
 10
280.9448742882
 20
163.6741472736
 30
0.0
 10
280.7772190341
 20
166.0157899771
 30
0.0
 10
279.9264075518
 20
168.9998023227
 30
0.0
 10
277.7689258421
 20
172.4862231047
 30
0.0
 10
275.2792727346
 20
174.6567930253
 30
0.0
 10
273.8771203663
 20
175.6226601941
 30
0.0
  0
SPLINE
  5
638
100
AcDbEntity
  8
11_COMPONENT
100
AcDbSpline
 62
7
  6
BYLAYER
 70
0
 71
3
 72
9
 73
5
 74
0
 42
0.0000001
 43
0.0000001
 44
0.0000000001
 40
0.0
 40
0.0
 40
0.0
 40
0.0
 40
0.4731756109
 40
1.0
 40
1.0
 40
1.0
 40
1.0
 10
208.4784428626
 20
159.0298996605
 30
0.0
 10
209.2185915957
 20
158.0369808169
 30
0.0
 10
211.0566788517
 20
156.1376873622
 30
0.0
 10
213.2577361328
 20
154.6788945081
 30
0.0
 10
214.4829650636
 20
154.0464212367
 30
0.0
  0
SPLINE
  5
639
100
AcDbEntity
  8
11_COMPONENT
100
AcDbSpline
 62
7
  6
BYLAYER
 70
0
 71
3
 72
9
 73
5
 74
0
 42
0.0000001
 43
0.0000001
 44
0.0000000001
 40
0.0
 40
0.0
 40
0.0
 40
0.0
 40
0.2444807831
 40
1.0
 40
1.0
 40
1.0
 40
1.0
 10
199.9966685547
 20
146.6360510246
 30
0.0
 10
200.8522719875
 20
146.6288227605
 30
0.0
 10
204.3519506187
 20
146.5996321399
 30
0.0
 10
207.8516416098
 20
146.5717913938
 30
0.0
 10
210.4956970791
 20
146.547557132
 30
0.0
  0
SPLINE
  5
63A
100
AcDbEntity
  8
11_COMPONENT
100
AcDbSpline
 62
7
  6
BYLAYER
 70
0
 71
3
 72
11
 73
7
 74
0
 42
0.0000001
 43
0.0000001
 44
0.0000000001
 40
0.0
 40
0.0
 40
0.0
 40
0.0
 40
0.2381999367
 40
0.4243752064
 40
0.6144974189
 40
1.0
 40
1.0
 40
1.0
 40
1.0
 10
214.4829650636
 20
154.0464212367
 30
0.0
 10
216.6189604008
 20
152.9373914754
 30
0.0
 10
220.5777963828
 20
151.2429842641
 30
0.0
 10
226.5490380924
 20
149.5105146746
 30
0.0
 10
234.1115748984
 20
148.0365348153
 30
0.0
 10
239.9432431831
 20
147.6317527265
 30
0.0
 10
243.8383178436
 20
147.6317488319
 30
0.0
  0
SPLINE
  5
63B
100
AcDbEntity
  8
11_COMPONENT
100
AcDbSpline
 62
7
  6
BYLAYER
 70
0
 71
3
 72
12
 73
8
 74
0
 42
0.0000001
 43
0.0000001
 44
0.0000000001
 40
0.0
 40
0.0
 40
0.0
 40
0.0
 40
0.2847002028
 40
0.5544494222
 40
0.6796227594
 40
0.796238651
 40
1.0
 40
1.0
 40
1.0
 40
1.0
 10
243.8383178436
 20
148.6560524762
 30
0.0
 10
240.6347761397
 20
148.6554844427
 30
0.0
 10
234.3725704213
 20
149.3837284905
 30
0.0
 10
227.1170253141
 20
152.0470747671
 30
0.0
 10
222.1944691647
 20
155.0697041288
 30
0.0
 10
218.3296921267
 20
158.2681745939
 30
0.0
 10
216.0707238471
 20
161.218695491
 30
0.0
 10
215.1399222366
 20
163.3140469531
 30
0.0
  0
SPLINE
  5
63C
100
AcDbEntity
  8
11_COMPONENT
100
AcDbSpline
 62
7
  6
BYLAYER
 70
0
 71
3
 72
15
 73
11
 74
0
 42
0.0000001
 43
0.0000001
 44
0.0000000001
 40
0.0
 40
0.0
 40
0.0
 40
0.0
 40
0.1188732153
 40
0.2299109055
 40
0.3378788843
 40
0.4485360759
 40
0.5672377542
 40
0.697768985
 40
0.8419809247
 40
1.0
 40
1.0
 40
1.0
 40
1.0
 10
215.1399222366
 20
163.3140469531
 30
0.0
 10
214.7547825006
 20
164.1810449253
 30
0.0
 10
214.1768699746
 20
165.9420909276
 30
0.0
 10
213.9876882697
 20
168.6627727997
 30
0.0
 10
214.541789465
 20
171.2709788843
 30
0.0
 10
215.8206648024
 20
173.676164833
 30
0.0
 10
217.7684543815
 20
175.8200997056
 30
0.0
 10
220.3183026316
 20
177.6812280269
 30
0.0
 10
223.4058734279
 20
179.2534556426
 30
0.0
 10
225.6808539799
 20
180.0721746906
 30
0.0
 10
226.8865759998
 20
180.4417952482
 30
0.0
  0
SPLINE
  5
63D
100
AcDbEntity
  8
11_COMPONENT
100
AcDbSpline
 62
7
  6
BYLAYER
 70
0
 71
3
 72
15
 73
11
 74
0
 42
0.0000001
 43
0.0000001
 44
0.0000000001
 40
0.0
 40
0.0
 40
0.0
 40
0.0
 40
0.1581138384
 40
0.3024112211
 40
0.4329994743
 40
0.5517163523
 40
0.6623439529
 40
0.7702467959
 40
0.8812038114
 40
1.0
 40
1.0
 40
1.0
 40
1.0
 10
260.7331832647
 20
180.4591835678
 30
0.0
 10
261.9432248625
 20
180.0902624572
 30
0.0
 10
264.2265680668
 20
179.2726284129
 30
0.0
 10
267.3263189662
 20
177.7010099095
 30
0.0
 10
269.8870985731
 20
175.8392965221
 30
0.0
 10
271.8441465242
 20
173.6934765317
 30
0.0
 10
273.1302305389
 20
171.2850165151
 30
0.0
 10
273.6887749103
 20
168.6722130222
 30
0.0
 10
273.5010566887
 20
165.9462353531
 30
0.0
 10
272.9222916922
 20
164.1818235092
 30
0.0
 10
272.5363584899
 20
163.3132444534
 30
0.0
  0
SPLINE
  5
63E
100
AcDbEntity
  8
11_COMPONENT
100
AcDbSpline
 62
7
  6
BYLAYER
 70
0
 71
3
 72
12
 73
8
 74
0
 42
0.0000001
 43
0.0000001
 44
0.0000000001
 40
0.0
 40
0.0
 40
0.0
 40
0.0
 40
0.2037648563
 40
0.3203822878
 40
0.4455552227
 40
0.7153022892
 40
1.0
 40
1.0
 40
1.0
 40
1.0
 10
272.5363584899
 20
163.3132444534
 30
0.0
 10
271.6053809897
 20
161.2179918209
 30
0.0
 10
269.3464144375
 20
158.2675492495
 30
0.0
 10
265.4815324196
 20
155.0693118731
 30
0.0
 10
260.5591044569
 20
152.0467929643
 30
0.0
 10
253.3037317576
 20
149.3836907959
 30
0.0
 10
247.0417499533
 20
148.6554877124
 30
0.0
 10
243.8383178436
 20
148.6560524762
 30
0.0
  0
SPLINE
  5
63F
100
AcDbEntity
  8
11_COMPONENT
100
AcDbSpline
 62
7
  6
BYLAYER
 70
0
 71
3
 72
9
 73
5
 74
0
 42
0.0000001
 43
0.0000001
 44
0.0000000001
 40
0.0
 40
0.0
 40
0.0
 40
0.0
 40
0.4744984706
 40
1.0
 40
1.0
 40
1.0
 40
1.0
 10
272.4684045771
 20
176.2232297276
 30
0.0
 10
270.5369156366
 20
177.4395940043
 30
0.0
 10
266.2917056575
 20
179.7415396212
 30
0.0
 10
261.7120265261
 20
181.3062203791
 30
0.0
 10
259.2595104321
 20
181.9191016369
 30
0.0
  0
SPLINE
  5
640
100
AcDbEntity
  8
11_COMPONENT
100
AcDbSpline
 62
7
  6
BYLAYER
 70
0
 71
3
 72
13
 73
9
 74
0
 42
0.0000001
 43
0.0000001
 44
0.0000000001
 40
0.0
 40
0.0
 40
0.0
 40
0.0
 40
0.1342432947
 40
0.2579541042
 40
0.3772181919
 40
0.4954929181
 40
0.7374012762
 40
1.0
 40
1.0
 40
1.0
 40
1.0
 10
278.858130758
 20
159.1902119136
 30
0.0
 10
279.354215284
 20
159.8685342018
 30
0.0
 10
280.0813363958
 20
161.3505224667
 30
0.0
 10
280.4564986408
 20
163.7074309511
 30
0.0
 10
280.2709236329
 20
165.9794072619
 30
0.0
 10
279.4389927408
 20
168.879548501
 30
0.0
 10
277.385842616
 20
172.2770873919
 30
0.0
 10
275.0230469248
 20
174.4312569574
 30
0.0
 10
273.6921844821
 20
175.3962176685
 30
0.0
  0
SPLINE
  5
641
100
AcDbEntity
  8
11_COMPONENT
100
AcDbSpline
 62
7
  6
BYLAYER
 70
0
 71
3
 72
9
 73
5
 74
0
 42
0.0000001
 43
0.0000001
 44
0.0000000001
 40
0.0
 40
0.0
 40
0.0
 40
0.0
 40
0.5269271766
 40
1.0
 40
1.0
 40
1.0
 40
1.0
 10
272.9898145634
 20
154.2726990814
 30
0.0
 10
274.1916853385
 20
154.8950476671
 30
0.0
 10
276.3482022057
 20
156.3332816881
 30
0.0
 10
278.1408150155
 20
158.2094137315
 30
0.0
 10
278.858130758
 20
159.1902119136
 30
0.0
  0
SPLINE
  5
642
100
AcDbEntity
  8
11_COMPONENT
100
AcDbSpline
 62
7
  6
BYLAYER
 70
0
 71
3
 72
12
 73
8
 74
0
 42
0.0000001
 43
0.0000001
 44
0.0000000001
 40
0.0
 40
0.0
 40
0.0
 40
0.0
 40
0.2575725335
 40
0.4493054392
 40
0.6382881671
 40
0.8226015854
 40
1.0
 40
1.0
 40
1.0
 40
1.0
 10
243.8383178436
 20
147.9527105802
 30
0.0
 10
246.4225276499
 20
147.9527138763
 30
0.0
 10
250.9346515712
 20
148.1574368161
 30
0.0
 10
257.2856974009
 20
149.0241712978
 30
0.0
 10
262.8274590904
 20
150.2538326035
 30
0.0
 10
268.091115344
 20
151.963606829
 30
0.0
 10
271.4093128961
 20
153.4542853594
 30
0.0
 10
272.9898145634
 20
154.2726990814
 30
0.0
  0
SPLINE
  5
643
100
AcDbEntity
  8
11_COMPONENT
100
AcDbSpline
 62
7
  6
BYLAYER
 70
0
 71
3
 72
11
 73
7
 74
0
 42
0.0000001
 43
0.0000001
 44
0.0000000001
 40
0.0
 40
0.0
 40
0.0
 40
0.0
 40
0.2381582507
 40
0.4243421696
 40
0.6144785976
 40
1.0
 40
1.0
 40
1.0
 40
1.0
 10
214.6868211238
 20
154.2726990814
 30
0.0
 10
216.8079722506
 20
153.174311608
 30
0.0
 10
220.7405414046
 20
151.4990060069
 30
0.0
 10
226.6719289451
 20
149.7935667704
 30
0.0
 10
234.1826705235
 20
148.3474240736
 30
0.0
 10
239.971633306
 20
147.9527144398
 30
0.0
 10
243.8383178436
 20
147.9527105802
 30
0.0
  0
SPLINE
  5
644
100
AcDbEntity
  8
11_COMPONENT
100
AcDbSpline
 62
7
  6
BYLAYER
 70
0
 71
3
 72
9
 73
5
 74
0
 42
0.0000001
 43
0.0000001
 44
0.0000000001
 40
0.0
 40
0.0
 40
0.0
 40
0.0
 40
0.4730745349
 40
1.0
 40
1.0
 40
1.0
 40
1.0
 10
208.8185049293
 20
159.1902119136
 30
0.0
 10
209.5358166202
 20
158.2094057756
 30
0.0
 10
211.3284640368
 20
156.3333162555
 30
0.0
 10
213.4849323448
 20
154.8950024492
 30
0.0
 10
214.6868211238
 20
154.2726990814
 30
0.0
  0
SPLINE
  5
645
100
AcDbEntity
  8
11_COMPONENT
100
AcDbSpline
 62
7
  6
BYLAYER
 70
0
 71
3
 72
10
 73
6
 74
0
 42
0.0000001
 43
0.0000001
 44
0.0000000001
 40
0.0
 40
0.0
 40
0.0
 40
0.0
 40
0.2430858478
 40
0.4869555981
 40
1.0
 40
1.0
 40
1.0
 40
1.0
 10
220.6883178436
 20
168.9677863471
 30
0.0
 10
220.6883177531
 20
169.4519792809
 30
0.0
 10
220.782634346
 20
170.4250427772
 30
0.0
 10
221.3642650855
 20
172.3409414343
 30
0.0
 10
222.2249001752
 20
173.6286949886
 30
0.0
 10
222.91107079
 20
174.3859763826
 30
0.0
  0
LINE
  5
646
100
AcDbEntity
  8
11_COMPONENT
100
AcDbLine
 62
7
  6
BYLAYER
 10
213.9860193315
 20
175.397353729
 11
213.973921786
 21
175.388577509
  0
SPLINE
  5
647
100
AcDbEntity
  8
11_COMPONENT
100
AcDbSpline
 62
7
  6
BYLAYER
 70
0
 71
3
 72
13
 73
9
 74
0
 42
0.0000001
 43
0.0000001
 44
0.0000000001
 40
0.0
 40
0.0
 40
0.0
 40
0.0
 40
0.262507621
 40
0.5043892842
 40
0.6226738967
 40
0.7419590253
 40
0.8656999144
 40
1.0
 40
1.0
 40
1.0
 40
1.0
 10
213.973921786
 20
175.388577509
 30
0.0
 10
212.6450137801
 20
174.4238191888
 30
0.0
 10
210.2856181611
 20
172.270321847
 30
0.0
 10
208.235840564
 20
168.8748519146
 30
0.0
 10
207.4051679813
 20
165.9764916127
 30
0.0
 10
207.2202952162
 20
163.7056506469
 30
0.0
 10
207.5956065093
 20
161.3497699137
 30
0.0
 10
208.3225310885
 20
159.8683390657
 30
0.0
 10
208.8185049293
 20
159.1902119136
 30
0.0
  0
SPLINE
  5
648
100
AcDbEntity
  8
11_COMPONENT
100
AcDbSpline
 62
7
  6
BYLAYER
 70
0
 71
3
 72
9
 73
5
 74
0
 42
0.0000001
 43
0.0000001
 44
0.0000000001
 40
0.0
 40
0.0
 40
0.0
 40
0.0
 40
0.52560695
 40
1.0
 40
1.0
 40
1.0
 40
1.0
 10
228.4608130635
 20
181.9299950783
 30
0.0
 10
225.9995787539
 20
181.3174812189
 30
0.0
 10
221.4042639799
 20
179.7514495277
 30
0.0
 10
217.1452955663
 20
177.443106751
 30
0.0
 10
215.2082311101
 20
176.2232297276
 30
0.0
  0
SPLINE
  5
649
100
AcDbEntity
  8
11_COMPONENT
100
AcDbSpline
 62
7
  6
BYLAYER
 70
0
 71
3
 72
26
 73
22
 74
0
 42
0.0000001
 43
0.0000001
 44
0.0000000001
 40
0.0
 40
0.0
 40
0.0
 40
0.0
 40
0.0003049704
 40
0.0011507298
 40
0.0025378312
 40
0.0044660842
 40
0.0099448209
 40
0.0175851919
 40
0.0273887573
 40
0.0393570572
 40
0.0534755972
 40
0.0697152874
 40
0.1084383979
 40
0.1552820262
 40
0.2100201797
 40
0.2724434157
 40
0.3422061482
 40
0.4188822707
 40
0.5913564987
 40
0.7864435751
 40
1.0
 40
1.0
 40
1.0
 40
1.0
 10
182.0311058693
 20
146.7626905211
 30
0.0
 10
182.0322928924
 20
146.7640329592
 30
0.0
 10
182.0403826252
 20
146.7622498066
 30
0.0
 10
182.0540546298
 20
146.7647232867
 30
0.0
 10
182.0791837255
 20
146.7640423302
 30
0.0
 10
182.1304433442
 20
146.7653175977
 30
0.0
 10
182.2191621966
 20
146.7653510034
 30
0.0
 10
182.3537068187
 20
146.7660214725
 30
0.0
 10
182.5265864828
 20
146.766149846
 30
0.0
 10
182.7374540661
 20
146.7661896435
 30
0.0
 10
182.9861669408
 20
146.7659625033
 30
0.0
 10
183.3920777742
 20
146.7653588666
 30
0.0
 10
183.9902813954
 20
146.7640278476
 30
0.0
 10
184.8146930648
 20
146.7616134723
 30
0.0
 10
185.7783623406
 20
146.7581491422
 30
0.0
 10
186.876697608
 20
146.753459948
 30
0.0
 10
188.1039330588
 20
146.7473899768
 30
0.0
 10
189.9778011463
 20
146.7368421884
 30
0.0
 10
192.5880295522
 20
146.7186986309
 30
0.0
 10
196.0024717824
 20
146.6874186047
 30
0.0
 10
198.4034564565
 20
146.6594060479
 30
0.0
 10
199.6581770957
 20
146.642560495
 30
0.0
  0
SPLINE
  5
64A
100
AcDbEntity
  8
11_COMPONENT
100
AcDbSpline
 62
7
  6
BYLAYER
 70
0
 71
3
 72
13
 73
9
 74
0
 42
0.0000001
 43
0.0000001
 44
0.0000000001
 40
0.0
 40
0.0
 40
0.0
 40
0.0
 40
0.2634770185
 40
0.504490301
 40
0.6221509917
 40
0.7409790087
 40
0.8647745753
 40
1.0
 40
1.0
 40
1.0
 40
1.0
 10
213.7995154987
 20
175.6226602652
 30
0.0
 10
212.3976189277
 20
174.6569699381
 30
0.0
 10
209.9082650821
 20
172.4867727114
 30
0.0
 10
207.7508578789
 20
169.0008841966
 30
0.0
 10
206.8996136715
 20
166.0170673991
 30
0.0
 10
206.7316305713
 20
163.6752480589
 30
0.0
 10
207.1628142626
 20
161.2443805261
 30
0.0
 10
207.9494521104
 20
159.7252379839
 30
0.0
 10
208.4784428626
 20
159.0298996605
 30
0.0
  0
SPLINE
  5
64B
100
AcDbEntity
  8
11_COMPONENT
100
AcDbSpline
 62
7
  6
BYLAYER
 70
0
 71
3
 72
10
 73
6
 74
0
 42
0.0000001
 43
0.0000001
 44
0.0000000001
 40
0.0
 40
0.0
 40
0.0
 40
0.0
 40
0.5126901479
 40
0.7567000051
 40
1.0
 40
1.0
 40
1.0
 40
1.0
 10
264.810287211
 20
174.3363045409
 30
0.0
 10
265.4836240973
 20
173.5836651534
 30
0.0
 10
266.3266872216
 20
172.3061109996
 30
0.0
 10
266.895956232
 20
170.4099358564
 30
0.0
 10
266.9883177467
 20
169.4470293525
 30
0.0
 10
266.9883178436
 20
168.9677872309
 30
0.0
  0
SPLINE
  5
64C
100
AcDbEntity
  8
11_COMPONENT
100
AcDbSpline
 62
7
  6
BYLAYER
 70
0
 71
3
 72
26
 73
22
 74
0
 42
0.0000001
 43
0.0000001
 44
0.0000000001
 40
0.0
 40
0.0
 40
0.0
 40
0.0
 40
0.2135591972
 40
0.4086462379
 40
0.5811150645
 40
0.6577962411
 40
0.7275538246
 40
0.7899667287
 40
0.8447165872
 40
0.8915573706
 40
0.9302844581
 40
0.9465238858
 40
0.9606380969
 40
0.972607255
 40
0.9824143968
 40
0.990055385
 40
0.9955335607
 40
0.9974618818
 40
0.9988491446
 40
0.9996950032
 40
1.0
 40
1.0
 40
1.0
 40
1.0
 10
288.0184585915
 20
146.642560495
 30
0.0
 10
289.2731954764
 20
146.6594054752
 30
0.0
 10
291.6741958778
 20
146.6874413015
 30
0.0
 10
295.0886227485
 20
146.7186754123
 30
0.0
 10
297.6988486929
 20
146.7368268939
 30
0.0
 10
299.57268425
 20
146.7474026272
 30
0.0
 10
300.7998583921
 20
146.7534718953
 30
0.0
 10
301.8981715245
 20
146.7581375341
 30
0.0
 10
302.861832091
 20
146.7616060831
 30
0.0
 10
303.6863191218
 20
146.7640320016
 30
0.0
 10
304.284527829
 20
146.7653642817
 30
0.0
 10
304.690435066
 20
146.7659515544
 30
0.0
 10
304.9391259781
 20
146.7661753696
 30
0.0
 10
305.1499942098
 20
146.7661428519
 30
0.0
 10
305.3229034699
 20
146.7660248102
 30
0.0
 10
305.4574697206
 20
146.7653584509
 30
0.0
 10
305.5461886497
 20
146.7653192103
 30
0.0
 10
305.5974471145
 20
146.7640420955
 30
0.0
 10
305.6225768508
 20
146.7647215474
 30
0.0
 10
305.6362528072
 20
146.7622489547
 30
0.0
 10
305.6443408006
 20
146.7640311985
 30
0.0
 10
305.6455291189
 20
146.7626896994
 30
0.0
  0
SPLINE
  5
64D
100
AcDbEntity
  8
11_COMPONENT
100
AcDbSpline
 62
7
  6
BYLAYER
 70
0
 71
3
 72
11
 73
7
 74
0
 42
0.0000001
 43
0.0000001
 44
0.0000000001
 40
0.0
 40
0.0
 40
0.0
 40
0.0
 40
0.2829298566
 40
0.5404259271
 40
0.776891906
 40
1.0
 40
1.0
 40
1.0
 40
1.0
 10
225.1812570897
 20
178.2941625459
 30
0.0
 10
224.3573153834
 20
177.8648629086
 30
0.0
 10
222.8326057534
 20
176.9422560098
 30
0.0
 10
220.8872844564
 20
175.2696477792
 30
0.0
 10
219.4406642948
 20
173.3879470721
 30
0.0
 10
218.8279534091
 20
171.9878302288
 30
0.0
 10
218.6256663805
 20
171.2836770048
 30
0.0
  0
SPLINE
  5
64E
100
AcDbEntity
  8
11_COMPONENT
100
AcDbSpline
 62
7
  6
BYLAYER
 70
0
 71
3
 72
9
 73
5
 74
0
 42
0.0000001
 43
0.0000001
 44
0.0000000001
 40
0.0
 40
0.0
 40
0.0
 40
0.0
 40
0.2472333808
 40
1.0
 40
1.0
 40
1.0
 40
1.0
 10
218.470545538
 20
170.6517540722
 30
0.0
 10
218.4205448953
 20
170.4070835572
 30
0.0
 10
218.2626498348
 20
169.4086271645
 30
0.0
 10
218.2901678556
 20
168.3830719822
 30
0.0
 10
218.4033409463
 20
167.6311815642
 30
0.0
  0
SPLINE
  5
64F
100
AcDbEntity
  8
11_COMPONENT
100
AcDbSpline
 62
7
  6
BYLAYER
 70
0
 71
3
 72
11
 73
7
 74
0
 42
0.0000001
 43
0.0000001
 44
0.0000000001
 40
0.0
 40
0.0
 40
0.0
 40
0.0
 40
0.2089435883
 40
0.4439876788
 40
0.7083004776
 40
1.0
 40
1.0
 40
1.0
 40
1.0
 10
218.4033409463
 20
167.6311815642
 30
0.0
 10
218.5711526832
 20
166.5162872348
 30
0.0
 10
219.3621791121
 20
164.2048771423
 30
0.0
 10
221.579153531
 20
161.0470136493
 30
0.0
 10
224.7635972464
 20
158.1611074387
 30
0.0
 10
227.341135065
 20
156.5900298772
 30
0.0
 10
228.7469873484
 20
155.8821742825
 30
0.0
  0
SPLINE
  5
650
100
AcDbEntity
  8
11_COMPONENT
100
AcDbSpline
 62
7
  6
BYLAYER
 70
0
 71
3
 72
9
 73
5
 74
0
 42
0.0000001
 43
0.0000001
 44
0.0000000001
 40
0.0
 40
0.0
 40
0.0
 40
0.0
 40
0.239228329
 40
1.0
 40
1.0
 40
1.0
 40
1.0
 10
228.810460384
 20
155.8503132504
 30
0.0
 10
229.9150325275
 20
155.2975632138
 30
0.0
 10
234.6769167927
 20
153.2830716795
 30
0.0
 10
239.9103895584
 20
152.4293579887
 30
0.0
 10
243.8383200868
 20
152.4300859244
 30
0.0
  0
SPLINE
  5
651
100
AcDbEntity
  8
11_COMPONENT
100
AcDbSpline
 62
7
  6
BYLAYER
 70
0
 71
3
 72
9
 73
5
 74
0
 42
0.0000001
 43
0.0000001
 44
0.0000000001
 40
0.0
 40
0.0
 40
0.0
 40
0.0
 40
0.2517835633
 40
1.0
 40
1.0
 40
1.0
 40
1.0
 10
288.1595290413
 20
145.0396690426
 30
0.0
 10
288.2593336204
 20
145.0372646799
 30
0.0
 10
288.6557249644
 20
145.0277559203
 30
0.0
 10
289.0521200813
 20
145.0184045593
 30
0.0
 10
289.3487113188
 20
145.0114894949
 30
0.0
  0
LINE
  5
652
100
AcDbEntity
  8
11_COMPONENT
100
AcDbLine
 62
7
  6
BYLAYER
 10
294.4891977218
 20
144.8990127159
 11
294.5272869223
 21
144.8982295036
  0
LINE
  5
653
100
AcDbEntity
  8
11_COMPONENT
100
AcDbLine
 62
7
  6
BYLAYER
 10
300.140844086
 20
144.7934183343
 11
300.1667080633
 21
144.7929920733
  0
SPLINE
  5
654
100
AcDbEntity
  8
11_COMPONENT
100
AcDbSpline
 62
7
  6
BYLAYER
 70
0
 71
3
 72
9
 73
5
 74
0
 42
0.0000001
 43
0.0000001
 44
0.0000000001
 40
0.0
 40
0.0
 40
0.0
 40
0.0
 40
0.2585052172
 40
1.0
 40
1.0
 40
1.0
 40
1.0
 10
300.1667080633
 20
144.7929920733
 30
0.0
 10
300.2663572745
 20
144.7913508465
 30
0.0
 10
300.6518404676
 20
144.7850502697
 30
0.0
 10
301.0373267934
 20
144.778941138
 30
0.0
 10
301.3231646608
 20
144.7745267239
 30
0.0
  0
SPLINE
  5
655
100
AcDbEntity
  8
11_COMPONENT
100
AcDbSpline
 62
7
  6
BYLAYER
 70
0
 71
3
 72
21
 73
17
 74
0
 42
0.0000001
 43
0.0000001
 44
0.0000000001
 40
0.0
 40
0.0
 40
0.0
 40
0.0
 40
0.2291657072
 40
0.4302733353
 40
0.6023263437
 40
0.7445647914
 40
0.8042042206
 40
0.8560241282
 40
0.8999434728
 40
0.9358939779
 40
0.963851911
 40
0.9838340806
 40
0.9908392036
 40
0.9958550189
 40
0.9988888425
 40
1.0
 40
1.0
 40
1.0
 40
1.0
 10
301.3231646608
 20
144.7745267239
 30
0.0
 10
301.713284143
 20
144.7685018085
 30
0.0
 10
302.4457645039
 20
144.7575789647
 30
0.0
 10
303.4711658005
 20
144.743950531
 30
0.0
 10
304.3486028588
 20
144.7341948085
 30
0.0
 10
304.9852203747
 20
144.7286529959
 30
0.0
 10
305.4171393548
 20
144.7261938288
 30
0.0
 10
305.6816958153
 20
144.7253646968
 30
0.0
 10
305.9058536224
 20
144.7254502363
 30
0.0
 10
306.0895758601
 20
144.7263607576
 30
0.0
 10
306.2320315749
 20
144.7282570798
 30
0.0
 10
306.3263060212
 20
144.7303762035
 30
0.0
 10
306.3797300017
 20
144.7331403844
 30
0.0
 10
306.4069606639
 20
144.7346312596
 30
0.0
 10
306.4194706203
 20
144.737123306
 30
0.0
 10
306.429608875
 20
144.738159202
 30
0.0
 10
306.4296126207
 20
144.7400509991
 30
0.0
  0
SPLINE
  5
656
100
AcDbEntity
  8
11_COMPONENT
100
AcDbSpline
 62
7
  6
BYLAYER
 70
0
 71
3
 72
9
 73
5
 74
0
 42
0.0000001
 43
0.0000001
 44
0.0000000001
 40
0.0
 40
0.0
 40
0.0
 40
0.0
 40
0.2592419925
 40
1.0
 40
1.0
 40
1.0
 40
1.0
 10
243.8383200868
 20
152.4300859244
 30
0.0
 10
245.1766882935
 20
152.4298346691
 30
0.0
 10
250.3326719925
 20
152.7172385916
 30
0.0
 10
255.4459910831
 20
154.1388979801
 30
0.0
 10
258.8659771856
 20
155.850215175
 30
0.0
  0
SPLINE
  5
657
100
AcDbEntity
  8
11_COMPONENT
100
AcDbSpline
 62
7
  6
BYLAYER
 70
0
 71
3
 72
11
 73
7
 74
0
 42
0.0000001
 43
0.0000001
 44
0.0000000001
 40
0.0
 40
0.0
 40
0.0
 40
0.0
 40
0.2903720967
 40
0.5543724811
 40
0.7900574354
 40
1.0
 40
1.0
 40
1.0
 40
1.0
 10
258.9294251555
 20
155.8820614951
 30
0.0
 10
260.2979693983
 20
156.5710853473
 30
0.0
 10
262.813300305
 20
158.0972694819
 30
0.0
 10
265.9447138336
 20
160.8894802051
 30
0.0
 10
268.1643847136
 20
163.9455396209
 30
0.0
 10
269.0064694772
 20
166.1861224619
 30
0.0
 10
269.2126886236
 20
167.2745657397
 30
0.0
  0
SPLINE
  5
658
100
AcDbEntity
  8
11_COMPONENT
100
AcDbSpline
 62
7
  6
BYLAYER
 70
0
 71
3
 72
9
 73
5
 74
0
 42
0.0000001
 43
0.0000001
 44
0.0000000001
 40
0.0
 40
0.0
 40
0.0
 40
0.0
 40
0.255062543
 40
1.0
 40
1.0
 40
1.0
 40
1.0
 10
269.2725899732
 20
167.6263949341
 30
0.0
 10
269.3110238194
 20
167.8809224519
 30
0.0
 10
269.4212297329
 20
168.8843946173
 30
0.0
 10
269.3574500137
 20
169.9079329808
 30
0.0
 10
269.2075878925
 20
170.6446470529
 30
0.0
  0
LINE
  5
659
100
AcDbEntity
  8
11_COMPONENT
100
AcDbLine
 62
7
  6
BYLAYER
 10
269.1461724059
 20
170.9221394415
 11
269.1399170663
 21
170.9480895301
  0
SPLINE
  5
65A
100
AcDbEntity
  8
11_COMPONENT
100
AcDbSpline
 62
7
  6
BYLAYER
 70
0
 71
3
 72
11
 73
7
 74
0
 42
0.0000001
 43
0.0000001
 44
0.0000000001
 40
0.0
 40
0.0
 40
0.0
 40
0.0
 40
0.2231659038
 40
0.4591421094
 40
0.7164395604
 40
1.0
 40
1.0
 40
1.0
 40
1.0
 10
269.1272503078
 20
170.9995528627
 30
0.0
 10
268.9449444622
 20
171.7301949663
 30
0.0
 10
268.3594324274
 20
173.187670382
 30
0.0
 10
266.9105223691
 20
175.149354589
 30
0.0
 10
264.9273824783
 20
176.888114064
 30
0.0
 10
263.3616123063
 20
177.8417504604
 30
0.0
 10
262.5134779681
 20
178.2846983428
 30
0.0
  0
SPLINE
  5
65B
100
AcDbEntity
  8
11_COMPONENT
100
AcDbSpline
 62
7
  6
BYLAYER
 70
0
 71
3
 72
9
 73
5
 74
0
 42
0.0000001
 43
0.0000001
 44
0.0000000001
 40
0.0
 40
0.0
 40
0.0
 40
0.0
 40
0.2547482743
 40
1.0
 40
1.0
 40
1.0
 40
1.0
 10
277.2313356088
 20
145.1866447785
 30
0.0
 10
278.1314288354
 20
145.1746062285
 30
0.0
 10
281.6647176462
 20
145.1291645169
 30
0.0
 10
285.1980192541
 20
145.08445863
 30
0.0
 10
287.8311495635
 20
145.0462483203
 30
0.0
  0
SPLINE
  5
65C
100
AcDbEntity
  8
11_COMPONENT
100
AcDbSpline
 62
7
  6
BYLAYER
 70
0
 71
3
 72
9
 73
5
 74
0
 42
0.0000001
 43
0.0000001
 44
0.0000000001
 40
0.0
 40
0.0
 40
0.0
 40
0.0
 40
0.2445569994
 40
1.0
 40
1.0
 40
1.0
 40
1.0
 10
278.858130758
 20
159.1902118468
 30
0.0
 10
278.8874897566
 20
159.1812244502
 30
0.0
 10
279.0061287163
 20
159.1399595587
 30
0.0
 10
279.1186650529
 20
159.0815802703
 30
0.0
 10
279.1981928198
 20
159.029899652
 30
0.0
  0
SPLINE
  5
65D
100
AcDbEntity
  8
11_COMPONENT
100
AcDbSpline
 62
7
  6
BYLAYER
 70
0
 71
3
 72
9
 73
5
 74
0
 42
0.0000001
 43
0.0000001
 44
0.0000000001
 40
0.0
 40
0.0
 40
0.0
 40
0.0
 40
0.2350265504
 40
1.0
 40
1.0
 40
1.0
 40
1.0
 10
272.9898145634
 20
154.2726989826
 30
0.0
 10
273.0075788843
 20
154.2567371373
 30
0.0
 10
273.0811392752
 20
154.1865765372
 30
0.0
 10
273.1470607721
 20
154.1086290333
 30
0.0
 10
273.1936706172
 20
154.0464212206
 30
0.0
  0
LINE
  5
65E
100
AcDbEntity
  8
11_COMPONENT
100
AcDbLine
 62
7
  6
BYLAYER
 10
265.9699061519
 20
145.2692463424
 11
266.3454085154
 21
145.2668102951
  0
SPLINE
  5
65F
100
AcDbEntity
  8
11_COMPONENT
100
AcDbSpline
 62
7
  6
BYLAYER
 70
0
 71
3
 72
9
 73
5
 74
0
 42
0.0000001
 43
0.0000001
 44
0.0000000001
 40
0.0
 40
0.0
 40
0.0
 40
0.0
 40
0.2510956615
 40
1.0
 40
1.0
 40
1.0
 40
1.0
 10
266.3454085154
 20
145.2668102951
 30
0.0
 10
267.2191383469
 20
145.2611089194
 30
0.0
 10
270.6988016174
 20
145.237492314
 30
0.0
 10
274.178444587
 20
145.2110080158
 30
0.0
 10
276.7843616995
 20
145.1908837957
 30
0.0
  0
LINE
  5
660
100
AcDbEntity
  8
11_COMPONENT
100
AcDbLine
 62
7
  6
BYLAYER
 10
276.7843616995
 20
145.1908837957
 11
276.9768870418
 21
145.1893965211
  0
SPLINE
  5
661
100
AcDbEntity
  8
11_COMPONENT
100
AcDbSpline
 62
7
  6
BYLAYER
 70
0
 71
3
 72
12
 73
8
 74
0
 42
0.0000001
 43
0.0000001
 44
0.0000000001
 40
0.0
 40
0.0
 40
0.0
 40
0.0
 40
0.2575648426
 40
0.4492860689
 40
0.6382534318
 40
0.8225647625
 40
1.0
 40
1.0
 40
1.0
 40
1.0
 10
243.8383178436
 20
147.6317488319
 30
0.0
 10
246.4415626627
 20
147.6317517226
 30
0.0
 10
250.9869578878
 20
147.8416259977
 30
0.0
 10
257.3831023374
 20
148.7266313579
 30
0.0
 10
262.9626180637
 20
149.9787331567
 30
0.0
 10
268.2613896201
 20
151.7131908363
 30
0.0
 10
271.6020486908
 20
153.2200484872
 30
0.0
 10
273.1936706236
 20
154.0464212367
 30
0.0
  0
LINE
  5
662
100
AcDbEntity
  8
11_COMPONENT
100
AcDbLine
 62
7
  6
BYLAYER
 10
210.6997486454
 20
145.1893965211
 11
210.8933066566
 21
145.1908932889
  0
SPLINE
  5
663
100
AcDbEntity
  8
11_COMPONENT
100
AcDbSpline
 62
7
  6
BYLAYER
 70
0
 71
3
 72
9
 73
5
 74
0
 42
0.0000001
 43
0.0000001
 44
0.0000000001
 40
0.0
 40
0.0
 40
0.0
 40
0.0
 40
0.2488444582
 40
1.0
 40
1.0
 40
1.0
 40
1.0
 10
210.8933066566
 20
145.1908932889
 30
0.0
 10
211.7591491437
 20
145.1975854938
 30
0.0
 10
215.2386030512
 20
145.2242919295
 30
0.0
 10
218.7180676704
 20
145.2496986949
 30
0.0
 10
221.3316997959
 20
145.2668100522
 30
0.0
  0
SPLINE
  5
664
100
AcDbEntity
  8
11_COMPONENT
100
AcDbSpline
 62
7
  6
BYLAYER
 70
0
 71
3
 72
9
 73
5
 74
0
 42
0.0000001
 43
0.0000001
 44
0.0000000001
 40
0.0
 40
0.0
 40
0.0
 40
0.0
 40
0.235026607
 40
1.0
 40
1.0
 40
1.0
 40
1.0
 10
214.6868211238
 20
154.2726990896
 30
0.0
 10
214.6690568088
 20
154.2567372013
 30
0.0
 10
214.5954964617
 20
154.186576441
 30
0.0
 10
214.5295750096
 20
154.108628797
 30
0.0
 10
214.4829652048
 20
154.0464208856
 30
0.0
  0
SPLINE
  5
665
100
AcDbEntity
  8
11_COMPONENT
100
AcDbSpline
 62
7
  6
BYLAYER
 70
0
 71
3
 72
9
 73
5
 74
0
 42
0.0000001
 43
0.0000001
 44
0.0000000001
 40
0.0
 40
0.0
 40
0.0
 40
0.0
 40
0.2445570164
 40
1.0
 40
1.0
 40
1.0
 40
1.0
 10
208.8185049293
 20
159.1902114876
 30
0.0
 10
208.7891459491
 20
159.1812240767
 30
0.0
 10
208.670507074
 20
159.1399591373
 30
0.0
 10
208.5579708226
 20
159.0815798282
 30
0.0
 10
208.4784431197
 20
159.029899204
 30
0.0
  0
SPLINE
  5
666
100
AcDbEntity
  8
11_COMPONENT
100
AcDbSpline
 62
7
  6
BYLAYER
 70
0
 71
3
 72
9
 73
5
 74
0
 42
0.0000001
 43
0.0000001
 44
0.0000000001
 40
0.0
 40
0.0
 40
0.0
 40
0.0
 40
0.5291601344
 40
1.0
 40
1.0
 40
1.0
 40
1.0
 10
215.2082311101
 20
176.2232296878
 30
0.0
 10
215.1183604954
 20
176.2577320915
 30
0.0
 10
214.9347407825
 20
176.2968112789
 30
0.0
 10
214.7504811751
 20
176.2447194658
 30
0.0
 10
214.6778391858
 20
176.1993307645
 30
0.0
  0
SPLINE
  5
667
100
AcDbEntity
  8
11_COMPONENT
100
AcDbSpline
 62
7
  6
BYLAYER
 70
0
 71
3
 72
9
 73
5
 74
0
 42
0.0000001
 43
0.0000001
 44
0.0000000001
 40
0.0
 40
0.0
 40
0.0
 40
0.0
 40
0.5291599803
 40
1.0
 40
1.0
 40
1.0
 40
1.0
 10
272.4684045771
 20
176.223229698
 30
0.0
 10
272.5582737464
 20
176.2577315856
 30
0.0
 10
272.7418902165
 20
176.2968106004
 30
0.0
 10
272.9261472882
 20
176.2447223403
 30
0.0
 10
272.9987890501
 20
176.1993357516
 30
0.0
  0
SPLINE
  5
668
100
AcDbEntity
  8
11_COMPONENT
100
AcDbSpline
 62
7
  6
BYLAYER
 70
0
 71
3
 72
9
 73
5
 74
0
 42
0.0000001
 43
0.0000001
 44
0.0000000001
 40
0.0
 40
0.0
 40
0.0
 40
0.0
 40
0.2447896101
 40
1.0
 40
1.0
 40
1.0
 40
1.0
 10
199.8454861238
 20
145.0462483203
 30
0.0
 10
200.7103791132
 20
145.0587990282
 30
0.0
 10
204.2436186499
 20
145.1080219444
 30
0.0
 10
207.7769412612
 20
145.1509542925
 30
0.0
 10
210.4453000785
 20
145.1866447785
 30
0.0
  0
SPLINE
  5
669
100
AcDbEntity
  8
11_COMPONENT
100
AcDbSpline
 62
7
  6
BYLAYER
 70
0
 71
3
 72
9
 73
5
 74
0
 42
0.0000001
 43
0.0000001
 44
0.0000000001
 40
0.0
 40
0.0
 40
0.0
 40
0.0
 40
0.2591562196
 40
1.0
 40
1.0
 40
1.0
 40
1.0
 10
243.838321077
 20
151.9422513617
 30
0.0
 10
245.2027245014
 20
151.941993682
 30
0.0
 10
250.4607902488
 20
152.2356112662
 30
0.0
 10
255.6746430123
 20
153.6886134674
 30
0.0
 10
259.1619048331
 20
155.4356199179
 30
0.0
  0
SPLINE
  5
66A
100
AcDbEntity
  8
11_COMPONENT
100
AcDbSpline
 62
7
  6
BYLAYER
 70
0
 71
3
 72
10
 73
6
 74
0
 42
0.0000001
 43
0.0000001
 44
0.0000000001
 40
0.0
 40
0.0
 40
0.0
 40
0.0
 40
0.2862321715
 40
0.5491970287
 40
1.0
 40
1.0
 40
1.0
 40
1.0
 10
260.4481332761
 20
156.1209472742
 30
0.0
 10
261.6035515909
 20
156.77502299
 30
0.0
 10
263.7390354091
 20
158.1925657407
 30
0.0
 10
267.1467560514
 20
161.3399834999
 30
0.0
 10
268.9824920357
 20
164.2713912586
 30
0.0
 10
269.5418855169
 20
166.2862596209
 30
0.0
  0
SPLINE
  5
66B
100
AcDbEntity
  8
11_COMPONENT
100
AcDbSpline
 62
7
  6
BYLAYER
 70
0
 71
3
 72
9
 73
5
 74
0
 42
0.0000001
 43
0.0000001
 44
0.0000000001
 40
0.0
 40
0.0
 40
0.0
 40
0.0
 40
0.2534986775
 40
1.0
 40
1.0
 40
1.0
 40
1.0
 10
269.5418855169
 20
166.2862596209
 30
0.0
 10
269.5713519482
 20
166.3923941795
 30
0.0
 10
269.6810575306
 20
166.8128508398
 30
0.0
 10
269.7641277594
 20
167.2403262401
 30
0.0
 10
269.8097045916
 20
167.561474528
 30
0.0
  0
SPLINE
  5
66C
100
AcDbEntity
  8
11_COMPONENT
100
AcDbSpline
 62
7
  6
BYLAYER
 70
0
 71
3
 72
13
 73
9
 74
0
 42
0.0000001
 43
0.0000001
 44
0.0000000001
 40
0.0
 40
0.0
 40
0.0
 40
0.0
 40
0.1149038573
 40
0.2274946358
 40
0.3406561591
 40
0.457272452
 40
0.7099927471
 40
1.0
 40
1.0
 40
1.0
 40
1.0
 10
269.8097045916
 20
167.561474528
 30
0.0
 10
269.8876834866
 20
168.110937653
 30
0.0
 10
269.9470338878
 20
169.2154898236
 30
0.0
 10
269.7189077599
 20
170.855057283
 30
0.0
 10
269.1742373027
 20
172.4272951504
 30
0.0
 10
268.009833934
 20
174.4601135264
 30
0.0
 10
265.7218249811
 20
176.7521409203
 30
0.0
 10
263.4394485432
 20
178.0844277566
 30
0.0
 10
262.1743479005
 20
178.6856435253
 30
0.0
  0
SPLINE
  5
66D
100
AcDbEntity
  8
11_COMPONENT
100
AcDbSpline
 62
7
  6
BYLAYER
 70
0
 71
3
 72
9
 73
5
 74
0
 42
0.0000001
 43
0.0000001
 44
0.0000000001
 40
0.0
 40
0.0
 40
0.0
 40
0.0
 40
0.2347095301
 40
1.0
 40
1.0
 40
1.0
 40
1.0
 10
288.0184582274
 20
146.6425599156
 30
0.0
 10
288.0454543617
 20
146.5194274791
 30
0.0
 10
288.1408652361
 20
145.99059135
 30
0.0
 10
288.1689421673
 20
145.4505811183
 30
0.0
 10
288.1595287323
 20
145.0396690426
 30
0.0
  0
SPLINE
  5
66E
100
AcDbEntity
  8
11_COMPONENT
100
AcDbSpline
 62
7
  6
BYLAYER
 70
0
 71
3
 72
9
 73
5
 74
0
 42
0.0000001
 43
0.0000001
 44
0.0000000001
 40
0.0
 40
0.0
 40
0.0
 40
0.0
 40
0.2351133099
 40
1.0
 40
1.0
 40
1.0
 40
1.0
 10
287.6799671346
 20
146.636051028
 30
0.0
 10
287.707206552
 20
146.5137328946
 30
0.0
 10
287.8042489254
 20
145.9893669586
 30
0.0
 10
287.8364933515
 20
145.4538948335
 30
0.0
 10
287.8311495636
 20
145.0462483203
 30
0.0
  0
SPLINE
  5
66F
100
AcDbEntity
  8
11_COMPONENT
100
AcDbSpline
 62
7
  6
BYLAYER
 70
0
 71
3
 72
9
 73
5
 74
0
 42
0.0000001
 43
0.0000001
 44
0.0000000001
 40
0.0
 40
0.0
 40
0.0
 40
0.0
 40
0.2381127167
 40
1.0
 40
1.0
 40
1.0
 40
1.0
 10
277.1809387684
 20
146.5475575073
 30
0.0
 10
277.1910272435
 20
146.4399093862
 30
0.0
 10
277.2261934228
 20
145.9871600809
 30
0.0
 10
277.2360002501
 20
145.5325634202
 30
0.0
 10
277.2313358273
 20
145.1866447785
 30
0.0
  0
SPLINE
  5
670
100
AcDbEntity
  8
11_COMPONENT
100
AcDbSpline
 62
7
  6
BYLAYER
 70
0
 71
3
 72
13
 73
9
 74
0
 42
0.0000001
 43
0.0000001
 44
0.0000000001
 40
0.0
 40
0.0
 40
0.0
 40
0.0
 40
0.2895918393
 40
0.5421837391
 40
0.6588577599
 40
0.7721372007
 40
0.8848993936
 40
1.0
 40
1.0
 40
1.0
 40
1.0
 10
225.4010152605
 20
178.6372077434
 30
0.0
 10
224.1486646851
 20
178.0348455732
 30
0.0
 10
221.8897697772
 20
176.7009384457
 30
0.0
 10
219.6311031793
 20
174.4125594419
 30
0.0
 10
218.4845038507
 20
172.3867548168
 30
0.0
 10
217.9501753585
 20
170.8206035469
 30
0.0
 10
217.7290221187
 20
169.1885818858
 30
0.0
 10
217.7908940498
 20
168.0895973504
 30
0.0
 10
217.8695973742
 20
167.5428921776
 30
0.0
  0
SPLINE
  5
671
100
AcDbEntity
  8
11_COMPONENT
100
AcDbSpline
 62
7
  6
BYLAYER
 70
0
 71
3
 72
9
 73
5
 74
0
 42
0.0000001
 43
0.0000001
 44
0.0000000001
 40
0.0
 40
0.0
 40
0.0
 40
0.0
 40
0.2468426034
 40
1.0
 40
1.0
 40
1.0
 40
1.0
 10
217.8695973742
 20
167.5428921776
 30
0.0
 10
217.8846070623
 20
167.4386288042
 30
0.0
 10
217.9523790876
 20
167.0172642246
 30
0.0
 10
218.0477116555
 20
166.6004020114
 30
0.0
 10
218.1335519274
 20
166.2906728643
 30
0.0
  0
SPLINE
  5
672
100
AcDbEntity
  8
11_COMPONENT
100
AcDbSpline
 62
7
  6
BYLAYER
 70
0
 71
3
 72
10
 73
6
 74
0
 42
0.0000001
 43
0.0000001
 44
0.0000000001
 40
0.0
 40
0.0
 40
0.0
 40
0.0
 40
0.2152211083
 40
0.5807073821
 40
1.0
 40
1.0
 40
1.0
 40
1.0
 10
218.1335519274
 20
166.2906728643
 30
0.0
 10
218.3980259125
 20
165.3363969755
 30
0.0
 10
219.4786055282
 20
162.858284558
 30
0.0
 10
222.4670819713
 20
159.2715213494
 30
0.0
 10
225.432575541
 20
157.1491760439
 30
0.0
 10
227.1066336065
 20
156.1903652038
 30
0.0
  0
SPLINE
  5
673
100
AcDbEntity
  8
11_COMPONENT
100
AcDbSpline
 62
7
  6
BYLAYER
 70
0
 71
3
 72
9
 73
5
 74
0
 42
0.0000001
 43
0.0000001
 44
0.0000000001
 40
0.0
 40
0.0
 40
0.0
 40
0.0
 40
0.2393452665
 40
1.0
 40
1.0
 40
1.0
 40
1.0
 10
228.5161254704
 20
155.4349215783
 30
0.0
 10
229.6427531833
 20
154.8705702237
 30
0.0
 10
234.4972812575
 20
152.8140959879
 30
0.0
 10
239.8337295751
 20
151.9415200358
 30
0.0
 10
243.838321077
 20
151.9422513607
 30
0.0
  0
SPLINE
  5
674
100
AcDbEntity
  8
11_COMPONENT
100
AcDbSpline
 62
7
  6
BYLAYER
 70
0
 71
3
 72
9
 73
5
 74
0
 42
0.0000001
 43
0.0000001
 44
0.0000000001
 40
0.0
 40
0.0
 40
0.0
 40
0.0
 40
0.2518589897
 40
1.0
 40
1.0
 40
1.0
 40
1.0
 10
243.8383178436
 20
146.4259221773
 30
0.0
 10
246.615602638
 20
146.4258665125
 30
0.0
 10
257.6427509402
 20
146.4390082775
 30
0.0
 10
268.6697604562
 20
146.500036444
 30
0.0
 10
276.9194985535
 20
146.5443314538
 30
0.0
  0
SPLINE
  5
675
100
AcDbEntity
  8
11_COMPONENT
100
AcDbSpline
 62
7
  6
BYLAYER
 70
0
 71
3
 72
21
 73
17
 74
0
 42
0.0000001
 43
0.0000001
 44
0.0000000001
 40
0.0
 40
0.0
 40
0.0
 40
0.0
 40
0.0011117726
 40
0.0041446944
 40
0.0091589563
 40
0.0161625461
 40
0.0361422887
 40
0.0640880551
 40
0.1000115382
 40
0.1439189674
 40
0.1957439618
 40
0.2553732881
 40
0.3975889329
 40
0.5696583371
 40
0.7707385727
 40
1.0
 40
1.0
 40
1.0
 40
1.0
 10
181.2470213276
 20
144.7400497078
 30
0.0
 10
181.2470243632
 20
144.738176243
 30
0.0
 10
181.257048144
 20
144.7371272792
 30
0.0
 10
181.269434523
 20
144.7346630454
 30
0.0
 10
181.2963737222
 20
144.7331676816
 30
0.0
 10
181.3492434786
 20
144.7304173537
 30
0.0
 10
181.4425228639
 20
144.7282969362
 30
0.0
 10
181.5834506916
 20
144.7263965467
 30
0.0
 10
181.7652050743
 20
144.7254669919
 30
0.0
 10
181.9870108466
 20
144.7253564534
 30
0.0
 10
182.2488300337
 20
144.7261482101
 30
0.0
 10
182.6762800654
 20
144.7285269588
 30
0.0
 10
183.3063519637
 20
144.7339633302
 30
0.0
 10
184.1747476081
 20
144.7436532917
 30
0.0
 10
185.1897947133
 20
144.7569784079
 30
0.0
 10
185.914891599
 20
144.7677133316
 30
0.0
 10
186.3011781152
 20
144.7736680793
 30
0.0
  0
SPLINE
  5
676
100
AcDbEntity
  8
11_COMPONENT
100
AcDbSpline
 62
7
  6
BYLAYER
 70
0
 71
3
 72
9
 73
5
 74
0
 42
0.0000001
 43
0.0000001
 44
0.0000000001
 40
0.0
 40
0.0
 40
0.0
 40
0.0
 40
0.2407547562
 40
1.0
 40
1.0
 40
1.0
 40
1.0
 10
186.3011781152
 20
144.7736680793
 30
0.0
 10
186.4012108943
 20
144.7752101211
 30
0.0
 10
186.8167064559
 20
144.7816815182
 30
0.0
 10
187.2321981199
 20
144.7884020821
 30
0.0
 10
187.5476563417
 20
144.7936147564
 30
0.0
  0
LINE
  5
677
100
AcDbEntity
  8
11_COMPONENT
100
AcDbLine
 62
7
  6
BYLAYER
 10
187.5476563417
 20
144.7936147564
 11
187.5754894287
 21
144.7940749624
  0
LINE
  5
678
100
AcDbEntity
  8
11_COMPONENT
100
AcDbLine
 62
7
  6
BYLAYER
 10
187.5754894287
 20
144.7940749624
 11
187.618587555
 21
144.7947886992
  0
SPLINE
  5
679
100
AcDbEntity
  8
11_COMPONENT
100
AcDbSpline
 62
7
  6
BYLAYER
 70
0
 71
3
 72
9
 73
5
 74
0
 42
0.0000001
 43
0.0000001
 44
0.0000000001
 40
0.0
 40
0.0
 40
0.0
 40
0.0
 40
0.2481849037
 40
1.0
 40
1.0
 40
1.0
 40
1.0
 10
198.3258888016
 20
145.0114423384
 30
0.0
 10
198.4244371133
 20
145.0137399736
 30
0.0
 10
198.8215124366
 20
145.0230341267
 30
0.0
 10
199.2185842506
 20
145.0324783101
 30
0.0
 10
199.517106646
 20
145.0396690426
 30
0.0
  0
SPLINE
  5
67A
100
AcDbEntity
  8
11_COMPONENT
100
AcDbSpline
 62
7
  6
BYLAYER
 70
0
 71
3
 72
9
 73
5
 74
0
 42
0.0000001
 43
0.0000001
 44
0.0000000001
 40
0.0
 40
0.0
 40
0.0
 40
0.0
 40
0.526825334
 40
1.0
 40
1.0
 40
1.0
 40
1.0
 10
273.1936706236
 20
154.0464212367
 30
0.0
 10
274.4188718669
 20
154.6789546994
 30
0.0
 10
276.6199925109
 20
156.1376400544
 30
0.0
 10
278.4580412181
 20
158.0369854434
 30
0.0
 10
279.1981928246
 20
159.0298996605
 30
0.0
  0
SPLINE
  5
67B
100
AcDbEntity
  8
11_COMPONENT
100
AcDbSpline
 62
7
  6
BYLAYER
 70
0
 71
3
 72
9
 73
5
 74
0
 42
0.0000001
 43
0.0000001
 44
0.0000000001
 40
0.0
 40
0.0
 40
0.0
 40
0.0
 40
0.2385515036
 40
1.0
 40
1.0
 40
1.0
 40
1.0
 10
276.9194985545
 20
146.5443314561
 30
0.0
 10
276.9291704622
 20
146.4459151063
 30
0.0
 10
276.9637758491
 20
146.0327837232
 30
0.0
 10
276.977181288
 20
145.6179719132
 30
0.0
 10
276.9772924775
 20
145.3023168504
 30
0.0
  0
SPLINE
  5
67C
100
AcDbEntity
  8
11_COMPONENT
100
AcDbSpline
 62
7
  6
BYLAYER
 70
0
 71
3
 72
9
 73
5
 74
0
 42
0.0000001
 43
0.0000001
 44
0.0000000001
 40
0.0
 40
0.0
 40
0.0
 40
0.0
 40
0.2385515071
 40
1.0
 40
1.0
 40
1.0
 40
1.0
 10
210.7571372102
 20
146.5443312719
 30
0.0
 10
210.7474652982
 20
146.445914935
 30
0.0
 10
210.7128598982
 20
146.0327836118
 30
0.0
 10
210.6994544651
 20
145.6179718591
 30
0.0
 10
210.699343291
 20
145.3023168423
 30
0.0
  0
SPLINE
  5
67D
100
AcDbEntity
  8
11_COMPONENT
100
AcDbSpline
 62
7
  6
BYLAYER
 70
0
 71
3
 72
9
 73
5
 74
0
 42
0.0000001
 43
0.0000001
 44
0.0000000001
 40
0.0
 40
0.0
 40
0.0
 40
0.0
 40
0.2381127239
 40
1.0
 40
1.0
 40
1.0
 40
1.0
 10
210.495697077
 20
146.5475571371
 30
0.0
 10
210.485608617
 20
146.4399090411
 30
0.0
 10
210.4504424904
 20
145.9871598566
 30
0.0
 10
210.4406356716
 20
145.5325633223
 30
0.0
 10
210.4453000786
 20
145.1866447785
 30
0.0
  0
SPLINE
  5
67E
100
AcDbEntity
  8
11_COMPONENT
100
AcDbSpline
 62
7
  6
BYLAYER
 70
0
 71
3
 72
9
 73
5
 74
0
 42
0.0000001
 43
0.0000001
 44
0.0000000001
 40
0.0
 40
0.0
 40
0.0
 40
0.0
 40
0.2351133068
 40
1.0
 40
1.0
 40
1.0
 40
1.0
 10
199.9966684455
 20
146.6360512017
 30
0.0
 10
199.9694290221
 20
146.513733057
 30
0.0
 10
199.8723866253
 20
145.989367065
 30
0.0
 10
199.840142187
 20
145.4538948805
 30
0.0
 10
199.84548597
 20
145.0462483203
 30
0.0
  0
SPLINE
  5
67F
100
AcDbEntity
  8
11_COMPONENT
100
AcDbSpline
 62
7
  6
BYLAYER
 70
0
 71
3
 72
9
 73
5
 74
0
 42
0.0000001
 43
0.0000001
 44
0.0000000001
 40
0.0
 40
0.0
 40
0.0
 40
0.0
 40
0.2347095214
 40
1.0
 40
1.0
 40
1.0
 40
1.0
 10
199.6581770875
 20
146.6425605081
 30
0.0
 10
199.63118099
 20
146.5194280223
 30
0.0
 10
199.5357702397
 20
145.9905916768
 30
0.0
 10
199.5076933012
 20
145.4505812718
 30
0.0
 10
199.5171066442
 20
145.0396690426
 30
0.0
  0
SPLINE
  5
680
100
AcDbEntity
  8
11_COMPONENT
100
AcDbSpline
 62
7
  6
BYLAYER
 70
0
 71
3
 72
23
 73
19
 74
0
 42
0.0000001
 43
0.0000001
 44
0.0000000001
 40
0.0
 40
0.0
 40
0.0
 40
0.0
 40
0.0200520785
 40
0.0373580472
 40
0.0528227414
 40
0.0687492398
 40
0.0877983241
 40
0.1113650067
 40
0.1711456145
 40
0.2425201069
 40
0.3197697073
 40
0.3994569719
 40
0.4795631967
 40
0.6360894206
 40
0.7812903063
 40
0.9064538202
 40
0.9579698573
 40
1.0
 40
1.0
 40
1.0
 40
1.0
 10
285.2788427101
 20
162.7541887007
 30
0.0
 10
285.2746515621
 20
162.8340492318
 30
0.0
 10
285.2773392673
 20
162.9839314542
 30
0.0
 10
285.3302389704
 20
163.1909179847
 30
0.0
 10
285.4487229073
 20
163.3534150955
 30
0.0
 10
285.63814265
 20
163.4411838226
 30
0.0
 10
285.8755523205
 20
163.4477820541
 30
0.0
 10
286.2762008163
 20
163.3577100306
 30
0.0
 10
286.8354917435
 20
163.083404425
 30
0.0
 10
287.529366032
 20
162.6257698648
 30
0.0
 10
288.247104305
 20
162.0637998554
 30
0.0
 10
288.9582004362
 20
161.4404335626
 30
0.0
 10
289.8688899107
 20
160.5670876635
 30
0.0
 10
290.9070471254
 20
159.4500938223
 30
0.0
 10
291.9617115824
 20
158.1131921845
 30
0.0
 10
292.6474612652
 20
157.0177249705
 30
0.0
 10
292.9693148895
 20
156.2057953288
 30
0.0
 10
293.0349446459
 20
155.8309270938
 30
0.0
 10
293.0261875127
 20
155.6635340408
 30
0.0
  0
SPLINE
  5
681
100
AcDbEntity
  8
11_COMPONENT
100
AcDbSpline
 62
7
  6
BYLAYER
 70
0
 71
3
 72
11
 73
7
 74
0
 42
0.0000001
 43
0.0000001
 44
0.0000000001
 40
0.0
 40
0.0
 40
0.0
 40
0.0
 40
0.3389669355
 40
0.6388107552
 40
0.8666566749
 40
1.0
 40
1.0
 40
1.0
 40
1.0
 10
481.0347126351
 20
402.6659817985
 30
0.0
 10
480.9217295671
 20
402.6719801775
 30
0.0
 10
480.7093493606
 20
402.6892041557
 30
0.0
 10
480.4214920589
 20
402.7279309705
 30
0.0
 10
480.2081185823
 20
402.7761119246
 30
0.0
 10
480.0895920173
 20
402.8129374732
 30
0.0
 10
480.0541518577
 20
402.8398625742
 30
0.0
  0
SPLINE
  5
682
100
AcDbEntity
  8
11_COMPONENT
100
AcDbSpline
 62
7
  6
BYLAYER
 70
0
 71
3
 72
9
 73
5
 74
0
 42
0.0000001
 43
0.0000001
 44
0.0000000001
 40
0.0
 40
0.0
 40
0.0
 40
0.0
 40
0.3208780292
 40
1.0
 40
1.0
 40
1.0
 40
1.0
 10
480.0541518577
 20
402.8398625742
 30
0.0
 10
480.0511826561
 20
402.8421183781
 30
0.0
 10
480.0424242891
 20
402.8493933397
 30
0.0
 10
480.0347126351
 20
402.860252278
 30
0.0
 10
480.0347126351
 20
402.8681443368
 30
0.0
  0
SPLINE
  5
683
100
AcDbEntity
  8
11_COMPONENT
100
AcDbSpline
 62
7
  6
BYLAYER
 70
0
 71
3
 72
9
 73
5
 74
0
 42
0.0000001
 43
0.0000001
 44
0.0000000001
 40
0.0
 40
0.0
 40
0.0
 40
0.0
 40
0.4997323167
 40
1.0
 40
1.0
 40
1.0
 40
1.0
 10
485.9750955649
 20
402.4036701046
 30
0.0
 10
486.0955086318
 20
402.39727618
 30
0.0
 10
486.3402681158
 20
402.2844534607
 30
0.0
 10
486.4347127363
 20
402.0335711023
 30
0.0
 10
486.4347126351
 20
401.9128592154
 30
0.0
  0
SPLINE
  5
684
100
AcDbEntity
  8
11_COMPONENT
100
AcDbSpline
 62
7
  6
BYLAYER
 70
0
 71
3
 72
9
 73
5
 74
0
 42
0.0000001
 43
0.0000001
 44
0.0000000001
 40
0.0
 40
0.0
 40
0.0
 40
0.0
 40
0.4961656755
 40
1.0
 40
1.0
 40
1.0
 40
1.0
 10
486.4347125318
 20
401.5672410285
 30
0.0
 10
486.4346341284
 20
401.6847402699
 30
0.0
 10
486.3358430154
 20
401.9302264029
 30
0.0
 10
486.094237586
 20
402.0344789443
 30
0.0
 10
485.9750786007
 20
402.0405847393
 30
0.0
  0
SPLINE
  5
685
100
AcDbEntity
  8
11_COMPONENT
100
AcDbSpline
 62
7
  6
BYLAYER
 70
0
 71
3
 72
10
 73
6
 74
0
 42
0.0000001
 43
0.0000001
 44
0.0000000001
 40
0.0
 40
0.0
 40
0.0
 40
0.0
 40
0.2189006631
 40
0.4579831751
 40
1.0
 40
1.0
 40
1.0
 40
1.0
 10
486.4347126351
 20
392.6051250129
 30
0.0
 10
486.4347129028
 20
392.6516464264
 30
0.0
 10
486.4079277132
 20
392.7501408456
 30
0.0
 10
486.2634545047
 20
392.9129353969
 30
0.0
 10
486.0901970552
 20
392.96539689
 30
0.0
 10
485.9750956872
 20
392.969940486
 30
0.0
  0
SPLINE
  5
686
100
AcDbEntity
  8
11_COMPONENT
100
AcDbSpline
 62
7
  6
BYLAYER
 70
0
 71
3
 72
12
 73
8
 74
0
 42
0.0000001
 43
0.0000001
 44
0.0000000001
 40
0.0
 40
0.0
 40
0.0
 40
0.0
 40
0.0298058813
 40
0.0892246935
 40
0.3029028284
 40
0.621651704
 40
1.0
 40
1.0
 40
1.0
 40
1.0
 10
486.4347126351
 20
325.7781390944
 30
0.0
 10
486.4347126352
 20
325.7828008114
 30
0.0
 10
486.4214435661
 20
325.793154739
 30
0.0
 10
486.3784052337
 20
325.8067305091
 30
0.0
 10
486.2845802805
 20
325.8218999898
 30
0.0
 10
486.1436259984
 20
325.832425055
 30
0.0
 10
486.0342690914
 20
325.8355904882
 30
0.0
 10
485.9750955972
 20
325.835960785
 30
0.0
  0
SPLINE
  5
687
100
AcDbEntity
  8
11_COMPONENT
100
AcDbSpline
 62
7
  6
BYLAYER
 70
0
 71
3
 72
9
 73
5
 74
0
 42
0.0000001
 43
0.0000001
 44
0.0000000001
 40
0.0
 40
0.0
 40
0.0
 40
0.0
 40
0.4863563528
 40
1.0
 40
1.0
 40
1.0
 40
1.0
 10
486.4347126351
 20
295.7574827128
 30
0.0
 10
486.4347132711
 20
295.64549302
 30
0.0
 10
486.3298810071
 20
295.4083731938
 30
0.0
 10
486.0932302706
 20
295.3157600048
 30
0.0
 10
485.9750957113
 20
295.310040432
 30
0.0
  0
SPLINE
  5
688
100
AcDbEntity
  8
11_COMPONENT
100
AcDbSpline
 62
7
  6
BYLAYER
 70
0
 71
3
 72
9
 73
5
 74
0
 42
0.0000001
 43
0.0000001
 44
0.0000000001
 40
0.0
 40
0.0
 40
0.0
 40
0.0
 40
0.4960994318
 40
1.0
 40
1.0
 40
1.0
 40
1.0
 10
486.4347126351
 20
292.3915554602
 30
0.0
 10
486.4347124911
 20
292.2740489634
 30
0.0
 10
486.3359652544
 20
292.0284498385
 30
0.0
 10
486.0942934902
 20
291.9241854236
 30
0.0
 10
485.9750955433
 20
291.9180785733
 30
0.0
  0
LINE
  5
689
100
AcDbEntity
  8
11_COMPONENT
100
AcDbLine
 62
7
  6
BYLAYER
 10
477.9798216265
 20
402.0530793781
 11
477.9489742488
 21
402.0607912615
  0
LINE
  5
68A
100
AcDbEntity
  8
11_COMPONENT
100
AcDbLine
 62
7
  6
BYLAYER
 10
477.9489742488
 20
402.0607912615
 11
477.8827126351
 21
402.0772700423
  0
LINE
  5
68B
100
AcDbEntity
  8
11_COMPONENT
100
AcDbLine
 62
7
  6
BYLAYER
 10
475.5780276478
 20
325.7697564103
 11
475.5776648611
 21
325.9287828687
  0
SPLINE
  5
68C
100
AcDbEntity
  8
11_COMPONENT
100
AcDbSpline
 62
7
  6
BYLAYER
 70
0
 71
3
 72
12
 73
8
 74
0
 42
0.0000001
 43
0.0000001
 44
0.0000000001
 40
0.0
 40
0.0
 40
0.0
 40
0.0
 40
0.0732946305
 40
0.1669954578
 40
0.4059422877
 40
0.693114045
 40
1.0
 40
1.0
 40
1.0
 40
1.0
 10
475.6925215047
 20
295.4376359127
 30
0.0
 10
475.6700288764
 20
296.1783733692
 30
0.0
 10
475.6378007474
 20
297.8666253043
 30
0.0
 10
475.5940658996
 20
301.9708542176
 30
0.0
 10
475.5735844162
 20
308.2378554108
 30
0.0
 10
475.5664106695
 20
316.6603065779
 30
0.0
 10
475.5713268727
 20
322.6668071871
 30
0.0
 10
475.577596737
 20
325.769711617
 30
0.0
  0
LINE
  5
68D
100
AcDbEntity
  8
11_COMPONENT
100
AcDbLine
 62
7
  6
BYLAYER
 10
468.2410336578
 20
396.634777399
 11
468.0616356617
 21
396.450033502
  0
LINE
  5
68E
100
AcDbEntity
  8
11_COMPONENT
100
AcDbLine
 62
7
  6
BYLAYER
 10
468.0616356617
 20
396.450033502
 11
464.447515843
 21
392.7262770965
  0
SPLINE
  5
68F
100
AcDbEntity
  8
11_COMPONENT
100
AcDbSpline
 62
7
  6
BYLAYER
 70
0
 71
3
 72
9
 73
5
 74
0
 42
0.0000001
 43
0.0000001
 44
0.0000000001
 40
0.0
 40
0.0
 40
0.0
 40
0.0
 40
0.564818637
 40
1.0
 40
1.0
 40
1.0
 40
1.0
 10
446.1544839898
 20
325.9794277282
 30
0.0
 10
444.8912724596
 20
328.2280560862
 30
0.0
 10
442.7491712393
 20
332.2630843746
 30
0.0
 10
440.7656827111
 20
336.3767397822
 30
0.0
 10
439.9219838563
 20
338.1759283265
 30
0.0
  0
LINE
  5
690
100
AcDbEntity
  8
11_COMPONENT
100
AcDbLine
 62
7
  6
BYLAYER
 10
439.9219838563
 20
338.1759283265
 11
439.803503538
 21
338.4288656408
  0
LINE
  5
691
100
AcDbEntity
  8
11_COMPONENT
100
AcDbLine
 62
7
  6
BYLAYER
 10
439.3878344117
 20
339.3199944772
 11
439.1746873513
 21
339.7781961316
  0
LINE
  5
692
100
AcDbEntity
  8
11_COMPONENT
100
AcDbLine
 62
7
  6
BYLAYER
 10
439.1746873513
 20
339.7781961316
 11
438.9729444819
 21
340.211797519
  0
SPLINE
  5
693
100
AcDbEntity
  8
11_COMPONENT
100
AcDbSpline
 62
7
  6
BYLAYER
 70
0
 71
3
 72
11
 73
7
 74
0
 42
0.0000001
 43
0.0000001
 44
0.0000000001
 40
0.0
 40
0.0
 40
0.0
 40
0.0
 40
0.256422874
 40
0.508401143
 40
0.7560873774
 40
1.0
 40
1.0
 40
1.0
 40
1.0
 10
475.6503256397
 20
392.7322793723
 30
0.0
 10
470.9179604633
 20
389.7060148998
 30
0.0
 10
462.0819092488
 20
382.7919463356
 30
0.0
 10
451.2174746201
 20
370.1493379856
 30
0.0
 10
443.2337263761
 20
355.8258842553
 30
0.0
 10
440.0100755268
 20
345.4533790879
 30
0.0
 10
438.9729444819
 20
340.211797519
 30
0.0
  0
LINE
  5
694
100
AcDbEntity
  8
11_COMPONENT
100
AcDbLine
 62
7
  6
BYLAYER
 10
475.5782744239
 20
325.9288491139
 11
475.6503256397
 21
392.7322793723
  0
LINE
  5
695
100
AcDbEntity
  8
11_COMPONENT
100
AcDbLine
 62
7
  6
BYLAYER
 10
474.7033331677
 20
288.7028200448
 11
474.197570979
 21
289.1859418221
  0
LINE
  5
696
100
AcDbEntity
  8
11_COMPONENT
100
AcDbLine
 62
7
  6
BYLAYER
 10
473.7411113485
 20
289.6261115404
 11
473.7370728736
 21
289.6300233467
  0
LINE
  5
697
100
AcDbEntity
  8
11_COMPONENT
100
AcDbLine
 62
7
  6
BYLAYER
 10
473.7370728736
 20
289.6300233467
 11
473.6611939869
 21
289.7035778992
  0
LINE
  5
698
100
AcDbEntity
  8
11_COMPONENT
100
AcDbLine
 62
7
  6
BYLAYER
 10
460.455326352
 20
388.626822466
 11
460.2325547176
 21
388.3990738147
  0
LINE
  5
699
100
AcDbEntity
  8
11_COMPONENT
100
AcDbLine
 62
7
  6
BYLAYER
 10
438.9729444819
 20
340.211797519
 11
438.8851159657
 21
340.4014992275
  0
LINE
  5
69A
100
AcDbEntity
  8
11_COMPONENT
100
AcDbLine
 62
7
  6
BYLAYER
 10
438.8851159657
 20
340.4014992275
 11
438.7444025711
 21
340.704836934
  0
LINE
  5
69B
100
AcDbEntity
  8
11_COMPONENT
100
AcDbLine
 62
7
  6
BYLAYER
 10
438.7444025711
 20
340.704836934
 11
438.698067707
 21
340.8042357041
  0
LINE
  5
69C
100
AcDbEntity
  8
11_COMPONENT
100
AcDbLine
 62
7
  6
BYLAYER
 10
475.9091598224
 20
288.2284464123
 11
475.8151627408
 21
290.9165013489
  0
LINE
  5
69D
100
AcDbEntity
  8
11_COMPONENT
100
AcDbLine
 62
7
  6
BYLAYER
 10
475.6499430767
 20
392.8183818264
 11
475.637354955
 21
399.3693058677
  0
LINE
  5
69E
100
AcDbEntity
  8
11_COMPONENT
100
AcDbLine
 62
7
  6
BYLAYER
 10
475.637354955
 20
399.3693058677
 11
475.6372887419
 21
399.4300761215
  0
LINE
  5
69F
100
AcDbEntity
  8
11_COMPONENT
100
AcDbLine
 62
7
  6
BYLAYER
 10
475.6372887419
 20
399.4300761215
 11
475.6321335253
 21
402.6887236148
  0
LINE
  5
6A0
100
AcDbEntity
  8
11_COMPONENT
100
AcDbLine
 62
7
  6
BYLAYER
 10
475.6501476828
 20
392.7321848251
 11
475.6500280701
 21
392.8184271323
  0
LINE
  5
6A1
100
AcDbEntity
  8
11_COMPONENT
100
AcDbLine
 62
7
  6
BYLAYER
 10
468.2886607629
 20
295.1903985089
 11
468.121099743
 21
295.3711256539
  0
LINE
  5
6A2
100
AcDbEntity
  8
11_COMPONENT
100
AcDbLine
 62
7
  6
BYLAYER
 10
477.3789217637
 20
393.2280759841
 11
477.4113413946
 21
403.2732772899
  0
SPLINE
  5
6A3
100
AcDbEntity
  8
11_COMPONENT
100
AcDbSpline
 62
7
  6
BYLAYER
 70
0
 71
3
 72
9
 73
5
 74
0
 42
0.0000001
 43
0.0000001
 44
0.0000000001
 40
0.0
 40
0.0
 40
0.0
 40
0.0
 40
0.2543340871
 40
1.0
 40
1.0
 40
1.0
 40
1.0
 10
471.7069255131
 20
296.9525158464
 30
0.0
 10
470.9860874147
 20
297.2621728955
 30
0.0
 10
468.1594899205
 20
298.4972725211
 30
0.0
 10
465.3647074728
 20
299.805832597
 30
0.0
 10
463.3051823391
 20
300.8300127569
 30
0.0
  0
SPLINE
  5
6A4
100
AcDbEntity
  8
11_COMPONENT
100
AcDbSpline
 62
7
  6
BYLAYER
 70
0
 71
3
 72
11
 73
7
 74
0
 42
0.0000001
 43
0.0000001
 44
0.0000000001
 40
0.0
 40
0.0
 40
0.0
 40
0.0
 40
0.2077174712
 40
0.4479987387
 40
0.7140736648
 40
1.0
 40
1.0
 40
1.0
 40
1.0
 10
465.6889991788
 20
306.7780333895
 30
0.0
 10
465.1772819548
 20
306.7513831648
 30
0.0
 10
464.0660855278
 20
306.9785087903
 30
0.0
 10
462.4676071928
 20
307.7336780042
 30
0.0
 10
460.8796651575
 20
308.8919209181
 30
0.0
 10
459.958383594
 20
309.9215766431
 30
0.0
 10
459.5808932989
 20
310.5174016952
 30
0.0
  0
LINE
  5
6A5
100
AcDbEntity
  8
11_COMPONENT
100
AcDbLine
 62
7
  6
BYLAYER
 10
477.5729242162
 20
326.0278551854
 11
477.4135765215
 21
372.4833799158
  0
SPLINE
  5
6A6
100
AcDbEntity
  8
11_COMPONENT
100
AcDbSpline
 62
7
  6
BYLAYER
 70
0
 71
3
 72
9
 73
5
 74
0
 42
0.0000001
 43
0.0000001
 44
0.0000000001
 40
0.0
 40
0.0
 40
0.0
 40
0.0
 40
0.2527638274
 40
1.0
 40
1.0
 40
1.0
 40
1.0
 10
477.4135765215
 20
372.4833799158
 30
0.0
 10
477.4127183623
 20
372.7921517303
 30
0.0
 10
477.4093604133
 20
374.0137341208
 30
0.0
 10
477.4061583884
 20
375.2353169419
 30
0.0
 10
477.4038685551
 20
376.1481280684
 30
0.0
  0
LINE
  5
6A7
100
AcDbEntity
  8
11_COMPONENT
100
AcDbLine
 62
7
  6
BYLAYER
 10
477.4038685551
 20
376.1481280684
 11
477.4008698952
 21
377.3685091935
  0
SPLINE
  5
6A8
100
AcDbEntity
  8
11_COMPONENT
100
AcDbSpline
 62
7
  6
BYLAYER
 70
0
 71
3
 72
9
 73
5
 74
0
 42
0.0000001
 43
0.0000001
 44
0.0000000001
 40
0.0
 40
0.0
 40
0.0
 40
0.0
 40
0.1992745987
 40
1.0
 40
1.0
 40
1.0
 40
1.0
 10
475.7875248676
 20
291.9061285637
 30
0.0
 10
475.7784750991
 20
292.1307479187
 30
0.0
 10
475.7408513905
 20
293.2582385053
 30
0.0
 10
475.7170505133
 20
294.3861199755
 30
0.0
 10
475.6990309751
 20
295.2892381924
 30
0.0
  0
SPLINE
  5
6A9
100
AcDbEntity
  8
11_COMPONENT
100
AcDbSpline
 62
7
  6
BYLAYER
 70
0
 71
3
 72
11
 73
7
 74
0
 42
0.0000001
 43
0.0000001
 44
0.0000000001
 40
0.0
 40
0.0
 40
0.0
 40
0.0
 40
0.1678255558
 40
0.3983097844
 40
0.6802664378
 40
1.0
 40
1.0
 40
1.0
 40
1.0
 10
477.295412957
 20
294.9933780907
 30
0.0
 10
477.3564394475
 20
296.043101977
 30
0.0
 10
477.4434668472
 20
298.5375839117
 30
0.0
 10
477.5315228228
 20
302.7987598205
 30
0.0
 10
477.5870664795
 20
308.0124942401
 30
0.0
 10
477.6035566766
 20
311.7822998405
 30
0.0
 10
477.6074013403
 20
313.7855587423
 30
0.0
  0
SPLINE
  5
6AA
100
AcDbEntity
  8
11_COMPONENT
100
AcDbSpline
 62
7
  6
BYLAYER
 70
0
 71
3
 72
9
 73
5
 74
0
 42
0.0000001
 43
0.0000001
 44
0.0000000001
 40
0.0
 40
0.0
 40
0.0
 40
0.0
 40
0.2483619945
 40
1.0
 40
1.0
 40
1.0
 40
1.0
 10
477.6074013403
 20
313.7855587423
 30
0.0
 10
477.6076913728
 20
313.9366799427
 30
0.0
 10
477.6087441943
 20
314.5451516787
 30
0.0
 10
477.6093363818
 20
315.1536242062
 30
0.0
 10
477.609530054
 20
315.6109753273
 30
0.0
  0
SPLINE
  5
6AB
100
AcDbEntity
  8
11_COMPONENT
100
AcDbSpline
 62
7
  6
BYLAYER
 70
0
 71
3
 72
8
 73
4
 74
0
 42
0.0000001
 43
0.0000001
 44
0.0000000001
 40
0.0
 40
0.0
 40
0.0
 40
0.0
 40
1.0
 40
1.0
 40
1.0
 40
1.0
 10
477.609530054
 20
315.6109753273
 30
0.0
 10
477.6096998092
 20
316.0118470401
 30
0.0
 10
477.6096767788
 20
316.4127188783
 30
0.0
 10
477.6094664232
 20
316.8135905719
 30
0.0
  0
LINE
  5
6AC
100
AcDbEntity
  8
11_COMPONENT
100
AcDbLine
 62
7
  6
BYLAYER
 10
475.7891431074
 20
291.8476554533
 11
475.7887098388
 21
291.9055403428
  0
SPLINE
  5
6AD
100
AcDbEntity
  8
11_COMPONENT
100
AcDbSpline
 62
7
  6
BYLAYER
 70
0
 71
3
 72
9
 73
5
 74
0
 42
0.0000001
 43
0.0000001
 44
0.0000000001
 40
0.0
 40
0.0
 40
0.0
 40
0.0
 40
0.2308825526
 40
1.0
 40
1.0
 40
1.0
 40
1.0
 10
463.1448701528
 20
300.9059337479
 30
0.0
 10
463.1538060268
 20
300.895344806
 30
0.0
 10
463.1978269916
 20
300.8537591995
 30
0.0
 10
463.259312786
 20
300.8351434193
 30
0.0
 10
463.3051823477
 20
300.8300127671
 30
0.0
  0
SPLINE
  5
6AE
100
AcDbEntity
  8
11_COMPONENT
100
AcDbSpline
 62
7
  6
BYLAYER
 70
0
 71
3
 72
8
 73
4
 74
0
 42
0.0000001
 43
0.0000001
 44
0.0000000001
 40
0.0
 40
0.0
 40
0.0
 40
0.0
 40
1.0
 40
1.0
 40
1.0
 40
1.0
 10
468.0623830171
 20
295.3479407353
 30
0.0
 10
468.124877332
 20
295.2805518838
 30
0.0
 10
468.2040135575
 20
295.2261985995
 30
0.0
 10
468.2886607791
 20
295.1903985355
 30
0.0
  0
SPLINE
  5
6AF
100
AcDbEntity
  8
11_COMPONENT
100
AcDbSpline
 62
7
  6
BYLAYER
 70
0
 71
3
 72
9
 73
5
 74
0
 42
0.0000001
 43
0.0000001
 44
0.0000000001
 40
0.0
 40
0.0
 40
0.0
 40
0.0
 40
0.4308830325
 40
1.0
 40
1.0
 40
1.0
 40
1.0
 10
477.1484372212
 20
291.5829895008
 30
0.0
 10
477.1776220285
 20
292.0529714432
 30
0.0
 10
477.2258476538
 20
293.1448495013
 30
0.0
 10
477.2666918467
 20
294.2368990282
 30
0.0
 10
477.2888336793
 20
294.8584598982
 30
0.0
  0
SPLINE
  5
6B0
100
AcDbEntity
  8
11_COMPONENT
100
AcDbSpline
 62
7
  6
BYLAYER
 70
0
 71
3
 72
8
 73
4
 74
0
 42
0.0000001
 43
0.0000001
 44
0.0000000001
 40
0.0
 40
0.0
 40
0.0
 40
0.0
 40
1.0
 40
1.0
 40
1.0
 40
1.0
 10
439.0372066686
 20
339.6537622923
 30
0.0
 10
438.9621954527
 20
339.8253214195
 30
0.0
 10
438.9392967258
 20
340.0276045622
 30
0.0
 10
438.9729444594
 20
340.2117975226
 30
0.0
  0
SPLINE
  5
6B1
100
AcDbEntity
  8
11_COMPONENT
100
AcDbSpline
 62
7
  6
BYLAYER
 70
0
 71
3
 72
9
 73
5
 74
0
 42
0.0000001
 43
0.0000001
 44
0.0000000001
 40
0.0
 40
0.0
 40
0.0
 40
0.0
 40
0.4564896667
 40
1.0
 40
1.0
 40
1.0
 40
1.0
 10
446.1118523016
 20
325.4539272004
 30
0.0
 10
446.0712022822
 20
325.5262157965
 30
0.0
 10
446.0390773287
 20
325.717915168
 30
0.0
 10
446.1064259228
 20
325.8931678094
 30
0.0
 10
446.1544839214
 20
325.9794277311
 30
0.0
  0
LINE
  5
6B2
100
AcDbEntity
  8
11_COMPONENT
100
AcDbLine
 62
7
  6
BYLAYER
 10
470.3928306379
 20
291.3924231554
 11
470.314524735
 21
291.4722188943
  0
LINE
  5
6B3
100
AcDbEntity
  8
11_COMPONENT
100
AcDbLine
 62
7
  6
BYLAYER
 10
470.314524735
 20
291.4722188943
 11
469.7113744923
 21
292.0906311733
  0
LINE
  5
6B4
100
AcDbEntity
  8
11_COMPONENT
100
AcDbLine
 62
7
  6
BYLAYER
 10
468.1332976905
 20
293.7410141511
 11
467.9280445181
 21
293.9591905153
  0
LINE
  5
6B5
100
AcDbEntity
  8
11_COMPONENT
100
AcDbLine
 62
7
  6
BYLAYER
 10
441.6185801744
 20
331.6840818706
 11
441.5574426782
 21
331.8063740065
  0
LINE
  5
6B6
100
AcDbEntity
  8
11_COMPONENT
100
AcDbLine
 62
7
  6
BYLAYER
 10
440.40109161
 20
334.170665499
 11
440.3447048192
 21
334.2885489487
  0
LINE
  5
6B7
100
AcDbEntity
  8
11_COMPONENT
100
AcDbLine
 62
7
  6
BYLAYER
 10
440.3447048192
 20
334.2885489487
 11
440.1909174201
 21
334.6112950035
  0
SPLINE
  5
6B8
100
AcDbEntity
  8
11_COMPONENT
100
AcDbSpline
 62
7
  6
BYLAYER
 70
0
 71
3
 72
9
 73
5
 74
0
 42
0.0000001
 43
0.0000001
 44
0.0000000001
 40
0.0
 40
0.0
 40
0.0
 40
0.0
 40
0.2422991884
 40
1.0
 40
1.0
 40
1.0
 40
1.0
 10
475.6499477525
 20
392.8183768232
 30
0.0
 10
475.7775018279
 20
392.8858877458
 30
0.0
 10
476.3227310642
 20
393.1282972432
 30
0.0
 10
476.9276207195
 20
393.2289395427
 30
0.0
 10
477.3789217638
 20
393.228069171
 30
0.0
  0
SPLINE
  5
6B9
100
AcDbEntity
  8
11_COMPONENT
100
AcDbSpline
 62
7
  6
BYLAYER
 70
0
 71
3
 72
9
 73
5
 74
0
 42
0.0000001
 43
0.0000001
 44
0.0000000001
 40
0.0
 40
0.0
 40
0.0
 40
0.0
 40
0.242349001
 40
1.0
 40
1.0
 40
1.0
 40
1.0
 10
475.6503256397
 20
392.7322793723
 30
0.0
 10
475.7778487412
 20
392.799912527
 30
0.0
 10
476.3228203354
 20
393.0428809783
 30
0.0
 10
476.9274660022
 20
393.144545904
 30
0.0
 10
477.3787387978
 20
393.1445373327
 30
0.0
  0
SPLINE
  5
6BA
100
AcDbEntity
  8
11_COMPONENT
100
AcDbSpline
 62
7
  6
BYLAYER
 70
0
 71
3
 72
9
 73
5
 74
0
 42
0.0000001
 43
0.0000001
 44
0.0000000001
 40
0.0
 40
0.0
 40
0.0
 40
0.0
 40
0.2202140979
 40
1.0
 40
1.0
 40
1.0
 40
1.0
 10
475.5782747764
 20
325.9288490673
 30
0.0
 10
475.7240118233
 20
325.94505458
 30
0.0
 10
476.3873019969
 20
326.0049580516
 30
0.0
 10
477.0536869714
 20
326.0259582484
 30
0.0
 10
477.5729242162
 20
326.0278551006
 30
0.0
  0
SPLINE
  5
6BB
100
AcDbEntity
  8
11_COMPONENT
100
AcDbSpline
 62
7
  6
BYLAYER
 70
0
 71
3
 72
9
 73
5
 74
0
 42
0.0000001
 43
0.0000001
 44
0.0000000001
 40
0.0
 40
0.0
 40
0.0
 40
0.0
 40
0.2201804421
 40
1.0
 40
1.0
 40
1.0
 40
1.0
 10
475.5775967356
 20
325.7697116172
 30
0.0
 10
475.7233994108
 20
325.7864227079
 30
0.0
 10
476.387120909
 20
325.8487659712
 30
0.0
 10
477.054048853
 20
325.8726046979
 30
0.0
 10
477.5738057883
 20
325.8768604191
 30
0.0
  0
SPLINE
  5
6BC
100
AcDbEntity
  8
11_COMPONENT
100
AcDbSpline
 62
7
  6
BYLAYER
 70
0
 71
3
 72
9
 73
5
 74
0
 42
0.0000001
 43
0.0000001
 44
0.0000000001
 40
0.0
 40
0.0
 40
0.0
 40
0.0
 40
0.7476316122
 40
1.0
 40
1.0
 40
1.0
 40
1.0
 10
475.692522084
 20
295.4376367539
 30
0.0
 10
476.0512368924
 20
295.2246123115
 30
0.0
 10
476.5975171256
 20
295.0358462687
 30
0.0
 10
477.1545905092
 20
294.9947156138
 30
0.0
 10
477.295412957
 20
294.9933788364
 30
0.0
  0
SPLINE
  5
6BD
100
AcDbEntity
  8
11_COMPONENT
100
AcDbSpline
 62
7
  6
BYLAYER
 70
0
 71
3
 72
9
 73
5
 74
0
 42
0.0000001
 43
0.0000001
 44
0.0000000001
 40
0.0
 40
0.0
 40
0.0
 40
0.0
 40
0.7475370387
 40
1.0
 40
1.0
 40
1.0
 40
1.0
 10
475.6990309717
 20
295.2892381874
 30
0.0
 10
476.0556872226
 20
295.0808806508
 30
0.0
 10
476.5975531946
 20
294.8973818647
 30
0.0
 10
477.1493352439
 20
294.8592047238
 30
0.0
 10
477.2888336793
 20
294.8584598979
 30
0.0
  0
SPLINE
  5
6BE
100
AcDbEntity
  8
11_COMPONENT
100
AcDbSpline
 62
7
  6
BYLAYER
 70
0
 71
3
 72
8
 73
4
 74
0
 42
0.0000001
 43
0.0000001
 44
0.0000000001
 40
0.0
 40
0.0
 40
0.0
 40
0.0
 40
1.0
 40
1.0
 40
1.0
 40
1.0
 10
475.7875244923
 20
291.906127844
 30
0.0
 10
476.2044468361
 20
291.6974057178
 30
0.0
 10
476.6821890754
 20
291.5843424482
 30
0.0
 10
477.1484372212
 20
291.5829884863
 30
0.0
  0
SPLINE
  5
6BF
100
AcDbEntity
  8
11_COMPONENT
100
AcDbSpline
 62
7
  6
BYLAYER
 70
0
 71
3
 72
8
 73
4
 74
0
 42
0.0000001
 43
0.0000001
 44
0.0000000001
 40
0.0
 40
0.0
 40
0.0
 40
0.0
 40
1.0
 40
1.0
 40
1.0
 40
1.0
 10
475.7907505435
 20
291.8468610606
 30
0.0
 10
476.2062729805
 20
291.6404798321
 30
0.0
 10
476.6817333809
 20
291.5291426586
 30
0.0
 10
477.1456854786
 20
291.528395543
 30
0.0
  0
SPLINE
  5
6C0
100
AcDbEntity
  8
11_COMPONENT
100
AcDbSpline
 62
7
  6
BYLAYER
 70
0
 71
3
 72
18
 73
14
 74
0
 42
0.0000001
 43
0.0000001
 44
0.0000000001
 40
0.0
 40
0.0
 40
0.0
 40
0.0
 40
0.1500127286
 40
0.2145438613
 40
0.2684644722
 40
0.3147201041
 40
0.3591787842
 40
0.4061964662
 40
0.4574618406
 40
0.572900513
 40
0.70370755
 40
0.8471199573
 40
1.0
 40
1.0
 40
1.0
 40
1.0
 10
466.4787797588
 20
310.4113052023
 30
0.0
 10
466.7545367235
 20
309.8411472001
 30
0.0
 10
467.0655129341
 20
308.9675690243
 30
0.0
 10
467.1065589739
 20
307.8251739473
 30
0.0
 10
466.9242673552
 20
307.1381918857
 30
0.0
 10
466.5301654079
 20
306.6459327101
 30
0.0
 10
465.9948005923
 20
306.3828727376
 30
0.0
 10
465.3897588907
 20
306.3061103777
 30
0.0
 10
464.4868748628
 20
306.3965401063
 30
0.0
 10
463.289492297
 20
306.8241816117
 30
0.0
 10
461.8705060062
 20
307.6701117551
 30
0.0
 10
460.494724458
 20
308.8483030349
 30
0.0
 10
459.7087314523
 20
309.8394252141
 30
0.0
 10
459.3818576882
 20
310.3959825568
 30
0.0
  0
LINE
  5
6C1
100
AcDbEntity
  8
11_COMPONENT
100
AcDbLine
 62
7
  6
BYLAYER
 10
476.9883862594
 20
288.0276016952
 11
477.0658356572
 21
289.5773107161
  0
LINE
  5
6C2
100
AcDbEntity
  8
11_COMPONENT
100
AcDbLine
 62
7
  6
BYLAYER
 10
477.0658356572
 20
289.5773107161
 11
477.0749637761
 21
289.7790658565
  0
LINE
  5
6C3
100
AcDbEntity
  8
11_COMPONENT
100
AcDbLine
 62
7
  6
BYLAYER
 10
477.0749637761
 20
289.7790658565
 11
477.087793341
 21
290.0703580629
  0
SPLINE
  5
6C4
100
AcDbEntity
  8
11_COMPONENT
100
AcDbSpline
 62
7
  6
BYLAYER
 70
0
 71
3
 72
15
 73
11
 74
0
 42
0.0000001
 43
0.0000001
 44
0.0000000001
 40
0.0
 40
0.0
 40
0.0
 40
0.0
 40
0.1624574274
 40
0.3183719895
 40
0.4587350341
 40
0.5799819387
 40
0.6876336213
 40
0.7899780198
 40
0.8929947175
 40
1.0
 40
1.0
 40
1.0
 40
1.0
 10
459.3818576882
 20
310.3959825568
 30
0.0
 10
459.2158272323
 20
310.6786085086
 30
0.0
 10
458.9299381837
 20
311.2576310108
 30
0.0
 10
458.6837606634
 20
312.1575499452
 30
0.0
 10
458.6763824089
 20
313.0127272159
 30
0.0
 10
458.9214935367
 20
313.7339435079
 30
0.0
 10
459.3641968105
 20
314.2548006581
 30
0.0
 10
459.9224443773
 20
314.5723520685
 30
0.0
 10
460.5423386016
 20
314.7182415531
 30
0.0
 10
460.9694912683
 20
314.7194884361
 30
0.0
 10
461.1845758346
 20
314.7007236366
 30
0.0
  0
SPLINE
  5
6C5
100
AcDbEntity
  8
11_COMPONENT
100
AcDbSpline
 62
7
  6
BYLAYER
 70
0
 71
3
 72
11
 73
7
 74
0
 42
0.0000001
 43
0.0000001
 44
0.0000000001
 40
0.0
 40
0.0
 40
0.0
 40
0.0
 40
0.2098692937
 40
0.4470299116
 40
0.7125489006
 40
1.0
 40
1.0
 40
1.0
 40
1.0
 10
461.2975791341
 20
314.689080802
 30
0.0
 10
461.7807583511
 20
314.6317444033
 30
0.0
 10
462.7875308858
 20
314.3108216377
 30
0.0
 10
464.1876122832
 20
313.4093599334
 30
0.0
 10
465.4865318423
 20
312.0996003908
 30
0.0
 10
466.1885594074
 20
311.0112316
 30
0.0
 10
466.4787797588
 20
310.4113052023
 30
0.0
  0
SPLINE
  5
6C6
100
AcDbEntity
  8
11_COMPONENT
100
AcDbSpline
 62
7
  6
BYLAYER
 70
0
 71
3
 72
15
 73
11
 74
0
 42
0.0000001
 43
0.0000001
 44
0.0000000001
 40
0.0
 40
0.0
 40
0.0
 40
0.0
 40
0.1602183714
 40
0.3143151472
 40
0.4531815972
 40
0.5735560673
 40
0.6816953793
 40
0.7857678147
 40
0.8909974959
 40
1.0
 40
1.0
 40
1.0
 40
1.0
 10
459.5808932989
 20
310.5174016952
 30
0.0
 10
459.4197090049
 20
310.7717687164
 30
0.0
 10
459.1393676242
 20
311.2954487941
 30
0.0
 10
458.8908617175
 20
312.1179554693
 30
0.0
 10
458.8757332396
 20
312.9083034687
 30
0.0
 10
459.1121068593
 20
313.5753233921
 30
0.0
 10
459.5377123439
 20
314.0523788155
 30
0.0
 10
460.0679240385
 20
314.3450414531
 30
0.0
 10
460.65437779
 20
314.4876035622
 30
0.0
 10
461.0595603938
 20
314.4995584054
 30
0.0
 10
461.2641448759
 20
314.4886691717
 30
0.0
  0
LINE
  5
6C7
100
AcDbEntity
  8
11_COMPONENT
100
AcDbLine
 62
7
  6
BYLAYER
 10
463.3051823391
 20
300.8300127569
 11
463.203281346
 21
300.9520838423
  0
SPLINE
  5
6C8
100
AcDbEntity
  8
11_COMPONENT
100
AcDbSpline
 62
7
  6
BYLAYER
 70
0
 71
3
 72
9
 73
5
 74
0
 42
0.0000001
 43
0.0000001
 44
0.0000000001
 40
0.0
 40
0.0
 40
0.0
 40
0.0
 40
0.5598735769
 40
1.0
 40
1.0
 40
1.0
 40
1.0
 10
475.5782744239
 20
325.9288491139
 30
0.0
 10
470.0944453913
 20
326.2523524024
 30
0.0
 10
460.2774729838
 20
326.5148924862
 30
0.0
 10
450.4671176515
 20
326.2030737286
 30
0.0
 10
446.1544839898
 20
325.9794277282
 30
0.0
  0
SPLINE
  5
6C9
100
AcDbEntity
  8
11_COMPONENT
100
AcDbSpline
 62
7
  6
BYLAYER
 70
0
 71
3
 72
13
 73
9
 74
0
 42
0.0000001
 43
0.0000001
 44
0.0000000001
 40
0.0
 40
0.0
 40
0.0
 40
0.0
 40
0.1217865682
 40
0.2451161333
 40
0.3696967992
 40
0.4952258077
 40
0.7473864481
 40
1.0
 40
1.0
 40
1.0
 40
1.0
 10
592.8915277622
 20
296.9162778917
 30
0.0
 10
591.7042552525
 20
297.6242832755
 30
0.0
 10
589.4101946693
 20
299.2175687141
 30
0.0
 10
586.3287178535
 20
302.0856087757
 30
0.0
 10
583.6552010198
 20
305.3944333515
 30
0.0
 10
580.7386697022
 20
310.3126935505
 30
0.0
 10
578.4663112945
 20
317.2079300724
 30
0.0
 10
578.3177475544
 20
323.0300587129
 30
0.0
 10
578.6600572445
 20
325.8768634943
 30
0.0
  0
LINE
  5
6CA
100
AcDbEntity
  8
11_COMPONENT
100
AcDbLine
 62
7
  6
BYLAYER
 10
600.6405181796
 20
293.5233321276
 11
600.5103913514
 21
293.5674450487
  0
LINE
  5
6CB
100
AcDbEntity
  8
11_COMPONENT
100
AcDbLine
 62
7
  6
BYLAYER
 10
628.9364415186
 20
288.4889401677
 11
628.7180635733
 21
288.5058937563
  0
LINE
  5
6CC
100
AcDbEntity
  8
11_COMPONENT
100
AcDbLine
 62
7
  6
BYLAYER
 10
653.3575577643
 20
288.5054322429
 11
653.1396251141
 21
288.4885211282
  0
LINE
  5
6CD
100
AcDbEntity
  8
11_COMPONENT
100
AcDbLine
 62
7
  6
BYLAYER
 10
681.5718692779
 20
293.5676988694
 11
681.4402450808
 21
293.5230783459
  0
SPLINE
  5
6CE
100
AcDbEntity
  8
11_COMPONENT
100
AcDbSpline
 62
7
  6
BYLAYER
 70
0
 71
3
 72
13
 73
9
 74
0
 42
0.0000001
 43
0.0000001
 44
0.0000000001
 40
0.0
 40
0.0
 40
0.0
 40
0.0
 40
0.2526135938
 40
0.5047742627
 40
0.6303032751
 40
0.7548839337
 40
0.8782134731
 40
1.0
 40
1.0
 40
1.0
 40
1.0
 10
703.4214572445
 20
325.8768634943
 30
0.0
 10
703.7637687274
 20
323.0300438032
 30
0.0
 10
703.6151997504
 20
317.2078839539
 30
0.0
 10
701.3428134161
 20
310.3126157619
 30
0.0
 10
698.4262499993
 20
305.3943403645
 30
0.0
 10
695.7527061412
 20
302.0855101198
 30
0.0
 10
692.6712001498
 20
299.2174711037
 30
0.0
 10
690.3771196739
 20
297.6241906551
 30
0.0
 10
689.1898374127
 20
296.9161888519
 30
0.0
  0
LINE
  5
6CF
100
AcDbEntity
  8
11_COMPONENT
100
AcDbLine
 62
7
  6
BYLAYER
 10
650.8582653924
 20
402.1441383638
 11
650.7629304881
 21
402.1728113824
  0
LINE
  5
6D0
100
AcDbEntity
  8
11_COMPONENT
100
AcDbLine
 62
7
  6
BYLAYER
 10
650.7629304881
 20
402.1728113824
 11
650.7407572445
 21
402.1794443242
  0
LINE
  5
6D1
100
AcDbEntity
  8
11_COMPONENT
100
AcDbLine
 62
7
  6
BYLAYER
 10
631.3407572445
 20
402.1794443242
 11
631.3185841664
 21
402.172811432
  0
LINE
  5
6D2
100
AcDbEntity
  8
11_COMPONENT
100
AcDbLine
 62
7
  6
BYLAYER
 10
631.3185841664
 20
402.172811432
 11
631.2232492133
 21
402.1441383991
  0
LINE
  5
6D3
100
AcDbEntity
  8
11_COMPONENT
100
AcDbLine
 62
7
  6
BYLAYER
 10
634.457544519
 20
402.8146518938
 11
634.5089595257
 21
402.8230230579
  0
LINE
  5
6D4
100
AcDbEntity
  8
11_COMPONENT
100
AcDbLine
 62
7
  6
BYLAYER
 10
634.5089595257
 20
402.8230230579
 11
634.5372856805
 21
402.8276062431
  0
LINE
  5
6D5
100
AcDbEntity
  8
11_COMPONENT
100
AcDbLine
 62
7
  6
BYLAYER
 10
647.5442288085
 20
402.8276062431
 11
647.5725549633
 21
402.8230230579
  0
LINE
  5
6D6
100
AcDbEntity
  8
11_COMPONENT
100
AcDbLine
 62
7
  6
BYLAYER
 10
647.5725549633
 20
402.8230230579
 11
647.6239699702
 21
402.8146518937
  0
SPLINE
  5
6D7
100
AcDbEntity
  8
11_COMPONENT
100
AcDbSpline
 62
7
  6
BYLAYER
 70
0
 71
3
 72
13
 73
9
 74
0
 42
0.0000001
 43
0.0000001
 44
0.0000000001
 40
0.0
 40
0.0
 40
0.0
 40
0.0
 40
0.2534926133
 40
0.5055801254
 40
0.6308893041
 40
0.7552143548
 40
0.8783254473
 40
1.0
 40
1.0
 40
1.0
 40
1.0
 10
703.4214572445
 20
325.8768814433
 30
0.0
 10
703.7649580687
 20
323.0201698127
 30
0.0
 10
703.6131481465
 20
317.1880774056
 30
0.0
 10
701.331988886
 20
310.2887901133
 30
0.0
 10
698.4146681658
 20
305.3783344451
 30
0.0
 10
695.7444861449
 20
302.0770467911
 30
0.0
 10
692.6670322197
 20
299.2145598475
 30
0.0
 10
690.3760688567
 20
297.6234576556
 30
0.0
 10
689.1898816141
 20
296.9161144745
 30
0.0
  0
LINE
  5
6D8
100
AcDbEntity
  8
11_COMPONENT
100
AcDbLine
 62
7
  6
BYLAYER
 10
681.5720421734
 20
293.5671917255
 11
681.4404223865
 21
293.5225540827
  0
LINE
  5
6D9
100
AcDbEntity
  8
11_COMPONENT
100
AcDbLine
 62
7
  6
BYLAYER
 10
653.3575525221
 20
288.5054982033
 11
653.1396194465
 21
288.4885929714
  0
LINE
  5
6DA
100
AcDbEntity
  8
11_COMPONENT
100
AcDbLine
 62
7
  6
BYLAYER
 10
628.9364471778
 20
288.4890118644
 11
628.7180688057
 21
288.5059595568
  0
LINE
  5
6DB
100
AcDbEntity
  8
11_COMPONENT
100
AcDbLine
 62
7
  6
BYLAYER
 10
600.640340901
 20
293.5228079583
 11
600.5102184324
 21
293.5669378042
  0
SPLINE
  5
6DC
100
AcDbEntity
  8
11_COMPONENT
100
AcDbSpline
 62
7
  6
BYLAYER
 70
0
 71
3
 72
13
 73
9
 74
0
 42
0.0000001
 43
0.0000001
 44
0.0000000001
 40
0.0
 40
0.0
 40
0.0
 40
0.0
 40
0.1216745883
 40
0.2447857037
 40
0.3691107616
 40
0.4944199378
 40
0.7465074262
 40
1.0
 40
1.0
 40
1.0
 40
1.0
 10
592.8914835599
 20
296.9162035141
 30
0.0
 10
591.7053061173
 20
297.6235502433
 30
0.0
 10
589.4143626962
 20
299.2146573588
 30
0.0
 10
586.3369379393
 20
302.0771452578
 30
0.0
 10
583.6667828958
 20
305.378427248
 30
0.0
 10
580.7494941754
 20
310.2888677939
 30
0.0
 10
578.4683628723
 20
317.1881235204
 30
0.0
 10
578.3165582157
 20
323.0201847444
 30
0.0
 10
578.6600572445
 20
325.8768814433
 30
0.0
  0
SPLINE
  5
6DD
100
AcDbEntity
  8
11_COMPONENT
100
AcDbSpline
 62
7
  6
BYLAYER
 70
0
 71
3
 72
9
 73
5
 74
0
 42
0.0000001
 43
0.0000001
 44
0.0000000001
 40
0.0
 40
0.0
 40
0.0
 40
0.0
 40
0.5000117115
 40
1.0
 40
1.0
 40
1.0
 40
1.0
 10
597.0361782887
 20
295.7574827128
 30
0.0
 10
598.7775767558
 20
295.0358168819
 30
0.0
 10
602.3306032827
 20
293.7589598293
 30
0.0
 10
605.9792123176
 20
292.7883866067
 30
0.0
 10
607.8218903512
 20
292.3915554602
 30
0.0
  0
SPLINE
  5
6DE
100
AcDbEntity
  8
11_COMPONENT
100
AcDbSpline
 62
7
  6
BYLAYER
 70
0
 71
3
 72
11
 73
7
 74
0
 42
0.0000001
 43
0.0000001
 44
0.0000000001
 40
0.0
 40
0.0
 40
0.0
 40
0.0
 40
0.2500095231
 40
0.500027709
 40
0.7500223686
 40
1.0
 40
1.0
 40
1.0
 40
1.0
 10
614.4915645571
 20
392.9701503455
 30
0.0
 10
609.6231373277
 20
388.718800504
 30
0.0
 10
600.6455927189
 20
379.299149763
 30
0.0
 10
589.9966882806
 20
362.9694034191
 30
0.0
 10
582.4996609552
 20
344.9743163959
 30
0.0
 10
579.7719086729
 20
332.2523911369
 30
0.0
 10
579.0003815227
 20
325.836033311
 30
0.0
  0
SPLINE
  5
6DF
100
AcDbEntity
  8
11_COMPONENT
100
AcDbSpline
 62
7
  6
BYLAYER
 70
0
 71
3
 72
11
 73
7
 74
0
 42
0.0000001
 43
0.0000001
 44
0.0000000001
 40
0.0
 40
0.0
 40
0.0
 40
0.0
 40
0.2500106069
 40
0.4999906274
 40
0.7499941625
 40
1.0
 40
1.0
 40
1.0
 40
1.0
 10
579.0003815228
 20
325.836033311
 30
0.0
 10
578.6242769979
 20
322.7081590438
 30
0.0
 10
578.8942758622
 20
316.2823539795
 30
0.0
 10
582.3479312715
 20
307.3119486742
 30
0.0
 10
588.4718774434
 20
299.9029905716
 30
0.0
 10
593.9397669324
 20
296.5163685363
 30
0.0
 10
596.8501113538
 20
295.3103135126
 30
0.0
  0
SPLINE
  5
6E0
100
AcDbEntity
  8
11_COMPONENT
100
AcDbSpline
 62
7
  6
BYLAYER
 70
0
 71
3
 72
9
 73
5
 74
0
 42
0.0000001
 43
0.0000001
 44
0.0000000001
 40
0.0
 40
0.0
 40
0.0
 40
0.0
 40
0.5000117244
 40
1.0
 40
1.0
 40
1.0
 40
1.0
 10
596.8501113512
 20
295.3103135089
 30
0.0
 10
598.6051142832
 20
294.5830222354
 30
0.0
 10
602.1858298249
 20
293.2960215368
 30
0.0
 10
605.8629728228
 20
292.3180036219
 30
0.0
 10
607.7200369535
 20
291.918050858
 30
0.0
  0
SPLINE
  5
6E1
100
AcDbEntity
  8
11_COMPONENT
100
AcDbSpline
 62
7
  6
BYLAYER
 70
0
 71
3
 72
11
 73
7
 74
0
 42
0.0000001
 43
0.0000001
 44
0.0000000001
 40
0.0
 40
0.0
 40
0.0
 40
0.0
 40
0.2499993454
 40
0.4999986029
 40
0.7499979
 40
1.0
 40
1.0
 40
1.0
 40
1.0
 10
607.7200369534
 20
291.918050858
 30
0.0
 10
610.4546751031
 20
291.3290590355
 30
0.0
 10
615.955531594
 20
290.2914122923
 30
0.0
 10
624.2785443809
 20
289.1880448598
 30
0.0
 10
632.6473433099
 20
288.5147994901
 30
0.0
 10
638.2433781819
 20
288.3703712478
 30
0.0
 10
641.0407572445
 20
288.3703686407
 30
0.0
  0
SPLINE
  5
6E2
100
AcDbEntity
  8
11_COMPONENT
100
AcDbSpline
 62
7
  6
BYLAYER
 70
0
 71
3
 72
11
 73
7
 74
0
 42
0.0000001
 43
0.0000001
 44
0.0000000001
 40
0.0
 40
0.0
 40
0.0
 40
0.0
 40
0.2500020872
 40
0.5000013813
 40
0.7500006556
 40
1.0
 40
1.0
 40
1.0
 40
1.0
 10
641.0407572445
 20
288.3703686407
 30
0.0
 10
643.8381371715
 20
288.3703730116
 30
0.0
 10
649.4341739094
 20
288.5147984114
 30
0.0
 10
657.802975738
 20
289.1880465811
 30
0.0
 10
666.1259917329
 20
290.2914134443
 30
0.0
 10
671.6268503638
 20
291.3290609043
 30
0.0
 10
674.3614893865
 20
291.9180534104
 30
0.0
  0
SPLINE
  5
6E3
100
AcDbEntity
  8
11_COMPONENT
100
AcDbSpline
 62
7
  6
BYLAYER
 70
0
 71
3
 72
9
 73
5
 74
0
 42
0.0000001
 43
0.0000001
 44
0.0000000001
 40
0.0
 40
0.0
 40
0.0
 40
0.0
 40
0.4999882011
 40
1.0
 40
1.0
 40
1.0
 40
1.0
 10
674.3614893864
 20
291.9180534105
 30
0.0
 10
676.2185274494
 20
292.3179888918
 30
0.0
 10
679.8956118618
 20
293.2960061445
 30
0.0
 10
683.4762740314
 20
294.5829806153
 30
0.0
 10
685.2312543548
 20
295.3102518531
 30
0.0
  0
SPLINE
  5
6E4
100
AcDbEntity
  8
11_COMPONENT
100
AcDbSpline
 62
7
  6
BYLAYER
 70
0
 71
3
 72
11
 73
7
 74
0
 42
0.0000001
 43
0.0000001
 44
0.0000000001
 40
0.0
 40
0.0
 40
0.0
 40
0.0
 40
0.250005049
 40
0.500008036
 40
0.7499904963
 40
1.0
 40
1.0
 40
1.0
 40
1.0
 10
685.2312543534
 20
295.3102518554
 30
0.0
 10
688.1416848399
 20
296.5163298001
 30
0.0
 10
693.6097427592
 20
299.9030437943
 30
0.0
 10
699.7338177198
 20
307.3123090124
 30
0.0
 10
703.1874367161
 20
316.2830879244
 30
0.0
 10
703.4571830174
 20
322.7091163965
 30
0.0
 10
703.0810086276
 20
325.8370671891
 30
0.0
  0
SPLINE
  5
6E5
100
AcDbEntity
  8
11_COMPONENT
100
AcDbSpline
 62
7
  6
BYLAYER
 70
0
 71
3
 72
11
 73
7
 74
0
 42
0.0000001
 43
0.0000001
 44
0.0000000001
 40
0.0
 40
0.0
 40
0.0
 40
0.0
 40
0.2500235709
 40
0.5000541899
 40
0.7500459767
 40
1.0
 40
1.0
 40
1.0
 40
1.0
 10
703.0810086432
 20
325.8370671894
 30
0.0
 10
702.3091414904
 20
332.2545023012
 30
0.0
 10
699.5797477812
 20
344.9781254191
 30
0.0
 10
692.0813860109
 20
362.973897561
 30
0.0
 10
681.4329489117
 20
379.302213303
 30
0.0
 10
672.4569267216
 20
388.7201449195
 30
0.0
 10
667.5896000285
 20
392.9704558989
 30
0.0
  0
LINE
  5
6E6
100
AcDbEntity
  8
11_COMPONENT
100
AcDbLine
 62
7
  6
BYLAYER
 10
647.545739363
 20
402.7501193577
 11
647.6089637095
 21
402.7398401153
  0
LINE
  5
6E7
100
AcDbEntity
  8
11_COMPONENT
100
AcDbLine
 62
7
  6
BYLAYER
 10
647.5357455997
 20
402.7199261631
 11
647.5930013799
 21
402.7106289009
  0
SPLINE
  5
6E8
100
AcDbEntity
  8
11_COMPONENT
100
AcDbSpline
 62
7
  6
BYLAYER
 70
0
 71
3
 72
10
 73
6
 74
0
 42
0.0000001
 43
0.0000001
 44
0.0000000001
 40
0.0
 40
0.0
 40
0.0
 40
0.0
 40
0.2502496999
 40
0.5004974306
 40
1.0
 40
1.0
 40
1.0
 40
1.0
 10
667.5896000248
 20
392.9704558961
 30
0.0
 10
666.3046854465
 20
394.0924177542
 30
0.0
 10
663.5906795163
 20
396.1789421671
 30
0.0
 10
657.6907265752
 20
399.6164173536
 30
0.0
 10
652.7990250535
 20
401.3301028272
 30
0.0
 10
649.4692132593
 20
402.0409137254
 30
0.0
  0
SPLINE
  5
6E9
100
AcDbEntity
  8
11_COMPONENT
100
AcDbSpline
 62
7
  6
BYLAYER
 70
0
 71
3
 72
10
 73
6
 74
0
 42
0.0000001
 43
0.0000001
 44
0.0000000001
 40
0.0
 40
0.0
 40
0.0
 40
0.0
 40
0.4995025699
 40
0.7497503235
 40
1.0
 40
1.0
 40
1.0
 40
1.0
 10
632.6122622689
 20
402.0409054101
 30
0.0
 10
629.2823796307
 20
401.3300893364
 30
0.0
 10
624.3905843307
 20
399.6163332193
 30
0.0
 10
618.4905323783
 20
396.1787475359
 30
0.0
 10
615.7764960492
 20
394.0921461845
 30
0.0
 10
614.4915645577
 20
392.970150345
 30
0.0
  0
LINE
  5
6EA
100
AcDbEntity
  8
11_COMPONENT
100
AcDbLine
 62
7
  6
BYLAYER
 10
634.488513101
 20
402.7106288996
 11
634.5457688893
 21
402.7199261631
  0
LINE
  5
6EB
100
AcDbEntity
  8
11_COMPONENT
100
AcDbLine
 62
7
  6
BYLAYER
 10
634.4725636386
 20
402.7398422164
 11
634.5380350472
 21
402.7504848968
  0
SPLINE
  5
6EC
100
AcDbEntity
  8
11_COMPONENT
100
AcDbSpline
 62
7
  6
BYLAYER
 70
0
 71
3
 72
14
 73
10
 74
0
 42
0.0000001
 43
0.0000001
 44
0.0000000001
 40
0.0
 40
0.0
 40
0.0
 40
0.0
 40
0.0231809667
 40
0.0823661619
 40
0.1761083513
 40
0.3007435778
 40
0.4514498654
 40
0.6225454251
 40
1.0
 40
1.0
 40
1.0
 40
1.0
 10
634.5407572445
 20
402.6659817985
 30
0.0
 10
634.5407572445
 20
402.6738889939
 30
0.0
 10
634.5773094815
 20
402.6841404008
 30
0.0
 10
634.6253229801
 20
402.7031192178
 30
0.0
 10
634.7221799437
 20
402.7254754153
 30
0.0
 10
634.8431563637
 20
402.7525126537
 30
0.0
 10
634.9933805645
 20
402.781490629
 30
0.0
 10
635.2280011012
 20
402.8228350868
 30
0.0
 10
635.4131862656
 20
402.8507418008
 30
0.0
 10
635.5407572445
 20
402.8681443368
 30
0.0
  0
SPLINE
  5
6ED
100
AcDbEntity
  8
11_COMPONENT
100
AcDbSpline
 62
7
  6
BYLAYER
 70
0
 71
3
 72
11
 73
7
 74
0
 42
0.0000001
 43
0.0000001
 44
0.0000000001
 40
0.0
 40
0.0
 40
0.0
 40
0.0
 40
0.2500105661
 40
0.4999905828
 40
0.7499941313
 40
1.0
 40
1.0
 40
1.0
 40
1.0
 10
579.4812442593
 20
325.7781390944
 30
0.0
 10
579.1113753926
 20
322.7019863673
 30
0.0
 10
579.3769823058
 20
316.3824423974
 30
0.0
 10
582.7735798164
 20
307.5603944728
 30
0.0
 10
588.7963926886
 20
300.2740372954
 30
0.0
 10
594.1739468519
 20
296.9435640996
 30
0.0
 10
597.0361782887
 20
295.7574827128
 30
0.0
  0
SPLINE
  5
6EE
100
AcDbEntity
  8
11_COMPONENT
100
AcDbSpline
 62
7
  6
BYLAYER
 70
0
 71
3
 72
11
 73
7
 74
0
 42
0.0000001
 43
0.0000001
 44
0.0000000001
 40
0.0
 40
0.0
 40
0.0
 40
0.0
 40
0.2500095356
 40
0.5000277191
 40
0.7500223733
 40
1.0
 40
1.0
 40
1.0
 40
1.0
 10
614.8098997828
 20
392.6051250129
 30
0.0
 10
609.9637376609
 20
388.3732434793
 30
0.0
 10
601.0273231919
 20
378.9966424815
 30
0.0
 10
590.4271898634
 20
362.7416003713
 30
0.0
 10
582.9644976157
 20
344.8288466617
 30
0.0
 10
580.2492386927
 20
332.165135848
 30
0.0
 10
579.4812442593
 20
325.7781390944
 30
0.0
  0
SPLINE
  5
6EF
100
AcDbEntity
  8
11_COMPONENT
100
AcDbSpline
 62
7
  6
BYLAYER
 70
0
 71
3
 72
14
 73
10
 74
0
 42
0.0000001
 43
0.0000001
 44
0.0000000001
 40
0.0
 40
0.0
 40
0.0
 40
0.0
 40
0.3774666068
 40
0.5485634793
 40
0.699268494
 40
0.8238994786
 40
0.917637263
 40
0.9768197132
 40
1.0
 40
1.0
 40
1.0
 40
1.0
 10
646.5407572445
 20
402.8681440177
 30
0.0
 10
646.6683322863
 20
402.8507409273
 30
0.0
 10
646.8535220058
 20
402.8228338642
 30
0.0
 10
647.0881465134
 20
402.7814882728
 30
0.0
 10
647.2383692485
 20
402.7525103398
 30
0.0
 10
647.3593424025
 20
402.7254736359
 30
0.0
 10
647.4561952074
 20
402.7031179793
 30
0.0
 10
647.5042067083
 20
402.6841400299
 30
0.0
 10
647.5407572445
 20
402.6738887618
 30
0.0
 10
647.5407572445
 20
402.6659817985
 30
0.0
  0
SPLINE
  5
6F0
100
AcDbEntity
  8
11_COMPONENT
100
AcDbSpline
 62
7
  6
BYLAYER
 70
0
 71
3
 72
10
 73
6
 74
0
 42
0.0000001
 43
0.0000001
 44
0.0000000001
 40
0.0
 40
0.0
 40
0.0
 40
0.0
 40
0.49950066
 40
0.7497493195
 40
1.0
 40
1.0
 40
1.0
 40
1.0
 10
632.7133542756
 20
401.5672410285
 30
0.0
 10
629.4234270003
 20
400.8648331224
 30
0.0
 10
624.5904394885
 20
399.1713430798
 30
0.0
 10
618.7608452544
 20
395.7754128152
 30
0.0
 10
616.0794638618
 20
393.7136394439
 30
0.0
 10
614.8098997828
 20
392.6051250129
 30
0.0
  0
SPLINE
  5
6F1
100
AcDbEntity
  8
11_COMPONENT
100
AcDbSpline
 62
7
  6
BYLAYER
 70
0
 71
3
 72
10
 73
6
 74
0
 42
0.0000001
 43
0.0000001
 44
0.0000000001
 40
0.0
 40
0.0
 40
0.0
 40
0.0
 40
0.250250684
 40
0.5004993306
 40
1.0
 40
1.0
 40
1.0
 40
1.0
 10
667.2716147062
 20
392.6051250129
 30
0.0
 10
666.0020417824
 20
393.7136346219
 30
0.0
 10
663.3206652866
 20
395.7754228065
 30
0.0
 10
657.4910611792
 20
399.1713723185
 30
0.0
 10
652.6580512878
 20
400.8648186145
 30
0.0
 10
649.3681217215
 20
401.5672492437
 30
0.0
  0
SPLINE
  5
6F2
100
AcDbEntity
  8
11_COMPONENT
100
AcDbSpline
 62
7
  6
BYLAYER
 70
0
 71
3
 72
11
 73
7
 74
0
 42
0.0000001
 43
0.0000001
 44
0.0000000001
 40
0.0
 40
0.0
 40
0.0
 40
0.0
 40
0.250023606
 40
0.5000542244
 40
0.7500459789
 40
1.0
 40
1.0
 40
1.0
 40
1.0
 10
702.6002702297
 20
325.7781390944
 30
0.0
 10
701.8317932514
 20
332.1662399857
 30
0.0
 10
699.1153590349
 20
344.8318154754
 30
0.0
 10
691.6511952367
 20
362.7453923336
 30
0.0
 10
681.0516091168
 20
378.9991992516
 30
0.0
 10
672.1167357379
 20
388.3742679121
 30
0.0
 10
667.2716147062
 20
392.6051250129
 30
0.0
  0
SPLINE
  5
6F3
100
AcDbEntity
  8
11_COMPONENT
100
AcDbSpline
 62
7
  6
BYLAYER
 70
0
 71
3
 72
11
 73
7
 74
0
 42
0.0000001
 43
0.0000001
 44
0.0000000001
 40
0.0
 40
0.0
 40
0.0
 40
0.0
 40
0.250005052
 40
0.5000080498
 40
0.7499905281
 40
1.0
 40
1.0
 40
1.0
 40
1.0
 10
685.0453362003
 20
295.7574827128
 30
0.0
 10
687.9075592483
 20
296.943556036
 30
0.0
 10
693.2850853136
 20
300.2740408095
 30
0.0
 10
699.3079159379
 20
307.5603891049
 30
0.0
 10
702.7045419503
 20
316.3824398264
 30
0.0
 10
702.9701451841
 20
322.7020014771
 30
0.0
 10
702.6002702297
 20
325.7781390944
 30
0.0
  0
SPLINE
  5
6F4
100
AcDbEntity
  8
11_COMPONENT
100
AcDbSpline
 62
7
  6
BYLAYER
 70
0
 71
3
 72
9
 73
5
 74
0
 42
0.0000001
 43
0.0000001
 44
0.0000000001
 40
0.0
 40
0.0
 40
0.0
 40
0.0
 40
0.4999882199
 40
1.0
 40
1.0
 40
1.0
 40
1.0
 10
674.2596241378
 20
292.3915554602
 30
0.0
 10
676.1023066035
 20
292.7883647492
 30
0.0
 10
679.7509108632
 20
293.7589655447
 30
0.0
 10
683.3039321667
 20
295.0358296661
 30
0.0
 10
685.0453362003
 20
295.7574827128
 30
0.0
  0
SPLINE
  5
6F5
100
AcDbEntity
  8
11_COMPONENT
100
AcDbSpline
 62
7
  6
BYLAYER
 70
0
 71
3
 72
8
 73
4
 74
0
 42
0.0000001
 43
0.0000001
 44
0.0000000001
 40
0.0
 40
0.0
 40
0.0
 40
0.0
 40
1.0
 40
1.0
 40
1.0
 40
1.0
 10
649.5564795783
 20
386.3413630068
 30
0.0
 10
649.5564795788
 20
386.5424591644
 30
0.0
 10
649.4903036949
 20
386.7520361442
 30
0.0
 10
649.3747807524
 20
386.9166390431
 30
0.0
  0
SPLINE
  5
6F6
100
AcDbEntity
  8
11_COMPONENT
100
AcDbSpline
 62
7
  6
BYLAYER
 70
0
 71
3
 72
8
 73
4
 74
0
 42
0.0000001
 43
0.0000001
 44
0.0000000001
 40
0.0
 40
0.0
 40
0.0
 40
0.0
 40
1.0
 40
1.0
 40
1.0
 40
1.0
 10
632.8886722008
 20
387.113708209
 30
0.0
 10
632.7929831857
 20
387.0344360482
 30
0.0
 10
632.7108093673
 20
386.9355551235
 30
0.0
 10
632.6505864577
 20
386.826864442
 30
0.0
  0
SPLINE
  5
6F7
100
AcDbEntity
  8
11_COMPONENT
100
AcDbSpline
 62
7
  6
BYLAYER
 70
0
 71
3
 72
8
 73
4
 74
0
 42
0.0000001
 43
0.0000001
 44
0.0000000001
 40
0.0
 40
0.0
 40
0.0
 40
0.0
 40
1.0
 40
1.0
 40
1.0
 40
1.0
 10
632.6505864577
 20
386.826864442
 30
0.0
 10
632.5695729224
 20
386.6806507101
 30
0.0
 10
632.5250349102
 20
386.508520562
 30
0.0
 10
632.5250349107
 20
386.3413630068
 30
0.0
  0
SPLINE
  5
6F8
100
AcDbEntity
  8
11_COMPONENT
100
AcDbSpline
 62
7
  6
BYLAYER
 70
0
 71
3
 72
11
 73
7
 74
0
 42
0.0000001
 43
0.0000001
 44
0.0000000001
 40
0.0
 40
0.0
 40
0.0
 40
0.0
 40
0.2500020859
 40
0.5000013797
 40
0.7500006547
 40
1.0
 40
1.0
 40
1.0
 40
1.0
 10
641.0407572445
 20
288.8547039651
 30
0.0
 10
643.8295854513
 20
288.8547126335
 30
0.0
 10
649.4085153948
 20
288.9986801415
 30
0.0
 10
657.7517317087
 20
289.6698917106
 30
0.0
 10
666.0493066318
 20
290.7698664629
 30
0.0
 10
671.533344458
 20
291.8043660903
 30
0.0
 10
674.2596241378
 20
292.3915554602
 30
0.0
  0
SPLINE
  5
6F9
100
AcDbEntity
  8
11_COMPONENT
100
AcDbSpline
 62
7
  6
BYLAYER
 70
0
 71
3
 72
11
 73
7
 74
0
 42
0.0000001
 43
0.0000001
 44
0.0000000001
 40
0.0
 40
0.0
 40
0.0
 40
0.0
 40
0.2499993445
 40
0.4999986026
 40
0.7499979016
 40
1.0
 40
1.0
 40
1.0
 40
1.0
 10
607.8218903512
 20
292.3915554602
 30
0.0
 10
610.548170201
 20
291.8043668158
 30
0.0
 10
616.0322079044
 20
290.7698682981
 30
0.0
 10
624.3297817159
 20
289.6698843887
 30
0.0
 10
632.6729988143
 20
288.9986821553
 30
0.0
 10
638.2519288754
 20
288.8547091606
 30
0.0
 10
641.0407572445
 20
288.8547039651
 30
0.0
  0
SPLINE
  5
6FA
100
AcDbEntity
  8
11_COMPONENT
100
AcDbSpline
 62
7
  6
BYLAYER
 70
0
 71
3
 72
11
 73
7
 74
0
 42
0.0000001
 43
0.0000001
 44
0.0000000001
 40
0.0
 40
0.0
 40
0.0
 40
0.0
 40
0.1057027899
 40
0.3204120613
 40
0.6322754544
 40
1.0
 40
1.0
 40
1.0
 40
1.0
 10
252.1657208125
 20
502.8257033839
 30
0.0
 10
252.1827391298
 20
502.8256501939
 30
0.0
 10
252.2176266594
 20
502.772013384
 30
0.0
 10
252.2397087762
 20
502.6797744081
 30
0.0
 10
252.2614522209
 20
502.5338422668
 30
0.0
 10
252.2661044598
 20
502.4252705121
 30
0.0
 10
252.2667451403
 20
502.3660694528
 30
0.0
  0
SPLINE
  5
6FB
100
AcDbEntity
  8
11_COMPONENT
100
AcDbSpline
 62
7
  6
BYLAYER
 70
0
 71
3
 72
11
 73
7
 74
0
 42
0.0000001
 43
0.0000001
 44
0.0000000001
 40
0.0
 40
0.0
 40
0.0
 40
0.0
 40
0.2020327056
 40
0.4343981119
 40
0.7047811694
 40
1.0
 40
1.0
 40
1.0
 40
1.0
 10
270.0691753053
 20
502.8257034872
 30
0.0
 10
270.1101874515
 20
502.8257037575
 30
0.0
 10
270.1991576547
 20
502.7970787364
 30
0.0
 10
270.3007593733
 20
502.6908164617
 30
0.0
 10
270.3676333057
 20
502.5408069472
 30
0.0
 10
270.3856894781
 20
502.4259796652
 30
0.0
 10
270.3877541375
 20
502.3660865393
 30
0.0
  0
SPLINE
  5
6FC
100
AcDbEntity
  8
11_COMPONENT
100
AcDbSpline
 62
7
  6
BYLAYER
 70
0
 71
3
 72
9
 73
5
 74
0
 42
0.0000001
 43
0.0000001
 44
0.0000000001
 40
0.0
 40
0.0
 40
0.0
 40
0.0
 40
0.4987658679
 40
1.0
 40
1.0
 40
1.0
 40
1.0
 10
305.3978308288
 20
502.8257034872
 30
0.0
 10
305.5169124266
 20
502.8257034876
 30
0.0
 10
305.7648473508
 20
502.7286132299
 30
0.0
 10
305.8724843201
 20
502.4855956796
 30
0.0
 10
305.8787027348
 20
502.3660864493
 30
0.0
  0
SPLINE
  5
6FD
100
AcDbEntity
  8
11_COMPONENT
100
AcDbSpline
 62
7
  6
BYLAYER
 70
0
 71
3
 72
9
 73
5
 74
0
 42
0.0000001
 43
0.0000001
 44
0.0000000001
 40
0.0
 40
0.0
 40
0.0
 40
0.0
 40
0.4987658125
 40
1.0
 40
1.0
 40
1.0
 40
1.0
 10
182.2788048584
 20
502.825703487
 30
0.0
 10
182.1597254873
 20
502.8256998655
 30
0.0
 10
181.9117985256
 20
502.7286056292
 30
0.0
 10
181.8041662782
 20
502.4855926781
 30
0.0
 10
181.7979481465
 20
502.3660856473
 30
0.0
  0
SPLINE
  5
6FE
100
AcDbEntity
  8
11_COMPONENT
100
AcDbSpline
 62
7
  6
BYLAYER
 70
0
 71
3
 72
11
 73
7
 74
0
 42
0.0000001
 43
0.0000001
 44
0.0000000001
 40
0.0
 40
0.0
 40
0.0
 40
0.0
 40
0.2020331168
 40
0.4343995833
 40
0.7047824954
 40
1.0
 40
1.0
 40
1.0
 40
1.0
 10
217.607460382
 20
502.825703487
 30
0.0
 10
217.566448821
 20
502.8257016139
 30
0.0
 10
217.4774814205
 20
502.7970730072
 30
0.0
 10
217.3758838616
 20
502.6908102321
 30
0.0
 10
217.3090126582
 20
502.5408026479
 30
0.0
 10
217.2909573151
 20
502.4259775271
 30
0.0
 10
217.2888927921
 20
502.3660856435
 30
0.0
  0
SPLINE
  5
6FF
100
AcDbEntity
  8
11_COMPONENT
100
AcDbSpline
 62
7
  6
BYLAYER
 70
0
 71
3
 72
11
 73
7
 74
0
 42
0.0000001
 43
0.0000001
 44
0.0000000001
 40
0.0
 40
0.0
 40
0.0
 40
0.0
 40
0.1055815401
 40
0.3202346342
 40
0.6321516365
 40
1.0
 40
1.0
 40
1.0
 40
1.0
 10
235.5109533667
 20
502.8257034872
 30
0.0
 10
235.4939534805
 20
502.8257040132
 30
0.0
 10
235.4589926599
 20
502.7720926958
 30
0.0
 10
235.4369516898
 20
502.6798798119
 30
0.0
 10
235.4151666814
 20
502.5339153938
 30
0.0
 10
235.4105089113
 20
502.425311136
 30
0.0
 10
235.4098610132
 20
502.3660867098
 30
0.0
  0
SPLINE
  5
700
100
AcDbEntity
  8
11_COMPONENT
100
AcDbSpline
 62
7
  6
BYLAYER
 70
0
 71
3
 72
15
 73
11
 74
0
 42
0.0000001
 43
0.0000001
 44
0.0000000001
 40
0.0
 40
0.0
 40
0.0
 40
0.0
 40
0.1103299639
 40
0.2258340195
 40
0.3540779581
 40
0.4999455101
 40
0.6458241424
 40
0.7740861551
 40
0.8896009623
 40
1.0
 40
1.0
 40
1.0
 40
1.0
 10
247.6323669353
 20
481.0365147352
 30
0.0
 10
247.6565628911
 20
480.5748166721
 30
0.0
 10
247.5473476707
 20
479.6139434282
 30
0.0
 10
246.876185527
 20
478.2562868989
 30
0.0
 10
245.616775053
 20
477.142138307
 30
0.0
 10
243.8389999302
 20
476.672438946
 30
0.0
 10
242.0608942331
 20
477.14145613
 30
0.0
 10
240.801148053
 20
478.2554806788
 30
0.0
 10
240.1293033751
 20
479.613270343
 30
0.0
 10
240.0200547972
 20
480.5745277683
 30
0.0
 10
240.0442687519
 20
481.0365147352
 30
0.0
  0
SPLINE
  5
701
100
AcDbEntity
  8
11_COMPONENT
100
AcDbSpline
 62
7
  6
BYLAYER
 70
0
 71
3
 72
9
 73
5
 74
0
 42
0.0000001
 43
0.0000001
 44
0.0000000001
 40
0.0
 40
0.0
 40
0.0
 40
0.0
 40
0.5261434739
 40
1.0
 40
1.0
 40
1.0
 40
1.0
 10
305.4480282697
 20
491.9692652761
 30
0.0
 10
300.4090277032
 20
486.3910410541
 30
0.0
 10
290.4800395139
 20
476.0963333842
 30
0.0
 10
279.4314271506
 20
466.9465860236
 30
0.0
 10
273.8538534806
 20
463.109196557
 30
0.0
  0
LINE
  5
702
100
AcDbEntity
  8
11_COMPONENT
100
AcDbLine
 62
7
  6
BYLAYER
 10
305.4661962788
 20
491.9690184999
 11
305.4474897284
 21
491.9686557132
  0
LINE
  5
703
100
AcDbEntity
  8
11_COMPONENT
100
AcDbLine
 62
7
  6
BYLAYER
 10
273.0265237222
 20
462.5454748419
 11
272.9983691727
 21
462.5278696009
  0
LINE
  5
704
100
AcDbEntity
  8
11_COMPONENT
100
AcDbLine
 62
7
  6
BYLAYER
 10
272.9983691727
 20
462.5278696009
 11
272.9556078668
 21
462.5011771535
  0
SPLINE
  5
705
100
AcDbEntity
  8
11_COMPONENT
100
AcDbSpline
 62
7
  6
BYLAYER
 70
0
 71
3
 72
9
 73
5
 74
0
 42
0.0000001
 43
0.0000001
 44
0.0000000001
 40
0.0
 40
0.0
 40
0.0
 40
0.0
 40
0.2461951952
 40
1.0
 40
1.0
 40
1.0
 40
1.0
 10
272.9556078668
 20
462.5011771535
 30
0.0
 10
272.6387575482
 20
462.3036007589
 30
0.0
 10
271.3434078243
 20
461.5146166914
 30
0.0
 10
270.012772064
 20
460.7831756754
 30
0.0
 10
268.9912640333
 20
460.2697121185
 30
0.0
  0
SPLINE
  5
706
100
AcDbEntity
  8
11_COMPONENT
100
AcDbSpline
 62
7
  6
BYLAYER
 70
0
 71
3
 72
14
 73
10
 74
0
 42
0.0000001
 43
0.0000001
 44
0.0000000001
 40
0.0
 40
0.0
 40
0.0
 40
0.0
 40
0.3357224351
 40
0.4836166637
 40
0.6169304169
 40
0.7350421929
 40
0.8378070843
 40
0.925647984
 40
1.0
 40
1.0
 40
1.0
 40
1.0
 10
270.3478018627
 20
492.0413164918
 30
0.0
 10
268.8338261047
 20
487.5838367437
 30
0.0
 10
266.5338887626
 20
481.1991483148
 30
0.0
 10
263.1673884343
 20
473.2281030455
 30
0.0
 10
260.7527809165
 20
468.1731691376
 30
0.0
 10
258.3394461887
 20
463.8279595729
 30
0.0
 10
255.9254898386
 20
460.2256199189
 30
0.0
 10
253.5059453605
 20
457.3935489858
 30
0.0
 10
251.7453296231
 20
455.9232840222
 30
0.0
 10
250.8654986022
 20
455.363935334
 30
0.0
  0
SPLINE
  5
707
100
AcDbEntity
  8
11_COMPONENT
100
AcDbSpline
 62
7
  6
BYLAYER
 70
0
 71
3
 72
11
 73
7
 74
0
 42
0.0000001
 43
0.0000001
 44
0.0000000001
 40
0.0
 40
0.0
 40
0.0
 40
0.0
 40
0.1135969699
 40
0.3232084054
 40
0.6219747436
 40
1.0
 40
1.0
 40
1.0
 40
1.0
 10
305.4480282697
 20
491.9692652761
 30
0.0
 10
304.118985846
 20
491.9813792194
 30
0.0
 10
300.3374161073
 20
491.9962104261
 30
0.0
 10
293.0602931442
 20
492.0200124849
 30
0.0
 10
282.6892792773
 20
492.0376111467
 30
0.0
 10
274.7707408537
 20
492.0419596103
 30
0.0
 10
270.3478018627
 20
492.0413164918
 30
0.0
  0
SPLINE
  5
708
100
AcDbEntity
  8
11_COMPONENT
100
AcDbSpline
 62
7
  6
BYLAYER
 70
0
 71
3
 72
11
 73
7
 74
0
 42
0.0000001
 43
0.0000001
 44
0.0000000001
 40
0.0
 40
0.0
 40
0.0
 40
0.0
 40
0.2229057712
 40
0.4577001367
 40
0.7140360361
 40
1.0
 40
1.0
 40
1.0
 40
1.0
 10
239.740029241
 20
481.0929223311
 30
0.0
 10
239.7809339155
 20
481.4368022557
 30
0.0
 10
239.9611704893
 20
482.134998037
 30
0.0
 10
240.5256159191
 20
483.1060532771
 30
0.0
 10
241.4135465629
 20
483.9485483779
 30
0.0
 10
242.1874585889
 20
484.3233197607
 30
0.0
 10
242.6128214441
 20
484.4515498834
 30
0.0
  0
SPLINE
  5
709
100
AcDbEntity
  8
11_COMPONENT
100
AcDbSpline
 62
7
  6
BYLAYER
 70
0
 71
3
 72
11
 73
7
 74
0
 42
0.0000001
 43
0.0000001
 44
0.0000000001
 40
0.0
 40
0.0
 40
0.0
 40
0.0
 40
0.2860003898
 40
0.5423438597
 40
0.7771227809
 40
1.0
 40
1.0
 40
1.0
 40
1.0
 10
245.0601444637
 20
484.4526265138
 30
0.0
 10
245.4860929856
 20
484.3246277761
 30
0.0
 10
246.2611550593
 20
483.9500489156
 30
0.0
 10
247.1503740486
 20
483.1070480385
 30
0.0
 10
247.7155524481
 20
482.1351698961
 30
0.0
 10
247.8958340906
 20
481.4363036649
 30
0.0
 10
247.9366974563
 20
481.0921201344
 30
0.0
  0
SPLINE
  5
70A
100
AcDbEntity
  8
11_COMPONENT
100
AcDbSpline
 62
7
  6
BYLAYER
 70
0
 71
3
 72
15
 73
11
 74
0
 42
0.0000001
 43
0.0000001
 44
0.0000000001
 40
0.0
 40
0.0
 40
0.0
 40
0.0
 40
0.1078420276
 40
0.2223063529
 40
0.3517476657
 40
0.4999406902
 40
0.6481468998
 40
0.7776078899
 40
0.8920863889
 40
1.0
 40
1.0
 40
1.0
 40
1.0
 10
247.9584058247
 20
480.8385066951
 30
0.0
 10
247.9831837253
 20
480.3685052457
 30
0.0
 10
247.8540330939
 20
479.3812218796
 30
0.0
 10
247.0946228732
 20
478.0062088947
 30
0.0
 10
245.7146515427
 20
476.9123019332
 30
0.0
 10
243.8390711588
 20
476.4696030739
 30
0.0
 10
241.9631651131
 20
476.9116116738
 30
0.0
 10
240.5828410895
 20
478.0053695526
 30
0.0
 10
239.8225757036
 20
479.380463861
 30
0.0
 10
239.6934280832
 20
480.3681936597
 30
0.0
 10
239.7182298625
 20
480.8385066951
 30
0.0
  0
LINE
  5
70B
100
AcDbEntity
  8
11_COMPONENT
100
AcDbLine
 62
7
  6
BYLAYER
 10
250.8654986022
 20
455.363935334
 11
250.8343377334
 21
455.3611708725
  0
LINE
  5
70C
100
AcDbEntity
  8
11_COMPONENT
100
AcDbLine
 62
7
  6
BYLAYER
 10
236.8423956595
 20
455.3611622359
 11
236.811137085
 21
455.363935334
  0
SPLINE
  5
70D
100
AcDbEntity
  8
11_COMPONENT
100
AcDbSpline
 62
7
  6
BYLAYER
 70
0
 71
3
 72
9
 73
5
 74
0
 42
0.0000001
 43
0.0000001
 44
0.0000000001
 40
0.0
 40
0.0
 40
0.0
 40
0.0
 40
0.3871781841
 40
1.0
 40
1.0
 40
1.0
 40
1.0
 10
306.200751217
 20
493.9639150683
 30
0.0
 10
305.5756804042
 20
493.9454181545
 30
0.0
 10
303.9607180495
 20
493.917647375
 30
0.0
 10
302.345727917
 20
493.8976786192
 30
0.0
 10
301.3559937599
 20
493.8872588433
 30
0.0
  0
SPLINE
  5
70E
100
AcDbEntity
  8
11_COMPONENT
100
AcDbSpline
 62
7
  6
BYLAYER
 70
0
 71
3
 72
9
 73
5
 74
0
 42
0.0000001
 43
0.0000001
 44
0.0000000001
 40
0.0
 40
0.0
 40
0.0
 40
0.0
 40
0.2474653572
 40
1.0
 40
1.0
 40
1.0
 40
1.0
 10
273.0734866136
 20
493.7702009779
 30
0.0
 10
272.8784238788
 20
493.7701154283
 30
0.0
 10
272.0901812659
 20
493.7698166736
 30
0.0
 10
271.3019385815
 20
493.7697067496
 30
0.0
 10
270.7087586667
 20
493.7697296499
 30
0.0
  0
SPLINE
  5
70F
100
AcDbEntity
  8
11_COMPONENT
100
AcDbSpline
 62
7
  6
BYLAYER
 70
0
 71
3
 72
14
 73
10
 74
0
 42
0.0000001
 43
0.0000001
 44
0.0000000001
 40
0.0
 40
0.0
 40
0.0
 40
0.0
 40
0.3357224351
 40
0.4836166637
 40
0.6169304169
 40
0.7350421929
 40
0.8378070843
 40
0.925647984
 40
1.0
 40
1.0
 40
1.0
 40
1.0
 10
217.3288338245
 20
492.0413164918
 30
0.0
 10
218.8428095826
 20
487.5838367437
 30
0.0
 10
221.1427469246
 20
481.1991483148
 30
0.0
 10
224.5092472529
 20
473.2281030455
 30
0.0
 10
226.9238547707
 20
468.1731691376
 30
0.0
 10
229.3371894986
 20
463.8279595729
 30
0.0
 10
231.7511458487
 20
460.2256199189
 30
0.0
 10
234.1706903267
 20
457.3935489858
 30
0.0
 10
235.9313060642
 20
455.9232840222
 30
0.0
 10
236.811137085
 20
455.363935334
 30
0.0
  0
LINE
  5
710
100
AcDbEntity
  8
11_COMPONENT
100
AcDbLine
 62
7
  6
BYLAYER
 10
217.4278922289
 20
492.0410189215
 11
217.328916263
 21
492.0411385341
  0
SPLINE
  5
711
100
AcDbEntity
  8
11_COMPONENT
100
AcDbSpline
 62
7
  6
BYLAYER
 70
0
 71
3
 72
9
 73
5
 74
0
 42
0.0000001
 43
0.0000001
 44
0.0000000001
 40
0.0
 40
0.0
 40
0.0
 40
0.0
 40
0.271178302
 40
1.0
 40
1.0
 40
1.0
 40
1.0
 10
243.8383178439
 20
492.0231243776
 30
0.0
 10
241.4510092547
 20
492.0231697803
 30
0.0
 10
232.6475457178
 20
492.0243027176
 30
0.0
 10
223.8440748356
 20
492.0281798204
 30
0.0
 10
217.4279314739
 20
492.0409339288
 30
0.0
  0
LINE
  5
712
100
AcDbEntity
  8
11_COMPONENT
100
AcDbLine
 62
7
  6
BYLAYER
 10
270.3477194246
 20
492.0411385349
 11
270.2487434587
 21
492.0410189223
  0
SPLINE
  5
713
100
AcDbEntity
  8
11_COMPONENT
100
AcDbSpline
 62
7
  6
BYLAYER
 70
0
 71
3
 72
9
 73
5
 74
0
 42
0.0000001
 43
0.0000001
 44
0.0000000001
 40
0.0
 40
0.0
 40
0.0
 40
0.0
 40
0.2543874629
 40
1.0
 40
1.0
 40
1.0
 40
1.0
 10
218.7387007889
 20
460.2429488001
 30
0.0
 10
218.3891198254
 20
460.4181079797
 30
0.0
 10
217.023587562
 20
461.123903972
 30
0.0
 10
215.6923175182
 20
461.8954809983
 30
0.0
 10
214.7198575024
 20
462.5019069262
 30
0.0
  0
LINE
  5
714
100
AcDbEntity
  8
11_COMPONENT
100
AcDbLine
 62
7
  6
BYLAYER
 10
214.7198575024
 20
462.5019069262
 11
214.6782727602
 21
462.5278656899
  0
LINE
  5
715
100
AcDbEntity
  8
11_COMPONENT
100
AcDbLine
 62
7
  6
BYLAYER
 10
214.6782727602
 20
462.5278656899
 11
214.650111965
 21
462.5454748419
  0
SPLINE
  5
716
100
AcDbEntity
  8
11_COMPONENT
100
AcDbSpline
 62
7
  6
BYLAYER
 70
0
 71
3
 72
9
 73
5
 74
0
 42
0.0000001
 43
0.0000001
 44
0.0000000001
 40
0.0
 40
0.0
 40
0.0
 40
0.0
 40
0.5261439955
 40
1.0
 40
1.0
 40
1.0
 40
1.0
 10
182.2286074176
 20
491.9692652761
 30
0.0
 10
187.2676887383
 20
486.3909516582
 30
0.0
 10
197.1968314629
 20
476.0960936294
 30
0.0
 10
208.2456408879
 20
466.9462411163
 30
0.0
 10
213.8233144334
 20
463.1088303854
 30
0.0
  0
SPLINE
  5
717
100
AcDbEntity
  8
11_COMPONENT
100
AcDbSpline
 62
7
  6
BYLAYER
 70
0
 71
3
 72
11
 73
7
 74
0
 42
0.0000001
 43
0.0000001
 44
0.0000000001
 40
0.0
 40
0.0
 40
0.0
 40
0.0
 40
0.3780163409
 40
0.6767752668
 40
0.8863964038
 40
1.0
 40
1.0
 40
1.0
 40
1.0
 10
217.3288338245
 20
492.0413164918
 30
0.0
 10
212.905999143
 20
492.0419385266
 30
0.0
 10
204.9876517621
 20
492.0376211462
 30
0.0
 10
194.6167154138
 20
492.0200157018
 30
0.0
 10
187.3394881592
 20
491.9962084891
 30
0.0
 10
183.5577273747
 20
491.9813790735
 30
0.0
 10
182.2286074176
 20
491.9692652761
 30
0.0
  0
SPLINE
  5
718
100
AcDbEntity
  8
11_COMPONENT
100
AcDbSpline
 62
7
  6
BYLAYER
 70
0
 71
3
 72
11
 73
7
 74
0
 42
0.0000001
 43
0.0000001
 44
0.0000000001
 40
0.0
 40
0.0
 40
0.0
 40
0.0
 40
0.0652923648
 40
0.2527204129
 40
0.564107826
 40
1.0
 40
1.0
 40
1.0
 40
1.0
 10
306.4296126215
 20
493.9860213586
 30
0.0
 10
306.4296182183
 20
493.9814057021
 30
0.0
 10
306.4024635155
 20
493.9824456647
 30
0.0
 10
306.3718628573
 20
493.9738976955
 30
0.0
 10
306.3007643664
 20
493.9709596731
 30
0.0
 10
306.2497729614
 20
493.9667034102
 30
0.0
 10
306.2190178436
 20
493.9647966404
 30
0.0
  0
LINE
  5
719
100
AcDbEntity
  8
11_COMPONENT
100
AcDbLine
 62
7
  6
BYLAYER
 10
182.2108208974
 20
491.9685875891
 11
182.0310895074
 21
491.9634191395
  0
SPLINE
  5
71A
100
AcDbEntity
  8
11_COMPONENT
100
AcDbSpline
 62
7
  6
BYLAYER
 70
0
 71
3
 72
11
 73
7
 74
0
 42
0.0000001
 43
0.0000001
 44
0.0000000001
 40
0.0
 40
0.0
 40
0.0
 40
0.0
 40
0.4358792644
 40
0.7472653714
 40
0.9346987017
 40
1.0
 40
1.0
 40
1.0
 40
1.0
 10
181.4576178436
 20
493.9647966404
 30
0.0
 10
181.4268633603
 20
493.9667034432
 30
0.0
 10
181.3758716243
 20
493.9709597385
 30
0.0
 10
181.3047756071
 20
493.97389723
 30
0.0
 10
181.2741698519
 20
493.9824463144
 30
0.0
 10
181.2470175278
 20
493.9814062986
 30
0.0
 10
181.247021327
 20
493.9860226306
 30
0.0
  0
LINE
  5
71B
100
AcDbEntity
  8
11_COMPONENT
100
AcDbLine
 62
7
  6
BYLAYER
 10
182.2291459603
 20
491.9686557117
 11
182.2104394098
 21
491.9690184983
  0
LINE
  5
71C
100
AcDbEntity
  8
11_COMPONENT
100
AcDbLine
 62
7
  6
BYLAYER
 10
305.6455295824
 20
491.9633836794
 11
305.4658147898
 21
491.9685875891
  0
SPLINE
  5
71D
100
AcDbEntity
  8
11_COMPONENT
100
AcDbSpline
 62
7
  6
BYLAYER
 70
0
 71
3
 72
9
 73
5
 74
0
 42
0.0000001
 43
0.0000001
 44
0.0000000001
 40
0.0
 40
0.0
 40
0.0
 40
0.0
 40
0.2525052068
 40
1.0
 40
1.0
 40
1.0
 40
1.0
 10
216.9678770205
 20
493.7697296499
 30
0.0
 10
216.7704328879
 20
493.7697216785
 30
0.0
 10
215.98849205
 20
493.7697366818
 30
0.0
 10
215.2065512156
 20
493.7699367236
 30
0.0
 10
214.6220545663
 20
493.7701908191
 30
0.0
  0
SPLINE
  5
71E
100
AcDbEntity
  8
11_COMPONENT
100
AcDbSpline
 62
7
  6
BYLAYER
 70
0
 71
3
 72
9
 73
5
 74
0
 42
0.0000001
 43
0.0000001
 44
0.0000000001
 40
0.0
 40
0.0
 40
0.0
 40
0.0
 40
0.6128564257
 40
1.0
 40
1.0
 40
1.0
 40
1.0
 10
186.3244730263
 20
493.8872178671
 30
0.0
 10
185.3339003028
 20
493.8976432313
 30
0.0
 10
183.7176331549
 20
493.9176220173
 30
0.0
 10
182.1013935839
 20
493.9454042061
 30
0.0
 10
181.4758844702
 20
493.9639150683
 30
0.0
  0
SPLINE
  5
71F
100
AcDbEntity
  8
11_COMPONENT
100
AcDbSpline
 62
7
  6
BYLAYER
 70
0
 71
3
 72
9
 73
5
 74
0
 42
0.0000001
 43
0.0000001
 44
0.0000000001
 40
0.0
 40
0.0
 40
0.0
 40
0.0
 40
0.2393522659
 40
1.0
 40
1.0
 40
1.0
 40
1.0
 10
217.3288339999
 20
492.0413166795
 30
0.0
 10
217.2692437494
 20
492.1696580694
 30
0.0
 10
217.0545030376
 20
492.7214675143
 30
0.0
 10
216.9678888308
 20
493.3200478656
 30
0.0
 10
216.9678772797
 20
493.7697296499
 30
0.0
  0
SPLINE
  5
720
100
AcDbEntity
  8
11_COMPONENT
100
AcDbSpline
 62
7
  6
BYLAYER
 70
0
 71
3
 72
9
 73
5
 74
0
 42
0.0000001
 43
0.0000001
 44
0.0000000001
 40
0.0
 40
0.0
 40
0.0
 40
0.0
 40
0.2393921876
 40
1.0
 40
1.0
 40
1.0
 40
1.0
 10
217.427931474
 20
492.0409339289
 30
0.0
 10
217.3681009246
 20
492.1693005239
 30
0.0
 10
217.1523305963
 20
492.7211539288
 30
0.0
 10
217.0644195473
 20
493.3199358751
 30
0.0
 10
217.0634238743
 20
493.7699126158
 30
0.0
  0
SPLINE
  5
721
100
AcDbEntity
  8
11_COMPONENT
100
AcDbSpline
 62
7
  6
BYLAYER
 70
0
 71
3
 72
9
 73
5
 74
0
 42
0.0000001
 43
0.0000001
 44
0.0000000001
 40
0.0
 40
0.0
 40
0.0
 40
0.0
 40
0.2393922333
 40
1.0
 40
1.0
 40
1.0
 40
1.0
 10
270.2486998627
 20
492.0409386046
 30
0.0
 10
270.30853014
 20
492.1693049196
 30
0.0
 10
270.52429948
 20
492.7211569237
 30
0.0
 10
270.6122102001
 20
493.3199371598
 30
0.0
 10
270.6132058638
 20
493.7699126159
 30
0.0
  0
SPLINE
  5
722
100
AcDbEntity
  8
11_COMPONENT
100
AcDbSpline
 62
7
  6
BYLAYER
 70
0
 71
3
 72
9
 73
5
 74
0
 42
0.0000001
 43
0.0000001
 44
0.0000000001
 40
0.0
 40
0.0
 40
0.0
 40
0.0
 40
0.2393522689
 40
1.0
 40
1.0
 40
1.0
 40
1.0
 10
270.3478018627
 20
492.0413164918
 30
0.0
 10
270.4073921449
 20
492.1696578877
 30
0.0
 10
270.6221329632
 20
492.7214673687
 30
0.0
 10
270.7087471734
 20
493.3200478134
 30
0.0
 10
270.7087586667
 20
493.7697296499
 30
0.0
  0
ELLIPSE
  5
723
100
AcDbEntity
  8
11_COMPONENT
100
AcDbEllipse
 62
7
  6
BYLAYER
 10
634.8466634666
 20
380.0935634053
 30
0.0
 11
0.8676096907
 21
-0.5009146885
 31
0.0
 40
0.9981739636
 41
2.6187849359
 42
3.6644003713
  0
ELLIPSE
  5
724
100
AcDbEntity
  8
11_COMPONENT
100
AcDbEllipse
 62
7
  6
BYLAYER
 10
634.8466634666
 20
372.9412399852
 30
0.0
 11
0.8676096907
 21
0.5009146885
 31
0.0
 40
0.9981739636
 41
2.6187849359
 42
3.6644003713
  0
ELLIPSE
  5
725
100
AcDbEntity
  8
11_COMPONENT
100
AcDbEllipse
 62
7
  6
BYLAYER
 10
641.0407572445
 20
369.3650782751
 30
0.0
 11
0.0
 21
1.0018293769
 31
0.0
 40
0.9981739636
 41
-3.6644003713
 42
-2.6187849359
  0
ELLIPSE
  5
726
100
AcDbEntity
  8
11_COMPONENT
100
AcDbEllipse
 62
7
  6
BYLAYER
 10
647.2348510224
 20
372.9412399852
 30
0.0
 11
0.8676096907
 21
-0.5009146885
 31
0.0
 40
0.9981739636
 41
-0.5228077177
 42
0.5228077177
  0
ELLIPSE
  5
727
100
AcDbEntity
  8
11_COMPONENT
100
AcDbEllipse
 62
7
  6
BYLAYER
 10
647.2348510224
 20
380.0935634053
 30
0.0
 11
0.8676096907
 21
0.5009146885
 31
0.0
 40
0.9981739636
 41
-0.5228077177
 42
0.5228077177
  0
ELLIPSE
  5
728
100
AcDbEntity
  8
11_COMPONENT
100
AcDbEllipse
 62
7
  6
BYLAYER
 10
641.0407572445
 20
383.6697251153
 30
0.0
 11
0.0
 21
1.0018293769
 31
0.0
 40
0.9981739636
 41
-0.5228077177
 42
0.5228077177
  0
ELLIPSE
  5
729
100
AcDbEntity
  8
11_COMPONENT
100
AcDbEllipse
 62
7
  6
BYLAYER
 10
635.2921295905
 20
379.8363734187
 30
0.0
 11
-0.8676096907
 21
0.5009146885
 31
0.0
 40
0.9981739636
 41
5.7603775895
 42
6.8059930249
  0
ELLIPSE
  5
72A
100
AcDbEntity
  8
11_COMPONENT
100
AcDbEllipse
 62
7
  6
BYLAYER
 10
635.2921295905
 20
373.1984299717
 30
0.0
 11
-0.8676096907
 21
-0.5009146885
 31
0.0
 40
0.9981739636
 41
5.7603775895
 42
6.8059930249
  0
ELLIPSE
  5
72B
100
AcDbEntity
  8
11_COMPONENT
100
AcDbEllipse
 62
7
  6
BYLAYER
 10
641.0407572445
 20
369.8794582482
 30
0.0
 11
-0.0
 21
-1.0018293769
 31
0.0
 40
0.9981739636
 41
-0.5228077177
 42
0.5228077177
  0
ELLIPSE
  5
72C
100
AcDbEntity
  8
11_COMPONENT
100
AcDbEllipse
 62
7
  6
BYLAYER
 10
646.7893848985
 20
373.1984299717
 30
0.0
 11
0.8676096907
 21
-0.5009146885
 31
0.0
 40
0.9981739636
 41
5.7603775895
 42
6.8059930249
  0
ELLIPSE
  5
72D
100
AcDbEntity
  8
11_COMPONENT
100
AcDbEllipse
 62
7
  6
BYLAYER
 10
646.7893848985
 20
379.8363734187
 30
0.0
 11
0.8676096907
 21
0.5009146885
 31
0.0
 40
0.9981739636
 41
5.7603775895
 42
6.8059930249
  0
ELLIPSE
  5
72E
100
AcDbEntity
  8
11_COMPONENT
100
AcDbEllipse
 62
7
  6
BYLAYER
 10
641.0407572445
 20
383.1553451422
 30
0.0
 11
-0.0
 21
1.0018293769
 31
0.0
 40
0.9981739636
 41
-0.5228077177
 42
0.5228077177
  0
ENDSEC
  0
SECTION
  2
OBJECTS
  0
DICTIONARY
  5
72F
100
AcDbDictionary
  3
ACAD_GROUP
350
730
  3
ACAD_MLINESTYLE
350
731
  0
DICTIONARY
  5
730
102
{ACAD_REACTORS
330
72F
102
}
100
AcDbDictionary
  0
DICTIONARY
  5
731
102
{ACAD_REACTORS
330
72F
102
}
100
AcDbDictionary
  3
STANDARD
350
732
  0
MLINESTYLE
  5
732
102
{ACAD_REACTORS
330
731
102
}
100
AcDbMlineStyle
  2
STANDARD
 70
0
  3

 62
256
 51
90.0
 52
90.0
 71
2
 49
0.5
 62
256
  6
BYLAYER
 49
-0.5
 62
256
  6
BYLAYER
  0
ENDSEC
  0
EOF
