  0
SECTION
  2
HEADER
  9
$ACADVER
  1
AC1021
  9
$ACADMAINTVER
 70
    50
  9
$DWGCODEPAGE
  3
ANSI_949
  9
$LASTSAVEDBY
  1
MATTHEW
  9
$INSBASE
 10
0.0
 20
0.0
 30
0.0
  9
$EXTMIN
 10
91.34274498436457
 20
-57.99437697161943
 30
-0.0015258207003583
  9
$EXTMAX
 10
482.8666397247775
 20
714.1410453888197
 30
0.0000000349246037
  9
$LIMMIN
 10
0.0
 20
0.0
  9
$LIMMAX
 10
841.0
 20
594.0
  9
$ORTHOMODE
 70
     1
  9
$REGENMODE
 70
     1
  9
$FILLMODE
 70
     1
  9
$QTEXTMODE
 70
     0
  9
$MIRRTEXT
 70
     1
  9
$LTSCALE
 40
1.0
  9
$ATTMODE
 70
     1
  9
$TEXTSIZE
 40
2.5
  9
$TRACEWID
 40
1.0
  9
$TEXTSTYLE
  7
Standard
  9
$CLAYER
  8
0
  9
$CELTYPE
  6
ByLayer
  9
$CECOLOR
 62
   256
  9
$CELTSCALE
 40
1.0
  9
$DISPSILH
 70
     0
  9
$DIMSCALE
 40
1.0
  9
$DIMASZ
 40
8.0
  9
$DIMEXO
 40
2.0
  9
$DIMDLI
 40
8.0
  9
$DIMRND
 40
0.0
  9
$DIMDLE
 40
0.0
  9
$DIMEXE
 40
2.0
  9
$DIMTP
 40
0.0
  9
$DIMTM
 40
0.0
  9
$DIMTXT
 40
8.0
  9
$DIMCEN
 40
8.0
  9
$DIMTSZ
 40
0.0
  9
$DIMTOL
 70
     0
  9
$DIMLIM
 70
     0
  9
$DIMTIH
 70
     0
  9
$DIMTOH
 70
     1
  9
$DIMSE1
 70
     0
  9
$DIMSE2
 70
     0
  9
$DIMTAD
 70
     1
  9
$DIMZIN
 70
     8
  9
$DIMBLK
  1

  9
$DIMASO
 70
     1
  9
$DIMSHO
 70
     1
  9
$DIMPOST
  1

  9
$DIMAPOST
  1

  9
$DIMALT
 70
     0
  9
$DIMALTD
 70
     3
  9
$DIMALTF
 40
0.03937007874016
  9
$DIMLFAC
 40
1.0
  9
$DIMTOFL
 70
     1
  9
$DIMTVP
 40
0.0
  9
$DIMTIX
 70
     0
  9
$DIMSOXD
 70
     0
  9
$DIMSAH
 70
     0
  9
$DIMBLK1
  1

  9
$DIMBLK2
  1

  9
$DIMSTYLE
  2
ISO-25
  9
$DIMCLRD
 70
     0
  9
$DIMCLRE
 70
     0
  9
$DIMCLRT
 70
     0
  9
$DIMTFAC
 40
1.0
  9
$DIMGAP
 40
2.0
  9
$DIMJUST
 70
     0
  9
$DIMSD1
 70
     0
  9
$DIMSD2
 70
     0
  9
$DIMTOLJ
 70
     0
  9
$DIMTZIN
 70
     8
  9
$DIMALTZ
 70
     0
  9
$DIMALTTZ
 70
     0
  9
$DIMUPT
 70
     0
  9
$DIMDEC
 70
     2
  9
$DIMTDEC
 70
     2
  9
$DIMALTU
 70
     2
  9
$DIMALTTD
 70
     3
  9
$DIMTXSTY
  7
Standard
  9
$DIMAUNIT
 70
     0
  9
$DIMADEC
 70
     0
  9
$DIMALTRND
 40
0.0
  9
$DIMAZIN
 70
     0
  9
$DIMDSEP
 70
    46
  9
$DIMATFIT
 70
     3
  9
$DIMFRAC
 70
     0
  9
$DIMLDRBLK
  1

  9
$DIMLUNIT
 70
     2
  9
$DIMLWD
 70
    -2
  9
$DIMLWE
 70
    -2
  9
$DIMTMOVE
 70
     0
  9
$DIMFXL
 40
1.25
  9
$DIMFXLON
 70
     0
  9
$DIMJOGANG
 40
1.570796326794896
  9
$DIMTFILL
 70
     0
  9
$DIMTFILLCLR
 70
     0
  9
$DIMARCSYM
 70
     0
  9
$DIMLTYPE
  6

  9
$DIMLTEX1
  6

  9
$DIMLTEX2
  6

  9
$LUNITS
 70
     2
  9
$LUPREC
 70
     4
  9
$SKETCHINC
 40
1.0
  9
$FILLETRAD
 40
10.0
  9
$AUNITS
 70
     0
  9
$AUPREC
 70
     0
  9
$MENU
  1
.
  9
$ELEVATION
 40
0.0
  9
$PELEVATION
 40
0.0
  9
$THICKNESS
 40
0.0
  9
$LIMCHECK
 70
     0
  9
$CHAMFERA
 40
10.0
  9
$CHAMFERB
 40
10.0
  9
$CHAMFERC
 40
20.0
  9
$CHAMFERD
 40
0.0
  9
$SKPOLY
 70
     0
  9
$TDCREATE
 40
2455224.588849885
  9
$TDUCREATE
 40
2455224.213849885
  9
$TDUPDATE
 40
2455701.750779699
  9
$TDUUPDATE
 40
2455701.375779699
  9
$TDINDWG
 40
0.0078140625
  9
$TDUSRTIMER
 40
0.0078140625
  9
$USRTIMER
 70
     1
  9
$ANGBASE
 50
0.0
  9
$ANGDIR
 70
     0
  9
$PDMODE
 70
     0
  9
$PDSIZE
 40
0.0
  9
$PLINEWID
 40
0.0
  9
$SPLFRAME
 70
     0
  9
$SPLINETYPE
 70
     6
  9
$SPLINESEGS
 70
     8
  9
$HANDSEED
  5
853
  9
$SURFTAB1
 70
     6
  9
$SURFTAB2
 70
     6
  9
$SURFTYPE
 70
     6
  9
$SURFU
 70
     6
  9
$SURFV
 70
     6
  9
$UCSBASE
  2

  9
$UCSNAME
  2

  9
$UCSORG
 10
0.0
 20
0.0
 30
0.0
  9
$UCSXDIR
 10
1.0
 20
0.0
 30
0.0
  9
$UCSYDIR
 10
0.0
 20
1.0
 30
0.0
  9
$UCSORTHOREF
  2

  9
$UCSORTHOVIEW
 70
     0
  9
$UCSORGTOP
 10
0.0
 20
0.0
 30
0.0
  9
$UCSORGBOTTOM
 10
0.0
 20
0.0
 30
0.0
  9
$UCSORGLEFT
 10
0.0
 20
0.0
 30
0.0
  9
$UCSORGRIGHT
 10
0.0
 20
0.0
 30
0.0
  9
$UCSORGFRONT
 10
0.0
 20
0.0
 30
0.0
  9
$UCSORGBACK
 10
0.0
 20
0.0
 30
0.0
  9
$PUCSBASE
  2

  9
$PUCSNAME
  2

  9
$PUCSORG
 10
0.0
 20
0.0
 30
0.0
  9
$PUCSXDIR
 10
1.0
 20
0.0
 30
0.0
  9
$PUCSYDIR
 10
0.0
 20
1.0
 30
0.0
  9
$PUCSORTHOREF
  2

  9
$PUCSORTHOVIEW
 70
     0
  9
$PUCSORGTOP
 10
0.0
 20
0.0
 30
0.0
  9
$PUCSORGBOTTOM
 10
0.0
 20
0.0
 30
0.0
  9
$PUCSORGLEFT
 10
0.0
 20
0.0
 30
0.0
  9
$PUCSORGRIGHT
 10
0.0
 20
0.0
 30
0.0
  9
$PUCSORGFRONT
 10
0.0
 20
0.0
 30
0.0
  9
$PUCSORGBACK
 10
0.0
 20
0.0
 30
0.0
  9
$USERI1
 70
     0
  9
$USERI2
 70
     0
  9
$USERI3
 70
     0
  9
$USERI4
 70
     0
  9
$USERI5
 70
     0
  9
$USERR1
 40
0.0
  9
$USERR2
 40
0.0
  9
$USERR3
 40
0.0
  9
$USERR4
 40
0.0
  9
$USERR5
 40
0.0
  9
$WORLDVIEW
 70
     1
  9
$SHADEDGE
 70
     3
  9
$SHADEDIF
 70
    70
  9
$TILEMODE
 70
     1
  9
$MAXACTVP
 70
    64
  9
$PINSBASE
 10
0.0
 20
0.0
 30
0.0
  9
$PLIMCHECK
 70
     0
  9
$PEXTMIN
 10
0.0
 20
0.0
 30
0.0
  9
$PEXTMAX
 10
841.0
 20
594.0
 30
0.0
  9
$PLIMMIN
 10
0.0
 20
0.0
  9
$PLIMMAX
 10
841.0
 20
594.0
  9
$UNITMODE
 70
     0
  9
$VISRETAIN
 70
     1
  9
$PLINEGEN
 70
     0
  9
$PSLTSCALE
 70
     1
  9
$TREEDEPTH
 70
  3020
  9
$CMLSTYLE
  2
Standard
  9
$CMLJUST
 70
     0
  9
$CMLSCALE
 40
20.0
  9
$PROXYGRAPHICS
 70
     1
  9
$MEASUREMENT
 70
     1
  9
$CELWEIGHT
370
    -1
  9
$ENDCAPS
280
     0
  9
$JOINSTYLE
280
     0
  9
$LWDISPLAY
290
     0
  9
$INSUNITS
 70
     4
  9
$HYPERLINKBASE
  1

  9
$STYLESHEET
  1

  9
$XEDIT
290
     1
  9
$CEPSNTYPE
380
     0
  9
$PSTYLEMODE
290
     1
  9
$FINGERPRINTGUID
  2
{B817B06E-349C-4552-80C9-076E62E4053C}
  9
$VERSIONGUID
  2
{AAB53024-4662-469A-B1C6-91A12C7C52DA}
  9
$EXTNAMES
290
     1
  9
$PSVPSCALE
 40
0.0
  9
$OLESTARTUP
290
     0
  9
$SORTENTS
280
   127
  9
$INDEXCTL
280
     0
  9
$HIDETEXT
280
     0
  9
$XCLIPFRAME
290
     0
  9
$HALOGAP
280
     0
  9
$OBSCOLOR
 70
   257
  9
$OBSLTYPE
280
     0
  9
$INTERSECTIONDISPLAY
280
     0
  9
$INTERSECTIONCOLOR
 70
   257
  9
$DIMASSOC
280
     1
  9
$PROJECTNAME
  1

  9
$CAMERADISPLAY
290
     0
  9
$LENSLENGTH
 40
50.0
  9
$CAMERAHEIGHT
 40
0.0
  9
$STEPSPERSEC
 40
2.0
  9
$STEPSIZE
 40
6.0
  9
$3DDWFPREC
 40
2.0
  9
$PSOLWIDTH
 40
5.0
  9
$PSOLHEIGHT
 40
80.0
  9
$LOFTANG1
 40
1.570796326794896
  9
$LOFTANG2
 40
1.570796326794896
  9
$LOFTMAG1
 40
0.0
  9
$LOFTMAG2
 40
0.0
  9
$LOFTPARAM
 70
     7
  9
$LOFTNORMALS
280
     1
  9
$LATITUDE
 40
37.795
  9
$LONGITUDE
 40
-122.394
  9
$NORTHDIRECTION
 40
0.0
  9
$TIMEZONE
 70
 -8000
  9
$LIGHTGLYPHDISPLAY
280
     1
  9
$TILEMODELIGHTSYNCH
280
     1
  9
$CMATERIAL
347
746
  9
$SOLIDHIST
280
     1
  9
$SHOWHIST
280
     1
  9
$DWFFRAME
280
     2
  9
$DGNFRAME
280
     0
  9
$REALWORLDSCALE
290
     1
  9
$INTERFERECOLOR
 62
     1
  9
$INTERFEREOBJVS
345
33
  9
$INTERFEREVPVS
346
75E
  9
$CSHADOW
280
     0
  9
$SHADOWPLANELOCATION
 40
0.0
  0
ENDSEC
  0
SECTION
  2
CLASSES
  0
CLASS
  1
ACDBDICTIONARYWDFLT
  2
AcDbDictionaryWithDefault
  3
ObjectDBX Classes
 90
        0
 91
        1
280
     0
281
     0
  0
CLASS
  1
VISUALSTYLE
  2
AcDbVisualStyle
  3
ObjectDBX Classes
 90
     4095
 91
       26
280
     0
281
     0
  0
CLASS
  1
SCALE
  2
AcDbScale
  3
ObjectDBX Classes
 90
     1153
 91
       33
280
     0
281
     0
  0
CLASS
  1
DICTIONARYVAR
  2
AcDbDictionaryVar
  3
ObjectDBX Classes
 90
        0
 91
       16
280
     0
281
     0
  0
CLASS
  1
TABLESTYLE
  2
AcDbTableStyle
  3
ObjectDBX Classes
 90
     4095
 91
        1
280
     0
281
     0
  0
CLASS
  1
SORTENTSTABLE
  2
AcDbSortentsTable
  3
ObjectDBX Classes
 90
        0
 91
        1
280
     0
281
     0
  0
CLASS
  1
MATERIAL
  2
AcDbMaterial
  3
ObjectDBX Classes
 90
     1153
 91
        3
280
     0
281
     0
  0
CLASS
  1
MLEADERSTYLE
  2
AcDbMLeaderStyle
  3
ACDB_MLEADERSTYLE_CLASS
 90
     4095
 91
        1
280
     0
281
     0
  0
CLASS
  1
CELLSTYLEMAP
  2
AcDbCellStyleMap
  3
ObjectDBX Classes
 90
     1152
 91
        3
280
     0
281
     0
  0
ENDSEC
  0
SECTION
  2
TABLES
  0
TABLE
  2
VPORT
  5
8
330
0
100
AcDbSymbolTable
 70
     1
  0
VPORT
  5
73F
330
8
100
AcDbSymbolTableRecord
100
AcDbViewportTableRecord
  2
*Active
 70
     0
 10
0.0
 20
0.0
 11
1.0
 21
1.0
 12
379.2360081876804
 22
373.5774144380834
 13
0.0
 23
0.0
 14
10.0
 24
10.0
 15
10.0
 25
10.0
 16
0.0
 26
0.0
 36
1.0
 17
0.0
 27
0.0
 37
0.0
 40
1045.292608598805
 41
1.669109947643979
 42
50.0
 43
0.0
 44
0.0
 50
0.0
 51
0.0
 71
     0
 72
  1000
 73
     1
 74
     3
 75
     0
 76
     0
 77
     0
 78
     0
281
     0
 65
     1
110
0.0
120
0.0
130
0.0
111
1.0
121
0.0
131
0.0
112
0.0
122
1.0
132
0.0
 79
     0
146
0.0
348
2F
 60
     3
 61
     5
292
     1
282
     1
141
0.0
142
0.0
 63
   250
421
  3355443
  0
ENDTAB
  0
TABLE
  2
LTYPE
  5
5
330
0
100
AcDbSymbolTable
 70
     2
  0
LTYPE
  5
14
330
5
100
AcDbSymbolTableRecord
100
AcDbLinetypeTableRecord
  2
ByBlock
 70
     0
  3

 72
    65
 73
     0
 40
0.0
  0
LTYPE
  5
15
330
5
100
AcDbSymbolTableRecord
100
AcDbLinetypeTableRecord
  2
ByLayer
 70
     0
  3

 72
    65
 73
     0
 40
0.0
  0
LTYPE
  5
16
330
5
100
AcDbSymbolTableRecord
100
AcDbLinetypeTableRecord
  2
Continuous
 70
     0
  3
Solid line
 72
    65
 73
     0
 40
0.0
  0
ENDTAB
  0
TABLE
  2
LAYER
  5
2
102
{ACAD_XDICTIONARY
360
780
102
}
330
0
100
AcDbSymbolTable
 70
     9
  0
LAYER
  5
10
102
{ACAD_XDICTIONARY
360
76D
102
}
330
2
100
AcDbSymbolTableRecord
100
AcDbLayerTableRecord
  2
0
 70
     0
 62
     7
  6
Continuous
370
    -3
390
F
347
756
  0
LAYER
  5
5D
102
{ACAD_XDICTIONARY
360
76F
102
}
330
2
100
AcDbSymbolTableRecord
100
AcDbLayerTableRecord
  2
Default
 70
     0
 62
     7
  6
Continuous
370
    -3
390
F
347
756
  0
LAYER
  5
60
102
{ACAD_XDICTIONARY
360
771
102
}
330
2
100
AcDbSymbolTableRecord
100
AcDbLayerTableRecord
  2
SUN_SHIELD_SNC-C
 70
     0
 62
     7
  6
Continuous
370
    -3
390
F
347
756
  0
LAYER
  5
71
102
{ACAD_XDICTIONARY
360
773
102
}
330
2
100
AcDbSymbolTableRecord
100
AcDbLayerTableRecord
  2
HOUSING_BODY
 70
     0
 62
     7
  6
Continuous
370
    -3
390
F
347
756
  0
LAYER
  5
78
102
{ACAD_XDICTIONARY
360
775
102
}
330
2
100
AcDbSymbolTableRecord
100
AcDbLayerTableRecord
  2
HOUSING_FRONT_TR
 70
     0
 62
     7
  6
Continuous
370
    -3
390
F
347
756
  0
LAYER
  5
87
102
{ACAD_XDICTIONARY
360
777
102
}
330
2
100
AcDbSymbolTableRecord
100
AcDbLayerTableRecord
  2
DOME_165PI
 70
     0
 62
     7
  6
Continuous
370
    -3
390
F
347
756
  0
LAYER
  5
8C
102
{ACAD_XDICTIONARY
360
779
102
}
330
2
100
AcDbSymbolTableRecord
100
AcDbLayerTableRecord
  2
COVER_SUN_SHILED
 70
     0
 62
     7
  6
Continuous
370
    -3
390
F
347
756
  0
LAYER
  5
E9
102
{ACAD_XDICTIONARY
360
77B
102
}
330
2
100
AcDbSymbolTableRecord
100
AcDbLayerTableRecord
  2
HEX_M4X16
 70
     0
 62
     7
  6
Continuous
370
    -3
390
F
347
756
  0
LAYER
  5
1C7
330
2
100
AcDbSymbolTableRecord
100
AcDbLayerTableRecord
  2
Defpoints
 70
     0
 62
     7
  6
Continuous
290
     0
370
    -3
390
F
347
756
  0
ENDTAB
  0
TABLE
  2
STYLE
  5
3
330
0
100
AcDbSymbolTable
 70
     2
  0
STYLE
  5
11
330
3
100
AcDbSymbolTableRecord
100
AcDbTextStyleTableRecord
  2
Standard
 70
     0
 40
0.0
 41
1.0
 50
0.0
 71
     0
 42
2.5
  3
txt
  4

  0
ENDTAB
  0
TABLE
  2
VIEW
  5
6
330
0
100
AcDbSymbolTable
 70
     2
  0
ENDTAB
  0
TABLE
  2
UCS
  5
7
330
0
100
AcDbSymbolTable
 70
     0
  0
ENDTAB
  0
TABLE
  2
APPID
  5
9
330
0
100
AcDbSymbolTable
 70
    12
  0
APPID
  5
12
330
9
100
AcDbSymbolTableRecord
100
AcDbRegAppTableRecord
  2
ACAD
 70
     0
  0
APPID
  5
1E1
330
9
100
AcDbSymbolTableRecord
100
AcDbRegAppTableRecord
  2
ACAD_DSTYLE_DIMTEXT_FILL
 70
     0
  0
APPID
  5
1E2
330
9
100
AcDbSymbolTableRecord
100
AcDbRegAppTableRecord
  2
ACAD_DSTYLE_DIMEXT_LENGTH
 70
     0
  0
APPID
  5
1E3
330
9
100
AcDbSymbolTableRecord
100
AcDbRegAppTableRecord
  2
ACAD_DSTYLE_DIMEXT_ENABLED
 70
     0
  0
APPID
  5
1E4
330
9
100
AcDbSymbolTableRecord
100
AcDbRegAppTableRecord
  2
ACAD_DSTYLE_DIM_LINETYPE
 70
     0
  0
APPID
  5
1E5
330
9
100
AcDbSymbolTableRecord
100
AcDbRegAppTableRecord
  2
ACAD_DSTYLE_DIM_EXT1_LINETYPE
 70
     0
  0
APPID
  5
1E6
330
9
100
AcDbSymbolTableRecord
100
AcDbRegAppTableRecord
  2
ACAD_DSTYLE_DIM_EXT2_LINETYPE
 70
     0
  0
APPID
  5
2A2
330
9
100
AcDbSymbolTableRecord
100
AcDbRegAppTableRecord
  2
ACAD_DSTYLE_DIMJOGGED_JOGANGLE_SYMBOL
 70
     0
  0
APPID
  5
696
330
9
100
AcDbSymbolTableRecord
100
AcDbRegAppTableRecord
  2
ACAD_DSTYLE_DIMARC_LENGTH_SYMBOL
 70
     0
  0
APPID
  5
76B
330
9
100
AcDbSymbolTableRecord
100
AcDbRegAppTableRecord
  2
ACAD_EXEMPT_FROM_CAD_STANDARDS
 70
     0
  0
APPID
  5
80B
330
9
100
AcDbSymbolTableRecord
100
AcDbRegAppTableRecord
  2
ACAD_PSEXT
 70
     0
  0
APPID
  5
852
330
9
100
AcDbSymbolTableRecord
100
AcDbRegAppTableRecord
  2
ACAD_MLEADERVER
 70
     0
  0
ENDTAB
  0
TABLE
  2
DIMSTYLE
  5
A
330
0
100
AcDbSymbolTable
 70
     2
100
AcDbDimStyleTable
 71
     1
340
27
  0
DIMSTYLE
105
27
102
{ACAD_REACTORS
330
1C6
330
1D4
330
6F2
330
6FF
330
712
102
}
330
A
100
AcDbSymbolTableRecord
100
AcDbDimStyleTableRecord
  2
ISO-25
 70
     0
 41
8.0
 42
2.0
 43
8.0
 44
2.0
 49
1.25
 50
90.0
 73
     0
 77
     1
 78
     8
140
8.0
141
8.0
143
0.03937007874016
147
2.0
171
     3
172
     1
271
     2
272
     2
274
     3
283
     0
284
     8
340
11
1001
ACAD_DSTYLE_DIMJOGGED_JOGANGLE_SYMBOL
1070
   384
1040
1.570796326794896
  0
ENDTAB
  0
TABLE
  2
BLOCK_RECORD
  5
1
330
0
100
AcDbSymbolTable
 70
     8
  0
BLOCK_RECORD
  5
1F
102
{ACAD_XDICTIONARY
360
143
102
}
330
1
100
AcDbSymbolTableRecord
100
AcDbBlockTableRecord
  2
*Model_Space
340
22
 70
     0
280
     1
281
     0
  0
BLOCK_RECORD
  5
1B
330
1
100
AcDbSymbolTableRecord
100
AcDbBlockTableRecord
  2
*Paper_Space
340
1E
 70
     0
280
     1
281
     0
  0
BLOCK_RECORD
  5
5E
330
1
100
AcDbSymbolTableRecord
100
AcDbBlockTableRecord
  2
SE
340
0
 70
     0
280
     1
281
     0
  0
BLOCK_RECORD
  5
D5
330
1
100
AcDbSymbolTableRecord
100
AcDbBlockTableRecord
  2
SE1
340
0
 70
     0
280
     1
281
     0
  0
BLOCK_RECORD
  5
1C8
330
1
100
AcDbSymbolTableRecord
100
AcDbBlockTableRecord
  2
*D2
340
0
 70
     0
280
     1
281
     0
  0
BLOCK_RECORD
  5
1D5
330
1
100
AcDbSymbolTableRecord
100
AcDbBlockTableRecord
  2
*D3
340
0
 70
     0
280
     1
281
     0
  0
BLOCK_RECORD
  5
6F3
330
1
100
AcDbSymbolTableRecord
100
AcDbBlockTableRecord
  2
*D4
340
0
 70
     0
280
     1
281
     0
  0
BLOCK_RECORD
  5
700
330
1
100
AcDbSymbolTableRecord
100
AcDbBlockTableRecord
  2
*D5
340
0
 70
     0
280
     1
281
     0
  0
BLOCK_RECORD
  5
713
330
1
100
AcDbSymbolTableRecord
100
AcDbBlockTableRecord
  2
*D6
340
0
 70
     0
280
     1
281
     0
  0
ENDTAB
  0
ENDSEC
  0
SECTION
  2
BLOCKS
  0
BLOCK
  5
20
330
1F
100
AcDbEntity
  8
0
100
AcDbBlockBegin
  2
*Model_Space
 70
     0
 10
0.0
 20
0.0
 30
0.0
  3
*Model_Space
  1

  0
ENDBLK
  5
21
330
1F
100
AcDbEntity
  8
0
100
AcDbBlockEnd
  0
BLOCK
  5
1C
330
1B
100
AcDbEntity
 67
     1
  8
0
100
AcDbBlockBegin
  2
*Paper_Space
 70
     0
 10
0.0
 20
0.0
 30
0.0
  3
*Paper_Space
  1

  0
ENDBLK
  5
1D
330
1B
100
AcDbEntity
 67
     1
  8
0
100
AcDbBlockEnd
  0
BLOCK
  5
D3
330
5E
100
AcDbEntity
  8
0
100
AcDbBlockBegin
  2
SE
 70
     0
 10
0.0
 20
0.0
 30
0.0
  3
SE
  1

  0
LINE
  5
61
330
5E
100
AcDbEntity
  8
SUN_SHIELD_SNC-C
  6
Continuous
 62
     7
100
AcDbLine
 10
95.85112258279337
 20
448.8244707572109
 30
0.0
 11
345.8511225827934
 21
448.8244707572108
 31
0.0
  0
LINE
  5
62
330
5E
100
AcDbEntity
  8
SUN_SHIELD_SNC-C
  6
Continuous
 62
     7
100
AcDbLine
 10
155.8511225827934
 20
598.8244707572106
 30
0.0
 11
285.8511225827935
 21
598.8244707572106
 31
0.0
  0
LINE
  5
63
330
5E
100
AcDbEntity
  8
SUN_SHIELD_SNC-C
  6
Continuous
 62
     7
100
AcDbLine
 10
110.5924503915536
 20
560.5869058475524
 30
0.0
 11
331.1097947740332
 21
560.5869058475524
 31
0.0
  0
LINE
  5
64
330
5E
100
AcDbEntity
  8
SUN_SHIELD_SNC-C
  6
Continuous
 62
     7
100
AcDbLine
 10
124.7986376736136
 20
580.5583031635754
 30
0.0
 11
316.9036074919731
 21
580.5583031635754
 31
0.0
  0
LINE
  5
65
330
5E
100
AcDbEntity
  8
SUN_SHIELD_SNC-C
  6
Continuous
 62
     7
100
AcDbLine
 10
91.3511225827934
 20
429.8840435836681
 30
0.0
 11
350.3511225827933
 21
429.8840435836681
 31
0.0
  0
LINE
  5
66
330
5E
100
AcDbEntity
  8
SUN_SHIELD_SNC-C
  6
Continuous
 62
     7
100
AcDbLine
 10
91.35112258279338
 20
428.8244707572107
 30
0.0
 11
350.3511225827934
 21
428.8244707572106
 31
0.0
  0
ARC
  5
67
330
5E
100
AcDbEntity
  8
SUN_SHIELD_SNC-C
  6
Continuous
 62
     7
100
AcDbCircle
 10
395.8162800824856
 20
450.6907601321333
 30
0.0
 40
49.99999999999998
100
AcDbArc
 50
182.1391069926575
 51
204.5907710391381
  0
ARC
  5
68
330
5E
100
AcDbEntity
  8
SUN_SHIELD_SNC-C
  6
Continuous
 62
     7
100
AcDbCircle
 10
45.88596508310113
 20
450.6907601321334
 30
0.0
 40
50.0
100
AcDbArc
 50
335.4092289608619
 51
357.8608930073425
  0
ARC
  5
69
330
5E
100
AcDbEntity
  8
SUN_SHIELD_SNC-C
  6
Continuous
 62
     7
100
AcDbCircle
 10
944.0681976288063
 20
393.7990802507687
 30
0.0
 40
850.0000000000001
100
AcDbArc
 50
168.683941835928
 51
176.2883190193204
  0
ARC
  5
6A
330
5E
100
AcDbEntity
  8
SUN_SHIELD_SNC-C
  6
Continuous
 62
     7
100
AcDbCircle
 10
-502.3659524632198
 20
393.799080250769
 30
0.0
 40
850.0000000000001
100
AcDbArc
 50
3.711680980679604
 51
11.316058164072
  0
LINE
  5
6B
330
5E
100
AcDbEntity
  8
SUN_SHIELD_SNC-C
  6
Continuous
 62
     7
100
AcDbLine
 10
316.9036074919732
 20
580.5583031635754
 30
0.0
 11
285.8511225827935
 21
598.8244707572106
 31
0.0
  0
LINE
  5
6C
330
5E
100
AcDbEntity
  8
SUN_SHIELD_SNC-C
  6
Continuous
 62
     7
100
AcDbLine
 10
155.8511225827934
 20
598.8244707572106
 30
0.0
 11
124.7986376736136
 21
580.5583031635754
 31
0.0
  0
ARC
  5
6D
330
5E
100
AcDbEntity
  8
SUN_SHIELD_SNC-C
  6
Continuous
 62
     7
100
AcDbCircle
 10
140.0092414705155
 20
554.7002767088423
 30
0.0
 40
30.00000000000005
100
AcDbArc
 50
120.4655449194598
 51
168.6839418359279
  0
ARC
  5
6E
330
5E
100
AcDbEntity
  8
SUN_SHIELD_SNC-C
  6
Continuous
 62
     7
100
AcDbCircle
 10
301.6930036950713
 20
554.7002767088423
 30
0.0
 40
30.0
100
AcDbArc
 50
11.31605816407193
 51
59.53445508054027
  0
LINE
  5
6F
330
5E
100
AcDbEntity
  8
SUN_SHIELD_SNC-C
  6
Continuous
 62
     7
100
AcDbLine
 10
350.3511225827934
 20
428.8244707572106
 30
0.0
 11
350.3511225827934
 21
429.884043583668
 31
0.0
  0
LINE
  5
70
330
5E
100
AcDbEntity
  8
SUN_SHIELD_SNC-C
  6
Continuous
 62
     7
100
AcDbLine
 10
91.35112258279338
 20
429.8840435836681
 30
0.0
 11
91.35112258279338
 21
428.8244707572107
 31
0.0
  0
LINE
  5
72
330
5E
100
AcDbEntity
  8
HOUSING_BODY
  6
Continuous
 62
     7
100
AcDbLine
 10
197.1011225827936
 20
634.8244707572107
 30
0.0
 11
244.6011225827931
 21
634.8244707572107
 31
0.0
  0
LINE
  5
73
330
5E
100
AcDbEntity
  8
HOUSING_BODY
  6
Continuous
 62
     7
100
AcDbLine
 10
200.1011225827936
 20
637.8244707572108
 30
0.0
 11
241.6011225827932
 21
637.8244707572108
 31
0.0
  0
LINE
  5
74
330
5E
100
AcDbEntity
  8
HOUSING_BODY
  6
Continuous
 62
     7
100
AcDbLine
 10
244.6011225827934
 20
615.8244707572106
 30
0.0
 11
244.6011225827934
 21
634.8244707572106
 31
0.0
  0
LINE
  5
75
330
5E
100
AcDbEntity
  8
HOUSING_BODY
  6
Continuous
 62
     7
100
AcDbLine
 10
197.1011225827933
 20
634.8244707572107
 30
0.0
 11
197.1011225827933
 21
615.8244707572107
 31
0.0
  0
LINE
  5
76
330
5E
100
AcDbEntity
  8
HOUSING_BODY
  6
Continuous
 62
     7
100
AcDbLine
 10
244.6011225827934
 20
634.8244707572107
 30
0.0
 11
241.6011225827934
 21
637.8244707572108
 31
0.0
  0
LINE
  5
77
330
5E
100
AcDbEntity
  8
HOUSING_BODY
  6
Continuous
 62
     7
100
AcDbLine
 10
200.1011225827934
 20
637.8244707572108
 30
0.0
 11
197.1011225827933
 21
634.8244707572107
 31
0.0
  0
LINE
  5
79
330
5E
100
AcDbEntity
  8
HOUSING_FRONT_TR
  6
Continuous
 62
     7
100
AcDbLine
 10
128.8511225827934
 20
410.8244707572105
 30
0.0
 11
312.8511225827935
 21
410.8244707572105
 31
0.0
  0
LINE
  5
7A
330
5E
100
AcDbEntity
  8
HOUSING_FRONT_TR
  6
Continuous
 62
     7
100
AcDbLine
 10
105.8511225827934
 20
428.3159540520861
 30
0.0
 11
335.8511225827934
 21
428.3159540520861
 31
0.0
  0
LINE
  5
7B
330
5E
100
AcDbEntity
  8
HOUSING_FRONT_TR
  6
Continuous
 62
     7
100
AcDbLine
 10
334.5671481511104
 20
426.0906751567913
 30
0.0
 11
107.1350970144763
 21
426.0906751567913
 31
0.0
  0
ARC
  5
7C
330
5E
100
AcDbEntity
  8
HOUSING_FRONT_TR
  6
Continuous
 62
     7
100
AcDbCircle
 10
377.4053901493385
 20
340.3829069241491
 30
0.0
 40
95.39373334737639
100
AcDbArc
 50
122.7109681543911
 51
129.5430372207701
  0
ARC
  5
7D
330
5E
100
AcDbEntity
  8
HOUSING_FRONT_TR
  6
Continuous
 62
     7
100
AcDbCircle
 10
64.27061074866831
 20
340.3469133088344
 30
0.0
 40
95.43821890652248
100
AcDbArc
 50
50.45889224736185
 51
57.28720227126729
  0
SPLINE
  5
7E
330
5E
100
AcDbEntity
  8
HOUSING_FRONT_TR
  6
Continuous
 62
     7
100
AcDbSpline
210
0.0
220
0.0
230
1.0
 70
    11
 71
     3
 72
    28
 73
    24
 74
     0
 42
0.0000000001
 43
0.0000000001
 40
0.0
 40
0.0
 40
0.0
 40
0.0
 40
0.1250000000000009
 40
0.1250000000000009
 40
0.2500000000000017
 40
0.2500000000000017
 40
0.3125000000000016
 40
0.3125000000000016
 40
0.3750000000000015
 40
0.3750000000000015
 40
0.4375000000000015
 40
0.4375000000000015
 40
0.5000000000000014
 40
0.5000000000000014
 40
0.6250000000000013
 40
0.6250000000000013
 40
0.750000000000001
 40
0.750000000000001
 40
0.8750000000000008
 40
0.8750000000000008
 40
0.9375000000000003
 40
0.9375000000000003
 40
1.0
 40
1.0
 40
1.0
 40
1.0
 10
222.7239698220748
 20
414.2749846873378
 30
0.0
 10
223.9020458310964
 20
414.7068534595006
 30
0.0
 10
224.6949377740341
 20
415.4544764663175
 30
0.0
 10
225.5129303809006
 20
417.0047435677461
 30
0.0
 10
225.5503502929815
 20
417.832734826929
 30
0.0
 10
225.0033849901963
 20
418.9423991922195
 30
0.0
 10
224.7251874628626
 20
419.2856776521991
 30
0.0
 10
223.9391302801636
 20
419.9020992829207
 30
0.0
 10
223.4398836130671
 20
420.1627676375718
 30
0.0
 10
222.2805765459757
 20
420.5315662124818
 30
0.0
 10
221.6123118509011
 20
420.6388527248256
 30
0.0
 10
220.26976580091
 20
420.6558331738728
 30
0.0
 10
219.5890987366707
 20
420.5654036602552
 30
0.0
 10
217.7924584728057
 20
420.0456646487341
 30
0.0
 10
216.9557831611369
 20
419.3920089814197
 30
0.0
 10
216.1612289775328
 20
417.9158540276898
 30
0.0
 10
216.1739245549009
 20
417.0890708538488
 30
0.0
 10
216.9413234973312
 20
415.5297590650782
 30
0.0
 10
217.7106153818761
 20
414.7712511108328
 30
0.0
 10
219.4451635070615
 20
414.0902121370109
 30
0.0
 10
220.1127571358443
 20
413.9539032219508
 30
0.0
 10
221.4567170522812
 20
413.9377742808043
 30
0.0
 10
222.134931817564
 20
414.0590503012565
 30
0.0
 10
222.7239698220748
 20
414.2749846873378
 30
0.0
  0
LINE
  5
7F
330
5E
100
AcDbEntity
  8
HOUSING_FRONT_TR
  6
Continuous
 62
     7
100
AcDbLine
 10
105.8511225827934
 20
428.8244707572106
 30
0.0
 11
105.8511225827934
 21
428.315954052086
 31
0.0
  0
LINE
  5
80
330
5E
100
AcDbEntity
  8
HOUSING_FRONT_TR
  6
Continuous
 62
     7
100
AcDbLine
 10
335.8511225827935
 20
428.3159540520861
 30
0.0
 11
335.8511225827935
 21
428.8244707572107
 31
0.0
  0
ARC
  5
81
330
5E
100
AcDbEntity
  8
HOUSING_FRONT_TR
  6
Continuous
 62
     7
100
AcDbCircle
 10
32.06583887080483
 20
296.2268754212269
 30
0.0
 40
150.0
100
AcDbArc
 50
49.81668589670118
 51
51.7160412503785
  0
ARC
  5
82
330
5E
100
AcDbEntity
  8
HOUSING_FRONT_TR
  6
Continuous
 62
     7
100
AcDbCircle
 10
32.06583887080483
 20
296.2268754212269
 30
0.0
 40
149.9999999999999
100
AcDbArc
 50
56.04301315780763
 51
59.96944808299513
  0
ARC
  5
83
330
5E
100
AcDbEntity
  8
HOUSING_FRONT_TR
  6
Continuous
 62
     7
100
AcDbCircle
 10
409.636406294782
 20
296.2268754212269
 30
0.0
 40
150.0
100
AcDbArc
 50
120.0305519170048
 51
123.9768233353644
  0
ARC
  5
84
330
5E
100
AcDbEntity
  8
HOUSING_FRONT_TR
  6
Continuous
 62
     7
100
AcDbCircle
 10
409.636406294782
 20
296.2268754212269
 30
0.0
 40
150.0
100
AcDbArc
 50
128.2924272566099
 51
130.1833141032988
  0
LINE
  5
85
330
5E
100
AcDbEntity
  8
HOUSING_FRONT_TR
  6
Continuous
 62
     7
100
AcDbLine
 10
105.8511225827934
 20
428.3159540520861
 30
0.0
 11
107.1350970144764
 21
426.0906751567913
 31
0.0
  0
LINE
  5
86
330
5E
100
AcDbEntity
  8
HOUSING_FRONT_TR
  6
Continuous
 62
     7
100
AcDbLine
 10
334.5671481511104
 20
426.0906751567913
 30
0.0
 11
335.8511225827934
 21
428.3159540520861
 31
0.0
  0
LINE
  5
88
330
5E
100
AcDbEntity
  8
DOME_165PI
  6
Continuous
 62
     7
100
AcDbLine
 10
138.1511225827934
 20
409.8244707572105
 30
0.0
 11
303.5511225827934
 21
409.8244707572105
 31
0.0
  0
ARC
  5
89
330
5E
100
AcDbEntity
  8
DOME_165PI
  6
Continuous
 62
     7
100
AcDbCircle
 10
220.8511225827934
 20
409.8244707572105
 30
0.0
 40
82.5
100
AcDbArc
 50
180.0
 51
0.0
  0
LINE
  5
8A
330
5E
100
AcDbEntity
  8
DOME_165PI
  6
Continuous
 62
     7
100
AcDbLine
 10
138.1249366612242
 20
410.8244707572105
 30
0.0
 11
138.1511225827934
 21
409.8244707572105
 31
0.0
  0
LINE
  5
8B
330
5E
100
AcDbEntity
  8
DOME_165PI
  6
Continuous
 62
     7
100
AcDbLine
 10
303.5511225827934
 20
409.8244707572105
 30
0.0
 11
303.5773085043626
 21
410.8244707572105
 31
0.0
  0
LINE
  5
8D
330
5E
100
AcDbEntity
  8
COVER_SUN_SHILED
  6
Continuous
 62
     7
100
AcDbLine
 10
190.8511225827937
 20
615.8244707572107
 30
0.0
 11
250.8511225827931
 21
615.8244707572107
 31
0.0
  0
LINE
  5
8E
330
5E
100
AcDbEntity
  8
COVER_SUN_SHILED
  6
Continuous
 62
     7
100
AcDbLine
 10
264.2166344052474
 20
598.8244707572106
 30
0.0
 11
264.0343461858766
 21
608.3375592313646
 31
0.0
  0
LINE
  5
8F
330
5E
100
AcDbEntity
  8
COVER_SUN_SHILED
  6
Continuous
 62
     7
100
AcDbLine
 10
272.7838951849256
 20
598.8244707572106
 30
0.0
 11
272.7050316855588
 21
608.3375592313646
 31
0.0
  0
LINE
  5
90
330
5E
100
AcDbEntity
  8
COVER_SUN_SHILED
  6
Continuous
 62
     7
100
AcDbLine
 10
164.1890834233662
 20
598.8244707572106
 30
0.0
 11
164.427263991062
 21
608.3375592313646
 31
0.0
  0
LINE
  5
91
330
5E
100
AcDbEntity
  8
COVER_SUN_SHILED
  6
Continuous
 62
     7
100
AcDbLine
 10
207.5545952458202
 20
598.8244707572106
 30
0.0
 11
207.6104875941451
 21
608.3375592313646
 31
0.0
  0
LINE
  5
92
330
5E
100
AcDbEntity
  8
COVER_SUN_SHILED
  6
Continuous
 62
     7
100
AcDbLine
 10
222.470930462549
 20
598.8244707572106
 30
0.0
 11
222.6361371196371
 21
608.3375592313646
 31
0.0
  0
LINE
  5
93
330
5E
100
AcDbEntity
  8
COVER_SUN_SHILED
  6
Continuous
 62
     7
100
AcDbLine
 10
222.9948141969109
 20
608.3375592313647
 30
0.0
 11
223.0038633066024
 21
598.8244707572107
 31
0.0
  0
LINE
  5
94
330
5E
100
AcDbEntity
  8
COVER_SUN_SHILED
  6
Continuous
 62
     7
100
AcDbLine
 10
264.0343461858766
 20
608.3375592313647
 30
0.0
 11
222.9948141969109
 21
608.3375592313647
 31
0.0
  0
LINE
  5
95
330
5E
100
AcDbEntity
  8
COVER_SUN_SHILED
  6
Continuous
 62
     7
100
AcDbLine
 10
164.9051651507911
 20
608.8244707572106
 30
0.0
 11
162.3382010182542
 21
608.8244707572106
 31
0.0
  0
LINE
  5
96
330
5E
100
AcDbEntity
  8
COVER_SUN_SHILED
  6
Continuous
 62
     7
100
AcDbLine
 10
164.9051651507911
 20
608.8244707572106
 30
0.0
 11
164.9111883221564
 21
608.8244707572106
 31
0.0
  0
LINE
  5
97
330
5E
100
AcDbEntity
  8
COVER_SUN_SHILED
  6
Continuous
 62
     7
100
AcDbLine
 10
164.9111883221564
 20
608.8244707572106
 30
0.0
 11
171.2716850650171
 21
608.8244707572106
 31
0.0
  0
LINE
  5
98
330
5E
100
AcDbEntity
  8
COVER_SUN_SHILED
  6
Continuous
 62
     7
100
AcDbLine
 10
171.2716850650179
 20
608.8244707572106
 30
0.0
 11
171.2736583058833
 21
608.8244707572106
 31
0.0
  0
LINE
  5
99
330
5E
100
AcDbEntity
  8
COVER_SUN_SHILED
  6
Continuous
 62
     7
100
AcDbLine
 10
171.2736583058832
 20
608.8244707572106
 30
0.0
 11
207.7226336787015
 21
608.8244707572106
 31
0.0
  0
LINE
  5
9A
330
5E
100
AcDbEntity
  8
COVER_SUN_SHILED
  6
Continuous
 62
     7
100
AcDbLine
 10
272.5541217448405
 20
608.8244707572106
 30
0.0
 11
279.3640441473326
 21
608.8244707572106
 31
0.0
  0
LINE
  5
9B
330
5E
100
AcDbEntity
  8
COVER_SUN_SHILED
  6
Continuous
 62
     7
100
AcDbLine
 10
207.7226336787015
 20
608.8244707572106
 30
0.0
 11
207.732122062487
 21
608.8244707572106
 31
0.0
  0
LINE
  5
9C
330
5E
100
AcDbEntity
  8
COVER_SUN_SHILED
  6
Continuous
 62
     7
100
AcDbLine
 10
272.5467947723952
 20
608.8244707572106
 30
0.0
 11
272.5541217448405
 21
608.8244707572106
 31
0.0
  0
LINE
  5
9D
330
5E
100
AcDbEntity
  8
COVER_SUN_SHILED
  6
Continuous
 62
     7
100
AcDbLine
 10
207.732122062487
 20
608.8244707572106
 30
0.0
 11
222.9676186245355
 21
608.8244707572106
 31
0.0
  0
LINE
  5
9E
330
5E
100
AcDbEntity
  8
COVER_SUN_SHILED
  6
Continuous
 62
     7
100
AcDbLine
 10
263.6720563231241
 20
608.8244707572106
 30
0.0
 11
272.5467947723952
 21
608.8244707572106
 31
0.0
  0
LINE
  5
9F
330
5E
100
AcDbEntity
  8
COVER_SUN_SHILED
  6
Continuous
 62
     7
100
AcDbLine
 10
222.9676186245355
 20
608.8244707572106
 30
0.0
 11
222.9766574679302
 21
608.8244707572106
 31
0.0
  0
LINE
  5
A0
330
5E
100
AcDbEntity
  8
COVER_SUN_SHILED
  6
Continuous
 62
     7
100
AcDbLine
 10
263.6685911107039
 20
608.8244707572106
 30
0.0
 11
263.6720571789364
 21
608.8244707572106
 31
0.0
  0
LINE
  5
A1
330
5E
100
AcDbEntity
  8
COVER_SUN_SHILED
  6
Continuous
 62
     7
100
AcDbLine
 10
222.9766574679302
 20
608.8244707572106
 30
0.0
 11
263.6685911107038
 21
608.8244707572106
 31
0.0
  0
LINE
  5
A2
330
5E
100
AcDbEntity
  8
COVER_SUN_SHILED
  6
Continuous
 62
     7
100
AcDbLine
 10
264.1718518609677
 20
608.3375592313647
 30
0.0
 11
264.4209443406822
 21
598.8244707572107
 31
0.0
  0
LINE
  5
A3
330
5E
100
AcDbEntity
  8
COVER_SUN_SHILED
  6
Continuous
 62
     7
100
AcDbLine
 10
264.1718858419498
 20
608.3375592313647
 30
0.0
 11
264.0343461858766
 21
608.3375592313647
 31
0.0
  0
LINE
  5
A4
330
5E
100
AcDbEntity
  8
COVER_SUN_SHILED
  6
Continuous
 62
     7
100
AcDbLine
 10
222.9948141969109
 20
608.3375592313647
 30
0.0
 11
222.6361371196371
 21
608.3375592313647
 31
0.0
  0
LINE
  5
A5
330
5E
100
AcDbEntity
  8
COVER_SUN_SHILED
  6
Continuous
 62
     7
100
AcDbLine
 10
272.7050316855588
 20
608.3375592313647
 30
0.0
 11
264.1718518609677
 21
608.3375592313647
 31
0.0
  0
LINE
  5
A6
330
5E
100
AcDbEntity
  8
COVER_SUN_SHILED
  6
Continuous
 62
     7
100
AcDbLine
 10
207.9870032185049
 20
608.3375592313647
 30
0.0
 11
208.1140331224911
 21
598.8244707572107
 31
0.0
  0
LINE
  5
A7
330
5E
100
AcDbEntity
  8
COVER_SUN_SHILED
  6
Continuous
 62
     7
100
AcDbLine
 10
222.636137119637
 20
608.3375592313647
 30
0.0
 11
207.9870032185049
 21
608.3375592313647
 31
0.0
  0
LINE
  5
A8
330
5E
100
AcDbEntity
  8
COVER_SUN_SHILED
  6
Continuous
 62
     7
100
AcDbLine
 10
272.9957787366088
 20
608.3375592313647
 30
0.0
 11
273.215895618279
 21
598.8244707572107
 31
0.0
  0
LINE
  5
A9
330
5E
100
AcDbEntity
  8
COVER_SUN_SHILED
  6
Continuous
 62
     7
100
AcDbLine
 10
272.9957787366088
 20
608.3375592313647
 30
0.0
 11
272.7050316855588
 21
608.3375592313647
 31
0.0
  0
LINE
  5
AA
330
5E
100
AcDbEntity
  8
COVER_SUN_SHILED
  6
Continuous
 62
     7
100
AcDbLine
 10
207.9870032185049
 20
608.3375592313647
 30
0.0
 11
207.6104875941451
 21
608.3375592313647
 31
0.0
  0
LINE
  5
AB
330
5E
100
AcDbEntity
  8
COVER_SUN_SHILED
  6
Continuous
 62
     7
100
AcDbLine
 10
279.8638728098203
 20
608.3375592313647
 30
0.0
 11
272.9957787366088
 21
608.3375592313647
 31
0.0
  0
LINE
  5
AC
330
5E
100
AcDbEntity
  8
COVER_SUN_SHILED
  6
Continuous
 62
     7
100
AcDbLine
 10
170.8501580430955
 20
608.3375592313647
 30
0.0
 11
170.6390902711167
 21
598.8244707572107
 31
0.0
  0
LINE
  5
AD
330
5E
100
AcDbEntity
  8
COVER_SUN_SHILED
  6
Continuous
 62
     7
100
AcDbLine
 10
207.6104875941451
 20
608.3375592313647
 30
0.0
 11
170.8501580430955
 21
608.3375592313647
 31
0.0
  0
LINE
  5
AE
330
5E
100
AcDbEntity
  8
COVER_SUN_SHILED
  6
Continuous
 62
     7
100
AcDbLine
 10
170.8501580430955
 20
608.3375592313647
 30
0.0
 11
170.7718564025293
 21
608.3375592313647
 31
0.0
  0
LINE
  5
AF
330
5E
100
AcDbEntity
  8
COVER_SUN_SHILED
  6
Continuous
 62
     7
100
AcDbLine
 10
164.6662739403307
 20
608.3375592313647
 30
0.0
 11
164.5442113646023
 21
598.8244707572107
 31
0.0
  0
LINE
  5
B0
330
5E
100
AcDbEntity
  8
COVER_SUN_SHILED
  6
Continuous
 62
     7
100
AcDbLine
 10
170.7822280168717
 20
608.3375592313647
 30
0.0
 11
164.6662739403306
 21
608.3375592313647
 31
0.0
  0
LINE
  5
B1
330
5E
100
AcDbEntity
  8
COVER_SUN_SHILED
  6
Continuous
 62
     7
100
AcDbLine
 10
164.6662739403306
 20
608.3375592313647
 30
0.0
 11
164.4272639910619
 21
608.3375592313647
 31
0.0
  0
LINE
  5
B2
330
5E
100
AcDbEntity
  8
COVER_SUN_SHILED
  6
Continuous
 62
     7
100
AcDbLine
 10
161.8383723557665
 20
608.3375592313647
 30
0.0
 11
164.4272639910619
 21
608.3375592313647
 31
0.0
  0
ELLIPSE
  5
B3
330
5E
100
AcDbEntity
  8
COVER_SUN_SHILED
  6
Continuous
 62
     7
100
AcDbEllipse
 10
164.9051651507911
 20
608.3244707572107
 30
0.0
 11
0.0000000000004163
 21
0.4999999999999727
 31
0.0
210
0.0
220
0.0
230
1.0
 40
0.9561299613162846
 41
0.0
 42
1.544616388015728
  0
ELLIPSE
  5
B4
330
5E
100
AcDbEntity
  8
COVER_SUN_SHILED
  6
Continuous
 62
     7
100
AcDbEllipse
 10
164.9111883221564
 20
608.3244707572106
 30
0.0
 11
-0.0000000000000139
 21
0.5000000000000283
 31
0.0
210
0.0
220
0.0
230
1.0
 40
0.4899966732735165
 41
0.0
 42
1.544616388014694
  0
ELLIPSE
  5
B5
330
5E
100
AcDbEntity
  8
COVER_SUN_SHILED
  6
Continuous
 62
     7
100
AcDbEllipse
 10
171.2736583058832
 20
608.3244707572106
 30
0.0
 11
-0.0000000000000971
 21
0.5000000000000283
 31
0.0
210
0.0
220
0.0
230
1.0
 40
0.8472908709954557
 41
0.0
 42
1.544616388014543
  0
ELLIPSE
  5
B6
330
5E
100
AcDbEntity
  8
COVER_SUN_SHILED
  6
Continuous
 62
     7
100
AcDbEllipse
 10
272.5541217448405
 20
608.3244707572107
 30
0.0
 11
0.0000000000001388
 21
-0.4999999999999727
 31
0.0
210
0.0
220
0.0
230
1.0
 40
0.8836167769373973
 41
1.596976265574615
 42
3.141592653589793
  0
ELLIPSE
  5
B7
330
5E
100
AcDbEntity
  8
COVER_SUN_SHILED
  6
Continuous
 62
     7
100
AcDbEllipse
 10
207.7226336787015
 20
608.3244707572107
 30
0.0
 11
0.0000000000000069
 21
0.5000000000000005
 31
0.0
210
0.0
220
0.0
230
1.0
 40
0.2243690547840434
 41
0.0
 42
1.544616388014937
  0
ELLIPSE
  5
B8
330
5E
100
AcDbEntity
  8
COVER_SUN_SHILED
  6
Continuous
 62
     7
100
AcDbEllipse
 10
272.5467947723952
 20
608.3244707572107
 30
0.0
 11
0.0
 21
-0.4999999999999727
 31
0.0
210
0.0
220
0.0
230
1.0
 40
0.316582311178373
 41
1.59697626557486
 42
3.141592653589793
  0
ELLIPSE
  5
B9
330
5E
100
AcDbEntity
  8
COVER_SUN_SHILED
  6
Continuous
 62
     7
100
AcDbEllipse
 10
207.732122062487
 20
608.3244707572107
 30
0.0
 11
0.0
 21
0.5000000000000005
 31
0.0
210
0.0
220
0.0
230
1.0
 40
0.5099370547283736
 41
4.738568919164651
 42
6.283185307179586
  0
ELLIPSE
  5
BA
330
5E
100
AcDbEntity
  8
COVER_SUN_SHILED
  6
Continuous
 62
     7
100
AcDbEllipse
 10
263.6720563231241
 20
608.3244707572107
 30
0.0
 11
0.0000000000049682
 21
-0.4999999999994732
 31
0.0
210
0.0
220
0.0
230
1.0
 40
0.9999337280040466
 41
1.59697626556495
 42
3.141592653589747
  0
ELLIPSE
  5
BB
330
5E
100
AcDbEntity
  8
COVER_SUN_SHILED
  6
Continuous
 62
     7
100
AcDbEllipse
 10
222.9676186245355
 20
608.3244707572106
 30
0.0
 11
-0.0000000000000347
 21
0.5000000000000283
 31
0.0
210
0.0
220
0.0
230
1.0
 40
0.6631902685384061
 41
0.0
 42
1.544616388014662
  0
ELLIPSE
  5
BC
330
5E
100
AcDbEntity
  8
COVER_SUN_SHILED
  6
Continuous
 62
     7
100
AcDbEllipse
 10
263.6685911107039
 20
608.3244707572107
 30
0.0
 11
-0.0000000000000347
 21
-0.5000000000000005
 31
0.0
210
0.0
220
0.0
230
1.0
 40
0.7317609065321255
 41
1.596976265574909
 42
3.141592653589793
  0
ELLIPSE
  5
BD
330
5E
100
AcDbEntity
  8
COVER_SUN_SHILED
  6
Continuous
 62
     7
100
AcDbEllipse
 10
222.9766574679302
 20
608.3244707572107
 30
0.0
 11
0.0
 21
0.5000000000000005
 31
0.0
210
0.0
220
0.0
230
1.0
 40
0.036325905941861
 41
4.738568919164651
 42
6.283185307179586
  0
ELLIPSE
  5
BE
330
5E
100
AcDbEntity
  8
COVER_SUN_SHILED
  6
Continuous
 62
     7
100
AcDbEllipse
 10
184.1961893454574
 20
613.8244707572107
 30
0.0
 11
0.1927497742221646
 21
-5.998960264132159
 31
0.0
210
0.0
220
0.0
230
1.0
 40
0.5794813225046055
 41
1.604539313293107
 42
4.641412211763235
  0
LINE
  5
BF
330
5E
100
AcDbEntity
  8
COVER_SUN_SHILED
  6
Continuous
 62
     7
100
AcDbLine
 10
177.4561754484693
 20
614.1384864946684
 30
0.0
 11
180.7149872146681
 21
614.1384864946684
 31
0.0
  0
LINE
  5
C0
330
5E
100
AcDbEntity
  8
COVER_SUN_SHILED
  6
Continuous
 62
     7
100
AcDbLine
 10
187.6639932114459
 20
614.1384864946684
 30
0.0
 11
187.9388547964566
 21
608.8244707572108
 31
0.0
  0
LINE
  5
C1
330
5E
100
AcDbEntity
  8
COVER_SUN_SHILED
  6
Continuous
 62
     7
100
AcDbLine
 10
186.1968318051536
 20
608.8244707572106
 30
0.0
 11
185.9300912784516
 21
613.9814786259393
 31
0.0
  0
ELLIPSE
  5
C2
330
5E
100
AcDbEntity
  8
COVER_SUN_SHILED
  6
Continuous
 62
     7
100
AcDbEllipse
 10
184.1961893454574
 20
613.8244707572107
 30
0.0
 11
0.0963748871110823
 21
-2.999480132066051
 31
0.0
210
0.0
220
0.0
230
1.0
 40
0.579481322504611
 41
1.604539313293089
 42
4.641412211763253
  0
LINE
  5
C3
330
5E
100
AcDbEntity
  8
COVER_SUN_SHILED
  6
Continuous
 62
     7
100
AcDbLine
 10
182.6645803798524
 20
613.9814786259395
 30
0.0
 11
185.9300912784517
 21
613.9814786259395
 31
0.0
  0
LINE
  5
C4
330
5E
100
AcDbEntity
  8
COVER_SUN_SHILED
  6
Continuous
 62
     7
100
AcDbLine
 10
182.4555882800628
 20
613.9814786259395
 30
0.0
 11
182.4088843590573
 21
608.8244707572106
 31
0.0
  0
LINE
  5
C5
330
5E
100
AcDbEntity
  8
COVER_SUN_SHILED
  6
Continuous
 62
     7
100
AcDbLine
 10
180.6668613677542
 20
608.8244707572106
 30
0.0
 11
180.7149872146681
 21
614.1384864946683
 31
0.0
  0
ELLIPSE
  5
C6
330
5E
100
AcDbEntity
  8
COVER_SUN_SHILED
  6
Continuous
 62
     7
100
AcDbEllipse
 10
180.9239793144577
 20
613.8244707572107
 30
0.0
 11
-0.1927497742221646
 21
-5.998960264132159
 31
0.0
210
0.0
220
0.0
230
1.0
 40
0.5794813225046053
 41
3.160209544651441
 42
4.678645993886478
  0
LINE
  5
C7
330
5E
100
AcDbEntity
  8
COVER_SUN_SHILED
  6
Continuous
 62
     7
100
AcDbLine
 10
182.7112843008579
 20
608.8244707572106
 30
0.0
 11
182.6645803798524
 21
613.9814786259393
 31
0.0
  0
ELLIPSE
  5
C8
330
5E
100
AcDbEntity
  8
COVER_SUN_SHILED
  6
Continuous
 62
     7
100
AcDbEllipse
 10
180.9239793144577
 20
613.8244707572107
 30
0.0
 11
-0.0963748871110754
 21
-2.999480132066077
 31
0.0
210
0.0
220
0.0
230
1.0
 40
0.5794813225046003
 41
1.64177309541633
 42
1.974788082117501
  0
LINE
  5
C9
330
5E
100
AcDbEntity
  8
COVER_SUN_SHILED
  6
Continuous
 62
     7
100
AcDbLine
 10
177.1813138634585
 20
608.8244707572106
 30
0.0
 11
177.4561754484693
 21
614.1384864946683
 31
0.0
  0
LINE
  5
CA
330
5E
100
AcDbEntity
  8
COVER_SUN_SHILED
  6
Continuous
 62
     7
100
AcDbLine
 10
251.0344240337777
 20
608.8244707572106
 30
0.0
 11
250.8511225827934
 21
615.8244707572106
 31
0.0
  0
LINE
  5
CB
330
5E
100
AcDbEntity
  8
COVER_SUN_SHILED
  6
Continuous
 62
     7
100
AcDbLine
 10
190.8511225827934
 20
615.8244707572107
 30
0.0
 11
190.6678211318091
 21
608.8244707572108
 31
0.0
  0
LINE
  5
CC
330
5E
100
AcDbEntity
  8
COVER_SUN_SHILED
  6
Continuous
 62
     7
100
AcDbLine
 10
280.1129817984853
 20
598.8244707572106
 30
0.0
 11
279.8638728098203
 21
608.3375592313644
 31
0.0
  0
LINE
  5
CD
330
5E
100
AcDbEntity
  8
COVER_SUN_SHILED
  6
Continuous
 62
     7
100
AcDbLine
 10
161.8383723557665
 20
608.3375592313646
 30
0.0
 11
161.5892633671015
 21
598.8244707572107
 31
0.0
  0
LINE
  5
CE
330
5E
100
AcDbEntity
  8
COVER_SUN_SHILED
  6
Continuous
 62
     7
100
AcDbLine
 10
170.7718564025293
 20
608.3375592313647
 30
0.0
 11
170.5227474138644
 21
598.8244707572107
 31
0.0
  0
ARC
  5
CF
330
5E
100
AcDbEntity
  8
COVER_SUN_SHILED
  6
Continuous
 62
     7
100
AcDbCircle
 10
162.3382010182542
 20
608.3244707572107
 30
0.0
 40
0.5000000000000005
100
AcDbArc
 50
90.0
 51
178.5000000000104
  0
ARC
  5
D0
330
5E
100
AcDbEntity
  8
COVER_SUN_SHILED
  6
Continuous
 62
     7
100
AcDbCircle
 10
171.2716850650171
 20
608.3244707572107
 30
0.0
 40
0.5000000000000005
100
AcDbArc
 50
90.0
 51
178.4999999999972
  0
ARC
  5
D1
330
5E
100
AcDbEntity
  8
COVER_SUN_SHILED
  6
Continuous
 62
     7
100
AcDbCircle
 10
279.3640441473325
 20
608.3244707572107
 30
0.0
 40
0.5000000000000006
100
AcDbArc
 50
1.499999999989629
 51
90.0
  0
LINE
  5
D2
330
5E
100
AcDbEntity
  8
COVER_SUN_SHILED
  6
Continuous
 62
     7
100
AcDbLine
 10
184.0681868614798
 20
619.8244707572107
 30
0.0
 11
181.0519817984354
 21
619.8244707572107
 31
0.0
  0
ENDBLK
  5
D4
330
5E
100
AcDbEntity
  8
0
100
AcDbBlockEnd
  0
BLOCK
  5
106
330
D5
100
AcDbEntity
  8
0
100
AcDbBlockBegin
  2
SE1
 70
     0
 10
0.0
 20
0.0
 30
0.0
  3
SE1
  1

  0
CIRCLE
  5
D7
330
D5
100
AcDbEntity
  8
SUN_SHIELD_SNC-C
  6
Continuous
 62
     7
100
AcDbCircle
 10
220.8511225827934
 20
157.1966426448763
 30
0.0
 40
122.0036675629648
  0
CIRCLE
  5
D8
330
D5
100
AcDbEntity
  8
SUN_SHIELD_SNC-C
  6
Continuous
 62
     7
100
AcDbCircle
 10
220.8511225827933
 20
157.1966426448763
 30
0.0
 40
126.6861207552402
  0
CIRCLE
  5
D9
330
D5
100
AcDbEntity
  8
SUN_SHIELD_SNC-C
  6
Continuous
 62
     7
100
AcDbCircle
 10
220.8511225827933
 20
157.1966426448763
 30
0.0
 40
129.5
  0
CIRCLE
  5
DA
330
D5
100
AcDbEntity
  8
HOUSING_FRONT_TR
  6
Continuous
 62
     7
100
AcDbCircle
 10
220.8511225827934
 20
157.1966426448765
 30
0.0
 40
92.00000000000001
  0
CIRCLE
  5
DB
330
D5
100
AcDbEntity
  8
HOUSING_FRONT_TR
  6
Continuous
 62
     7
100
AcDbCircle
 10
220.8511225827934
 20
157.1966426448765
 30
0.0
 40
115.0
  0
CIRCLE
  5
DC
330
D5
100
AcDbEntity
  8
HOUSING_FRONT_TR
  6
Continuous
 62
     7
100
AcDbCircle
 10
220.8511225827934
 20
157.1966426448765
 30
0.0
 40
113.716025568317
  0
CIRCLE
  5
DD
330
D5
100
AcDbEntity
  8
HOUSING_FRONT_TR
  6
Continuous
 62
     7
100
AcDbCircle
 10
220.8511225827934
 20
157.1966426448765
 30
0.0
 40
83.0
  0
CIRCLE
  5
DE
330
D5
100
AcDbEntity
  8
HOUSING_FRONT_TR
  6
Continuous
 62
     7
100
AcDbCircle
 10
321.2635350758742
 20
157.1967503293626
 30
0.0
 40
4.588486288470526
  0
CIRCLE
  5
DF
330
D5
100
AcDbEntity
  8
HOUSING_FRONT_TR
  6
Continuous
 62
     7
100
AcDbCircle
 10
321.3511225827935
 20
157.1966426448764
 30
0.0
 40
4.250000001971064
  0
CIRCLE
  5
E0
330
D5
100
AcDbEntity
  8
HOUSING_FRONT_TR
  6
Continuous
 62
     7
100
AcDbCircle
 10
220.8510339998661
 20
56.78423853398591
 30
0.0
 40
4.58849323916567
  0
CIRCLE
  5
E1
330
D5
100
AcDbEntity
  8
HOUSING_FRONT_TR
  6
Continuous
 62
     7
100
AcDbCircle
 10
220.8511225827934
 20
56.69664264487652
 30
0.0
 40
4.250000001971064
  0
CIRCLE
  5
E2
330
D5
100
AcDbEntity
  8
HOUSING_FRONT_TR
  6
Continuous
 62
     7
100
AcDbCircle
 10
120.4389550224339
 20
157.1966115940338
 30
0.0
 40
4.588352990838036
  0
CIRCLE
  5
E3
330
D5
100
AcDbEntity
  8
HOUSING_FRONT_TR
  6
Continuous
 62
     7
100
AcDbCircle
 10
120.3511225827934
 20
157.1966426448765
 30
0.0
 40
4.250000001971064
  0
CIRCLE
  5
E4
330
D5
100
AcDbEntity
  8
HOUSING_FRONT_TR
  6
Continuous
 62
     7
100
AcDbCircle
 10
220.8511188602065
 20
257.6086865043907
 30
0.0
 40
4.588527505565821
  0
CIRCLE
  5
E5
330
D5
100
AcDbEntity
  8
HOUSING_FRONT_TR
  6
Continuous
 62
     7
100
AcDbCircle
 10
220.8511225827934
 20
257.6966426448765
 30
0.0
 40
4.250000001971064
  0
CIRCLE
  5
E6
330
D5
100
AcDbEntity
  8
DOME_165PI
  6
Continuous
 62
     7
100
AcDbCircle
 10
220.8511225827934
 20
157.1966426448765
 30
0.0
 40
82.5
  0
CIRCLE
  5
E7
330
D5
100
AcDbEntity
  8
DOME_165PI
  6
Continuous
 62
     7
100
AcDbCircle
 10
220.8511225827934
 20
157.1966426448765
 30
0.0
 40
82.85711552941512
  0
CIRCLE
  5
E8
330
D5
100
AcDbEntity
  8
DOME_165PI
  6
Continuous
 62
     7
100
AcDbCircle
 10
220.8511225827934
 20
157.1966426448765
 30
0.0
 40
82.70000000000001
  0
CIRCLE
  5
EA
330
D5
100
AcDbEntity
  8
HEX_M4X16
  6
Continuous
 62
     7
100
AcDbCircle
 10
120.3511225827934
 20
157.1966426448765
 30
0.0
 40
3.499999999999999
  0
LINE
  5
EB
330
D5
100
AcDbEntity
  8
HEX_M4X16
  6
Continuous
 62
     7
100
AcDbLine
 10
118.6190717752245
 20
157.1966426448765
 30
0.0
 11
119.485097179009
 21
155.6966426448765
 31
0.0
  0
LINE
  5
EC
330
D5
100
AcDbEntity
  8
HEX_M4X16
  6
Continuous
 62
     7
100
AcDbLine
 10
119.485097179009
 20
155.6966426448765
 30
0.0
 11
121.2171479865778
 21
155.6966426448765
 31
0.0
  0
LINE
  5
ED
330
D5
100
AcDbEntity
  8
HEX_M4X16
  6
Continuous
 62
     7
100
AcDbLine
 10
121.2171479865778
 20
155.6966426448765
 30
0.0
 11
122.0831733903623
 21
157.1966426448765
 31
0.0
  0
LINE
  5
EE
330
D5
100
AcDbEntity
  8
HEX_M4X16
  6
Continuous
 62
     7
100
AcDbLine
 10
122.0831733903623
 20
157.1966426448765
 30
0.0
 11
121.2171479865779
 21
158.6966426448765
 31
0.0
  0
LINE
  5
EF
330
D5
100
AcDbEntity
  8
HEX_M4X16
  6
Continuous
 62
     7
100
AcDbLine
 10
121.2171479865779
 20
158.6966426448765
 30
0.0
 11
119.485097179009
 21
158.6966426448765
 31
0.0
  0
LINE
  5
F0
330
D5
100
AcDbEntity
  8
HEX_M4X16
  6
Continuous
 62
     7
100
AcDbLine
 10
119.485097179009
 20
158.6966426448765
 30
0.0
 11
118.6190717752245
 21
157.1966426448765
 31
0.0
  0
CIRCLE
  5
F1
330
D5
100
AcDbEntity
  8
HEX_M4X16
  6
Continuous
 62
     7
100
AcDbCircle
 10
220.8511225827934
 20
257.6966426448765
 30
0.0
 40
3.499999999999999
  0
LINE
  5
F2
330
D5
100
AcDbEntity
  8
HEX_M4X16
  6
Continuous
 62
     7
100
AcDbLine
 10
219.1190717752245
 20
257.6966426448765
 30
0.0
 11
219.985097179009
 21
256.1966426448766
 31
0.0
  0
LINE
  5
F3
330
D5
100
AcDbEntity
  8
HEX_M4X16
  6
Continuous
 62
     7
100
AcDbLine
 10
219.985097179009
 20
256.1966426448766
 30
0.0
 11
221.7171479865778
 21
256.1966426448766
 31
0.0
  0
LINE
  5
F4
330
D5
100
AcDbEntity
  8
HEX_M4X16
  6
Continuous
 62
     7
100
AcDbLine
 10
221.7171479865778
 20
256.1966426448766
 30
0.0
 11
222.5831733903623
 21
257.6966426448765
 31
0.0
  0
LINE
  5
F5
330
D5
100
AcDbEntity
  8
HEX_M4X16
  6
Continuous
 62
     7
100
AcDbLine
 10
222.5831733903623
 20
257.6966426448765
 30
0.0
 11
221.7171479865778
 21
259.1966426448765
 31
0.0
  0
LINE
  5
F6
330
D5
100
AcDbEntity
  8
HEX_M4X16
  6
Continuous
 62
     7
100
AcDbLine
 10
221.7171479865778
 20
259.1966426448765
 30
0.0
 11
219.985097179009
 21
259.1966426448765
 31
0.0
  0
LINE
  5
F7
330
D5
100
AcDbEntity
  8
HEX_M4X16
  6
Continuous
 62
     7
100
AcDbLine
 10
219.985097179009
 20
259.1966426448765
 30
0.0
 11
219.1190717752245
 21
257.6966426448765
 31
0.0
  0
CIRCLE
  5
F8
330
D5
100
AcDbEntity
  8
HEX_M4X16
  6
Continuous
 62
     7
100
AcDbCircle
 10
321.3511225827934
 20
157.1966426448765
 30
0.0
 40
3.499999999999999
  0
LINE
  5
F9
330
D5
100
AcDbEntity
  8
HEX_M4X16
  6
Continuous
 62
     7
100
AcDbLine
 10
319.6190717752245
 20
157.1966426448765
 30
0.0
 11
320.4850971790089
 21
155.6966426448765
 31
0.0
  0
LINE
  5
FA
330
D5
100
AcDbEntity
  8
HEX_M4X16
  6
Continuous
 62
     7
100
AcDbLine
 10
320.4850971790089
 20
155.6966426448765
 30
0.0
 11
322.2171479865778
 21
155.6966426448765
 31
0.0
  0
LINE
  5
FB
330
D5
100
AcDbEntity
  8
HEX_M4X16
  6
Continuous
 62
     7
100
AcDbLine
 10
322.2171479865778
 20
155.6966426448765
 30
0.0
 11
323.0831733903622
 21
157.1966426448764
 31
0.0
  0
LINE
  5
FC
330
D5
100
AcDbEntity
  8
HEX_M4X16
  6
Continuous
 62
     7
100
AcDbLine
 10
323.0831733903622
 20
157.1966426448765
 30
0.0
 11
322.2171479865778
 21
158.6966426448765
 31
0.0
  0
LINE
  5
FD
330
D5
100
AcDbEntity
  8
HEX_M4X16
  6
Continuous
 62
     7
100
AcDbLine
 10
322.2171479865778
 20
158.6966426448765
 30
0.0
 11
320.4850971790089
 21
158.6966426448765
 31
0.0
  0
LINE
  5
FE
330
D5
100
AcDbEntity
  8
HEX_M4X16
  6
Continuous
 62
     7
100
AcDbLine
 10
320.4850971790089
 20
158.6966426448765
 30
0.0
 11
319.6190717752245
 21
157.1966426448764
 31
0.0
  0
CIRCLE
  5
FF
330
D5
100
AcDbEntity
  8
HEX_M4X16
  6
Continuous
 62
     7
100
AcDbCircle
 10
220.8511225827934
 20
56.69664264487654
 30
0.0
 40
3.499999999999999
  0
LINE
  5
100
330
D5
100
AcDbEntity
  8
HEX_M4X16
  6
Continuous
 62
     7
100
AcDbLine
 10
219.1190717752245
 20
56.69664264487654
 30
0.0
 11
219.985097179009
 21
55.19664264487653
 31
0.0
  0
LINE
  5
101
330
D5
100
AcDbEntity
  8
HEX_M4X16
  6
Continuous
 62
     7
100
AcDbLine
 10
219.985097179009
 20
55.19664264487653
 30
0.0
 11
221.7171479865778
 21
55.19664264487653
 31
0.0
  0
LINE
  5
102
330
D5
100
AcDbEntity
  8
HEX_M4X16
  6
Continuous
 62
     7
100
AcDbLine
 10
221.7171479865778
 20
55.19664264487653
 30
0.0
 11
222.5831733903623
 21
56.69664264487654
 31
0.0
  0
LINE
  5
103
330
D5
100
AcDbEntity
  8
HEX_M4X16
  6
Continuous
 62
     7
100
AcDbLine
 10
222.5831733903623
 20
56.69664264487654
 30
0.0
 11
221.7171479865778
 21
58.19664264487653
 31
0.0
  0
LINE
  5
104
330
D5
100
AcDbEntity
  8
HEX_M4X16
  6
Continuous
 62
     7
100
AcDbLine
 10
221.7171479865778
 20
58.19664264487653
 30
0.0
 11
219.985097179009
 21
58.19664264487653
 31
0.0
  0
LINE
  5
105
330
D5
100
AcDbEntity
  8
HEX_M4X16
  6
Continuous
 62
     7
100
AcDbLine
 10
219.985097179009
 20
58.19664264487653
 30
0.0
 11
219.1190717752245
 21
56.69664264487654
 31
0.0
  0
ENDBLK
  5
107
330
D5
100
AcDbEntity
  8
0
100
AcDbBlockEnd
  0
BLOCK
  5
1D2
330
1C8
100
AcDbEntity
  8
0
100
AcDbBlockBegin
  2
*D2
 70
     1
 10
0.0
 20
0.0
 30
0.0
  3
*D2
  1

  0
LINE
  5
69B
330
1C8
100
AcDbEntity
  8
0
 62
     0
440
 16777216
370
    -2
100
AcDbLine
 10
222.8511225827934
 20
327.3244707572105
 30
0.0
 11
387.6306512485744
 21
327.3244707572104
 31
0.0
  0
LINE
  5
69C
330
1C8
100
AcDbEntity
  8
0
 62
     0
440
 16777216
370
    -2
100
AcDbLine
 10
352.3511225827934
 20
428.8244707572106
 30
0.0
 11
387.6306512485744
 21
428.8244707572105
 31
0.0
  0
LINE
  5
69D
330
1C8
100
AcDbEntity
  8
0
 62
     0
440
 16777216
370
    -2
100
AcDbLine
 10
385.6306512485744
 20
335.3244707572105
 30
0.0
 11
385.6306512485744
 21
420.8244707572105
 31
0.0
  0
SOLID
  5
69E
330
1C8
100
AcDbEntity
  8
0
 62
     0
440
 16777216
100
AcDbTrace
 10
384.297317915241
 20
335.3244707572105
 30
0.0
 11
386.9639845819077
 21
335.3244707572105
 31
0.0
 12
385.6306512485744
 22
327.3244707572104
 32
0.0
 13
385.6306512485744
 23
327.3244707572104
 33
0.0
  0
SOLID
  5
69F
330
1C8
100
AcDbEntity
  8
0
 62
     0
440
 16777216
100
AcDbTrace
 10
384.2973179152411
 20
420.8244707572105
 30
0.0
 11
386.9639845819077
 21
420.8244707572105
 31
0.0
 12
385.6306512485744
 22
428.8244707572105
 32
0.0
 13
385.6306512485744
 23
428.8244707572105
 33
0.0
  0
MTEXT
  5
6A0
330
1C8
100
AcDbEntity
  8
0
 62
     0
440
 16777216
100
AcDbMText
 10
379.6306512485743
 20
378.0744707572107
 30
0.0
 40
8.0
 41
0.0
 46
0.0
 71
     5
 72
     1
  1
101.5
 11
0.0000000000000001
 21
1.0
 31
0.0
 73
     1
 44
1.0
  0
POINT
  5
6A1
330
1C8
100
AcDbEntity
  8
Defpoints
 62
     0
440
 16777216
100
AcDbPoint
 10
220.8511225827934
 20
327.3244707572105
 30
0.0
  0
POINT
  5
6A2
330
1C8
100
AcDbEntity
  8
Defpoints
 62
     0
440
 16777216
100
AcDbPoint
 10
350.3511225827934
 20
428.8244707572106
 30
0.0
  0
POINT
  5
6A3
330
1C8
100
AcDbEntity
  8
Defpoints
 62
     0
440
 16777216
100
AcDbPoint
 10
385.6306512485744
 20
428.8244707572105
 30
0.0
  0
ENDBLK
  5
1D3
330
1C8
100
AcDbEntity
  8
0
100
AcDbBlockEnd
  0
BLOCK
  5
1DF
330
1D5
100
AcDbEntity
  8
0
100
AcDbBlockBegin
  2
*D3
 70
     1
 10
0.0
 20
0.0
 30
0.0
  3
*D3
  1

  0
LINE
  5
71F
330
1D5
100
AcDbEntity
  8
0
 62
     0
440
 16777216
370
    -2
100
AcDbLine
 10
91.35112258279338
 20
426.8244707572106
 30
0.0
 11
91.35112258279336
 21
250.127771726166
 31
0.0
  0
LINE
  5
720
330
1D5
100
AcDbEntity
  8
0
 62
     0
440
 16777216
370
    -2
100
AcDbLine
 10
350.9761225827934
 20
426.8244707572106
 30
0.0
 11
350.9761225827934
 21
250.127771726166
 31
0.0
  0
LINE
  5
721
330
1D5
100
AcDbEntity
  8
0
 62
     0
440
 16777216
370
    -2
100
AcDbLine
 10
99.35112258279337
 20
252.127771726166
 30
0.0
 11
342.9761225827934
 21
252.127771726166
 31
0.0
  0
SOLID
  5
722
330
1D5
100
AcDbEntity
  8
0
 62
     0
440
 16777216
100
AcDbTrace
 10
99.35112258279337
 20
253.4611050594993
 30
0.0
 11
99.35112258279337
 21
250.7944383928326
 31
0.0
 12
91.35112258279336
 22
252.127771726166
 32
0.0
 13
91.35112258279336
 23
252.127771726166
 33
0.0
  0
SOLID
  5
723
330
1D5
100
AcDbEntity
  8
0
 62
     0
440
 16777216
100
AcDbTrace
 10
342.9761225827934
 20
253.4611050594993
 30
0.0
 11
342.9761225827934
 21
250.7944383928326
 31
0.0
 12
350.9761225827934
 22
252.127771726166
 32
0.0
 13
350.9761225827934
 23
252.127771726166
 33
0.0
  0
MTEXT
  5
724
330
1D5
100
AcDbEntity
  8
0
 62
     0
440
 16777216
100
AcDbMText
 10
221.1636225827934
 20
258.127771726166
 30
0.0
 40
8.0
 41
0.0
 46
0.0
 71
     5
 72
     1
  1
%%c259.6
 73
     1
 44
1.0
  0
POINT
  5
725
330
1D5
100
AcDbEntity
  8
Defpoints
 62
     0
440
 16777216
100
AcDbPoint
 10
91.35112258279338
 20
428.8244707572107
 30
0.0
  0
POINT
  5
726
330
1D5
100
AcDbEntity
  8
Defpoints
 62
     0
440
 16777216
100
AcDbPoint
 10
350.9761225827934
 20
428.8244707572106
 30
0.0
  0
POINT
  5
727
330
1D5
100
AcDbEntity
  8
Defpoints
 62
     0
440
 16777216
100
AcDbPoint
 10
350.9761225827934
 20
252.127771726166
 30
0.0
  0
ENDBLK
  5
1E0
330
1D5
100
AcDbEntity
  8
0
100
AcDbBlockEnd
  0
BLOCK
  5
6FD
330
6F3
100
AcDbEntity
  8
0
100
AcDbBlockBegin
  2
*D4
 70
     1
 10
0.0
 20
0.0
 30
0.0
  3
*D4
  1

  0
LINE
  5
72E
330
6F3
100
AcDbEntity
  8
0
 62
     0
440
 16777216
370
    -2
100
AcDbLine
 10
303.3511225827934
 20
407.8244707572105
 30
0.0
 11
303.3511225827934
 21
289.5906077474476
 31
0.0
  0
LINE
  5
72F
330
6F3
100
AcDbEntity
  8
0
 62
     0
440
 16777216
370
    -2
100
AcDbLine
 10
138.3511225827934
 20
407.8244707572105
 30
0.0
 11
138.3511225827934
 21
289.5906077474476
 31
0.0
  0
LINE
  5
730
330
6F3
100
AcDbEntity
  8
0
 62
     0
440
 16777216
370
    -2
100
AcDbLine
 10
295.3511225827934
 20
291.5906077474476
 30
0.0
 11
146.3511225827934
 21
291.5906077474476
 31
0.0
  0
SOLID
  5
731
330
6F3
100
AcDbEntity
  8
0
 62
     0
440
 16777216
100
AcDbTrace
 10
295.3511225827934
 20
292.9239410807809
 30
0.0
 11
295.3511225827934
 21
290.2572744141143
 31
0.0
 12
303.3511225827934
 22
291.5906077474476
 32
0.0
 13
303.3511225827934
 23
291.5906077474476
 33
0.0
  0
SOLID
  5
732
330
6F3
100
AcDbEntity
  8
0
 62
     0
440
 16777216
100
AcDbTrace
 10
146.3511225827934
 20
292.9239410807809
 30
0.0
 11
146.3511225827934
 21
290.2572744141143
 31
0.0
 12
138.3511225827934
 22
291.5906077474476
 32
0.0
 13
138.3511225827934
 23
291.5906077474476
 33
0.0
  0
MTEXT
  5
733
330
6F3
100
AcDbEntity
  8
0
 62
     0
440
 16777216
100
AcDbMText
 10
220.8511225827934
 20
297.5906077474476
 30
0.0
 40
8.0
 41
0.0
 46
0.0
 71
     5
 72
     1
  1
%%c165
 73
     1
 44
1.0
  0
POINT
  5
734
330
6F3
100
AcDbEntity
  8
Defpoints
 62
     0
440
 16777216
100
AcDbPoint
 10
303.3511225827934
 20
409.8244707572105
 30
0.0
  0
POINT
  5
735
330
6F3
100
AcDbEntity
  8
Defpoints
 62
     0
440
 16777216
100
AcDbPoint
 10
138.3511225827934
 20
409.8244707572105
 30
0.0
  0
POINT
  5
736
330
6F3
100
AcDbEntity
  8
Defpoints
 62
     0
440
 16777216
100
AcDbPoint
 10
138.3511225827934
 20
291.5906077474476
 30
0.0
  0
ENDBLK
  5
6FE
330
6F3
100
AcDbEntity
  8
0
100
AcDbBlockEnd
  0
BLOCK
  5
70A
330
700
100
AcDbEntity
  8
0
100
AcDbBlockBegin
  2
*D5
 70
     1
 10
0.0
 20
0.0
 30
0.0
  3
*D5
  1

  0
LINE
  5
701
330
700
100
AcDbEntity
  8
0
 62
     0
440
 16777216
370
    -2
100
AcDbLine
 10
352.3511225827934
 20
428.8244707572106
 30
0.0
 11
387.6306512485744
 21
428.8244707572105
 31
0.0
  0
LINE
  5
702
330
700
100
AcDbEntity
  8
0
 62
     0
440
 16777216
370
    -2
100
AcDbLine
 10
252.8511225827934
 20
615.8244707572107
 30
0.0
 11
387.6306512485744
 21
615.8244707572106
 31
0.0
  0
LINE
  5
703
330
700
100
AcDbEntity
  8
0
 62
     0
440
 16777216
370
    -2
100
AcDbLine
 10
385.6306512485744
 20
436.8244707572105
 30
0.0
 11
385.6306512485744
 21
607.8244707572106
 31
0.0
  0
SOLID
  5
704
330
700
100
AcDbEntity
  8
0
 62
     0
440
 16777216
100
AcDbTrace
 10
384.2973179152411
 20
436.8244707572105
 30
0.0
 11
386.9639845819077
 21
436.8244707572105
 31
0.0
 12
385.6306512485744
 22
428.8244707572105
 32
0.0
 13
385.6306512485744
 23
428.8244707572105
 33
0.0
  0
SOLID
  5
705
330
700
100
AcDbEntity
  8
0
 62
     0
440
 16777216
100
AcDbTrace
 10
384.2973179152411
 20
607.8244707572106
 30
0.0
 11
386.9639845819077
 21
607.8244707572106
 31
0.0
 12
385.6306512485744
 22
615.8244707572106
 32
0.0
 13
385.6306512485744
 23
615.8244707572106
 33
0.0
  0
MTEXT
  5
706
330
700
100
AcDbEntity
  8
0
 62
     0
440
 16777216
100
AcDbMText
 10
379.6306512485744
 20
522.3244707572107
 30
0.0
 40
8.0
 41
0.0
 46
0.0
 71
     5
 72
     1
  1
187
 11
0.0000000000000001
 21
1.0
 31
0.0
 73
     1
 44
1.0
  0
POINT
  5
707
330
700
100
AcDbEntity
  8
Defpoints
 62
     0
440
 16777216
100
AcDbPoint
 10
350.3511225827934
 20
428.8244707572106
 30
0.0
  0
POINT
  5
708
330
700
100
AcDbEntity
  8
Defpoints
 62
     0
440
 16777216
100
AcDbPoint
 10
250.8511225827934
 20
615.8244707572107
 30
0.0
  0
POINT
  5
709
330
700
100
AcDbEntity
  8
Defpoints
 62
     0
440
 16777216
100
AcDbPoint
 10
385.6306512485744
 20
615.8244707572106
 30
0.0
  0
ENDBLK
  5
70B
330
700
100
AcDbEntity
  8
0
100
AcDbBlockEnd
  0
BLOCK
  5
71D
330
713
100
AcDbEntity
  8
0
100
AcDbBlockBegin
  2
*D6
 70
     1
 10
0.0
 20
0.0
 30
0.0
  3
*D6
  1

  0
LINE
  5
714
330
713
100
AcDbEntity
  8
0
 62
     0
440
 16777216
370
    -2
100
AcDbLine
 10
252.8511225827931
 20
615.8244707572107
 30
0.0
 11
387.6306512485744
 21
615.8244707572106
 31
0.0
  0
LINE
  5
715
330
713
100
AcDbEntity
  8
0
 62
     0
440
 16777216
370
    -2
100
AcDbLine
 10
243.6011225827934
 20
637.8244707572108
 30
0.0
 11
387.6306512485744
 21
637.8244707572106
 31
0.0
  0
LINE
  5
716
330
713
100
AcDbEntity
  8
0
 62
     0
440
 16777216
370
    -2
100
AcDbLine
 10
385.6306512485744
 20
623.8244707572106
 30
0.0
 11
385.6306512485744
 21
629.8244707572106
 31
0.0
  0
SOLID
  5
717
330
713
100
AcDbEntity
  8
0
 62
     0
440
 16777216
100
AcDbTrace
 10
384.2973179152411
 20
623.8244707572106
 30
0.0
 11
386.9639845819077
 21
623.8244707572106
 31
0.0
 12
385.6306512485744
 22
615.8244707572106
 32
0.0
 13
385.6306512485744
 23
615.8244707572106
 33
0.0
  0
SOLID
  5
718
330
713
100
AcDbEntity
  8
0
 62
     0
440
 16777216
100
AcDbTrace
 10
384.2973179152411
 20
629.8244707572106
 30
0.0
 11
386.9639845819077
 21
629.8244707572106
 31
0.0
 12
385.6306512485744
 22
637.8244707572106
 32
0.0
 13
385.6306512485744
 23
637.8244707572106
 33
0.0
  0
MTEXT
  5
719
330
713
100
AcDbEntity
  8
0
 62
     0
440
 16777216
100
AcDbMText
 10
379.6306512485744
 20
626.8244707572107
 30
0.0
 40
8.0
 41
0.0
 46
0.0
 71
     5
 72
     1
  1
22
 11
0.0000000000000001
 21
1.0
 31
0.0
 73
     1
 44
1.0
  0
POINT
  5
71A
330
713
100
AcDbEntity
  8
Defpoints
 62
     0
440
 16777216
100
AcDbPoint
 10
250.8511225827931
 20
615.8244707572107
 30
0.0
  0
POINT
  5
71B
330
713
100
AcDbEntity
  8
Defpoints
 62
     0
440
 16777216
100
AcDbPoint
 10
241.6011225827934
 20
637.8244707572108
 30
0.0
  0
POINT
  5
71C
330
713
100
AcDbEntity
  8
Defpoints
 62
     0
440
 16777216
100
AcDbPoint
 10
385.6306512485744
 20
637.8244707572106
 30
0.0
  0
ENDBLK
  5
71E
330
713
100
AcDbEntity
  8
0
100
AcDbBlockEnd
  0
ENDSEC
  0
SECTION
  2
ENTITIES
  0
CIRCLE
  5
115
330
1F
100
AcDbEntity
  8
SUN_SHIELD_SNC-C
  6
Continuous
 62
     7
100
AcDbCircle
 10
220.8511225827933
 20
71.52918349569794
 30
0.0
 40
122.0036675629648
  0
CIRCLE
  5
116
330
1F
100
AcDbEntity
  8
SUN_SHIELD_SNC-C
  6
Continuous
 62
     7
100
AcDbCircle
 10
220.8511225827933
 20
71.52918349569791
 30
0.0
 40
126.6861207552402
  0
CIRCLE
  5
117
330
1F
100
AcDbEntity
  8
SUN_SHIELD_SNC-C
  6
Continuous
 62
     7
100
AcDbCircle
 10
220.8511225827933
 20
71.52918349569791
 30
0.0
 40
129.5
  0
CIRCLE
  5
118
330
1F
100
AcDbEntity
  8
HOUSING_FRONT_TR
  6
Continuous
 62
     7
100
AcDbCircle
 10
220.8511225827933
 20
71.5291834956981
 30
0.0
 40
92.00000000000001
  0
CIRCLE
  5
119
330
1F
100
AcDbEntity
  8
HOUSING_FRONT_TR
  6
Continuous
 62
     7
100
AcDbCircle
 10
220.8511225827933
 20
71.5291834956981
 30
0.0
 40
115.0
  0
CIRCLE
  5
11A
330
1F
100
AcDbEntity
  8
HOUSING_FRONT_TR
  6
Continuous
 62
     7
100
AcDbCircle
 10
220.8511225827933
 20
71.5291834956981
 30
0.0
 40
113.716025568317
  0
CIRCLE
  5
11B
330
1F
100
AcDbEntity
  8
HOUSING_FRONT_TR
  6
Continuous
 62
     7
100
AcDbCircle
 10
220.8511225827933
 20
71.5291834956981
 30
0.0
 40
83.0
  0
CIRCLE
  5
11C
330
1F
100
AcDbEntity
  8
HOUSING_FRONT_TR
  6
Continuous
 62
     7
100
AcDbCircle
 10
321.2635350758742
 20
71.5292911801842
 30
0.0
 40
4.588486288470526
  0
CIRCLE
  5
11D
330
1F
100
AcDbEntity
  8
HOUSING_FRONT_TR
  6
Continuous
 62
     7
100
AcDbCircle
 10
321.3511225827935
 20
71.52918349569808
 30
0.0
 40
4.250000001971064
  0
CIRCLE
  5
11E
330
1F
100
AcDbEntity
  8
HOUSING_FRONT_TR
  6
Continuous
 62
     7
100
AcDbCircle
 10
220.8510339998661
 20
-28.88322061519249
 30
0.0
 40
4.58849323916567
  0
CIRCLE
  5
11F
330
1F
100
AcDbEntity
  8
HOUSING_FRONT_TR
  6
Continuous
 62
     7
100
AcDbCircle
 10
220.8511225827934
 20
-28.97081650430188
 30
0.0
 40
4.250000001971064
  0
CIRCLE
  5
120
330
1F
100
AcDbEntity
  8
HOUSING_FRONT_TR
  6
Continuous
 62
     7
100
AcDbCircle
 10
120.4389550224339
 20
71.52915244485547
 30
0.0
 40
4.588352990838036
  0
CIRCLE
  5
121
330
1F
100
AcDbEntity
  8
HOUSING_FRONT_TR
  6
Continuous
 62
     7
100
AcDbCircle
 10
120.3511225827933
 20
71.52918349569813
 30
0.0
 40
4.250000001971064
  0
CIRCLE
  5
122
330
1F
100
AcDbEntity
  8
HOUSING_FRONT_TR
  6
Continuous
 62
     7
100
AcDbCircle
 10
220.8511188602065
 20
171.9412273552123
 30
0.0
 40
4.588527505565821
  0
CIRCLE
  5
123
330
1F
100
AcDbEntity
  8
HOUSING_FRONT_TR
  6
Continuous
 62
     7
100
AcDbCircle
 10
220.8511225827934
 20
172.0291834956981
 30
0.0
 40
4.250000001971064
  0
CIRCLE
  5
124
330
1F
100
AcDbEntity
  8
DOME_165PI
  6
Continuous
 62
     7
100
AcDbCircle
 10
220.8511225827933
 20
71.5291834956981
 30
0.0
 40
82.5
  0
CIRCLE
  5
125
330
1F
100
AcDbEntity
  8
DOME_165PI
  6
Continuous
 62
     7
100
AcDbCircle
 10
220.8511225827933
 20
71.5291834956981
 30
0.0
 40
82.85711552941512
  0
CIRCLE
  5
126
330
1F
100
AcDbEntity
  8
DOME_165PI
  6
Continuous
 62
     7
100
AcDbCircle
 10
220.8511225827933
 20
71.5291834956981
 30
0.0
 40
82.70000000000001
  0
CIRCLE
  5
127
330
1F
100
AcDbEntity
  8
HEX_M4X16
  6
Continuous
 62
     7
100
AcDbCircle
 10
120.3511225827934
 20
71.52918349569813
 30
0.0
 40
3.499999999999999
  0
LINE
  5
128
330
1F
100
AcDbEntity
  8
HEX_M4X16
  6
Continuous
 62
     7
100
AcDbLine
 10
118.6190717752245
 20
71.52918349569813
 30
0.0
 11
119.4850971790089
 21
70.02918349569814
 31
0.0
  0
LINE
  5
129
330
1F
100
AcDbEntity
  8
HEX_M4X16
  6
Continuous
 62
     7
100
AcDbLine
 10
119.4850971790089
 20
70.02918349569814
 30
0.0
 11
121.2171479865778
 21
70.02918349569814
 31
0.0
  0
LINE
  5
12A
330
1F
100
AcDbEntity
  8
HEX_M4X16
  6
Continuous
 62
     7
100
AcDbLine
 10
121.2171479865778
 20
70.02918349569814
 30
0.0
 11
122.0831733903622
 21
71.52918349569813
 31
0.0
  0
LINE
  5
12B
330
1F
100
AcDbEntity
  8
HEX_M4X16
  6
Continuous
 62
     7
100
AcDbLine
 10
122.0831733903622
 20
71.52918349569813
 30
0.0
 11
121.2171479865778
 21
73.02918349569814
 31
0.0
  0
LINE
  5
12C
330
1F
100
AcDbEntity
  8
HEX_M4X16
  6
Continuous
 62
     7
100
AcDbLine
 10
121.2171479865778
 20
73.02918349569814
 30
0.0
 11
119.4850971790089
 21
73.02918349569814
 31
0.0
  0
LINE
  5
12D
330
1F
100
AcDbEntity
  8
HEX_M4X16
  6
Continuous
 62
     7
100
AcDbLine
 10
119.4850971790089
 20
73.02918349569814
 30
0.0
 11
118.6190717752245
 21
71.52918349569813
 31
0.0
  0
CIRCLE
  5
12E
330
1F
100
AcDbEntity
  8
HEX_M4X16
  6
Continuous
 62
     7
100
AcDbCircle
 10
220.8511225827934
 20
172.0291834956981
 30
0.0
 40
3.499999999999999
  0
LINE
  5
12F
330
1F
100
AcDbEntity
  8
HEX_M4X16
  6
Continuous
 62
     7
100
AcDbLine
 10
219.1190717752245
 20
172.0291834956981
 30
0.0
 11
219.9850971790089
 21
170.5291834956981
 31
0.0
  0
LINE
  5
130
330
1F
100
AcDbEntity
  8
HEX_M4X16
  6
Continuous
 62
     7
100
AcDbLine
 10
219.9850971790089
 20
170.5291834956981
 30
0.0
 11
221.7171479865778
 21
170.5291834956981
 31
0.0
  0
LINE
  5
131
330
1F
100
AcDbEntity
  8
HEX_M4X16
  6
Continuous
 62
     7
100
AcDbLine
 10
221.7171479865778
 20
170.5291834956981
 30
0.0
 11
222.5831733903623
 21
172.0291834956981
 31
0.0
  0
LINE
  5
132
330
1F
100
AcDbEntity
  8
HEX_M4X16
  6
Continuous
 62
     7
100
AcDbLine
 10
222.5831733903623
 20
172.0291834956981
 30
0.0
 11
221.7171479865778
 21
173.5291834956981
 31
0.0
  0
LINE
  5
133
330
1F
100
AcDbEntity
  8
HEX_M4X16
  6
Continuous
 62
     7
100
AcDbLine
 10
221.7171479865778
 20
173.5291834956981
 30
0.0
 11
219.9850971790089
 21
173.5291834956981
 31
0.0
  0
LINE
  5
134
330
1F
100
AcDbEntity
  8
HEX_M4X16
  6
Continuous
 62
     7
100
AcDbLine
 10
219.9850971790089
 20
173.5291834956981
 30
0.0
 11
219.1190717752245
 21
172.0291834956981
 31
0.0
  0
CIRCLE
  5
135
330
1F
100
AcDbEntity
  8
HEX_M4X16
  6
Continuous
 62
     7
100
AcDbCircle
 10
321.3511225827933
 20
71.5291834956981
 30
0.0
 40
3.499999999999999
  0
LINE
  5
136
330
1F
100
AcDbEntity
  8
HEX_M4X16
  6
Continuous
 62
     7
100
AcDbLine
 10
319.6190717752245
 20
71.5291834956981
 30
0.0
 11
320.4850971790089
 21
70.0291834956981
 31
0.0
  0
LINE
  5
137
330
1F
100
AcDbEntity
  8
HEX_M4X16
  6
Continuous
 62
     7
100
AcDbLine
 10
320.4850971790089
 20
70.02918349569807
 30
0.0
 11
322.2171479865778
 21
70.02918349569807
 31
0.0
  0
LINE
  5
138
330
1F
100
AcDbEntity
  8
HEX_M4X16
  6
Continuous
 62
     7
100
AcDbLine
 10
322.2171479865778
 20
70.02918349569807
 30
0.0
 11
323.0831733903622
 21
71.52918349569808
 31
0.0
  0
LINE
  5
139
330
1F
100
AcDbEntity
  8
HEX_M4X16
  6
Continuous
 62
     7
100
AcDbLine
 10
323.0831733903622
 20
71.5291834956981
 30
0.0
 11
322.2171479865778
 21
73.02918349569811
 31
0.0
  0
LINE
  5
13A
330
1F
100
AcDbEntity
  8
HEX_M4X16
  6
Continuous
 62
     7
100
AcDbLine
 10
322.2171479865778
 20
73.02918349569807
 30
0.0
 11
320.4850971790089
 21
73.02918349569807
 31
0.0
  0
LINE
  5
13B
330
1F
100
AcDbEntity
  8
HEX_M4X16
  6
Continuous
 62
     7
100
AcDbLine
 10
320.4850971790089
 20
73.02918349569807
 30
0.0
 11
319.6190717752245
 21
71.52918349569808
 31
0.0
  0
CIRCLE
  5
13C
330
1F
100
AcDbEntity
  8
HEX_M4X16
  6
Continuous
 62
     7
100
AcDbCircle
 10
220.8511225827934
 20
-28.97081650430187
 30
0.0
 40
3.499999999999999
  0
LINE
  5
13D
330
1F
100
AcDbEntity
  8
HEX_M4X16
  6
Continuous
 62
     7
100
AcDbLine
 10
219.1190717752245
 20
-28.97081650430187
 30
0.0
 11
219.9850971790089
 21
-30.47081650430186
 31
0.0
  0
LINE
  5
13E
330
1F
100
AcDbEntity
  8
HEX_M4X16
  6
Continuous
 62
     7
100
AcDbLine
 10
219.9850971790089
 20
-30.47081650430186
 30
0.0
 11
221.7171479865778
 21
-30.47081650430186
 31
0.0
  0
LINE
  5
13F
330
1F
100
AcDbEntity
  8
HEX_M4X16
  6
Continuous
 62
     7
100
AcDbLine
 10
221.7171479865778
 20
-30.47081650430186
 30
0.0
 11
222.5831733903623
 21
-28.97081650430187
 31
0.0
  0
LINE
  5
140
330
1F
100
AcDbEntity
  8
HEX_M4X16
  6
Continuous
 62
     7
100
AcDbLine
 10
222.5831733903623
 20
-28.97081650430187
 30
0.0
 11
221.7171479865778
 21
-27.47081650430187
 31
0.0
  0
LINE
  5
141
330
1F
100
AcDbEntity
  8
HEX_M4X16
  6
Continuous
 62
     7
100
AcDbLine
 10
221.7171479865778
 20
-27.47081650430187
 30
0.0
 11
219.9850971790089
 21
-27.47081650430187
 31
0.0
  0
LINE
  5
142
330
1F
100
AcDbEntity
  8
HEX_M4X16
  6
Continuous
 62
     7
100
AcDbLine
 10
219.9850971790089
 20
-27.47081650430187
 30
0.0
 11
219.1190717752245
 21
-28.97081650430187
 31
0.0
  0
LINE
  5
145
330
1F
100
AcDbEntity
  8
SUN_SHIELD_SNC-C
  6
Continuous
 62
     7
100
AcDbLine
 10
95.85112258279337
 20
448.8244707572109
 30
0.0
 11
345.8511225827934
 21
448.8244707572108
 31
0.0
  0
LINE
  5
146
330
1F
100
AcDbEntity
  8
SUN_SHIELD_SNC-C
  6
Continuous
 62
     7
100
AcDbLine
 10
155.8511225827934
 20
598.8244707572106
 30
0.0
 11
285.8511225827935
 21
598.8244707572106
 31
0.0
  0
LINE
  5
147
330
1F
100
AcDbEntity
  8
SUN_SHIELD_SNC-C
  6
Continuous
 62
     7
100
AcDbLine
 10
110.5924503915536
 20
560.5869058475524
 30
0.0
 11
331.1097947740332
 21
560.5869058475524
 31
0.0
  0
LINE
  5
148
330
1F
100
AcDbEntity
  8
SUN_SHIELD_SNC-C
  6
Continuous
 62
     7
100
AcDbLine
 10
124.7986376736136
 20
580.5583031635754
 30
0.0
 11
316.9036074919731
 21
580.5583031635754
 31
0.0
  0
LINE
  5
149
330
1F
100
AcDbEntity
  8
SUN_SHIELD_SNC-C
  6
Continuous
 62
     7
100
AcDbLine
 10
91.3511225827934
 20
429.8840435836681
 30
0.0
 11
350.3511225827933
 21
429.8840435836681
 31
0.0
  0
LINE
  5
14A
330
1F
100
AcDbEntity
  8
SUN_SHIELD_SNC-C
  6
Continuous
 62
     7
100
AcDbLine
 10
91.35112258279338
 20
428.8244707572107
 30
0.0
 11
350.3511225827934
 21
428.8244707572106
 31
0.0
  0
ARC
  5
14B
330
1F
100
AcDbEntity
  8
SUN_SHIELD_SNC-C
  6
Continuous
 62
     7
100
AcDbCircle
 10
395.8162800824856
 20
450.6907601321333
 30
0.0
 40
49.99999999999998
100
AcDbArc
 50
182.1391069926575
 51
204.5907710391381
  0
ARC
  5
14C
330
1F
100
AcDbEntity
  8
SUN_SHIELD_SNC-C
  6
Continuous
 62
     7
100
AcDbCircle
 10
45.88596508310113
 20
450.6907601321334
 30
0.0
 40
50.0
100
AcDbArc
 50
335.4092289608619
 51
357.8608930073425
  0
ARC
  5
14D
330
1F
100
AcDbEntity
  8
SUN_SHIELD_SNC-C
  6
Continuous
 62
     7
100
AcDbCircle
 10
944.0681976288063
 20
393.7990802507687
 30
0.0
 40
850.0000000000001
100
AcDbArc
 50
168.683941835928
 51
176.2883190193204
  0
ARC
  5
14E
330
1F
100
AcDbEntity
  8
SUN_SHIELD_SNC-C
  6
Continuous
 62
     7
100
AcDbCircle
 10
-502.3659524632198
 20
393.799080250769
 30
0.0
 40
850.0000000000001
100
AcDbArc
 50
3.711680980679604
 51
11.316058164072
  0
LINE
  5
14F
330
1F
100
AcDbEntity
  8
SUN_SHIELD_SNC-C
  6
Continuous
 62
     7
100
AcDbLine
 10
316.9036074919732
 20
580.5583031635754
 30
0.0
 11
285.8511225827935
 21
598.8244707572106
 31
0.0
  0
LINE
  5
150
330
1F
100
AcDbEntity
  8
SUN_SHIELD_SNC-C
  6
Continuous
 62
     7
100
AcDbLine
 10
155.8511225827934
 20
598.8244707572106
 30
0.0
 11
124.7986376736136
 21
580.5583031635754
 31
0.0
  0
ARC
  5
151
330
1F
100
AcDbEntity
  8
SUN_SHIELD_SNC-C
  6
Continuous
 62
     7
100
AcDbCircle
 10
140.0092414705155
 20
554.7002767088423
 30
0.0
 40
30.00000000000005
100
AcDbArc
 50
120.4655449194598
 51
168.6839418359279
  0
ARC
  5
152
330
1F
100
AcDbEntity
  8
SUN_SHIELD_SNC-C
  6
Continuous
 62
     7
100
AcDbCircle
 10
301.6930036950713
 20
554.7002767088423
 30
0.0
 40
30.0
100
AcDbArc
 50
11.31605816407193
 51
59.53445508054027
  0
LINE
  5
153
330
1F
100
AcDbEntity
  8
SUN_SHIELD_SNC-C
  6
Continuous
 62
     7
100
AcDbLine
 10
350.3511225827934
 20
428.8244707572106
 30
0.0
 11
350.3511225827934
 21
429.884043583668
 31
0.0
  0
LINE
  5
154
330
1F
100
AcDbEntity
  8
SUN_SHIELD_SNC-C
  6
Continuous
 62
     7
100
AcDbLine
 10
91.35112258279338
 20
429.8840435836681
 30
0.0
 11
91.35112258279338
 21
428.8244707572107
 31
0.0
  0
LINE
  5
155
330
1F
100
AcDbEntity
  8
HOUSING_BODY
  6
Continuous
 62
     7
100
AcDbLine
 10
197.1011225827936
 20
634.8244707572107
 30
0.0
 11
244.6011225827931
 21
634.8244707572107
 31
0.0
  0
LINE
  5
156
330
1F
100
AcDbEntity
  8
HOUSING_BODY
  6
Continuous
 62
     7
100
AcDbLine
 10
200.1011225827936
 20
637.8244707572108
 30
0.0
 11
241.6011225827932
 21
637.8244707572108
 31
0.0
  0
LINE
  5
157
330
1F
100
AcDbEntity
  8
HOUSING_BODY
  6
Continuous
 62
     7
100
AcDbLine
 10
244.6011225827934
 20
615.8244707572106
 30
0.0
 11
244.6011225827934
 21
634.8244707572106
 31
0.0
  0
LINE
  5
158
330
1F
100
AcDbEntity
  8
HOUSING_BODY
  6
Continuous
 62
     7
100
AcDbLine
 10
197.1011225827933
 20
634.8244707572107
 30
0.0
 11
197.1011225827933
 21
615.8244707572107
 31
0.0
  0
LINE
  5
159
330
1F
100
AcDbEntity
  8
HOUSING_BODY
  6
Continuous
 62
     7
100
AcDbLine
 10
244.6011225827934
 20
634.8244707572107
 30
0.0
 11
241.6011225827934
 21
637.8244707572108
 31
0.0
  0
LINE
  5
15A
330
1F
100
AcDbEntity
  8
HOUSING_BODY
  6
Continuous
 62
     7
100
AcDbLine
 10
200.1011225827934
 20
637.8244707572108
 30
0.0
 11
197.1011225827933
 21
634.8244707572107
 31
0.0
  0
LINE
  5
15B
330
1F
100
AcDbEntity
  8
HOUSING_FRONT_TR
  6
Continuous
 62
     7
100
AcDbLine
 10
128.8511225827934
 20
410.8244707572105
 30
0.0
 11
312.8511225827935
 21
410.8244707572105
 31
0.0
  0
LINE
  5
15C
330
1F
100
AcDbEntity
  8
HOUSING_FRONT_TR
  6
Continuous
 62
     7
100
AcDbLine
 10
105.8511225827934
 20
428.3159540520861
 30
0.0
 11
335.8511225827934
 21
428.3159540520861
 31
0.0
  0
LINE
  5
15D
330
1F
100
AcDbEntity
  8
HOUSING_FRONT_TR
  6
Continuous
 62
     7
100
AcDbLine
 10
334.5671481511104
 20
426.0906751567913
 30
0.0
 11
107.1350970144763
 21
426.0906751567913
 31
0.0
  0
ARC
  5
15E
330
1F
100
AcDbEntity
  8
HOUSING_FRONT_TR
  6
Continuous
 62
     7
100
AcDbCircle
 10
377.4053901493385
 20
340.3829069241491
 30
0.0
 40
95.39373334737639
100
AcDbArc
 50
122.7109681543911
 51
129.5430372207701
  0
ARC
  5
15F
330
1F
100
AcDbEntity
  8
HOUSING_FRONT_TR
  6
Continuous
 62
     7
100
AcDbCircle
 10
64.27061074866831
 20
340.3469133088344
 30
0.0
 40
95.43821890652248
100
AcDbArc
 50
50.45889224736185
 51
57.28720227126729
  0
SPLINE
  5
160
330
1F
100
AcDbEntity
  8
HOUSING_FRONT_TR
  6
Continuous
 62
     7
100
AcDbSpline
210
0.0
220
0.0
230
1.0
 70
    11
 71
     3
 72
    28
 73
    24
 74
     0
 42
0.0000000001
 43
0.0000000001
 40
0.0
 40
0.0
 40
0.0
 40
0.0
 40
0.1250000000000009
 40
0.1250000000000009
 40
0.2500000000000017
 40
0.2500000000000017
 40
0.3125000000000016
 40
0.3125000000000016
 40
0.3750000000000015
 40
0.3750000000000015
 40
0.4375000000000015
 40
0.4375000000000015
 40
0.5000000000000014
 40
0.5000000000000014
 40
0.6250000000000013
 40
0.6250000000000013
 40
0.750000000000001
 40
0.750000000000001
 40
0.8750000000000008
 40
0.8750000000000008
 40
0.9375000000000003
 40
0.9375000000000003
 40
1.0
 40
1.0
 40
1.0
 40
1.0
 10
222.7239698220748
 20
414.2749846873378
 30
0.0
 10
223.9020458310964
 20
414.7068534595006
 30
0.0
 10
224.6949377740341
 20
415.4544764663175
 30
0.0
 10
225.5129303809006
 20
417.0047435677461
 30
0.0
 10
225.5503502929815
 20
417.832734826929
 30
0.0
 10
225.0033849901963
 20
418.9423991922195
 30
0.0
 10
224.7251874628626
 20
419.2856776521991
 30
0.0
 10
223.9391302801636
 20
419.9020992829207
 30
0.0
 10
223.4398836130671
 20
420.1627676375718
 30
0.0
 10
222.2805765459757
 20
420.5315662124818
 30
0.0
 10
221.6123118509011
 20
420.6388527248256
 30
0.0
 10
220.26976580091
 20
420.6558331738728
 30
0.0
 10
219.5890987366707
 20
420.5654036602552
 30
0.0
 10
217.7924584728057
 20
420.0456646487341
 30
0.0
 10
216.9557831611369
 20
419.3920089814197
 30
0.0
 10
216.1612289775328
 20
417.9158540276898
 30
0.0
 10
216.1739245549009
 20
417.0890708538488
 30
0.0
 10
216.9413234973312
 20
415.5297590650782
 30
0.0
 10
217.7106153818761
 20
414.7712511108328
 30
0.0
 10
219.4451635070615
 20
414.0902121370109
 30
0.0
 10
220.1127571358443
 20
413.9539032219508
 30
0.0
 10
221.4567170522812
 20
413.9377742808043
 30
0.0
 10
222.134931817564
 20
414.0590503012565
 30
0.0
 10
222.7239698220748
 20
414.2749846873378
 30
0.0
  0
LINE
  5
161
330
1F
100
AcDbEntity
  8
HOUSING_FRONT_TR
  6
Continuous
 62
     7
100
AcDbLine
 10
105.8511225827934
 20
428.8244707572106
 30
0.0
 11
105.8511225827934
 21
428.315954052086
 31
0.0
  0
LINE
  5
162
330
1F
100
AcDbEntity
  8
HOUSING_FRONT_TR
  6
Continuous
 62
     7
100
AcDbLine
 10
335.8511225827935
 20
428.3159540520861
 30
0.0
 11
335.8511225827935
 21
428.8244707572107
 31
0.0
  0
ARC
  5
163
330
1F
100
AcDbEntity
  8
HOUSING_FRONT_TR
  6
Continuous
 62
     7
100
AcDbCircle
 10
32.06583887080483
 20
296.2268754212269
 30
0.0
 40
150.0
100
AcDbArc
 50
49.81668589670118
 51
51.71604125037851
  0
ARC
  5
164
330
1F
100
AcDbEntity
  8
HOUSING_FRONT_TR
  6
Continuous
 62
     7
100
AcDbCircle
 10
32.06583887080483
 20
296.2268754212269
 30
0.0
 40
149.9999999999999
100
AcDbArc
 50
56.04301315780763
 51
59.96944808299513
  0
ARC
  5
165
330
1F
100
AcDbEntity
  8
HOUSING_FRONT_TR
  6
Continuous
 62
     7
100
AcDbCircle
 10
409.636406294782
 20
296.2268754212269
 30
0.0
 40
150.0
100
AcDbArc
 50
120.0305519170048
 51
123.9768233353644
  0
ARC
  5
166
330
1F
100
AcDbEntity
  8
HOUSING_FRONT_TR
  6
Continuous
 62
     7
100
AcDbCircle
 10
409.636406294782
 20
296.2268754212269
 30
0.0
 40
150.0
100
AcDbArc
 50
128.2924272566099
 51
130.1833141032988
  0
LINE
  5
167
330
1F
100
AcDbEntity
  8
HOUSING_FRONT_TR
  6
Continuous
 62
     7
100
AcDbLine
 10
105.8511225827934
 20
428.3159540520861
 30
0.0
 11
107.1350970144764
 21
426.0906751567913
 31
0.0
  0
LINE
  5
168
330
1F
100
AcDbEntity
  8
HOUSING_FRONT_TR
  6
Continuous
 62
     7
100
AcDbLine
 10
334.5671481511104
 20
426.0906751567913
 30
0.0
 11
335.8511225827934
 21
428.3159540520861
 31
0.0
  0
LINE
  5
169
330
1F
100
AcDbEntity
  8
DOME_165PI
  6
Continuous
 62
     7
100
AcDbLine
 10
138.1511225827934
 20
409.8244707572105
 30
0.0
 11
303.5511225827934
 21
409.8244707572105
 31
0.0
  0
ARC
  5
16A
330
1F
100
AcDbEntity
  8
DOME_165PI
  6
Continuous
 62
     7
100
AcDbCircle
 10
220.8511225827934
 20
409.8244707572105
 30
0.0
 40
82.5
100
AcDbArc
 50
180.0
 51
0.0
  0
LINE
  5
16B
330
1F
100
AcDbEntity
  8
DOME_165PI
  6
Continuous
 62
     7
100
AcDbLine
 10
138.1249366612242
 20
410.8244707572105
 30
0.0
 11
138.1511225827934
 21
409.8244707572105
 31
0.0
  0
LINE
  5
16C
330
1F
100
AcDbEntity
  8
DOME_165PI
  6
Continuous
 62
     7
100
AcDbLine
 10
303.5511225827934
 20
409.8244707572105
 30
0.0
 11
303.5773085043626
 21
410.8244707572105
 31
0.0
  0
LINE
  5
16D
330
1F
100
AcDbEntity
  8
COVER_SUN_SHILED
  6
Continuous
 62
     7
100
AcDbLine
 10
190.8511225827937
 20
615.8244707572107
 30
0.0
 11
250.8511225827931
 21
615.8244707572107
 31
0.0
  0
LINE
  5
16E
330
1F
100
AcDbEntity
  8
COVER_SUN_SHILED
  6
Continuous
 62
     7
100
AcDbLine
 10
264.2166344052474
 20
598.8244707572106
 30
0.0
 11
264.0343461858766
 21
608.3375592313646
 31
0.0
  0
LINE
  5
16F
330
1F
100
AcDbEntity
  8
COVER_SUN_SHILED
  6
Continuous
 62
     7
100
AcDbLine
 10
272.7838951849256
 20
598.8244707572106
 30
0.0
 11
272.7050316855588
 21
608.3375592313646
 31
0.0
  0
LINE
  5
170
330
1F
100
AcDbEntity
  8
COVER_SUN_SHILED
  6
Continuous
 62
     7
100
AcDbLine
 10
164.1890834233662
 20
598.8244707572106
 30
0.0
 11
164.427263991062
 21
608.3375592313646
 31
0.0
  0
LINE
  5
171
330
1F
100
AcDbEntity
  8
COVER_SUN_SHILED
  6
Continuous
 62
     7
100
AcDbLine
 10
207.5545952458202
 20
598.8244707572106
 30
0.0
 11
207.6104875941451
 21
608.3375592313646
 31
0.0
  0
LINE
  5
172
330
1F
100
AcDbEntity
  8
COVER_SUN_SHILED
  6
Continuous
 62
     7
100
AcDbLine
 10
222.470930462549
 20
598.8244707572106
 30
0.0
 11
222.6361371196371
 21
608.3375592313646
 31
0.0
  0
LINE
  5
173
330
1F
100
AcDbEntity
  8
COVER_SUN_SHILED
  6
Continuous
 62
     7
100
AcDbLine
 10
222.9948141969109
 20
608.3375592313647
 30
0.0
 11
223.0038633066024
 21
598.8244707572107
 31
0.0
  0
LINE
  5
174
330
1F
100
AcDbEntity
  8
COVER_SUN_SHILED
  6
Continuous
 62
     7
100
AcDbLine
 10
264.0343461858766
 20
608.3375592313647
 30
0.0
 11
222.9948141969109
 21
608.3375592313647
 31
0.0
  0
LINE
  5
175
330
1F
100
AcDbEntity
  8
COVER_SUN_SHILED
  6
Continuous
 62
     7
100
AcDbLine
 10
164.9051651507911
 20
608.8244707572106
 30
0.0
 11
162.3382010182542
 21
608.8244707572106
 31
0.0
  0
LINE
  5
176
330
1F
100
AcDbEntity
  8
COVER_SUN_SHILED
  6
Continuous
 62
     7
100
AcDbLine
 10
164.9051651507911
 20
608.8244707572106
 30
0.0
 11
164.9111883221564
 21
608.8244707572106
 31
0.0
  0
LINE
  5
177
330
1F
100
AcDbEntity
  8
COVER_SUN_SHILED
  6
Continuous
 62
     7
100
AcDbLine
 10
164.9111883221564
 20
608.8244707572106
 30
0.0
 11
171.2716850650171
 21
608.8244707572106
 31
0.0
  0
LINE
  5
178
330
1F
100
AcDbEntity
  8
COVER_SUN_SHILED
  6
Continuous
 62
     7
100
AcDbLine
 10
171.2716850650179
 20
608.8244707572106
 30
0.0
 11
171.2736583058833
 21
608.8244707572106
 31
0.0
  0
LINE
  5
179
330
1F
100
AcDbEntity
  8
COVER_SUN_SHILED
  6
Continuous
 62
     7
100
AcDbLine
 10
171.2736583058832
 20
608.8244707572106
 30
0.0
 11
207.7226336787015
 21
608.8244707572106
 31
0.0
  0
LINE
  5
17A
330
1F
100
AcDbEntity
  8
COVER_SUN_SHILED
  6
Continuous
 62
     7
100
AcDbLine
 10
272.5541217448405
 20
608.8244707572106
 30
0.0
 11
279.3640441473326
 21
608.8244707572106
 31
0.0
  0
LINE
  5
17B
330
1F
100
AcDbEntity
  8
COVER_SUN_SHILED
  6
Continuous
 62
     7
100
AcDbLine
 10
207.7226336787015
 20
608.8244707572106
 30
0.0
 11
207.732122062487
 21
608.8244707572106
 31
0.0
  0
LINE
  5
17C
330
1F
100
AcDbEntity
  8
COVER_SUN_SHILED
  6
Continuous
 62
     7
100
AcDbLine
 10
272.5467947723952
 20
608.8244707572106
 30
0.0
 11
272.5541217448405
 21
608.8244707572106
 31
0.0
  0
LINE
  5
17D
330
1F
100
AcDbEntity
  8
COVER_SUN_SHILED
  6
Continuous
 62
     7
100
AcDbLine
 10
207.732122062487
 20
608.8244707572106
 30
0.0
 11
222.9676186245355
 21
608.8244707572106
 31
0.0
  0
LINE
  5
17E
330
1F
100
AcDbEntity
  8
COVER_SUN_SHILED
  6
Continuous
 62
     7
100
AcDbLine
 10
263.6720563231241
 20
608.8244707572106
 30
0.0
 11
272.5467947723952
 21
608.8244707572106
 31
0.0
  0
LINE
  5
17F
330
1F
100
AcDbEntity
  8
COVER_SUN_SHILED
  6
Continuous
 62
     7
100
AcDbLine
 10
222.9676186245355
 20
608.8244707572106
 30
0.0
 11
222.9766574679302
 21
608.8244707572106
 31
0.0
  0
LINE
  5
180
330
1F
100
AcDbEntity
  8
COVER_SUN_SHILED
  6
Continuous
 62
     7
100
AcDbLine
 10
263.6685911107039
 20
608.8244707572106
 30
0.0
 11
263.6720571789364
 21
608.8244707572106
 31
0.0
  0
LINE
  5
181
330
1F
100
AcDbEntity
  8
COVER_SUN_SHILED
  6
Continuous
 62
     7
100
AcDbLine
 10
222.9766574679302
 20
608.8244707572106
 30
0.0
 11
263.6685911107038
 21
608.8244707572106
 31
0.0
  0
LINE
  5
182
330
1F
100
AcDbEntity
  8
COVER_SUN_SHILED
  6
Continuous
 62
     7
100
AcDbLine
 10
264.1718518609677
 20
608.3375592313647
 30
0.0
 11
264.4209443406822
 21
598.8244707572107
 31
0.0
  0
LINE
  5
183
330
1F
100
AcDbEntity
  8
COVER_SUN_SHILED
  6
Continuous
 62
     7
100
AcDbLine
 10
264.1718858419498
 20
608.3375592313647
 30
0.0
 11
264.0343461858766
 21
608.3375592313647
 31
0.0
  0
LINE
  5
184
330
1F
100
AcDbEntity
  8
COVER_SUN_SHILED
  6
Continuous
 62
     7
100
AcDbLine
 10
222.9948141969109
 20
608.3375592313647
 30
0.0
 11
222.6361371196371
 21
608.3375592313647
 31
0.0
  0
LINE
  5
185
330
1F
100
AcDbEntity
  8
COVER_SUN_SHILED
  6
Continuous
 62
     7
100
AcDbLine
 10
272.7050316855588
 20
608.3375592313647
 30
0.0
 11
264.1718518609677
 21
608.3375592313647
 31
0.0
  0
LINE
  5
186
330
1F
100
AcDbEntity
  8
COVER_SUN_SHILED
  6
Continuous
 62
     7
100
AcDbLine
 10
207.9870032185049
 20
608.3375592313647
 30
0.0
 11
208.1140331224911
 21
598.8244707572107
 31
0.0
  0
LINE
  5
187
330
1F
100
AcDbEntity
  8
COVER_SUN_SHILED
  6
Continuous
 62
     7
100
AcDbLine
 10
222.636137119637
 20
608.3375592313647
 30
0.0
 11
207.9870032185049
 21
608.3375592313647
 31
0.0
  0
LINE
  5
188
330
1F
100
AcDbEntity
  8
COVER_SUN_SHILED
  6
Continuous
 62
     7
100
AcDbLine
 10
272.9957787366088
 20
608.3375592313647
 30
0.0
 11
273.215895618279
 21
598.8244707572107
 31
0.0
  0
LINE
  5
189
330
1F
100
AcDbEntity
  8
COVER_SUN_SHILED
  6
Continuous
 62
     7
100
AcDbLine
 10
272.9957787366088
 20
608.3375592313647
 30
0.0
 11
272.7050316855588
 21
608.3375592313647
 31
0.0
  0
LINE
  5
18A
330
1F
100
AcDbEntity
  8
COVER_SUN_SHILED
  6
Continuous
 62
     7
100
AcDbLine
 10
207.9870032185049
 20
608.3375592313647
 30
0.0
 11
207.6104875941451
 21
608.3375592313647
 31
0.0
  0
LINE
  5
18B
330
1F
100
AcDbEntity
  8
COVER_SUN_SHILED
  6
Continuous
 62
     7
100
AcDbLine
 10
279.8638728098203
 20
608.3375592313647
 30
0.0
 11
272.9957787366088
 21
608.3375592313647
 31
0.0
  0
LINE
  5
18C
330
1F
100
AcDbEntity
  8
COVER_SUN_SHILED
  6
Continuous
 62
     7
100
AcDbLine
 10
170.8501580430955
 20
608.3375592313647
 30
0.0
 11
170.6390902711167
 21
598.8244707572107
 31
0.0
  0
LINE
  5
18D
330
1F
100
AcDbEntity
  8
COVER_SUN_SHILED
  6
Continuous
 62
     7
100
AcDbLine
 10
207.6104875941451
 20
608.3375592313647
 30
0.0
 11
170.8501580430955
 21
608.3375592313647
 31
0.0
  0
LINE
  5
18E
330
1F
100
AcDbEntity
  8
COVER_SUN_SHILED
  6
Continuous
 62
     7
100
AcDbLine
 10
170.8501580430955
 20
608.3375592313647
 30
0.0
 11
170.7718564025293
 21
608.3375592313647
 31
0.0
  0
LINE
  5
18F
330
1F
100
AcDbEntity
  8
COVER_SUN_SHILED
  6
Continuous
 62
     7
100
AcDbLine
 10
164.6662739403307
 20
608.3375592313647
 30
0.0
 11
164.5442113646023
 21
598.8244707572107
 31
0.0
  0
LINE
  5
190
330
1F
100
AcDbEntity
  8
COVER_SUN_SHILED
  6
Continuous
 62
     7
100
AcDbLine
 10
170.7822280168717
 20
608.3375592313647
 30
0.0
 11
164.6662739403306
 21
608.3375592313647
 31
0.0
  0
LINE
  5
191
330
1F
100
AcDbEntity
  8
COVER_SUN_SHILED
  6
Continuous
 62
     7
100
AcDbLine
 10
164.6662739403306
 20
608.3375592313647
 30
0.0
 11
164.4272639910619
 21
608.3375592313647
 31
0.0
  0
LINE
  5
192
330
1F
100
AcDbEntity
  8
COVER_SUN_SHILED
  6
Continuous
 62
     7
100
AcDbLine
 10
161.8383723557665
 20
608.3375592313647
 30
0.0
 11
164.4272639910619
 21
608.3375592313647
 31
0.0
  0
ELLIPSE
  5
193
330
1F
100
AcDbEntity
  8
COVER_SUN_SHILED
  6
Continuous
 62
     7
100
AcDbEllipse
 10
164.9051651507911
 20
608.3244707572107
 30
0.0
 11
0.0000000000004163
 21
0.4999999999999727
 31
0.0
210
0.0
220
0.0
230
1.0
 40
0.9561299613162846
 41
0.0
 42
1.544616388015728
  0
ELLIPSE
  5
194
330
1F
100
AcDbEntity
  8
COVER_SUN_SHILED
  6
Continuous
 62
     7
100
AcDbEllipse
 10
164.9111883221564
 20
608.3244707572106
 30
0.0
 11
-0.0000000000000139
 21
0.5000000000000283
 31
0.0
210
0.0
220
0.0
230
1.0
 40
0.4899966732735165
 41
0.0
 42
1.544616388014694
  0
ELLIPSE
  5
195
330
1F
100
AcDbEntity
  8
COVER_SUN_SHILED
  6
Continuous
 62
     7
100
AcDbEllipse
 10
171.2736583058832
 20
608.3244707572106
 30
0.0
 11
-0.0000000000000971
 21
0.5000000000000283
 31
0.0
210
0.0
220
0.0
230
1.0
 40
0.8472908709954557
 41
0.0
 42
1.544616388014543
  0
ELLIPSE
  5
196
330
1F
100
AcDbEntity
  8
COVER_SUN_SHILED
  6
Continuous
 62
     7
100
AcDbEllipse
 10
272.5541217448405
 20
608.3244707572107
 30
0.0
 11
0.0000000000001388
 21
-0.4999999999999727
 31
0.0
210
0.0
220
0.0
230
1.0
 40
0.8836167769373973
 41
1.596976265574615
 42
3.141592653589793
  0
ELLIPSE
  5
197
330
1F
100
AcDbEntity
  8
COVER_SUN_SHILED
  6
Continuous
 62
     7
100
AcDbEllipse
 10
207.7226336787015
 20
608.3244707572107
 30
0.0
 11
0.0000000000000069
 21
0.5000000000000005
 31
0.0
210
0.0
220
0.0
230
1.0
 40
0.2243690547840434
 41
0.0
 42
1.544616388014937
  0
ELLIPSE
  5
198
330
1F
100
AcDbEntity
  8
COVER_SUN_SHILED
  6
Continuous
 62
     7
100
AcDbEllipse
 10
272.5467947723952
 20
608.3244707572107
 30
0.0
 11
0.0
 21
-0.4999999999999727
 31
0.0
210
0.0
220
0.0
230
1.0
 40
0.316582311178373
 41
1.59697626557486
 42
3.141592653589793
  0
ELLIPSE
  5
199
330
1F
100
AcDbEntity
  8
COVER_SUN_SHILED
  6
Continuous
 62
     7
100
AcDbEllipse
 10
207.732122062487
 20
608.3244707572107
 30
0.0
 11
0.0
 21
0.5000000000000005
 31
0.0
210
0.0
220
0.0
230
1.0
 40
0.5099370547283736
 41
4.738568919164651
 42
6.283185307179586
  0
ELLIPSE
  5
19A
330
1F
100
AcDbEntity
  8
COVER_SUN_SHILED
  6
Continuous
 62
     7
100
AcDbEllipse
 10
263.6720563231241
 20
608.3244707572107
 30
0.0
 11
0.0000000000049682
 21
-0.4999999999994732
 31
0.0
210
0.0
220
0.0
230
1.0
 40
0.9999337280040466
 41
1.59697626556495
 42
3.141592653589747
  0
ELLIPSE
  5
19B
330
1F
100
AcDbEntity
  8
COVER_SUN_SHILED
  6
Continuous
 62
     7
100
AcDbEllipse
 10
222.9676186245355
 20
608.3244707572106
 30
0.0
 11
-0.0000000000000347
 21
0.5000000000000283
 31
0.0
210
0.0
220
0.0
230
1.0
 40
0.6631902685384061
 41
0.0
 42
1.544616388014662
  0
ELLIPSE
  5
19C
330
1F
100
AcDbEntity
  8
COVER_SUN_SHILED
  6
Continuous
 62
     7
100
AcDbEllipse
 10
263.6685911107039
 20
608.3244707572107
 30
0.0
 11
-0.0000000000000347
 21
-0.5000000000000005
 31
0.0
210
0.0
220
0.0
230
1.0
 40
0.7317609065321255
 41
1.596976265574909
 42
3.141592653589793
  0
ELLIPSE
  5
19D
330
1F
100
AcDbEntity
  8
COVER_SUN_SHILED
  6
Continuous
 62
     7
100
AcDbEllipse
 10
222.9766574679302
 20
608.3244707572107
 30
0.0
 11
0.0
 21
0.5000000000000005
 31
0.0
210
0.0
220
0.0
230
1.0
 40
0.036325905941861
 41
4.738568919164651
 42
6.283185307179586
  0
ELLIPSE
  5
19E
330
1F
100
AcDbEntity
  8
COVER_SUN_SHILED
  6
Continuous
 62
     7
100
AcDbEllipse
 10
184.1961893454574
 20
613.8244707572107
 30
0.0
 11
0.1927497742221646
 21
-5.998960264132159
 31
0.0
210
0.0
220
0.0
230
1.0
 40
0.5794813225046055
 41
1.604539313293107
 42
4.641412211763235
  0
LINE
  5
19F
330
1F
100
AcDbEntity
  8
COVER_SUN_SHILED
  6
Continuous
 62
     7
100
AcDbLine
 10
177.4561754484693
 20
614.1384864946684
 30
0.0
 11
180.7149872146681
 21
614.1384864946684
 31
0.0
  0
LINE
  5
1A0
330
1F
100
AcDbEntity
  8
COVER_SUN_SHILED
  6
Continuous
 62
     7
100
AcDbLine
 10
187.6639932114459
 20
614.1384864946684
 30
0.0
 11
187.9388547964566
 21
608.8244707572108
 31
0.0
  0
LINE
  5
1A1
330
1F
100
AcDbEntity
  8
COVER_SUN_SHILED
  6
Continuous
 62
     7
100
AcDbLine
 10
186.1968318051536
 20
608.8244707572106
 30
0.0
 11
185.9300912784516
 21
613.9814786259393
 31
0.0
  0
ELLIPSE
  5
1A2
330
1F
100
AcDbEntity
  8
COVER_SUN_SHILED
  6
Continuous
 62
     7
100
AcDbEllipse
 10
184.1961893454574
 20
613.8244707572107
 30
0.0
 11
0.0963748871110823
 21
-2.999480132066051
 31
0.0
210
0.0
220
0.0
230
1.0
 40
0.579481322504611
 41
1.604539313293089
 42
4.641412211763253
  0
LINE
  5
1A3
330
1F
100
AcDbEntity
  8
COVER_SUN_SHILED
  6
Continuous
 62
     7
100
AcDbLine
 10
182.6645803798524
 20
613.9814786259395
 30
0.0
 11
185.9300912784517
 21
613.9814786259395
 31
0.0
  0
LINE
  5
1A4
330
1F
100
AcDbEntity
  8
COVER_SUN_SHILED
  6
Continuous
 62
     7
100
AcDbLine
 10
182.4555882800628
 20
613.9814786259395
 30
0.0
 11
182.4088843590573
 21
608.8244707572106
 31
0.0
  0
LINE
  5
1A5
330
1F
100
AcDbEntity
  8
COVER_SUN_SHILED
  6
Continuous
 62
     7
100
AcDbLine
 10
180.6668613677542
 20
608.8244707572106
 30
0.0
 11
180.7149872146681
 21
614.1384864946683
 31
0.0
  0
ELLIPSE
  5
1A6
330
1F
100
AcDbEntity
  8
COVER_SUN_SHILED
  6
Continuous
 62
     7
100
AcDbEllipse
 10
180.9239793144577
 20
613.8244707572107
 30
0.0
 11
-0.1927497742221646
 21
-5.998960264132159
 31
0.0
210
0.0
220
0.0
230
1.0
 40
0.5794813225046053
 41
3.160209544651441
 42
4.678645993886478
  0
LINE
  5
1A7
330
1F
100
AcDbEntity
  8
COVER_SUN_SHILED
  6
Continuous
 62
     7
100
AcDbLine
 10
182.7112843008579
 20
608.8244707572106
 30
0.0
 11
182.6645803798524
 21
613.9814786259393
 31
0.0
  0
ELLIPSE
  5
1A8
330
1F
100
AcDbEntity
  8
COVER_SUN_SHILED
  6
Continuous
 62
     7
100
AcDbEllipse
 10
180.9239793144577
 20
613.8244707572107
 30
0.0
 11
-0.0963748871110754
 21
-2.999480132066077
 31
0.0
210
0.0
220
0.0
230
1.0
 40
0.5794813225046003
 41
1.64177309541633
 42
1.974788082117501
  0
LINE
  5
1A9
330
1F
100
AcDbEntity
  8
COVER_SUN_SHILED
  6
Continuous
 62
     7
100
AcDbLine
 10
177.1813138634585
 20
608.8244707572106
 30
0.0
 11
177.4561754484693
 21
614.1384864946683
 31
0.0
  0
LINE
  5
1AA
330
1F
100
AcDbEntity
  8
COVER_SUN_SHILED
  6
Continuous
 62
     7
100
AcDbLine
 10
251.0344240337777
 20
608.8244707572106
 30
0.0
 11
250.8511225827934
 21
615.8244707572106
 31
0.0
  0
LINE
  5
1AB
330
1F
100
AcDbEntity
  8
COVER_SUN_SHILED
  6
Continuous
 62
     7
100
AcDbLine
 10
190.8511225827934
 20
615.8244707572107
 30
0.0
 11
190.6678211318091
 21
608.8244707572108
 31
0.0
  0
LINE
  5
1AC
330
1F
100
AcDbEntity
  8
COVER_SUN_SHILED
  6
Continuous
 62
     7
100
AcDbLine
 10
280.1129817984853
 20
598.8244707572106
 30
0.0
 11
279.8638728098203
 21
608.3375592313644
 31
0.0
  0
LINE
  5
1AD
330
1F
100
AcDbEntity
  8
COVER_SUN_SHILED
  6
Continuous
 62
     7
100
AcDbLine
 10
161.8383723557665
 20
608.3375592313646
 30
0.0
 11
161.5892633671015
 21
598.8244707572107
 31
0.0
  0
LINE
  5
1AE
330
1F
100
AcDbEntity
  8
COVER_SUN_SHILED
  6
Continuous
 62
     7
100
AcDbLine
 10
170.7718564025293
 20
608.3375592313647
 30
0.0
 11
170.5227474138644
 21
598.8244707572107
 31
0.0
  0
ARC
  5
1AF
330
1F
100
AcDbEntity
  8
COVER_SUN_SHILED
  6
Continuous
 62
     7
100
AcDbCircle
 10
162.3382010182542
 20
608.3244707572107
 30
0.0
 40
0.5000000000000005
100
AcDbArc
 50
90.0
 51
178.5000000000104
  0
ARC
  5
1B0
330
1F
100
AcDbEntity
  8
COVER_SUN_SHILED
  6
Continuous
 62
     7
100
AcDbCircle
 10
171.2716850650171
 20
608.3244707572107
 30
0.0
 40
0.5000000000000005
100
AcDbArc
 50
90.0
 51
178.4999999999972
  0
ARC
  5
1B1
330
1F
100
AcDbEntity
  8
COVER_SUN_SHILED
  6
Continuous
 62
     7
100
AcDbCircle
 10
279.3640441473325
 20
608.3244707572107
 30
0.0
 40
0.5000000000000006
100
AcDbArc
 50
1.499999999989629
 51
90.0
  0
LINE
  5
1B2
330
1F
100
AcDbEntity
  8
COVER_SUN_SHILED
  6
Continuous
 62
     7
100
AcDbLine
 10
184.0681868614798
 20
619.8244707572107
 30
0.0
 11
181.0519817984354
 21
619.8244707572107
 31
0.0
  0
DIMENSION
  5
1C6
330
1F
100
AcDbEntity
  8
0
100
AcDbDimension
  2
*D2
 10
385.6306512485744
 20
428.8244707572105
 30
0.0
 11
379.6306512485743
 21
378.0744707572107
 31
0.0
 70
    32
 71
     5
 42
101.5000000000001
 73
     0
 74
     0
 75
     0
  3
ISO-25
100
AcDbAlignedDimension
 13
220.8511225827934
 23
327.3244707572105
 33
0.0
 14
350.3511225827934
 24
428.8244707572106
 34
0.0
 50
90.0
100
AcDbRotatedDimension
  0
DIMENSION
  5
1D4
330
1F
100
AcDbEntity
  8
0
100
AcDbDimension
  2
*D3
 10
350.9761225827934
 20
252.127771726166
 30
0.0
 11
221.1636225827934
 21
252.127771726166
 31
0.0
 70
   160
  1
%%c259.6
 71
     5
 42
259.625
 73
     0
 74
     0
 75
     0
  3
ISO-25
100
AcDbAlignedDimension
 13
91.35112258279338
 23
428.8244707572107
 33
0.0
 14
350.9761225827934
 24
428.8244707572106
 34
0.0
100
AcDbRotatedDimension
  0
DIMENSION
  5
6F2
330
1F
100
AcDbEntity
  8
0
100
AcDbDimension
  2
*D4
 10
138.3511225827934
 20
291.5906077474476
 30
0.0
 11
220.8511225827934
 21
297.5906077474476
 31
0.0
 70
    32
  1
%%c165
 71
     5
 42
165.0
 73
     0
 74
     0
 75
     0
  3
ISO-25
100
AcDbAlignedDimension
 13
303.3511225827934
 23
409.8244707572105
 33
0.0
 14
138.3511225827934
 24
409.8244707572105
 34
0.0
100
AcDbRotatedDimension
  0
DIMENSION
  5
6FF
330
1F
100
AcDbEntity
  8
0
100
AcDbDimension
  2
*D5
 10
385.6306512485744
 20
615.8244707572106
 30
0.0
 11
379.6306512485744
 21
522.3244707572107
 31
0.0
 70
    32
 71
     5
 42
187.0
 73
     0
 74
     0
 75
     0
  3
ISO-25
100
AcDbAlignedDimension
 13
350.3511225827934
 23
428.8244707572106
 33
0.0
 14
250.8511225827934
 24
615.8244707572107
 34
0.0
 50
90.0
100
AcDbRotatedDimension
  0
DIMENSION
  5
712
330
1F
100
AcDbEntity
  8
0
100
AcDbDimension
  2
*D6
 10
385.6306512485744
 20
637.8244707572106
 30
0.0
 11
379.6306512485744
 21
626.8244707572107
 31
0.0
 70
    32
 71
     5
 42
22.0
 73
     0
 74
     0
 75
     0
  3
ISO-25
100
AcDbAlignedDimension
 13
250.8511225827931
 23
615.8244707572107
 33
0.0
 14
241.6011225827934
 24
637.8244707572108
 34
0.0
 50
90.0
100
AcDbRotatedDimension
  0
LEADER
  5
73D
330
1F
100
AcDbEntity
  8
0
100
AcDbLeader
  3
ISO-25
 73
     0
 40
8.0
 41
144.0
 76
     3
 10
244.6011225827934
 20
625.3244707572106
 30
0.0
 10
309.9587959478504
 20
710.1174813261857
 30
0.0
 10
336.8412113679115
 20
710.1174813261857
 30
0.0
340
73E
213
0.0
223
-4.0
233
0.0
1001
ACAD
1000
DSTYLE
1002
{
1070
   147
1040
2.0
1070
    77
1070
     0
1002
}
  0
MTEXT
  5
73E
102
{ACAD_REACTORS
330
73D
102
}
330
1F
100
AcDbEntity
  8
0
100
AcDbMText
 10
338.8412113679115
 20
714.1174813261857
 30
0.0
 40
8.0
 41
0.0
 46
0.0
 71
     1
 72
     1
  1
1.5" NPT PIPE THREAD
 73
     1
 44
1.0
  0
ENDSEC
  0
SECTION
  2
OBJECTS
  0
DICTIONARY
  5
C
330
0
100
AcDbDictionary
281
     1
  3
ACAD_COLOR
350
111
  3
ACAD_GROUP
350
D
  3
ACAD_LAYOUT
350
1A
  3
ACAD_MATERIAL
350
110
  3
ACAD_MLEADERSTYLE
350
10C
  3
ACAD_MLINESTYLE
350
17
  3
ACAD_PLOTSETTINGS
350
19
  3
ACAD_PLOTSTYLENAME
350
E
  3
ACAD_SCALELIST
350
3B
  3
ACAD_TABLESTYLE
350
10B
  3
ACAD_VISUALSTYLE
350
2A
  3
ACDB_RECOMPOSE_DATA
350
81D
  3
AcDbVariableDictionary
350
109
  0
DICTIONARY
  5
780
330
2
100
AcDbDictionary
280
     1
281
     1
  3
ACAD_LAYERSTATES
360
781
  0
DICTIONARY
  5
76D
330
10
100
AcDbDictionary
280
     1
281
     1
  3
ADSK_XREC_LAYER_RECONCILED
360
76E
  0
DICTIONARY
  5
76F
330
5D
100
AcDbDictionary
280
     1
281
     1
  3
ADSK_XREC_LAYER_RECONCILED
360
770
  0
DICTIONARY
  5
771
330
60
100
AcDbDictionary
280
     1
281
     1
  3
ADSK_XREC_LAYER_RECONCILED
360
772
  0
DICTIONARY
  5
773
330
71
100
AcDbDictionary
280
     1
281
     1
  3
ADSK_XREC_LAYER_RECONCILED
360
774
  0
DICTIONARY
  5
775
330
78
100
AcDbDictionary
280
     1
281
     1
  3
ADSK_XREC_LAYER_RECONCILED
360
776
  0
DICTIONARY
  5
777
330
87
100
AcDbDictionary
280
     1
281
     1
  3
ADSK_XREC_LAYER_RECONCILED
360
778
  0
DICTIONARY
  5
779
330
8C
100
AcDbDictionary
280
     1
281
     1
  3
ADSK_XREC_LAYER_RECONCILED
360
77A
  0
DICTIONARY
  5
77B
330
E9
100
AcDbDictionary
280
     1
281
     1
  3
ADSK_XREC_LAYER_RECONCILED
360
77C
  0
DICTIONARY
  5
143
330
1F
100
AcDbDictionary
280
     1
281
     1
  3
ACAD_SORTENTS
360
144
  0
DICTIONARY
  5
111
102
{ACAD_REACTORS
330
C
102
}
330
C
100
AcDbDictionary
281
     1
  0
DICTIONARY
  5
D
102
{ACAD_REACTORS
330
C
102
}
330
C
100
AcDbDictionary
281
     1
  0
DICTIONARY
  5
1A
102
{ACAD_REACTORS
330
C
102
}
330
C
100
AcDbDictionary
281
     1
  3
Layout1
350
1E
  3
Model
350
22
  0
DICTIONARY
  5
110
102
{ACAD_REACTORS
330
C
102
}
330
C
100
AcDbDictionary
281
     1
  3
ByBlock
350
74E
  3
ByLayer
350
746
  3
Global
350
756
  0
DICTIONARY
  5
10C
102
{ACAD_REACTORS
330
C
102
}
330
C
100
AcDbDictionary
281
     1
  3
Standard
350
768
  0
DICTIONARY
  5
17
102
{ACAD_REACTORS
330
C
102
}
330
C
100
AcDbDictionary
281
     1
  3
Standard
350
18
  0
DICTIONARY
  5
19
102
{ACAD_REACTORS
330
C
102
}
330
C
100
AcDbDictionary
281
     1
  0
ACDBDICTIONARYWDFLT
  5
E
102
{ACAD_REACTORS
330
C
102
}
330
C
100
AcDbDictionary
281
     1
  3
Normal
350
F
100
AcDbDictionaryWithDefault
340
F
  0
DICTIONARY
  5
3B
102
{ACAD_REACTORS
330
C
102
}
330
C
100
AcDbDictionary
281
     1
  3
A0
350
3C
  3
A1
350
3D
  3
A2
350
3E
  3
A3
350
3F
  3
A4
350
40
  3
A5
350
41
  3
A6
350
42
  3
A7
350
43
  3
A8
350
44
  3
A9
350
45
  3
B0
350
46
  3
B1
350
47
  3
B2
350
48
  3
B3
350
49
  3
B4
350
4A
  3
B5
350
4B
  3
B6
350
4C
  3
B7
350
4D
  3
B8
350
4E
  3
B9
350
4F
  3
C0
350
50
  3
C1
350
51
  3
C2
350
52
  3
C3
350
53
  3
C4
350
54
  3
C5
350
55
  3
C6
350
56
  3
C7
350
57
  3
C8
350
58
  3
C9
350
59
  3
D0
350
5A
  3
D1
350
5B
  3
D2
350
5C
  0
DICTIONARY
  5
10B
102
{ACAD_REACTORS
330
C
102
}
330
C
100
AcDbDictionary
281
     1
  3
Standard
350
112
  0
DICTIONARY
  5
2A
102
{ACAD_REACTORS
330
C
102
}
330
C
100
AcDbDictionary
281
     1
  3
2dWireframe
350
2F
  3
3D Hidden
350
31
  3
3dWireframe
350
30
  3
Basic
350
32
  3
Brighten
350
36
  3
ColorChange
350
3A
  3
Conceptual
350
34
  3
Dim
350
35
  3
EdgeColorOff
350
767
  3
Facepattern
350
39
  3
Flat
350
2B
  3
FlatWithEdges
350
2C
  3
Gouraud
350
2D
  3
GouraudWithEdges
350
2E
  3
Hidden
350
75F
  3
JitterOff
350
765
  3
Linepattern
350
38
  3
OverhangOff
350
766
  3
Realistic
350
33
  3
Shaded
350
764
  3
Shaded with edges
350
763
  3
Shades of Gray
350
760
  3
Sketchy
350
761
  3
Thicken
350
37
  3
Wireframe
350
75E
  3
X-Ray
350
762
  0
XRECORD
  5
81D
102
{ACAD_REACTORS
330
C
102
}
330
C
100
AcDbXrecord
280
     1
 90
        1
330
112
  0
DICTIONARY
  5
109
102
{ACAD_REACTORS
330
C
102
}
330
C
100
AcDbDictionary
281
     1
  3
CANNOSCALE
350
10A
  3
CMLEADERSTYLE
350
7CD
  3
CTABLESTYLE
350
1BA
  3
DIMASSOC
350
1BB
  3
LAYEREVAL
350
7D0
  3
LAYERNOTIFY
350
7D1
  3
LIGHTINGUNITS
350
7CF
  3
MSLTSCALE
350
7CE
  3
PROJECTNAME
350
1BC
  3
XCLIPFRAME
350
7D2
  0
DICTIONARY
  5
781
102
{ACAD_REACTORS
330
780
102
}
330
780
100
AcDbDictionary
281
     1
  0
XRECORD
  5
76E
102
{ACAD_REACTORS
330
76D
102
}
330
76D
100
AcDbXrecord
280
     1
290
     1
  0
XRECORD
  5
770
102
{ACAD_REACTORS
330
76F
102
}
330
76F
100
AcDbXrecord
280
     1
290
     1
  0
XRECORD
  5
772
102
{ACAD_REACTORS
330
771
102
}
330
771
100
AcDbXrecord
280
     1
290
     1
  0
XRECORD
  5
774
102
{ACAD_REACTORS
330
773
102
}
330
773
100
AcDbXrecord
280
     1
290
     1
  0
XRECORD
  5
776
102
{ACAD_REACTORS
330
775
102
}
330
775
100
AcDbXrecord
280
     1
290
     1
  0
XRECORD
  5
778
102
{ACAD_REACTORS
330
777
102
}
330
777
100
AcDbXrecord
280
     1
290
     1
  0
XRECORD
  5
77A
102
{ACAD_REACTORS
330
779
102
}
330
779
100
AcDbXrecord
280
     1
290
     1
  0
XRECORD
  5
77C
102
{ACAD_REACTORS
330
77B
102
}
330
77B
100
AcDbXrecord
280
     1
290
     1
  0
SORTENTSTABLE
  5
144
102
{ACAD_REACTORS
330
143
102
}
330
143
100
AcDbSortentsTable
330
1F
331
163
  5
133
331
124
  5
194
331
19A
  5
16C
331
12C
  5
19C
331
1A2
  5
174
331
1AA
  5
17C
331
134
  5
1A4
331
16B
  5
13B
331
1B2
  5
184
331
173
  5
145
331
13C
  5
1AC
331
17B
  5
14D
331
14C
  5
11C
331
183
  5
155
331
154
  5
124
331
115
  5
185
331
18B
  5
15D
331
193
  5
165
331
11D
  5
18D
331
15C
  5
12C
331
19B
  5
16D
331
164
  5
134
331
125
  5
195
331
1A3
  5
175
331
12D
  5
19D
331
16C
  5
13C
331
135
  5
1A5
331
1AB
  5
17D
331
13D
  5
1AD
331
174
  5
146
331
145
  5
115
331
17C
  5
14E
331
184
  5
156
331
14D
  5
11D
331
18C
  5
15E
331
155
  5
125
331
116
  5
186
331
15D
  5
12D
331
11E
  5
18E
331
194
  5
166
331
165
  5
135
331
126
  5
196
331
19C
  5
16E
331
12E
  5
19E
331
1A4
  5
176
331
1AC
  5
17E
331
16D
  5
13D
331
136
  5
1A6
331
175
  5
147
331
13E
  5
1AE
331
17D
  5
14F
331
146
  5
116
331
14E
  5
11E
331
185
  5
157
331
156
  5
126
331
117
  5
187
331
18D
  5
15F
331
195
  5
167
331
11F
  5
18F
331
15E
  5
12E
331
19D
  5
16F
331
166
  5
136
331
127
  5
197
331
12F
  5
19F
331
1A5
  5
177
331
16E
  5
13E
331
137
  5
1A7
331
1AD
  5
17F
331
13F
  5
1AF
331
176
  5
148
331
17E
  5
150
331
147
  5
117
331
186
  5
158
331
14F
  5
11F
331
18E
  5
160
331
157
  5
127
331
118
  5
188
331
15F
  5
12F
331
120
  5
190
331
196
  5
168
331
167
  5
137
331
128
  5
198
331
19E
  5
170
331
1A6
  5
178
331
130
  5
1A0
331
1AE
  5
180
331
16F
  5
13F
331
138
  5
1A8
331
177
  5
149
331
140
  5
1B0
331
17F
  5
151
331
148
  5
118
331
187
  5
159
331
150
  5
120
331
18F
  5
161
331
119
  5
189
331
158
  5
128
331
197
  5
169
331
121
  5
191
331
160
  5
130
331
19F
  5
171
331
129
  5
199
331
1A7
  5
179
331
168
  5
138
331
131
  5
1A1
331
170
  5
140
331
139
  5
1A9
331
1AF
  5
181
331
141
  5
1B1
331
178
  5
14A
331
180
  5
152
331
149
  5
119
331
188
  5
15A
331
151
  5
121
331
190
  5
162
331
159
  5
129
331
11A
  5
18A
331
161
  5
131
331
122
  5
192
331
198
  5
16A
331
12A
  5
19A
331
1A0
  5
172
331
1A8
  5
17A
331
132
  5
1A2
331
169
  5
139
331
1B0
  5
182
331
171
  5
141
331
13A
  5
1AA
331
179
  5
14B
331
142
  5
1B2
331
181
  5
153
331
14A
  5
11A
331
152
  5
122
331
189
  5
15B
331
191
  5
163
331
11B
  5
18B
331
15A
  5
12A
331
199
  5
16B
331
123
  5
193
331
162
  5
132
331
1A1
  5
173
331
12B
  5
19B
331
16A
  5
13A
331
133
  5
1A3
331
1A9
  5
17B
331
1B1
  5
183
331
13B
  5
1AB
331
172
  5
142
331
17A
  5
14C
331
182
  5
154
331
14B
  5
11B
331
18A
  5
15C
331
153
  5
123
331
192
  5
164
331
15B
  5
12B
331
11C
  5
18C
  0
LAYOUT
  5
1E
102
{ACAD_REACTORS
330
1A
102
}
330
1A
100
AcDbPlotSettings
  1

  2
none_device
  4

  6

 40
0.0
 41
0.0
 42
0.0
 43
0.0
 44
0.0
 45
0.0
 46
0.0
 47
0.0
 48
0.0
 49
0.0
140
0.0
141
0.0
142
1.0
143
1.0
 70
   688
 72
     0
 73
     0
 74
     5
  7

 75
    16
147
1.0
 76
     0
 77
     2
 78
   300
148
0.0
149
0.0
100
AcDbLayout
  1
Layout1
 70
     1
 71
     1
 10
0.0
 20
0.0
 11
841.0
 21
594.0
 12
0.0
 22
0.0
 32
0.0
 14
0.0
 24
0.0
 34
0.0
 15
841.0
 25
594.0
 35
0.0
146
0.0
 13
0.0
 23
0.0
 33
0.0
 16
1.0
 26
0.0
 36
0.0
 17
0.0
 27
1.0
 37
0.0
 76
     0
330
1B
  0
LAYOUT
  5
22
102
{ACAD_XDICTIONARY
360
786
102
}
102
{ACAD_REACTORS
330
1A
102
}
330
1A
100
AcDbPlotSettings
  1

  2
none_device
  4
ISO_A4_(210.00_x_297.00_MM)
  6

 40
7.5
 41
20.0
 42
7.5
 43
20.0
 44
210.0
 45
297.0
 46
0.0
 47
0.0
 48
0.0
 49
0.0
140
0.0
141
0.0
142
1.0
143
6.8854661978242
 70
 11952
 72
     1
 73
     1
 74
     0
  7

 75
     0
147
0.1452334484360694
 76
     0
 77
     2
 78
   300
148
525.3058942391635
149
173.6538384117443
100
AcDbLayout
  1
Model
 70
     1
 71
     0
 10
0.0
 20
0.0
 11
841.0
 21
594.0
 12
0.0
 22
0.0
 32
0.0
 14
0.0
 24
0.0
 34
0.0
 15
841.0
 25
594.0
 35
0.0
146
0.0
 13
0.0
 23
0.0
 33
0.0
 16
1.0
 26
0.0
 36
0.0
 17
0.0
 27
1.0
 37
0.0
 76
     0
330
1F
331
73F
1001
ACAD_PSEXT
1000
None
1000
None
1000
Not applicable
1000
The layout will not be plotted unless a new plotter configuration name is selected.
1070
     0
  0
MATERIAL
  5
74E
102
{ACAD_XDICTIONARY
360
74F
102
}
102
{ACAD_REACTORS
330
110
102
}
330
110
100
AcDbMaterial
  1
ByBlock
 72
     0
 43
0.0008202099737533
 43
0.0
 43
0.0
 43
0.0
 43
0.0
 43
0.0008202099737533
 43
0.0
 43
0.0
 43
0.0
 43
0.0
 43
1.0
 43
0.0
 43
0.0
 43
0.0
 43
0.0
 43
1.0
 77
     0
 47
0.0008202099737533
 47
0.0
 47
0.0
 47
0.0
 47
0.0
 47
0.0008202099737533
 47
0.0
 47
0.0
 47
0.0
 47
0.0
 47
1.0
 47
0.0
 47
0.0
 47
0.0
 47
0.0
 47
1.0
171
     0
 49
0.0008202099737533
 49
0.0
 49
0.0
 49
0.0
 49
0.0
 49
0.0008202099737533
 49
0.0
 49
0.0
 49
0.0
 49
0.0
 49
1.0
 49
0.0
 49
0.0
 49
0.0
 49
0.0
 49
1.0
175
     0
142
0.0008202099737533
142
0.0
142
0.0
142
0.0
142
0.0
142
0.0008202099737533
142
0.0
142
0.0
142
0.0
142
0.0
142
1.0
142
0.0
142
0.0
142
0.0
142
0.0
142
1.0
179
     0
144
0.0008202099737533
144
0.0
144
0.0
144
0.0
144
0.0
144
0.0008202099737533
144
0.0
144
0.0
144
0.0
144
0.0
144
1.0
144
0.0
144
0.0
144
0.0
144
0.0
144
1.0
147
0.0008202099737533
147
0.0
147
0.0
147
0.0
147
0.0
147
0.0008202099737533
147
0.0
147
0.0
147
0.0
147
0.0
147
1.0
147
0.0
147
0.0
147
0.0
147
0.0
147
1.0
  0
MATERIAL
  5
746
102
{ACAD_XDICTIONARY
360
747
102
}
102
{ACAD_REACTORS
330
110
102
}
330
110
100
AcDbMaterial
  1
ByLayer
 72
     0
 43
0.0008202099737533
 43
0.0
 43
0.0
 43
0.0
 43
0.0
 43
0.0008202099737533
 43
0.0
 43
0.0
 43
0.0
 43
0.0
 43
1.0
 43
0.0
 43
0.0
 43
0.0
 43
0.0
 43
1.0
 77
     0
 47
0.0008202099737533
 47
0.0
 47
0.0
 47
0.0
 47
0.0
 47
0.0008202099737533
 47
0.0
 47
0.0
 47
0.0
 47
0.0
 47
1.0
 47
0.0
 47
0.0
 47
0.0
 47
0.0
 47
1.0
171
     0
 49
0.0008202099737533
 49
0.0
 49
0.0
 49
0.0
 49
0.0
 49
0.0008202099737533
 49
0.0
 49
0.0
 49
0.0
 49
0.0
 49
1.0
 49
0.0
 49
0.0
 49
0.0
 49
0.0
 49
1.0
175
     0
142
0.0008202099737533
142
0.0
142
0.0
142
0.0
142
0.0
142
0.0008202099737533
142
0.0
142
0.0
142
0.0
142
0.0
142
1.0
142
0.0
142
0.0
142
0.0
142
0.0
142
1.0
179
     0
144
0.0008202099737533
144
0.0
144
0.0
144
0.0
144
0.0
144
0.0008202099737533
144
0.0
144
0.0
144
0.0
144
0.0
144
1.0
144
0.0
144
0.0
144
0.0
144
0.0
144
1.0
147
0.0008202099737533
147
0.0
147
0.0
147
0.0
147
0.0
147
0.0008202099737533
147
0.0
147
0.0
147
0.0
147
0.0
147
1.0
147
0.0
147
0.0
147
0.0
147
0.0
147
1.0
  0
MATERIAL
  5
756
102
{ACAD_XDICTIONARY
360
757
102
}
102
{ACAD_REACTORS
330
110
102
}
330
110
100
AcDbMaterial
  1
Global
 72
     0
 43
0.0008202099737533
 43
0.0
 43
0.0
 43
0.0
 43
0.0
 43
0.0008202099737533
 43
0.0
 43
0.0
 43
0.0
 43
0.0
 43
1.0
 43
0.0
 43
0.0
 43
0.0
 43
0.0
 43
1.0
 77
     0
 47
0.0008202099737533
 47
0.0
 47
0.0
 47
0.0
 47
0.0
 47
0.0008202099737533
 47
0.0
 47
0.0
 47
0.0
 47
0.0
 47
1.0
 47
0.0
 47
0.0
 47
0.0
 47
0.0
 47
1.0
171
     0
 49
0.0008202099737533
 49
0.0
 49
0.0
 49
0.0
 49
0.0
 49
0.0008202099737533
 49
0.0
 49
0.0
 49
0.0
 49
0.0
 49
1.0
 49
0.0
 49
0.0
 49
0.0
 49
0.0
 49
1.0
175
     0
142
0.0008202099737533
142
0.0
142
0.0
142
0.0
142
0.0
142
0.0008202099737533
142
0.0
142
0.0
142
0.0
142
0.0
142
1.0
142
0.0
142
0.0
142
0.0
142
0.0
142
1.0
179
     0
144
0.0008202099737533
144
0.0
144
0.0
144
0.0
144
0.0
144
0.0008202099737533
144
0.0
144
0.0
144
0.0
144
0.0
144
1.0
144
0.0
144
0.0
144
0.0
144
0.0
144
1.0
147
0.0008202099737533
147
0.0
147
0.0
147
0.0
147
0.0
147
0.0008202099737533
147
0.0
147
0.0
147
0.0
147
0.0
147
1.0
147
0.0
147
0.0
147
0.0
147
0.0
147
1.0
  0
MLEADERSTYLE
  5
768
102
{ACAD_REACTORS
330
10C
102
}
330
10C
100
AcDbMLeaderStyle
170
     2
171
     1
172
     0
 90
        2
 40
0.0
 41
0.0
173
     1
 91
-1056964608
340
14
 92
       -2
290
     1
 42
2.0
291
     1
 43
0.36
  3
Standard
 44
4.0
300

342
11
174
     1
178
     6
175
     1
176
     0
 93
-1056964608
 45
4.0
292
     0
297
     0
 46
4.0
 94
-1056964608
 47
1.0
 49
1.0
140
1.0
293
     1
141
0.0
294
     1
177
     0
142
1.0
295
     0
296
     0
143
0.125
1001
ACAD_MLEADERVER
1070
     2
  0
MLINESTYLE
  5
18
102
{ACAD_REACTORS
330
17
102
}
330
17
100
AcDbMlineStyle
  2
STANDARD
 70
     0
  3

 62
   256
 51
90.0
 52
90.0
 71
     2
 49
0.5
 62
   256
  6
BYLAYER
 49
-0.5
 62
   256
  6
BYLAYER
  0
ACDBPLACEHOLDER
  5
F
102
{ACAD_REACTORS
330
E
102
}
330
E
  0
SCALE
  5
3C
102
{ACAD_REACTORS
330
3B
102
}
330
3B
100
AcDbScale
 70
     0
300
1:1
140
1.0
141
1.0
290
     1
1001
ACAD
1000
AcRTDxfName
1000
SCALE
1000
AcRTDxfName
1000
SCALE
  0
SCALE
  5
3D
102
{ACAD_REACTORS
330
3B
102
}
330
3B
100
AcDbScale
 70
     0
300
1:2
140
1.0
141
2.0
290
     0
1001
ACAD
1000
AcRTDxfName
1000
SCALE
1000
AcRTDxfName
1000
SCALE
  0
SCALE
  5
3E
102
{ACAD_REACTORS
330
3B
102
}
330
3B
100
AcDbScale
 70
     0
300
1:4
140
1.0
141
4.0
290
     0
1001
ACAD
1000
AcRTDxfName
1000
SCALE
1000
AcRTDxfName
1000
SCALE
  0
SCALE
  5
3F
102
{ACAD_REACTORS
330
3B
102
}
330
3B
100
AcDbScale
 70
     0
300
1:5
140
1.0
141
5.0
290
     0
1001
ACAD
1000
AcRTDxfName
1000
SCALE
1000
AcRTDxfName
1000
SCALE
  0
SCALE
  5
40
102
{ACAD_REACTORS
330
3B
102
}
330
3B
100
AcDbScale
 70
     0
300
1:8
140
1.0
141
8.0
290
     0
1001
ACAD
1000
AcRTDxfName
1000
SCALE
1000
AcRTDxfName
1000
SCALE
  0
SCALE
  5
41
102
{ACAD_REACTORS
330
3B
102
}
330
3B
100
AcDbScale
 70
     0
300
1:10
140
1.0
141
10.0
290
     0
1001
ACAD
1000
AcRTDxfName
1000
SCALE
1000
AcRTDxfName
1000
SCALE
  0
SCALE
  5
42
102
{ACAD_REACTORS
330
3B
102
}
330
3B
100
AcDbScale
 70
     0
300
1:16
140
1.0
141
16.0
290
     0
1001
ACAD
1000
AcRTDxfName
1000
SCALE
1000
AcRTDxfName
1000
SCALE
  0
SCALE
  5
43
102
{ACAD_REACTORS
330
3B
102
}
330
3B
100
AcDbScale
 70
     0
300
1:20
140
1.0
141
20.0
290
     0
1001
ACAD
1000
AcRTDxfName
1000
SCALE
1000
AcRTDxfName
1000
SCALE
  0
SCALE
  5
44
102
{ACAD_REACTORS
330
3B
102
}
330
3B
100
AcDbScale
 70
     0
300
1:30
140
1.0
141
30.0
290
     0
1001
ACAD
1000
AcRTDxfName
1000
SCALE
1000
AcRTDxfName
1000
SCALE
  0
SCALE
  5
45
102
{ACAD_REACTORS
330
3B
102
}
330
3B
100
AcDbScale
 70
     0
300
1:40
140
1.0
141
40.0
290
     0
1001
ACAD
1000
AcRTDxfName
1000
SCALE
1000
AcRTDxfName
1000
SCALE
  0
SCALE
  5
46
102
{ACAD_REACTORS
330
3B
102
}
330
3B
100
AcDbScale
 70
     0
300
1:50
140
1.0
141
50.0
290
     0
1001
ACAD
1000
AcRTDxfName
1000
SCALE
1000
AcRTDxfName
1000
SCALE
  0
SCALE
  5
47
102
{ACAD_REACTORS
330
3B
102
}
330
3B
100
AcDbScale
 70
     0
300
1:100
140
1.0
141
100.0
290
     0
1001
ACAD
1000
AcRTDxfName
1000
SCALE
1000
AcRTDxfName
1000
SCALE
  0
SCALE
  5
48
102
{ACAD_REACTORS
330
3B
102
}
330
3B
100
AcDbScale
 70
     0
300
2:1
140
2.0
141
1.0
290
     0
1001
ACAD
1000
AcRTDxfName
1000
SCALE
1000
AcRTDxfName
1000
SCALE
  0
SCALE
  5
49
102
{ACAD_REACTORS
330
3B
102
}
330
3B
100
AcDbScale
 70
     0
300
4:1
140
4.0
141
1.0
290
     0
1001
ACAD
1000
AcRTDxfName
1000
SCALE
1000
AcRTDxfName
1000
SCALE
  0
SCALE
  5
4A
102
{ACAD_REACTORS
330
3B
102
}
330
3B
100
AcDbScale
 70
     0
300
8:1
140
8.0
141
1.0
290
     0
1001
ACAD
1000
AcRTDxfName
1000
SCALE
1000
AcRTDxfName
1000
SCALE
  0
SCALE
  5
4B
102
{ACAD_REACTORS
330
3B
102
}
330
3B
100
AcDbScale
 70
     0
300
10:1
140
10.0
141
1.0
290
     0
1001
ACAD
1000
AcRTDxfName
1000
SCALE
1000
AcRTDxfName
1000
SCALE
  0
SCALE
  5
4C
102
{ACAD_REACTORS
330
3B
102
}
330
3B
100
AcDbScale
 70
     0
300
100:1
140
100.0
141
1.0
290
     0
1001
ACAD
1000
AcRTDxfName
1000
SCALE
1000
AcRTDxfName
1000
SCALE
  0
SCALE
  5
4D
102
{ACAD_REACTORS
330
3B
102
}
330
3B
100
AcDbScale
 70
     0
300
1/128" = 1'-0"
140
0.0078125
141
12.0
290
     0
1001
ACAD
1000
AcRTDxfName
1000
SCALE
1000
AcRTDxfName
1000
SCALE
  0
SCALE
  5
4E
102
{ACAD_REACTORS
330
3B
102
}
330
3B
100
AcDbScale
 70
     0
300
1/64" = 1'-0"
140
0.015625
141
12.0
290
     0
1001
ACAD
1000
AcRTDxfName
1000
SCALE
1000
AcRTDxfName
1000
SCALE
  0
SCALE
  5
4F
102
{ACAD_REACTORS
330
3B
102
}
330
3B
100
AcDbScale
 70
     0
300
1/32" = 1'-0"
140
0.03125
141
12.0
290
     0
1001
ACAD
1000
AcRTDxfName
1000
SCALE
1000
AcRTDxfName
1000
SCALE
  0
SCALE
  5
50
102
{ACAD_REACTORS
330
3B
102
}
330
3B
100
AcDbScale
 70
     0
300
1/16" = 1'-0"
140
0.0625
141
12.0
290
     0
1001
ACAD
1000
AcRTDxfName
1000
SCALE
1000
AcRTDxfName
1000
SCALE
  0
SCALE
  5
51
102
{ACAD_REACTORS
330
3B
102
}
330
3B
100
AcDbScale
 70
     0
300
3/32" = 1'-0"
140
0.09375
141
12.0
290
     0
1001
ACAD
1000
AcRTDxfName
1000
SCALE
1000
AcRTDxfName
1000
SCALE
  0
SCALE
  5
52
102
{ACAD_REACTORS
330
3B
102
}
330
3B
100
AcDbScale
 70
     0
300
1/8" = 1'-0"
140
0.125
141
12.0
290
     0
1001
ACAD
1000
AcRTDxfName
1000
SCALE
1000
AcRTDxfName
1000
SCALE
  0
SCALE
  5
53
102
{ACAD_REACTORS
330
3B
102
}
330
3B
100
AcDbScale
 70
     0
300
3/16" = 1'-0"
140
0.1875
141
12.0
290
     0
1001
ACAD
1000
AcRTDxfName
1000
SCALE
1000
AcRTDxfName
1000
SCALE
  0
SCALE
  5
54
102
{ACAD_REACTORS
330
3B
102
}
330
3B
100
AcDbScale
 70
     0
300
1/4" = 1'-0"
140
0.25
141
12.0
290
     0
1001
ACAD
1000
AcRTDxfName
1000
SCALE
1000
AcRTDxfName
1000
SCALE
  0
SCALE
  5
55
102
{ACAD_REACTORS
330
3B
102
}
330
3B
100
AcDbScale
 70
     0
300
3/8" = 1'-0"
140
0.375
141
12.0
290
     0
1001
ACAD
1000
AcRTDxfName
1000
SCALE
1000
AcRTDxfName
1000
SCALE
  0
SCALE
  5
56
102
{ACAD_REACTORS
330
3B
102
}
330
3B
100
AcDbScale
 70
     0
300
1/2" = 1'-0"
140
0.5
141
12.0
290
     0
1001
ACAD
1000
AcRTDxfName
1000
SCALE
1000
AcRTDxfName
1000
SCALE
  0
SCALE
  5
57
102
{ACAD_REACTORS
330
3B
102
}
330
3B
100
AcDbScale
 70
     0
300
3/4" = 1'-0"
140
0.75
141
12.0
290
     0
1001
ACAD
1000
AcRTDxfName
1000
SCALE
1000
AcRTDxfName
1000
SCALE
  0
SCALE
  5
58
102
{ACAD_REACTORS
330
3B
102
}
330
3B
100
AcDbScale
 70
     0
300
1" = 1'-0"
140
1.0
141
12.0
290
     0
1001
ACAD
1000
AcRTDxfName
1000
SCALE
1000
AcRTDxfName
1000
SCALE
  0
SCALE
  5
59
102
{ACAD_REACTORS
330
3B
102
}
330
3B
100
AcDbScale
 70
     0
300
1-1/2" = 1'-0"
140
1.5
141
12.0
290
     0
1001
ACAD
1000
AcRTDxfName
1000
SCALE
1000
AcRTDxfName
1000
SCALE
  0
SCALE
  5
5A
102
{ACAD_REACTORS
330
3B
102
}
330
3B
100
AcDbScale
 70
     0
300
3" = 1'-0"
140
3.0
141
12.0
290
     0
1001
ACAD
1000
AcRTDxfName
1000
SCALE
1000
AcRTDxfName
1000
SCALE
  0
SCALE
  5
5B
102
{ACAD_REACTORS
330
3B
102
}
330
3B
100
AcDbScale
 70
     0
300
6" = 1'-0"
140
6.0
141
12.0
290
     0
1001
ACAD
1000
AcRTDxfName
1000
SCALE
1000
AcRTDxfName
1000
SCALE
  0
SCALE
  5
5C
102
{ACAD_REACTORS
330
3B
102
}
330
3B
100
AcDbScale
 70
     0
300
1'-0" = 1'-0"
140
12.0
141
12.0
290
     0
1001
ACAD
1000
AcRTDxfName
1000
SCALE
1000
AcRTDxfName
1000
SCALE
  0
TABLESTYLE
  5
112
102
{ACAD_XDICTIONARY
360
81B
102
}
102
{ACAD_REACTORS
330
10B
102
}
330
10B
100
AcDbTableStyle
  3
Standard
 70
     0
 71
     0
 40
1.5
 41
1.5
280
     0
281
     0
  7
Standard
140
4.5
170
     2
 62
     0
 63
     7
283
     0
 90
        4
 91
        0
  1

274
    -2
284
     1
 64
     0
275
    -2
285
     1
 65
     0
276
    -2
286
     1
 66
     0
277
    -2
287
     1
 67
     0
278
    -2
288
     1
 68
     0
279
    -2
289
     1
 69
     0
  7
Standard
140
6.0
170
     5
 62
     0
 63
     7
283
     0
 90
        4
 91
        0
  1

274
    -2
284
     1
 64
     0
275
    -2
285
     1
 65
     0
276
    -2
286
     1
 66
     0
277
    -2
287
     1
 67
     0
278
    -2
288
     1
 68
     0
279
    -2
289
     1
 69
     0
  7
Standard
140
4.5
170
     5
 62
     0
 63
     7
283
     0
 90
        4
 91
        0
  1

274
    -2
284
     1
 64
     0
275
    -2
285
     1
 65
     0
276
    -2
286
     1
 66
     0
277
    -2
287
     1
 67
     0
278
    -2
288
     1
 68
     0
279
    -2
289
     1
 69
     0
  0
VISUALSTYLE
  5
2F
102
{ACAD_XDICTIONARY
360
826
102
}
102
{ACAD_REACTORS
330
2A
102
}
330
2A
100
AcDbVisualStyle
  2
2dWireframe
 70
     4
 71
     0
 72
     2
 73
     0
 90
        0
 40
-0.6
 41
-30.0
 62
     5
 63
     7
 74
     1
 91
        4
 64
     7
 65
   257
 75
     1
175
     1
 42
1.0
 92
        0
 66
   257
 43
1.0
 76
     1
 77
     6
 78
     2
 67
     7
 79
     5
170
     0
171
     0
290
     0
174
     0
 93
        1
 44
0.0
173
     0
291
     0
 45
0.0
1001
ACAD
1000
AcRTDxfName
1000
VISUALSTYLE
1000
AcRTDxfName
1000
VISUALSTYLE
1000
AcDbSavedByObjectVersion
1070
     0
  0
VISUALSTYLE
  5
31
102
{ACAD_XDICTIONARY
360
82A
102
}
102
{ACAD_REACTORS
330
2A
102
}
330
2A
100
AcDbVisualStyle
  2
3D Hidden
 70
     6
 71
     1
 72
     2
 73
     2
 90
        0
 40
-0.6
 41
-30.0
 62
     5
 63
     7
 74
     2
 91
        2
 64
     7
 65
   257
 75
     2
175
     1
 42
40.0
 92
        0
 66
   257
 43
1.0
 76
     1
 77
     6
 78
     2
 67
     7
 79
     3
170
     0
171
     0
290
     0
174
     0
 93
        1
 44
0.0
173
     0
291
     0
 45
0.0
1001
ACAD
1000
AcRTDxfName
1000
VISUALSTYLE
1000
AcRTDxfName
1000
VISUALSTYLE
1000
AcDbSavedByObjectVersion
1070
     0
  0
VISUALSTYLE
  5
30
102
{ACAD_XDICTIONARY
360
828
102
}
102
{ACAD_REACTORS
330
2A
102
}
330
2A
100
AcDbVisualStyle
  2
3dWireframe
 70
     5
 71
     0
 72
     2
 73
     0
 90
        0
 40
-0.6
 41
-30.0
 62
     5
 63
     7
 74
     1
 91
        4
 64
     7
 65
   257
 75
     1
175
     1
 42
1.0
 92
        0
 66
   257
 43
1.0
 76
     1
 77
     6
 78
     2
 67
     7
 79
     5
170
     0
171
     0
290
     0
174
     0
 93
        1
 44
0.0
173
     0
291
     0
 45
0.0
1001
ACAD
1000
AcRTDxfName
1000
VISUALSTYLE
1000
AcRTDxfName
1000
VISUALSTYLE
1000
AcDbSavedByObjectVersion
1070
     0
  0
VISUALSTYLE
  5
32
102
{ACAD_XDICTIONARY
360
82C
102
}
102
{ACAD_REACTORS
330
2A
102
}
330
2A
100
AcDbVisualStyle
  2
Basic
 70
     7
 71
     1
 72
     0
 73
     1
 90
        0
 40
-0.6
 41
-30.0
 62
     5
 63
     7
 74
     0
 91
        4
 64
     7
 65
   257
 75
     1
175
     1
 42
1.0
 92
        8
 66
     7
 43
1.0
 76
     1
 77
     6
 78
     2
 67
     7
 79
     5
170
     0
171
     0
290
     0
174
     0
 93
        1
 44
0.0
173
     0
291
     1
 45
0.0
1001
ACAD
1000
AcRTDxfName
1000
VISUALSTYLE
1000
AcRTDxfName
1000
VISUALSTYLE
1000
AcDbSavedByObjectVersion
1070
     0
  0
VISUALSTYLE
  5
36
102
{ACAD_XDICTIONARY
360
834
102
}
102
{ACAD_REACTORS
330
2A
102
}
330
2A
100
AcDbVisualStyle
  2
Brighten
 70
    12
 71
     2
 72
     2
 73
     0
 90
        0
 40
-0.6
 41
-30.0
 62
     5
 63
     7
 74
     1
 91
        4
 64
     7
 65
   257
 75
     1
175
     1
 42
1.0
 92
        8
 66
     7
 43
1.0
 76
     1
 77
     6
 78
     2
 67
     7
 79
     5
170
     0
171
     0
290
     0
174
     0
 93
        1
 44
50.0
173
     0
291
     1
 45
0.0
1001
ACAD
1000
AcRTDxfName
1000
VISUALSTYLE
1000
AcRTDxfName
1000
VISUALSTYLE
1000
AcDbSavedByObjectVersion
1070
     0
  0
VISUALSTYLE
  5
3A
102
{ACAD_XDICTIONARY
360
83C
102
}
102
{ACAD_REACTORS
330
2A
102
}
330
2A
100
AcDbVisualStyle
  2
ColorChange
 70
    16
 71
     2
 72
     2
 73
     3
 90
        0
 40
-0.6
 41
-30.0
 62
     5
 63
     8
 74
     1
 91
        4
 64
     7
 65
   257
 75
     1
175
     1
 42
1.0
 92
        8
 66
     8
 43
1.0
 76
     1
 77
     6
 78
     2
 67
     7
 79
     5
170
     0
171
     0
290
     0
174
     0
 93
        1
 44
0.0
173
     0
291
     1
 45
0.0
1001
ACAD
1000
AcRTDxfName
1000
VISUALSTYLE
1000
AcRTDxfName
1000
VISUALSTYLE
1000
AcDbSavedByObjectVersion
1070
     0
  0
VISUALSTYLE
  5
34
102
{ACAD_XDICTIONARY
360
830
102
}
102
{ACAD_REACTORS
330
2A
102
}
330
2A
100
AcDbVisualStyle
  2
Conceptual
 70
     9
 71
     3
 72
     2
 73
     0
 90
        0
 40
-0.6
 41
-30.0
 62
     5
 63
     7
 74
     2
 91
        2
 64
     7
 65
   257
 75
     1
175
     1
 42
40.0
 92
        8
 66
     7
 43
1.0
 76
     1
 77
     6
 78
     2
 67
     7
 79
     3
170
     0
171
     0
290
     0
174
     0
 93
        1
 44
0.0
173
     0
291
     0
 45
0.0
1001
ACAD
1000
AcRTDxfName
1000
VISUALSTYLE
1000
AcRTDxfName
1000
VISUALSTYLE
1000
AcDbSavedByObjectVersion
1070
     0
  0
VISUALSTYLE
  5
35
102
{ACAD_XDICTIONARY
360
832
102
}
102
{ACAD_REACTORS
330
2A
102
}
330
2A
100
AcDbVisualStyle
  2
Dim
 70
    11
 71
     2
 72
     2
 73
     0
 90
        0
 40
-0.6
 41
-30.0
 62
     5
 63
     7
 74
     1
 91
        4
 64
     7
 65
   257
 75
     1
175
     1
 42
1.0
 92
        8
 66
     7
 43
1.0
 76
     1
 77
     6
 78
     2
 67
     7
 79
     5
170
     0
171
     0
290
     0
174
     0
 93
        1
 44
-50.0
173
     0
291
     1
 45
0.0
1001
ACAD
1000
AcRTDxfName
1000
VISUALSTYLE
1000
AcRTDxfName
1000
VISUALSTYLE
1000
AcDbSavedByObjectVersion
1070
     0
  0
VISUALSTYLE
  5
767
102
{ACAD_XDICTIONARY
360
850
102
}
102
{ACAD_REACTORS
330
2A
102
}
330
2A
100
AcDbVisualStyle
  2
EdgeColorOff
 70
    22
 71
     2
 72
     2
 73
     0
 90
        0
 40
-0.6
 41
-30.0
 62
     5
 63
     7
421
 16777215
 74
     1
 91
        4
 64
     7
 65
   257
 75
     1
175
     1
 42
1.0
 92
        8
 66
     7
 43
1.0
 76
     1
 77
     6
 78
     2
 67
     7
 79
     5
170
     0
171
     0
290
     0
174
     0
 93
        1
 44
0.0
173
     0
291
     1
 45
0.0
1001
ACAD
1000
AcDbSavedByObjectVersion
1070
     0
  0
VISUALSTYLE
  5
39
102
{ACAD_XDICTIONARY
360
83A
102
}
102
{ACAD_REACTORS
330
2A
102
}
330
2A
100
AcDbVisualStyle
  2
Facepattern
 70
    15
 71
     2
 72
     2
 73
     0
 90
        0
 40
-0.6
 41
-30.0
 62
     5
 63
     7
 74
     1
 91
        4
 64
     7
 65
   257
 75
     1
175
     1
 42
1.0
 92
        8
 66
     7
 43
1.0
 76
     1
 77
     6
 78
     2
 67
     7
 79
     5
170
     0
171
     0
290
     0
174
     0
 93
        1
 44
0.0
173
     0
291
     1
 45
0.0
1001
ACAD
1000
AcRTDxfName
1000
VISUALSTYLE
1000
AcRTDxfName
1000
VISUALSTYLE
1000
AcDbSavedByObjectVersion
1070
     0
  0
VISUALSTYLE
  5
2B
102
{ACAD_XDICTIONARY
360
81E
102
}
102
{ACAD_REACTORS
330
2A
102
}
330
2A
100
AcDbVisualStyle
  2
Flat
 70
     0
 71
     2
 72
     1
 73
     1
 90
        2
 40
-0.6
 41
30.0
 62
     5
 63
     7
 74
     0
 91
        4
 64
     7
 65
   257
 75
     1
175
     1
 42
1.0
 92
        8
 66
     7
 43
1.0
 76
     1
 77
     6
 78
     2
 67
     7
 79
     5
170
     0
171
     0
290
     0
174
     0
 93
       13
 44
0.0
173
     0
291
     1
 45
0.0
1001
ACAD
1000
AcRTDxfName
1000
VISUALSTYLE
1000
AcRTDxfName
1000
VISUALSTYLE
1000
AcDbSavedByObjectVersion
1070
     0
  0
VISUALSTYLE
  5
2C
102
{ACAD_XDICTIONARY
360
820
102
}
102
{ACAD_REACTORS
330
2A
102
}
330
2A
100
AcDbVisualStyle
  2
FlatWithEdges
 70
     1
 71
     2
 72
     1
 73
     1
 90
        2
 40
-0.6
 41
30.0
 62
     5
 63
     7
 74
     1
 91
        4
 64
     7
 65
   257
 75
     1
175
     1
 42
1.0
 92
        0
 66
   257
 43
1.0
 76
     1
 77
     6
 78
     2
 67
     7
 79
     5
170
     0
171
     0
290
     0
174
     0
 93
       13
 44
0.0
173
     0
291
     1
 45
0.0
1001
ACAD
1000
AcRTDxfName
1000
VISUALSTYLE
1000
AcRTDxfName
1000
VISUALSTYLE
1000
AcDbSavedByObjectVersion
1070
     0
  0
VISUALSTYLE
  5
2D
102
{ACAD_XDICTIONARY
360
822
102
}
102
{ACAD_REACTORS
330
2A
102
}
330
2A
100
AcDbVisualStyle
  2
Gouraud
 70
     2
 71
     2
 72
     2
 73
     1
 90
        2
 40
-0.6
 41
30.0
 62
     5
 63
     7
 74
     0
 91
        4
 64
     7
 65
   257
 75
     1
175
     1
 42
1.0
 92
        0
 66
     7
 43
1.0
 76
     1
 77
     6
 78
     2
 67
     7
 79
     5
170
     0
171
     0
290
     0
174
     0
 93
       13
 44
0.0
173
     0
291
     1
 45
0.0
1001
ACAD
1000
AcRTDxfName
1000
VISUALSTYLE
1000
AcRTDxfName
1000
VISUALSTYLE
1000
AcDbSavedByObjectVersion
1070
     0
  0
VISUALSTYLE
  5
2E
102
{ACAD_XDICTIONARY
360
824
102
}
102
{ACAD_REACTORS
330
2A
102
}
330
2A
100
AcDbVisualStyle
  2
GouraudWithEdges
 70
     3
 71
     2
 72
     2
 73
     1
 90
        2
 40
-0.6
 41
30.0
 62
     5
 63
     7
 74
     1
 91
        4
 64
     7
 65
   257
 75
     1
175
     1
 42
1.0
 92
        0
 66
   257
 43
1.0
 76
     1
 77
     6
 78
     2
 67
     7
 79
     5
170
     0
171
     0
290
     0
174
     0
 93
       13
 44
0.0
173
     0
291
     1
 45
0.0
1001
ACAD
1000
AcRTDxfName
1000
VISUALSTYLE
1000
AcRTDxfName
1000
VISUALSTYLE
1000
AcDbSavedByObjectVersion
1070
     0
  0
VISUALSTYLE
  5
75F
102
{ACAD_XDICTIONARY
360
840
102
}
102
{ACAD_REACTORS
330
2A
102
}
330
2A
100
AcDbVisualStyle
  2
Hidden
 70
     6
 71
     1
 72
     2
 73
     2
 90
        0
 40
-0.6
 41
-30.0
 62
     5
 63
     7
421
 16777215
 74
     2
 91
        2
 64
     7
 65
   257
 75
     2
175
     1
 42
40.0
 92
        0
 66
   257
 43
1.0
 76
     1
 77
     6
 78
     2
 67
     7
 79
     3
170
     0
171
     0
290
     0
174
     0
 93
        1
 44
0.0
173
     0
291
     0
 45
0.0
1001
ACAD
1000
AcDbSavedByObjectVersion
1070
     0
  0
VISUALSTYLE
  5
765
102
{ACAD_XDICTIONARY
360
84C
102
}
102
{ACAD_REACTORS
330
2A
102
}
330
2A
100
AcDbVisualStyle
  2
JitterOff
 70
    20
 71
     2
 72
     2
 73
     0
 90
        0
 40
-0.6
 41
-30.0
 62
     5
 63
     7
421
 16777215
 74
     1
 91
        4
 64
     7
 65
   257
 75
     1
175
     1
 42
1.0
 92
       10
 66
     7
 43
1.0
 76
     1
 77
     6
 78
     2
 67
     7
 79
     5
170
     0
171
     0
290
     0
174
     0
 93
        1
 44
0.0
173
     0
291
     1
 45
0.0
1001
ACAD
1000
AcDbSavedByObjectVersion
1070
     0
  0
VISUALSTYLE
  5
38
102
{ACAD_XDICTIONARY
360
838
102
}
102
{ACAD_REACTORS
330
2A
102
}
330
2A
100
AcDbVisualStyle
  2
Linepattern
 70
    14
 71
     2
 72
     2
 73
     0
 90
        0
 40
-0.6
 41
-30.0
 62
     5
 63
     7
 74
     1
 91
        4
 64
     7
 65
   257
 75
     7
175
     7
 42
1.0
 92
        8
 66
     7
 43
1.0
 76
     1
 77
     6
 78
     2
 67
     7
 79
     5
170
     0
171
     0
290
     0
174
     0
 93
        1
 44
0.0
173
     0
291
     1
 45
0.0
1001
ACAD
1000
AcRTDxfName
1000
VISUALSTYLE
1000
AcRTDxfName
1000
VISUALSTYLE
1000
AcDbSavedByObjectVersion
1070
     0
  0
VISUALSTYLE
  5
766
102
{ACAD_XDICTIONARY
360
84E
102
}
102
{ACAD_REACTORS
330
2A
102
}
330
2A
100
AcDbVisualStyle
  2
OverhangOff
 70
    21
 71
     2
 72
     2
 73
     0
 90
        0
 40
-0.6
 41
-30.0
 62
     5
 63
     7
421
 16777215
 74
     1
 91
        4
 64
     7
 65
   257
 75
     1
175
     1
 42
1.0
 92
        9
 66
     7
 43
1.0
 76
     1
 77
     6
 78
     2
 67
     7
 79
     5
170
     0
171
     0
290
     0
174
     0
 93
        1
 44
0.0
173
     0
291
     1
 45
0.0
1001
ACAD
1000
AcDbSavedByObjectVersion
1070
     0
  0
VISUALSTYLE
  5
33
102
{ACAD_XDICTIONARY
360
82E
102
}
102
{ACAD_REACTORS
330
2A
102
}
330
2A
100
AcDbVisualStyle
  2
Realistic
 70
     8
 71
     2
 72
     2
 73
     0
 90
        0
 40
-0.6
 41
-30.0
 62
     5
 63
     7
 74
     1
 91
        0
 64
     7
 65
   257
 75
     1
175
     1
 42
1.0
 92
        8
 66
     8
 43
1.0
 76
     1
 77
     6
 78
     2
 67
     7
 79
     5
170
     0
171
     0
290
     0
174
     0
 93
       13
 44
0.0
173
     0
291
     0
 45
0.0
1001
ACAD
1000
AcRTDxfName
1000
VISUALSTYLE
1000
AcRTDxfName
1000
VISUALSTYLE
1000
AcDbSavedByObjectVersion
1070
     0
  0
VISUALSTYLE
  5
764
102
{ACAD_XDICTIONARY
360
84A
102
}
102
{ACAD_REACTORS
330
2A
102
}
330
2A
100
AcDbVisualStyle
  2
Shaded
 70
    27
 71
     2
 72
     2
 73
     1
 90
        2
 40
-0.6
 41
30.0
 62
     5
 63
     7
421
 16777215
 74
     0
 91
        4
 64
     7
 65
   257
 75
     1
175
     1
 42
1.0
 92
        8
 66
   257
 43
1.0
 76
     1
 77
     6
 78
     2
 67
     8
425
  7895160
 79
     3
170
     0
171
     0
290
     0
174
     0
 93
        5
 44
0.0
173
     0
291
     0
 45
0.0
1001
ACAD
1000
AcDbSavedByObjectVersion
1070
     0
  0
VISUALSTYLE
  5
763
102
{ACAD_XDICTIONARY
360
848
102
}
102
{ACAD_REACTORS
330
2A
102
}
330
2A
100
AcDbVisualStyle
  2
Shaded with edges
 70
    26
 71
     2
 72
     2
 73
     1
 90
        2
 40
-0.6
 41
30.0
 62
     5
 63
     7
421
 16777215
 74
     1
 91
       10
 64
     7
 65
   257
 75
     2
175
     1
 42
1.0
 92
        8
 66
   257
 43
1.0
 76
     1
 77
     6
 78
     2
 67
     7
 79
     3
170
     0
171
     0
290
     0
174
     0
 93
        5
 44
0.0
173
     0
291
     0
 45
0.0
1001
ACAD
1000
AcDbSavedByObjectVersion
1070
     0
  0
VISUALSTYLE
  5
760
102
{ACAD_XDICTIONARY
360
842
102
}
102
{ACAD_REACTORS
330
2A
102
}
330
2A
100
AcDbVisualStyle
  2
Shades of Gray
 70
    23
 71
     2
 72
     2
 73
     3
 90
        0
 40
-0.6
 41
-30.0
 62
     5
 63
     7
421
 16777215
 74
     2
 91
        2
 64
     7
 65
     7
 75
     1
175
     1
 42
40.0
 92
        8
 66
     7
 43
1.0
 76
     1
 77
     6
 78
     2
 67
     7
 79
     3
170
     0
171
     0
290
     0
174
     0
 93
        1
 44
0.0
173
     0
291
     0
 45
0.0
1001
ACAD
1000
AcDbSavedByObjectVersion
1070
     0
  0
VISUALSTYLE
  5
761
102
{ACAD_XDICTIONARY
360
844
102
}
102
{ACAD_REACTORS
330
2A
102
}
330
2A
100
AcDbVisualStyle
  2
Sketchy
 70
    24
 71
     1
 72
     2
 73
     2
 90
        0
 40
-0.6
 41
-30.0
 62
     5
 63
     7
421
 16777215
 74
     2
 91
        2
 64
     7
 65
     7
 75
     1
175
     1
 42
40.0
 92
       11
 66
     7
 43
1.0
 76
     1
 77
     6
 78
     2
 67
     7
 79
     6
170
     0
171
     0
290
     0
174
     0
 93
        1
 44
0.0
173
     0
291
     0
 45
0.0
1001
ACAD
1000
AcDbSavedByObjectVersion
1070
     0
  0
VISUALSTYLE
  5
37
102
{ACAD_XDICTIONARY
360
836
102
}
102
{ACAD_REACTORS
330
2A
102
}
330
2A
100
AcDbVisualStyle
  2
Thicken
 70
    13
 71
     2
 72
     2
 73
     0
 90
        0
 40
-0.6
 41
-30.0
 62
     5
 63
     7
 74
     1
 91
        4
 64
     7
 65
   257
 75
     1
175
     1
 42
1.0
 92
       12
 66
     7
 43
1.0
 76
     1
 77
     6
 78
     2
 67
     7
 79
     5
170
     0
171
     0
290
     0
174
     0
 93
        1
 44
0.0
173
     0
291
     1
 45
0.0
1001
ACAD
1000
AcRTDxfName
1000
VISUALSTYLE
1000
AcRTDxfName
1000
VISUALSTYLE
1000
AcDbSavedByObjectVersion
1070
     0
  0
VISUALSTYLE
  5
75E
102
{ACAD_XDICTIONARY
360
83E
102
}
102
{ACAD_REACTORS
330
2A
102
}
330
2A
100
AcDbVisualStyle
  2
Wireframe
 70
     5
 71
     0
 72
     2
 73
     0
 90
        0
 40
-0.6
 41
-30.0
 62
     5
 63
     7
421
 16777215
 74
     1
 91
        4
 64
     7
 65
   257
 75
     1
175
     1
 42
1.0
 92
        0
 66
   257
 43
1.0
 76
     1
 77
     6
 78
     2
 67
     7
 79
     3
170
     0
171
     0
290
     0
174
     0
 93
        1
 44
0.0
173
     0
291
     0
 45
0.0
1001
ACAD
1000
AcDbSavedByObjectVersion
1070
     0
  0
VISUALSTYLE
  5
762
102
{ACAD_XDICTIONARY
360
846
102
}
102
{ACAD_REACTORS
330
2A
102
}
330
2A
100
AcDbVisualStyle
  2
X-Ray
 70
    25
 71
     2
 72
     2
 73
     1
 90
        1
 40
0.5
 41
-30.0
 62
     5
 63
     7
421
 16777215
 74
     1
 91
        0
 64
     7
 65
   257
 75
     1
175
     1
 42
1.0
 92
        8
 66
     7
 43
1.0
 76
     1
 77
     6
 78
     2
 67
     7
 79
     3
170
     0
171
     0
290
     0
174
     0
 93
       13
 44
0.0
173
     0
291
     0
 45
0.0
1001
ACAD
1000
AcDbSavedByObjectVersion
1070
     0
  0
DICTIONARYVAR
  5
10A
102
{ACAD_REACTORS
330
109
102
}
330
109
100
DictionaryVariables
280
     0
  1
1:1
  0
DICTIONARYVAR
  5
7CD
102
{ACAD_REACTORS
330
109
102
}
330
109
100
DictionaryVariables
280
     0
  1
STANDARD
  0
DICTIONARYVAR
  5
1BA
102
{ACAD_REACTORS
330
109
102
}
330
109
100
DictionaryVariables
280
     0
  1
STANDARD
  0
DICTIONARYVAR
  5
1BB
102
{ACAD_REACTORS
330
109
102
}
330
109
100
DictionaryVariables
280
     0
  1
1
  0
DICTIONARYVAR
  5
7D0
102
{ACAD_REACTORS
330
109
102
}
330
109
100
DictionaryVariables
280
     0
  1
1
  0
DICTIONARYVAR
  5
7D1
102
{ACAD_REACTORS
330
109
102
}
330
109
100
DictionaryVariables
280
     0
  1
15
  0
DICTIONARYVAR
  5
7CF
102
{ACAD_REACTORS
330
109
102
}
330
109
100
DictionaryVariables
280
     0
  1
0
  0
DICTIONARYVAR
  5
7CE
102
{ACAD_REACTORS
330
109
102
}
330
109
100
DictionaryVariables
280
     0
  1
0
  0
DICTIONARYVAR
  5
1BC
102
{ACAD_REACTORS
330
109
102
}
330
109
100
DictionaryVariables
280
     0
  1

  0
DICTIONARYVAR
  5
7D2
102
{ACAD_REACTORS
330
109
102
}
330
109
100
DictionaryVariables
280
     0
  1
2
  0
DICTIONARY
  5
786
330
22
100
AcDbDictionary
280
     1
281
     1
  3
ADSK_XREC_LAYOUTTHUMBNAIL
360
787
  0
DICTIONARY
  5
74F
330
74E
100
AcDbDictionary
280
     1
281
     1
  3
BUMPTILE
360
751
  3
DIFFUSETILE
360
750
  3
OPACITYTILE
360
754
  3
REFLECTIONTILE
360
753
  3
REFRACTIONTILE
360
755
  3
SPECULARTILE
360
752
  0
DICTIONARY
  5
747
330
746
100
AcDbDictionary
280
     1
281
     1
  3
BUMPTILE
360
749
  3
DIFFUSETILE
360
748
  3
OPACITYTILE
360
74C
  3
REFLECTIONTILE
360
74B
  3
REFRACTIONTILE
360
74D
  3
SPECULARTILE
360
74A
  0
DICTIONARY
  5
757
330
756
100
AcDbDictionary
280
     1
281
     1
  3
BUMPTILE
360
759
  3
DIFFUSETILE
360
758
  3
OPACITYTILE
360
75C
  3
REFLECTIONTILE
360
75B
  3
REFRACTIONTILE
360
75D
  3
SPECULARTILE
360
75A
  0
DICTIONARY
  5
81B
330
112
100
AcDbDictionary
280
     1
281
     1
  3
ACAD_ROUNDTRIP_2008_TABLESTYLE_CELLSTYLEMAP
360
81C
  0
DICTIONARY
  5
826
330
2F
100
AcDbDictionary
280
     1
281
     1
  3
ACAD_XREC_ROUNDTRIP
360
827
  0
DICTIONARY
  5
82A
330
31
100
AcDbDictionary
280
     1
281
     1
  3
ACAD_XREC_ROUNDTRIP
360
82B
  0
DICTIONARY
  5
828
330
30
100
AcDbDictionary
280
     1
281
     1
  3
ACAD_XREC_ROUNDTRIP
360
829
  0
DICTIONARY
  5
82C
330
32
100
AcDbDictionary
280
     1
281
     1
  3
ACAD_XREC_ROUNDTRIP
360
82D
  0
DICTIONARY
  5
834
330
36
100
AcDbDictionary
280
     1
281
     1
  3
ACAD_XREC_ROUNDTRIP
360
835
  0
DICTIONARY
  5
83C
330
3A
100
AcDbDictionary
280
     1
281
     1
  3
ACAD_XREC_ROUNDTRIP
360
83D
  0
DICTIONARY
  5
830
330
34
100
AcDbDictionary
280
     1
281
     1
  3
ACAD_XREC_ROUNDTRIP
360
831
  0
DICTIONARY
  5
832
330
35
100
AcDbDictionary
280
     1
281
     1
  3
ACAD_XREC_ROUNDTRIP
360
833
  0
DICTIONARY
  5
850
330
767
100
AcDbDictionary
280
     1
281
     1
  3
ACAD_XREC_ROUNDTRIP
360
851
  0
DICTIONARY
  5
83A
330
39
100
AcDbDictionary
280
     1
281
     1
  3
ACAD_XREC_ROUNDTRIP
360
83B
  0
DICTIONARY
  5
81E
330
2B
100
AcDbDictionary
280
     1
281
     1
  3
ACAD_XREC_ROUNDTRIP
360
81F
  0
DICTIONARY
  5
820
330
2C
100
AcDbDictionary
280
     1
281
     1
  3
ACAD_XREC_ROUNDTRIP
360
821
  0
DICTIONARY
  5
822
330
2D
100
AcDbDictionary
280
     1
281
     1
  3
ACAD_XREC_ROUNDTRIP
360
823
  0
DICTIONARY
  5
824
330
2E
100
AcDbDictionary
280
     1
281
     1
  3
ACAD_XREC_ROUNDTRIP
360
825
  0
DICTIONARY
  5
840
330
75F
100
AcDbDictionary
280
     1
281
     1
  3
ACAD_XREC_ROUNDTRIP
360
841
  0
DICTIONARY
  5
84C
330
765
100
AcDbDictionary
280
     1
281
     1
  3
ACAD_XREC_ROUNDTRIP
360
84D
  0
DICTIONARY
  5
838
330
38
100
AcDbDictionary
280
     1
281
     1
  3
ACAD_XREC_ROUNDTRIP
360
839
  0
DICTIONARY
  5
84E
330
766
100
AcDbDictionary
280
     1
281
     1
  3
ACAD_XREC_ROUNDTRIP
360
84F
  0
DICTIONARY
  5
82E
330
33
100
AcDbDictionary
280
     1
281
     1
  3
ACAD_XREC_ROUNDTRIP
360
82F
  0
DICTIONARY
  5
84A
330
764
100
AcDbDictionary
280
     1
281
     1
  3
ACAD_XREC_ROUNDTRIP
360
84B
  0
DICTIONARY
  5
848
330
763
100
AcDbDictionary
280
     1
281
     1
  3
ACAD_XREC_ROUNDTRIP
360
849
  0
DICTIONARY
  5
842
330
760
100
AcDbDictionary
280
     1
281
     1
  3
ACAD_XREC_ROUNDTRIP
360
843
  0
DICTIONARY
  5
844
330
761
100
AcDbDictionary
280
     1
281
     1
  3
ACAD_XREC_ROUNDTRIP
360
845
  0
DICTIONARY
  5
836
330
37
100
AcDbDictionary
280
     1
281
     1
  3
ACAD_XREC_ROUNDTRIP
360
837
  0
DICTIONARY
  5
83E
330
75E
100
AcDbDictionary
280
     1
281
     1
  3
ACAD_XREC_ROUNDTRIP
360
83F
  0
DICTIONARY
  5
846
330
762
100
AcDbDictionary
280
     1
281
     1
  3
ACAD_XREC_ROUNDTRIP
360
847
  0
XRECORD
  5
787
102
{ACAD_REACTORS
330
786
102
}
330
786
100
AcDbXrecord
280
     1
310
280000000001000099000000010008000000000000990000000000000000000000010000000000003028210000000000FFFFFF000000000000000000000000000000000000000000000000000000000000000000330000006600000099000000CC000000FF00000000330000333300006633000099330000CC330000FF3300
310
0000660000336600006666000099660000CC660000FF66000000990000339900006699000099990000CC990000FF99000000CC000033CC000066CC000099CC0000CCCC0000FFCC000000FF000033FF000066FF000099FF0000CCFF0000FFFF000000003300330033006600330099003300CC003300FF003300003333003333
310
33006633330099333300CC333300FF33330000663300336633006666330099663300CC663300FF66330000993300339933006699330099993300CC993300FF99330000CC330033CC330066CC330099CC3300CCCC3300FFCC330000FF330033FF330066FF330099FF3300CCFF3300FFFF330000006600330066006600660099
310
006600CC006600FF00660000336600333366006633660099336600CC336600FF33660000666600336666006666660099666600CC666600FF66660000996600339966006699660099996600CC996600FF99660000CC660033CC660066CC660099CC6600CCCC6600FFCC660000FF660033FF660066FF660099FF6600CCFF6600
310
FFFF660000009900330099006600990099009900CC009900FF00990000339900333399006633990099339900CC339900FF33990000669900336699006666990099669900CC669900FF66990000999900339999006699990099999900CC999900FF99990000CC990033CC990066CC990099CC9900CCCC9900FFCC990000FF99
310
0033FF990066FF990099FF9900CCFF9900FFFF99000000CC003300CC006600CC009900CC00CC00CC00FF00CC000033CC003333CC006633CC009933CC00CC33CC00FF33CC000066CC003366CC006666CC009966CC00CC66CC00FF66CC000099CC003399CC006699CC009999CC00CC99CC00FF99CC0000CCCC0033CCCC0066CC
310
CC0099CCCC00CCCCCC00FFCCCC0000FFCC0033FFCC0066FFCC0099FFCC00CCFFCC00FFFFCC000000FF003300FF006600FF009900FF00CC00FF00FF00FF000033FF003333FF006633FF009933FF00CC33FF00FF33FF000066FF003366FF006666FF009966FF00CC66FF00FF66FF000099FF003399FF006699FF009999FF00CC
310
99FF00FF99FF0000CCFF0033CCFF0066CCFF0099CCFF00CCCCFF00FFCCFF0000FFFF0033FFFF0066FFFF0099FFFF00CCFFFF00FFFFFF00000000000D0D0D001A1A1A00282828003535350043434300505050005D5D5D006B6B6B00787878008686860093939300A1A1A100AEAEAE00BBBBBB00C9C9C900D6D6D600E4E4E400
310
F1F1F100FFFFFF000000000000000000000000000000000000000000000000000000000000000000000000000000000000000000000000000000000000000000000000000000000000000000000000000000000000000000000000000000000000000000000000000000000000000000000000000000000000000000000000
310
00000000000000000000000000000000000000000000000000000000000000000000000000000000000000000000000000000000000000000000000000000000000000000000000000000000000000000000000000000000000000000000000000000000000000000000000000000000000000000000000000000000000000
310
00000000000000000000000000000000000000000000000000000000000000000000000000000000000000000000000000000000000000000000000000000000000000000000000000000000000000000000000000000000000000000000000000000000000000000000000000000000000000000000000000000000000000
310
00000000000000000000000000000000000000000000000000000000000000000000000000000000000000000000000000000000000000000000000000000000000000000000000000000000000000000000000000000000000000000000000000000000000000000000000000000000000000000000000000000000000000
310
00000000000000000000000000000000000000000000000000000000000000000000000000000000000000000000000000000000000000000000000000000000000000000000000000000000000000000000000000000000000000000000000000000000000000000000000000000000000000000000000000000000000000
310
00000000000000000000000000000000000000000000000000000000000000000000000000000000000000000000000000000000000000000000000000000000000000000000000000000000000000000000000000000000000000000000000000000000000000000000000000000000000000000000000000000000000000
310
00000000000000000000000000000000000000000000000000000000000000000000000000000000000000000000000000000000000000000000000000000000000000000000000000000000000000000000000000000000000000000000000000000000000000000000000000000000000000000000000000000000000000
310
00000000000000000000000000000000000000000000000000000000000000000000000000000000000000000000000000000000000000000000000000000000000000000000000000000000000000000000000000000000000000000000000000000000000000000000000000000000000000000000000000000000000000
310
00000000000000000000000000000000000000000000000000000000000000000000000000000000000000000000000000000000000000000000000000000000000000000000000000000000000000000000000000000000000000000000000000000000000000000000000000000000000000000000000000000000000000
310
00000000000000000000000000000000000000000000000000000000000000000000000000000000000000000000000000000000000000000000000000000000000000000000000000000000000000000000000000000000000000000000000000000000000000000000000000000000000000000000000000000000000000
310
00000000000000000000000000000000000000000000000000000000000000000000000000000000000000000000000000000000000000000000000000000000000000000000000000000000000000000000000000000000000000000000000000000000000000000000000000000000000000000000000000000000000000
310
00000000000000000000000000000000000000000000000000000000000000000000000000000000000000000000000000000000000000000000000000000000000000000000000000000000000000000000000000000000000000000000000000000000000000000000000000000000000000000000000000000000000000
310
00000000000000000000000000000000000000000000000000000000000000000000000000000000000000000000000000000000000000000000000000000000000000000000000000000000000000000000000000000000000000000000000000000000000000000000000000000000000000000000000000000000000000
310
00000000000000000000000000000000000000000000000000000000000000000000000000000000000000000000000000000000000000000000000000000000000000000000000000000000000000000000000000000000000000000000000000000000000000000000000000000000000000000000000000000000000000
310
00000000000000000000000000000000000000000000000000000000000000000000000000000000000000000000000000000000000000000000000000000000000000000000000000000000000000000000000000000000000000000000000000000000000000000000000000000000000000000000000000000000000000
310
00000000000000000000000000000000000000000000000000000000000000000000000000000000000000000000000000000000000000000000000000000000000000000000000000000000000000000000000000000000000000000000000000000000000000000000000000000000000000000000000000000000000000
310
00000000000000000000000000000000000000000000000000000000000000000000000000000000000000000000000000000000000000000000000000000000000000000000000000000000000000000000000000000000000000000000000000000000000000000000000000000000000000000000000000000000000000
310
00000000000000000000000000000000000000000000000000000000000000000000000000000000000000000000000000000000000000000000000000000000000000000000000000000000000000000000000000000000000000000000000000000000000000000000000000000000000000000000000000000000000000
310
00000000000000000000000000000000000000000000000000000000000000000000000000000000000000000000000000000000000000000000000000000000000000000000000000000000000000000000000000000000000000000000000000000000000000000000000000000000000000000000000000000000000000
310
00000000000000000000000000000000000000000000000000000000000000000000000000000000000000000000000000000000000000000000000000000000000000000000000000000000000000000000000000000000000000000000000000000000000000000000000000000000000000000000000000000000000000
310
00000000000000000000000000000000000000000000000000000000000000000000000000000000000000000000000000000000000000000000000000000000000000000000000000000000000000000000000000000000000000000000000000000000000000000000000000000000000000000000000000000000000000
310
00000000000000000000000000000000000000000000000000000000000000000000000000000000000000000000000000000000000000000000000000000000000000000000000000000000000000000000000000000000000000000000000000000000000000000000000000000000000000000000000000000000000000
310
00000000000000000000000000000000000000000000000000000000000000000000000000000000000000000000000000000000000000000000000000000000000000000000000000000000000000000000000000000000000000000000000000000000000000000000000000000000000000000000000000000000000000
310
00000000000000000000000000000000000000000000000000000000000000000000000000000000000000000000000000000000000000000000000000000000000000000000000000000000000000000000000000000000000000000000000000000000000000000000000000000000000000000000000000000000000000
310
00000000000000000000000000000000000000000000000000000000000000000000000000000000000000000000000000000000000000000000000000000000000000000000000000000000000000000000000000000000000000000000000000000000000000000000000000000000000000000000000000000000000000
310
00000000000000000000000000000000000000000000000000000000000000000000000000000000000000000000000000000000000000000000000000000000000000000000000000000000000000000000000000000000000000000000000000000000000000000000000000000000000000000000000000000000000000
310
00000000000000000000000000000000000000000000000000000000000000000000000000000000000000000000000000000000000000000000000000000000000000000000000000000000000000000000000000000000000000000000000000000000000000000000000000000000000000000000000000000000000000
310
00000000000000000000000000000000000000000000000000000000000000000000000000000000000000000000000000F5F5F5F5F5F5000000000000000000000000000000000000000000000000000000000000000000000000000000000000000000000000000000000000000000000000000000000000000000000000
310
00000000000000000000000000000000000000000000000000000000000000000000000000000000000000000000000000000000000000000000000000000000000000000000000000000000000000000000000000000000000000000000000000000000000000000000000000000000000000000000000000000000000000
310
0000000000000000000000000000000000000000000000000000000000000000000000000000000000000000000000F5F5F5F5F5F5F5F5F5F5F5F5F5F5000000000000000000000000000000000000000000000000000000000000000000000000000000000000000000000000000000000000000000000000000000000000
310
00000000000000000000000000000000000000000000000000000000000000000000000000000000000000000000000000000000000000000000000000000000000000000000000000000000000000000000000000000000000000000000000000000000000000000000000000000000000000000000000000000000000000
310
0000000000000000000000000000000000000000000000000000000000000000000000000000000000000000000000F5F5F5F5F5F5F5F5F5F5F5F5F5F5F5F5F5F50000000000000000000000000000000000000000000000000000000000000000000000000000000000000000000000000000000000000000000000000000
310
00000000000000000000000000000000000000000000000000000000000000000000000000000000000000000000000000000000000000000000000000000000000000000000000000000000000000000000000000000000000000000000000000000000000000000000000000000000000000000000000000000000000000
310
000000000000000000000000000000000000000000000000000000000000000000000000000000000000000000000000F5F5F500F5F5F5F5F5F5F5F5F5F5F50000F5F5F50000000000000000000000000000000000000000000000000000000000000000000000000000000000000000000000000000000000000000000000
310
00000000000000000000000000000000000000000000000000000000000000000000000000000000000000000000000000000000000000000000000000000000000000000000000000000000000000000000000000000000000000000000000000000000000000000000000000000000000000000000000000000000000000
310
0000000000000000000000000000000000000000000000000000000000000000000000000000000000000000000000F5F5F5F5F5F5F50000000000F5F500000000F5F5F5F5F5F5F500000000000000000000000000000000000000000000000000000000000000000000000000000000000000000000000000000000000000
310
00000000000000000000000000000000000000000000000000000000000000000000000000000000000000000000000000000000000000000000000000000000000000000000000000000000000000000000000000000000000000000000000000000000000000000000000000000000000000000000000000000000000000
310
000000000000000000000000000000000000000000000000000000000000000000000000000000000000000000000000F5F500F5F5F500000000000000F5F500000000000000F5F5F5F5F500000000000000000000000000000000000000000000000000000000000000000000000000000000000000000000000000000000
310
00000000000000000000000000000000000000000000000000000000000000000000000000000000000000000000000000000000000000000000000000000000000000000000000000000000000000000000000000000000000000000000000000000000000000000000000000000000000000000000000000000000000000
310
0000000000000000000000000000000000000000000000000000000000000000000000000000000000000000000000000000F500F5F50000000000F5F5F5F5F5F5F5F5F5F50000000000F5F5F5F500000000000000000000000000000000000000000000000000000000000000000000000000000000000000000000000000
310
00000000000000000000000000000000000000000000000000000000000000000000000000000000000000000000000000000000000000000000000000000000000000000000000000000000000000000000000000000000000000000000000000000000000000000000000000000000000000000000000000000000000000
310
000000000000000000000000000000000000000000000000000000000000000000000000000000000000000000000000000000F5F5F5F500000000F5F500F5F5F5F5F5F5F50000F5F500000000F5F5F5F500000000000000000000000000000000000000000000000000000000000000000000000000000000000000000000
310
00000000000000000000000000000000000000000000000000000000000000000000000000000000000000000000000000000000000000000000000000000000000000000000000000000000000000000000000000000000000000000000000000000000000000000000000000000000000000000000000000000000000000
310
00000000000000000000000000000000000000000000000000000000000000000000000000000000000000000000000000000000F5F500F500000000F500F5F500000000000000F5F50000F500000000F500F5F500000000000000000000000000000000000000000000000000000000000000000000000000000000000000
310
00000000000000000000000000000000000000000000000000000000000000000000000000000000000000000000000000000000000000000000000000000000000000000000000000000000000000000000000000000000000000000000000000000000000000000000000000000000000000000000000000000000000000
310
0000000000000000000000000000000000000000000000000000000000000000000000000000000000000000000000000000000000F5F500F5000000F5F5F5F50000000000000000000000F5F500F5000000F500F5F5F500000000000000000000000000000000000000000000000000000000000000000000000000000000
310
00000000000000000000000000000000000000000000000000000000000000000000000000000000000000000000000000000000000000000000000000000000000000000000000000000000000000000000000000000000000000000000000000000000000000000000000000000000000000000000000000000000000000
310
00000000000000000000000000000000000000000000000000000000000000000000000000000000000000000000000000000000000000F5F5F5F50000F50000F50000000000000000000000000000F500F5000000F500F5F50000000000000000000000000000000000000000000000000000000000000000000000000000
310
00000000000000000000000000000000000000000000000000000000000000000000000000000000000000000000000000000000000000000000000000000000000000000000000000000000000000000000000000000000000000000000000000000000000000000000000000000000000000000000000000000000000000
310
000000000000000000000000000000000000000000000000000000000000000000000000000000000000000000000000000000000000000000F5F5F5000000F5F5F500000000000000000000000000000000F5F5F5000000F5F5F5F50000000000000000000000000000000000000000000000000000000000000000000000
310
00000000000000000000000000000000000000000000000000000000000000000000000000000000000000000000000000000000000000000000000000000000000000000000000000000000000000000000000000000000000000000000000000000000000000000000000000000000000000000000000000000000000000
310
00000000000000000000000000000000000000000000000000000000000000000000000000000000000000000000000000000000000000000000F5F5F5000000F5F500000000000000000000000000000000000000F500F50000F500F5F5000000000000000000000000000000000000000000000000000000000000000000
310
00000000000000000000000000000000000000000000000000000000000000000000000000000000000000000000000000000000000000000000000000000000000000000000000000000000000000000000000000000000000000000000000000000000000000000000000000000000000000000000000000000000000000
310
000000000000000000000000000000000000000000000000000000000000000000000000000000000000000000000000000000000000000000000000F5F5F5000000F5F50000000000000000000000000000000000000000F5F5000000F5F5F500000000000000000000000000000000000000000000000000000000000000
310
00000000000000000000000000000000000000000000000000000000000000000000000000000000000000000000000000000000000000000000000000000000000000000000000000000000000000000000000000000000000000000000000000000000000000000000000000000000000000000000000000000000000000
310
00000000000000000000000000000000000000000000000000000000000000000000000000000000000000000000000000000000000000000000000000F5F5F5000000F5F5000000000000000000000000000000000000000000F500F50000F5F5F5F500000000000000000000000000000000000000000000000000000000
310
00000000000000000000000000000000000000000000000000000000000000000000000000000000000000000000000000000000000000000000000000000000000000000000000000000000000000000000000000000000000000000000000000000000000000000000000000000000000000000000000000000000000000
310
000000000000000000000000000000000000000000000000000000000000000000000000000000000000000000000000000000000000000000000000000000F5F5F5000000F5F500000000000000000000000000000000000000000000F5F5000000F5F5F50000000000000000000000000000000000000000000000000000
310
00000000000000000000000000000000000000000000000000000000000000000000000000000000000000000000000000000000000000000000000000000000000000000000000000000000000000000000000000000000000000000000000000000000000000000000000000000000000000000000000000000000000000
310
0000000000000000000000000000000000000000000000000000000000000000000000000000000000000000000000000000000000000000000000000000000000F5F5F50000F500F500000000000000000000000000000000000000000000F5F5000000F5F5F5000000000000000000000000000000000000000000000000
310
00000000000000000000000000000000000000000000000000000000000000000000000000000000000000000000000000000000000000000000000000000000000000000000000000000000000000000000000000000000000000000000000000000000000000000000000000000000000000000000000000000000000000
310
00000000000000000000000000000000000000000000000000000000000000000000000000000000000000000000000000000000000000000000000000000000000000F5F5F50000F5F50000000000000000000000000000000000000000000000F500F50000F5F5F500000000000000000000000000000000000000000000
310
00000000000000000000000000000000000000000000000000000000000000000000000000000000000000000000000000000000000000000000000000000000000000000000000000000000000000000000000000000000000000000000000000000000000000000000000000000000000000000000000000000000000000
310
0000000000000000000000000000000000000000000000000000000000000000000000000000000000000000000000000000000000000000000000000000000000000000F5F5F5F5F5F5F5F50000000000000000000000000000000000000000000000F500F5F500F5F5F50000000000000000000000000000000000000000
310
00000000000000000000000000000000000000000000000000000000000000000000000000000000000000000000000000000000000000000000000000000000000000000000000000000000000000000000000000000000000000000000000000000000000000000000000000000000000000000000000000000000000000
310
00000000000000000000000000000000000000000000000000000000000000000000000000000000000000000000000000000000000000000000000000000000000000000000F5F5F5F5F5F5F5F50000000000000000000000000000000000000000000000F500F5F5F5F5F5F5000000000000000000000000000000000000
310
00000000000000000000000000000000000000000000000000000000000000000000000000000000000000000000000000000000000000000000000000000000000000000000000000000000000000000000000000000000000000000000000000000000000000000000000000000000000000000000000000000000000000
310
000000000000000000000000000000000000000000000000000000000000000000000000000000000000000000000000000000000000000000000000000000000000000000000000F5F5F5F5F5F5F5F50000000000000000000000000000000000000000000000F500F5F5F5F5F5F500000000000000000000000000000000
310
00000000000000000000000000000000000000000000000000000000000000000000000000000000000000000000000000000000000000000000000000000000000000000000000000000000000000000000000000000000000000000000000000000000000000000000000000000000000000000000000000000000000000
310
000000000000000000000000000000000000000000000000000000000000000000000000000000000000000000000000000000000000000000000000000000000000000000000000000000F5F5F50000F5F50000000000000000000000000000000000000000000000F500F50000F5F5F50000000000000000000000000000
310
00000000000000000000000000000000000000000000000000000000000000000000000000000000000000000000000000000000000000000000000000000000000000000000000000000000000000000000000000000000000000000000000000000000000000000000000000000000000000000000000000000000000000
310
0000000000000000000000000000000000000000000000000000000000000000000000000000000000000000000000000000000000000000000000000000000000000000000000000000000000F5F5F50000F500F500000000000000000000000000000000000000000000F5F5000000F5F5F5000000000000000000000000
310
00000000000000000000000000000000000000000000000000000000000000000000000000000000000000000000000000000000000000000000000000000000000000000000000000000000000000000000000000000000000000000000000000000000000000000000000000000000000000000000000000000000000000
310
00000000000000000000000000000000000000000000000000000000000000000000000000000000000000000000000000000000000000000000000000000000000000000000000000000000000000F5F5F5000000F5F500000000000000000000000000000000000000000000F5F5000000F5F5F500000000000000000000
310
00000000000000000000000000000000000000000000000000000000000000000000000000000000000000000000000000000000000000000000000000000000000000000000000000000000000000000000000000000000000000000000000000000000000000000000000000000000000000000000000000000000000000
310
000000000000000000000000000000000000000000000000000000000000000000000000000000000000000000000000000000000000000000000000000000000000000000000000000000000000000000F5F5F5000000F5F5000000000000000000000000000000000000000000F500F50000F5F5F5F50000000000000000
310
00000000000000000000000000000000000000000000000000000000000000000000000000000000000000000000000000000000000000000000000000000000000000000000000000000000000000000000000000000000000000000000000000000000000000000000000000000000000000000000000000000000000000
310
000000000000000000000000000000000000000000000000000000000000000000000000000000000000000000000000000000000000000000000000000000000000000000000000000000000000000000000000F5F5F5000000F5F50000000000000000000000000000000000000000F5F5000000F5F5F500000000000000
310
00000000000000000000000000000000000000000000000000000000000000000000000000000000000000000000000000000000000000000000000000000000000000000000000000000000000000000000000000000000000000000000000000000000000000000000000000000000000000000000000000000000000000
310
0000000000000000000000000000000000000000000000000000000000000000000000000000000000000000000000000000000000000000000000000000000000000000000000000000000000000000000000000000F5F5F5000000F5F500000000000000000000000000000000000000F500F50000F500F5F50000000000
310
00000000000000000000000000000000000000000000000000000000000000000000000000000000000000000000000000000000000000000000000000000000000000000000000000000000000000000000000000000000000000000000000000000000000000000000000000000000000000000000000000000000000000
310
00000000000000000000000000000000000000000000000000000000000000000000000000000000000000000000000000000000000000000000000000000000000000000000000000000000000000000000000000000000F5F5F5F5000000F5F5000000000000000000000000000000000000F5F5000000F500F5F5000000
310
00000000000000000000000000000000000000000000000000000000000000000000000000000000000000000000000000000000000000000000000000000000000000000000000000000000000000000000000000000000000000000000000000000000000000000000000000000000000000000000000000000000000000
310
00000000000000000000000000000000000000000000000000000000000000000000000000000000000000000000000000000000000000000000000000000000000000000000000000000000000000000000000000000000000000F5F5F5F50000F500F5F50000000000000000000000000000F5F5F5000000F500F5F50000
310
00000000000000000000000000000000000000000000000000000000000000000000000000000000000000000000000000000000000000000000000000000000000000000000000000000000000000000000000000000000000000000000000000000000000000000000000000000000000000000000000000000000000000
310
000000000000000000000000000000000000000000000000000000000000000000000000000000000000000000000000000000000000000000000000000000000000000000000000000000000000000000000000000000000000000000F5F500F5000000F500F5F50000000000000000000000F5F500F5000000F5F5F5F5F5
310
00000000000000000000000000000000000000000000000000000000000000000000000000000000000000000000000000000000000000000000000000000000000000000000000000000000000000000000000000000000000000000000000000000000000000000000000000000000000000000000000000000000000000
310
000000000000000000000000000000000000000000000000000000000000000000000000000000000000000000000000000000000000000000000000000000000000000000000000000000000000000000000000000000000000000000000000F5F5F5F5000000F5F5F5F5F500000000000000F5F5F500F5F5000000F500F5
310
F5000000000000000000000000000000000000000000000000000000000000000000000000000000000000000000000000000000000000000000000000000000000000000000000000000000000000000000000000000000000000000000000000000000000000000000000000000000000000000000000000000000000000
310
000000000000000000000000000000000000000000000000000000000000000000000000000000000000000000000000000000000000000000000000000000000000000000000000000000000000000000000000000000000000000000000000000000F5F500F500000000F5F500F5F5F5F5F5F5F5F500F5F500000000F500
310
F5F50000000000000000000000000000000000000000000000000000000000000000000000000000000000000000000000000000000000000000000000000000000000000000000000000000000000000000000000000000000000000000000000000000000000000000000000000000000000000000000000000000000000
310
000000000000000000000000000000000000000000000000000000000000000000000000000000000000000000000000000000000000000000000000000000000000000000000000000000000000000000000000000000000000000000000000000000000000F5F5F5F50000000000F5F5F5F5F5F5F5F5F5F50000000000F5
310
F5F5F500000000000000000000000000000000000000000000000000000000000000000000000000000000000000000000000000000000000000000000000000000000000000000000000000000000000000000000000000000000000000000000000000000000000000000000000000000000000000000000000000000000
310
0000000000000000000000000000000000000000000000000000000000000000000000000000000000000000000000000000000000000000000000000000000000000000000000000000000000000000000000000000000000000000000000000000000000000000F5F500F5F5F500000000000000F5F500000000000000F5
310
F5F5F5F5000000000000000000000000000000000000000000000000000000000000000000000000000000000000000000000000000000000000000000000000000000000000000000000000000000000000000000000000000000000000000000000000000000000000000000000000000000000000000000000000000000
310
0000000000000000000000000000000000000000000000000000000000000000000000000000000000000000000000000000000000000000000000000000000000000000000000000000000000000000000000000000000000000000000000000000000000000000000000F5F500F5F5F5F50000000000F5F500000000F5F5
310
F5F5F5F5F50000000000000000000000000000000000000000000000000000000000000000000000000000000000000000000000000000000000000000000000000000000000000000000000000000000000000000000000000000000000000000000000000000000000000000000000000000000000000000000000000000
310
000000000000000000000000000000000000000000000000000000000000000000000000000000000000000000000000000000000000000000000000000000000000000000000000000000000000000000000000000000000000000000000000000000000000000000000000000000F5F5F5F5F5F5F5F5F500000000F5F5F5
310
F5F5F5F5F50000000000000000000000000000000000000000000000000000000000000000000000000000000000000000000000000000000000000000000000000000000000000000000000000000000000000000000000000000000000000000000000000000000000000000000000000000000000000000000000000000
310
00000000000000000000000000000000000000000000000000000000000000000000000000000000000000000000000000000000000000000000000000000000000000000000000000000000000000000000000000000000000000000000000000000000000000000000000000000000000000F5F5F5F5F5F5F5F5F5F5F5F5
310
F5F5F5F5F5F500000000000000000000000000000000000000000000000000000000000000000000000000000000000000000000000000000000000000000000000000000000000000000000000000000000000000000000000000000000000000000000000000000000000000000000000000000000000000000000000000
310
0000000000000000000000000000000000000000000000000000000000000000000000000000000000000000000000000000000000000000000000000000000000000000000000000000000000000000000000000000000000000000000000000000000000000000000000000000000000000000000000F5F5F5F5F5F5F5F5
310
F5F5F5F5F5F500000000000000000000000000000000000000000000000000000000000000000000000000000000000000000000000000000000000000000000000000000000000000000000000000000000000000000000000000000000000000000000000000000000000000000000000000000000000000000000000000
310
000000000000000000000000000000000000000000000000000000000000000000000000000000000000000000000000000000000000000000000000000000000000000000000000000000000000000000000000000000000000000000000000000000000000000000000000000000000000000000000000000000F5F5F5F5
310
F5F5F5F5F50000000000000000000000000000000000000000000000000000000000000000000000000000000000000000000000000000000000000000000000000000000000000000000000000000000000000000000000000000000000000000000000000000000000000000000000000000000000000000000000000000
310
00000000000000000000000000000000000000000000000000000000000000000000000000000000000000000000000000000000000000000000000000000000000000000000000000000000000000000000000000000000000000000000000000000000000000000000000000000000000000000000000000000000000000
310
00000000000000000000000000000000000000000000000000000000000000000000000000000000000000000000000000000000000000000000000000000000000000000000000000000000000000000000000000000000000000000000000000000000000000000000000000000000000000000000000000000000000000
310
00000000000000000000000000000000000000000000000000000000000000000000000000000000000000000000000000000000000000000000000000000000000000000000000000000000000000000000000000000000000000000000000000000000000000000000000000000000000000000000000000000000000000
310
00000000000000000000000000000000000000000000000000000000000000000000000000000000000000000000000000000000000000000000000000000000000000000000000000000000000000000000000000000000000000000000000000000000000000000000000000000000000000000000000000000000000000
310
00000000000000000000000000000000000000000000000000000000000000000000000000000000000000000000000000000000000000000000000000000000000000000000000000000000000000000000000000000000000000000000000000000000000000000000000000000000000000000000000000000000000000
310
00000000000000000000000000000000000000000000000000000000000000000000000000000000000000000000000000000000000000000000000000000000000000000000000000000000000000000000000000000000000000000000000000000000000000000000000000000000000000000000000000000000000000
310
00000000000000000000000000000000000000000000000000000000000000000000000000000000000000000000000000000000000000000000000000000000000000000000000000000000000000000000000000000000000000000000000000000000000000000000000000000000000000000000000000000000000000
310
00000000000000000000000000000000000000000000000000000000000000000000000000000000000000000000000000000000000000000000000000000000000000000000000000000000000000000000000000000000000000000000000000000000000000000000000000000000000000000000000000000000000000
310
00000000000000000000000000000000000000000000000000000000000000000000000000000000000000000000000000000000000000000000000000000000000000000000000000000000000000000000000000000000000000000000000000000000000000000000000000000000000000000000000000000000000000
310
00000000000000000000000000000000000000000000000000000000000000000000000000000000000000000000000000000000000000000000000000000000000000000000000000000000000000000000000000000000000000000000000000000000000000000000000000000000000000000000000000000000000000
310
00000000000000000000000000000000000000000000000000000000000000000000000000000000000000000000000000000000000000000000000000000000000000000000000000000000000000000000000000000000000000000000000000000000000000000000000000000000000000000000000000000000000000
310
00000000000000000000000000000000000000000000000000000000000000000000000000000000000000000000000000000000000000000000000000000000000000000000000000000000000000000000000000000000000000000000000000000000000000000000000000000000000000000000000000000000000000
310
0000000000000000000000000000000000000000000000000000000000000000000000000000000000000000000000000000000000000000000000000000000000000000000000000000000000000000000000000000000000000000000000000000000000000000000000000000000000000000000000000000F5F5F5F5F5
310
F5F5F5F5F5F5F5F5F5F5F5F5F5F5F5F5F5F5F5F5F5F5F5F5F5F5F5F5F5F5F5F5F5F5000000000000000000000000000000000000000000000000000000000000000000000000000000000000000000000000000000000000000000000000000000000000000000000000000000000000000000000000000000000000000000
310
00000000000000000000000000000000000000000000000000000000000000000000000000000000000000000000000000000000000000000000000000000000000000000000000000000000000000000000000000000000000000000000000000000000000000000000000000000000000000000000000000000000F5F5F5
310
00000000000000000000000000F5F5F5F5F5F5F50000000000000000000000000000F5F500000000000000000000000000000000000000000000000000000000000000000000000000000000000000000000000000000000000000000000000000000000000000000000000000000000000000000000000000000000000000
310
000000000000000000000000000000000000000000000000000000000000000000000000000000000000000000000000000000000000000000000000000000000000000000000000000000000000000000000000000000000000000000000000000000000000000000000000000000000000000000000000000000000000F5
310
00000000000000000000000000000000F5F5F5F5F5F5000000000000000000000000000000F50000000000000000000000000000000000000000000000000000000000000000000000000000000000000000000000000000000000000000000000000000000000000000000000000000000000000000000000000000000000
310
00000000000000000000000000000000000000000000000000000000000000000000000000000000000000000000000000000000000000000000000000000000000000000000000000000000000000000000000000000000000000000000000000000000000000000000000000000000000000000000000000000000000000
310
00F500000000000000000000000000000000000000000000000000000000000000000000000000F5000000000000000000000000000000000000000000000000000000000000000000000000000000000000000000000000000000000000000000000000000000000000000000000000000000000000000000000000000000
310
00000000000000000000000000000000000000000000000000000000000000000000000000000000000000000000000000000000000000000000000000000000000000000000000000000000000000000000000000000000000000000000000000000000000000000000000000000000000000000000000000000000000000
310
000000F500000000000000000000000000000000000000000000000000000000000000000000000000F500000000000000000000000000000000000000000000000000000000000000000000000000000000000000000000000000000000000000000000000000000000000000000000000000000000000000000000000000
310
00000000000000000000000000000000000000000000000000000000000000000000000000000000000000000000000000000000000000000000000000000000000000000000000000000000000000000000000000000000000000000000000000000000000000000000000000000000000000000000000000000000000000
310
0000000000F500000000000000000000000000000000000000000000000000000000000000000000000000F50000000000000000000000000000000000000000000000000000000000000000000000000000000000000000000000000000000000000000000000000000000000000000000000000000000000000000000000
310
00000000000000000000000000000000000000000000000000000000000000000000000000000000000000000000000000000000000000000000000000000000000000000000000000000000000000000000000000000000000000000000000000000000000000000000000000000000000000000000000000000000000000
310
00000000000000F5000000000000F5F5F5F5F5F5F5F5F5F5F5F5F5F5F5F5F5F5F5F5F5F5F5F5F5000000000000F5000000000000000000000000000000000000000000000000000000000000000000000000000000000000000000000000000000000000000000000000000000000000000000000000000000000000000000
310
00000000000000000000000000000000000000000000000000000000000000000000000000000000000000000000000000000000000000000000000000000000000000000000000000000000000000000000000000000000000000000000000000000000000000000000000000000000000000000000000000000000000000
310
000000000000000000F5000000000000F5000000000000000000F5F5F5F5F5000000000000000000F5000000000000F500000000000000000000000000000000000000000000000000000000000000000000000000000000000000000000000000000000000000000000000000000000000000000000000000000000000000
310
00000000000000000000000000000000000000000000000000000000000000000000000000000000000000000000000000000000000000000000000000000000000000000000000000000000000000000000000000000000000000000000000000000000000000000000000000000000000000000000000000000000000000
310
0000000000000000000000F5000000000000F500000000000000000000F5F5F5F5000000000000000000F5000000000000F50000000000000000000000000000000000000000000000000000000000000000000000000000000000000000000000000000000000000000000000000000000000000000000000000000000000
310
00000000000000000000000000000000000000000000000000000000000000000000000000000000000000000000000000000000000000000000000000000000000000000000000000000000000000000000000000000000000000000000000000000000000000000000000000000000000000000000000000000000000000
310
00000000000000000000000000F5000000000000F50000000000000000000000000000000000000000000000F5000000000000F5000000000000000000000000000000000000000000000000000000000000000000000000000000000000000000000000000000000000000000000000000000000000000000000000000000
310
00000000000000000000000000000000000000000000000000000000000000000000000000000000000000000000000000000000000000000000000000000000000000000000000000000000000000000000000000000000000000000000000000000000000000000000000000000000000000000000000000000000000000
310
000000000000000000000000000000F5000000000000F50000000000000000000000000000000000000000000000F5000000000000F500000000000000000000000000000000000000000000000000000000000000000000000000000000000000000000000000000000000000000000000000000000000000000000000000
310
00000000000000000000000000000000000000000000000000000000000000000000000000000000000000000000000000000000000000000000000000000000000000000000000000000000000000000000000000000000000000000000000000000000000000000000000000000000000000000000000000000000000000
310
0000000000000000000000000000000000F5000000000000F5000000000000000000F5F5F5F5F5F5F5F5F5F5F5F5F5F5F5F5F5F5F5F5F5F5F5F5F5F5F5F50000000000000000000000000000000000000000000000000000000000000000000000000000000000000000000000000000000000000000000000000000000000
310
00000000000000000000000000000000000000000000000000000000000000000000000000000000000000000000000000000000000000000000000000000000000000000000000000000000000000000000000000000000000000000000000000000000000000000000000000000000000000000000000000000000000000
310
00000000000000000000000000000000000000F5000000000000F5000000000000F5F5F50000000000F5F5F5000000000000F5000000000000F500000000F5F5000000000000000000000000000000000000000000000000000000000000000000000000000000000000000000000000000000000000000000000000000000
310
00000000000000000000000000000000000000000000000000000000000000000000000000000000000000000000000000000000000000000000000000000000000000000000000000000000000000000000000000000000000000000000000000000000000000000000000000000000000000000000000000000000000000
310
000000000000000000000000000000000000000000F5000000000000F500000000F5F50000000000000000000000F5F500000000F5000000000000F500000000F50000000000000000000000000000000000000000000000000000000000000000000000000000000000000000000000000000000000000000000000000000
310
00000000000000000000000000000000000000000000000000000000000000000000000000000000000000000000000000000000000000000000000000000000000000000000000000000000000000000000000000000000000000000000000000000000000000000000000000000000000000000000000000000000000000
310
0000000000000000000000000000000000000000000000F5000000000000F500000000F50000000000000000000000000000F5000000F5000000000000F500000000F5000000000000000000000000000000000000000000000000000000000000000000000000000000000000000000000000000000000000000000000000
310
00000000000000000000000000000000000000000000000000000000000000000000000000000000000000000000000000000000000000000000000000000000000000000000000000000000000000000000000000000000000000000000000000000000000000000000000000000000000000000000000000000000000000
310
00000000000000000000000000000000000000000000000000F5000000000000F5000000F500000000000000000000000000000000F50000F5000000000000F500000000F500000000000000000000000000000000000000000000000000000000000000000000000000000000000000000000000000000000000000000000
310
00000000000000000000000000000000000000000000000000000000000000000000000000000000000000000000000000000000000000000000000000000000000000000000000000000000000000000000000000000000000000000000000000000000000000000000000000000000000000000000000000000000000000
310
000000000000000000000000000000000000000000000000000000F5000000000000F500F5F5000000000000000000000000000000000000F500F5000000000000F500000000F50000000000000000000000000000000000000000000000000000000000000000000000000000000000000000000000000000000000000000
310
00000000000000000000000000000000000000000000000000000000000000000000000000000000000000000000000000000000000000000000000000000000000000000000000000000000000000000000000000000000000000000000000000000000000000000000000000000000000000000000000000000000000000
310
0000000000000000000000000000000000000000000000000000000000F5000000000000F500F50000000000000000000000000000000000000000F5F5000000000000F5000000F5F5000000000000000000000000000000000000000000000000000000000000000000000000000000000000000000000000000000000000
310
00000000000000000000000000000000000000000000000000000000000000000000000000000000000000000000000000000000000000000000000000000000000000000000000000000000000000000000000000000000000000000000000000000000000000000000000000000000000000000000000000000000000000
310
00000000000000000000000000000000000000000000000000000000000000F5000000000000F5F5000000000000000000000000000000000000000000F5F5000000000000F5000000F5F500000000000000000000000000000000000000000000000000000000000000000000000000000000000000000000000000000000
310
00000000000000000000000000000000000000000000000000000000000000000000000000000000000000000000000000000000000000000000000000000000000000000000000000000000000000000000000000000000000000000000000000000000000000000000000000000000000000000000000000000000000000
310
000000000000000000000000000000000000000000000000000000000000000000F5000000000000F5F500000000000000000000000000000000000000000000F5000000000000F5000000F5F50000000000000000000000000000000000000000000000000000000000000000000000000000000000000000000000000000
310
00000000000000000000000000000000000000000000000000000000000000000000000000000000000000000000000000000000000000000000000000000000000000000000000000000000000000000000000000000000000000000000000000000000000000000000000000000000000000000000000000000000000000
310
0000000000000000000000000000000000000000000000000000000000000000000000F5000000000000F5F500000000000000000000000000000000000000000000F5000000000000F5000000F5F5000000000000000000000000000000000000000000000000000000000000000000000000000000000000000000000000
310
00000000000000000000000000000000000000000000000000000000000000000000000000000000000000000000000000000000000000000000000000000000000000000000000000000000000000000000000000000000000000000000000000000000000000000000000000000000000000000000000000000000000000
310
00000000000000000000000000000000000000000000000000000000000000000000000000F5000000000000F50000000000000000000000000000000000000000000000F5000000000000F500000000F500000000000000000000000000000000000000000000000000000000000000000000000000000000000000000000
310
00000000000000000000000000000000000000000000000000000000000000000000000000000000000000000000000000000000000000000000000000000000000000000000000000000000000000000000000000000000000000000000000000000000000000000000000000000000000000000000000000000000000000
310
000000000000000000000000000000000000000000000000000000000000000000000000000000F5000000000000F50000000000000000000000000000000000000000000000F5000000000000F500000000F50000000000000000000000000000000000000000000000000000000000000000000000000000000000000000
310
00000000000000000000000000000000000000000000000000000000000000000000000000000000000000000000000000000000000000000000000000000000000000000000000000000000000000000000000000000000000000000000000000000000000000000000000000000000000000000000000000000000000000
310
0000000000000000000000000000000000000000000000000000000000000000000000000000000000F50000000000F5F5F5F5F5F5F5F5F5F5F5F5F5F5F5F5F5F5F5F5F5F5F5F5F5F5F5F500000000F500000000F5000000000000000000000000000000000000000000000000000000000000000000000000000000000000
310
00000000000000000000000000000000000000000000000000000000000000000000000000000000000000000000000000000000000000000000000000000000000000000000000000000000000000000000000000000000000000000000000000000000000000000000000000000000000000000000000000000000000000
310
00000000000000000000000000000000000000000000000000000000000000000000000000000000000000F500000000F500000000000000000000000000F5F5000000000000000000000000F500000000F500000000F500000000000000000000000000000000000000000000000000000000000000000000000000000000
310
00000000000000000000000000000000000000000000000000000000000000000000000000000000000000000000000000000000000000000000000000000000000000000000000000000000000000000000000000000000000000000000000000000000000000000000000000000000000000000000000000000000000000
310
000000000000000000000000000000000000000000000000000000000000000000000000000000000000000000F5000000F50000000000000000000000000000F5F500000000000000000000000000F5F50000F500000000F5F500000000000000000000000000000000000000000000000000000000000000000000000000
310
00000000000000000000000000000000000000000000000000000000000000000000000000000000000000000000000000000000000000000000000000000000000000000000000000000000000000000000000000000000000000000000000000000000000000000000000000000000000000000000000000000000000000
310
0000000000000000000000000000000000000000000000000000000000000000000000000000000000000000000000F5F5F5F5F5F5F5F5F5F5F5F5F5F5F5F5F5F5F5F5F5F5F5F5F5F5F5F5F5F5F5F5F5F5F5F5F5F5F5F5F5F5F5F5F50000000000000000000000000000000000000000000000000000000000000000000000
310
00000000000000000000000000000000000000000000000000000000000000000000000000000000000000000000000000000000000000000000000000000000000000000000000000000000000000000000000000000000000000000000000000000000000000000000000000000000000000000000000000000000000000
310
0000000000000000000000000000000000000000000000000000000000000000000000000000000000000000000000000000F5000000000000000000000000000000000000000000000000000000000000000000000000F500000000F5F5000000000000000000000000000000000000000000000000000000000000000000
310
00000000000000000000000000000000000000000000000000000000000000000000000000000000000000000000000000000000000000000000000000000000000000000000000000000000000000000000000000000000000000000000000000000000000000000000000000000000000000000000000000000000000000
310
00000000000000000000000000000000000000000000000000000000000000000000000000000000000000000000000000000000F5000000000000000000000000000000000000000000000000000000000000000000000000F500000000F50000000000000000000000000000000000000000000000000000000000000000
310
00000000000000000000000000000000000000000000000000000000000000000000000000000000000000000000000000000000000000000000000000000000000000000000000000000000000000000000000000000000000000000000000000000000000000000000000000000000000000000000000000000000000000
310
000000000000000000000000000000000000000000000000000000000000000000000000000000000000000000000000000000000000F5F5F5F5F5F5F5F5F5F5F5F5F5F5F5F5F5F5F5F5F5F5F5F5F5F5F5F5F5F5F5F5F5F5F5F5F5F500000000F5000000000000000000000000000000000000000000000000000000000000
310
00000000000000000000000000000000000000000000000000000000000000000000000000000000000000000000000000000000000000000000000000000000000000000000000000000000000000000000000000000000000000000000000000000000000000000000000000000000000000000000000000000000000000
310
0000000000000000000000000000000000000000000000000000000000000000000000000000000000000000000000000000000000000000F5000000000000000000000000000000000000000000000000000000000000000000000000F500000000F500000000000000000000000000000000000000000000000000000000
310
00000000000000000000000000000000000000000000000000000000000000000000000000000000000000000000000000000000000000000000000000000000000000000000000000000000000000000000000000000000000000000000000000000000000000000000000000000000000000000000000000000000000000
310
00000000000000000000000000000000000000000000000000000000000000000000000000000000000000000000000000000000000000000000F50000000000000000000000000000000000000000000000000000000000000000000000F50000000000F50000000000000000000000000000000000000000000000000000
310
00000000000000000000000000000000000000000000000000000000000000000000000000000000000000000000000000000000000000000000000000000000000000000000000000000000000000000000000000000000000000000000000000000000000000000000000000000000000000000000000000000000000000
310
000000000000000000000000000000000000000000000000000000000000000000000000000000000000000000000000000000000000000000000000F50000000000000000000000000000000000000000000000000000000000000000000000F50000000000F5000000000000000000000000000000000000000000000000
310
00000000000000000000000000000000000000000000000000000000000000000000000000000000000000000000000000000000000000000000000000000000000000000000000000000000000000000000000000000000000000000000000000000000000000000000000000000000000000000000000000000000000000
310
0000000000000000000000000000000000000000000000000000000000000000000000000000000000000000000000000000000000000000000000000000F50000000000000000000000000000000000000000000000000000000000000000000000F50000000000F500000000000000000000000000000000000000000000
310
00000000000000000000000000000000000000000000000000000000000000000000000000000000000000000000000000000000000000000000000000000000000000000000000000000000000000000000000000000000000000000000000000000000000000000000000000000000000000000000000000000000000000
310
0000000000000000000000000000000000000000000000000000000000000000000000000000000000000000000000000000000000000000000000000000000000F500000000000000000000000000000000000000000000000000000000000000000000F50000000000F50000000000000000000000000000000000000000
310
00000000000000000000000000000000000000000000000000000000000000000000000000000000000000000000000000000000000000000000000000000000000000000000000000000000000000000000000000000000000000000000000000000000000000000000000000000000000000000000000000000000000000
310
00000000000000000000000000000000000000000000000000000000000000000000000000000000000000000000000000000000000000000000000000000000000000F500000000000000000000000000000000000000000000000000000000000000000000F50000000000F5000000000000000000000000000000000000
310
00000000000000000000000000000000000000000000000000000000000000000000000000000000000000000000000000000000000000000000000000000000000000000000000000000000000000000000000000000000000000000000000000000000000000000000000000000000000000000000000000000000000000
310
000000000000000000000000000000000000000000000000000000000000000000000000000000000000000000000000000000000000000000000000000000000000000000F500000000000000000000000000000000000000000000000000000000000000000000F50000000000F500000000000000000000000000000000
310
00000000000000000000000000000000000000000000000000000000000000000000000000000000000000000000000000000000000000000000000000000000000000000000000000000000000000000000000000000000000000000000000000000000000000000000000000000000000000000000000000000000000000
310
0000000000000000000000000000000000000000000000000000000000000000000000000000000000000000000000000000000000000000000000000000000000000000000000F500000000000000000000000000000000000000000000000000000000000000000000F50000000000F50000000000000000000000000000
310
00000000000000000000000000000000000000000000000000000000000000000000000000000000000000000000000000000000000000000000000000000000000000000000000000000000000000000000000000000000000000000000000000000000000000000000000000000000000000000000000000000000000000
310
00000000000000000000000000000000000000000000000000000000000000000000000000000000000000000000000000000000000000000000000000000000000000000000000000F500000000000000000000000000000000000000000000000000000000000000000000F500000000F5F5000000000000000000000000
310
00000000000000000000000000000000000000000000000000000000000000000000000000000000000000000000000000000000000000000000000000000000000000000000000000000000000000000000000000000000000000000000000000000000000000000000000000000000000000000000000000000000000000
310
000000000000000000000000000000000000000000000000000000000000000000000000000000000000000000000000000000000000000000000000000000000000000000000000000000F500000000000000000000000000000000000000000000000000000000000000000000F500000000F5F500000000000000000000
310
00000000000000000000000000000000000000000000000000000000000000000000000000000000000000000000000000000000000000000000000000000000000000000000000000000000000000000000000000000000000000000000000000000000000000000000000000000000000000000000000000000000000000
310
0000000000000000000000000000000000000000000000000000000000000000000000000000000000000000000000000000000000000000000000000000000000000000000000000000000000F500000000000000000000000000000000000000000000000000000000000000000000F500000000F5F50000000000000000
310
00000000000000000000000000000000000000000000000000000000000000000000000000000000000000000000000000000000000000000000000000000000000000000000000000000000000000000000000000000000000000000000000000000000000000000000000000000000000000000000000000000000000000
310
0000000000000000000000000000000000000000000000000000000000000000000000000000000000000000000000000000000000000000000000000000000000000000000000000000000000000000F50000000000000000000000000000000000000000000000000000000000000000F50000000000F5F5000000000000
310
00000000000000000000000000000000000000000000000000000000000000000000000000000000000000000000000000000000000000000000000000000000000000000000000000000000000000000000000000000000000000000000000000000000000000000000000000000000000000000000000000000000000000
310
00000000000000000000000000000000000000000000000000000000000000000000000000000000000000000000000000000000000000000000000000000000000000000000000000000000000000000000F50000000000000000000000000000000000000000000000000000000000000000F5000000000000F500000000
310
00000000000000000000000000000000000000000000000000000000000000000000000000000000000000000000000000000000000000000000000000000000000000000000000000000000000000000000000000000000000000000000000000000000000000000000000000000000000000000000000000000000000000
310
000000000000000000000000000000000000000000000000000000000000000000000000000000000000000000000000000000000000000000000000000000000000000000000000000000000000000000000000F50000000000000000000000000000000000000000000000000000000000000000F5000000000000F50000
310
00000000000000000000000000000000000000000000000000000000000000000000000000000000000000000000000000000000000000000000000000000000000000000000000000000000000000000000000000000000000000000000000000000000000000000000000000000000000000000000000000000000000000
310
0000000000000000000000000000000000000000000000000000000000000000000000000000000000000000000000000000000000000000000000000000000000000000000000000000000000000000000000000000F500000000000000000000000000000000000000000000000000000000000000F500000000000000F5
310
00000000000000000000000000000000000000000000000000000000000000000000000000000000000000000000000000000000000000000000000000000000000000000000000000000000000000000000000000000000000000000000000000000000000000000000000000000000000000000000000000000000000000
310
00000000000000000000000000000000000000000000000000000000000000000000000000000000000000000000000000000000000000000000000000000000000000000000000000000000000000000000000000000000F5F5F5F5F5F5F5F5F5F5F5F5F5F5F5F5F5F5F5F5F5F5F5F5F5F5F5F5F5F5F5F5F5000000000000
310
00F50000000000000000000000000000000000000000000000000000000000000000000000000000000000000000000000000000000000000000000000000000000000000000000000000000000000000000000000000000000000000000000000000000000000000000000000000000000000000000000000000000000000
310
000000000000000000000000000000000000000000000000000000000000000000000000000000000000000000000000000000000000000000000000000000000000000000000000000000000000000000000000000000000000F5F5000000000000000000000000000000000000000000000000000000000000F500000000
310
000000F5000000000000000000000000000000000000000000000000000000000000000000000000000000000000000000000000000000000000000000000000000000000000000000000000000000000000000000000000000000000000000000000000000000000000000000000000000000000000000000000000000000
310
000000000000000000000000000000000000000000000000000000000000000000000000000000000000000000000000000000000000000000000000000000000000000000000000000000000000000000000000000000000000000000F50000000000000000000000000000000000000000000000000000000000F5F50000
310
0000000000F500000000000000000000000000000000000000000000000000000000000000000000000000000000000000000000000000000000000000000000000000000000000000000000000000000000000000000000000000000000000000000000000000000000000000000000000000000000000000000000000000
310
000000000000000000000000000000000000000000000000000000000000000000000000000000000000000000000000000000000000000000000000000000000000000000000000000000000000000000000000000000000000000000000000F5F5F5F5F5F5F5F5F5F5F5F5F5F5F5F5F5F5F5F5F5F5F5F5F5F5F5F5F5F500
310
00000000000000F50000000000000000000000000000000000000000000000000000000000000000000000000000000000000000000000000000000000000000000000000000000000000000000000000000000000000000000000000000000000000000000000000000000000000000000000000000000000000000000000
310
000000000000000000000000000000000000000000000000000000000000000000000000000000000000000000000000000000000000000000000000000000000000000000000000000000000000000000000000000000000000000000000000000000F5F5000000000000000000000000000000000000000000000000F500
310
000000000000000000F5000000000000000000000000000000000000000000000000000000000000000000000000000000000000000000000000000000000000000000000000000000000000000000000000000000000000000000000000000000000000000000000000000000000000000000000000000000000000000000
310
00000000000000000000000000000000000000000000000000000000000000000000000000000000000000000000000000000000000000000000000000000000000000000000000000000000000000000000000000000000000000000000000000000000000000F5F50000000000000000000000000000000000000000F5F5
310
0000000000000000000000F500000000000000000000000000000000000000000000000000000000000000000000000000000000000000000000000000000000000000000000000000000000000000000000000000000000000000000000000000000000000000000000000000000000000000000000000000000000000000
310
0000000000000000000000000000000000000000000000000000000000000000000000000000000000000000000000000000000000000000000000000000000000000000000000000000000000000000000000000000000000000000000000000000000000000000000000F5F5F5F5F5F5F5F5F5F5F5F5F5F5F5F5F5F5F5F5
310
00000000000000000000000000F50000000000000000000000000000000000000000000000000000000000000000000000000000000000000000000000000000000000000000000000000000000000000000000000000000000000000000000000000000000000000000000000000000000000000000000000000000000000
310
0000000000000000000000000000000000000000000000000000000000000000000000000000000000000000000000000000000000000000000000000000000000000000000000000000000000000000000000000000000000000000000000000000000000000000000000000000F5F5F5F5F5F5F5F5F5F5F5F5F5F5F5F5F5
310
F50000000000000000000000000000F5F50000000000000000000000000000000000000000000000000000000000000000000000000000000000000000000000000000000000000000000000000000000000000000000000000000000000000000000000000000000000000000000000000000000000000000000000000000
310
000000000000000000000000000000000000000000000000000000000000000000000000000000000000000000000000000000000000000000000000000000000000000000000000000000000000000000000000000000000000000000000000000000000000000000000000000000000000F5F5F5F5F5F5F5F5F5F5F5F5F5
310
F5F5F5F5F5F5F5F5F5F5F5F5F5F5F5F5F5F5F5000000000000000000000000000000000000000000000000000000000000000000000000000000000000000000000000000000000000000000000000000000000000000000000000000000000000000000000000000000000000000000000000000000000000000000000000
310
0000000000000000000000000000000000000000000000000000000000000000000000000000000000000000000000000000000000000000000000000000000000000000000000000000000000000000000000000000000000000000000000000000000000000000000000000000000000000000F5F500F5000000000000F5
310
000000000000000000000000000000000000F5F5F500000000000000000000000000000000000000000000000000000000000000000000000000000000000000000000000000000000000000000000000000000000000000000000000000000000000000000000000000000000000000000000000000000000000000000000
310
00000000000000000000000000000000000000000000000000000000000000000000000000000000000000000000000000000000000000000000000000000000000000000000000000000000000000000000000000000000000000000000000000000000000000000000000000000000000000000000000000F50000000000
310
00F5F50000000000000000000000000000000000F5F5F50000000000000000000000000000000000000000000000000000000000000000000000000000000000000000000000000000000000000000000000000000000000000000000000000000000000000000000000000000000000000000000000000000000000000000
310
000000000000000000000000000000000000000000000000000000000000000000000000000000000000000000000000000000000000000000000000000000000000000000000000000000000000000000000000000000000000000000000000000000000000000000000000000000000000000000000000000000F5F5F5F5
310
F5F5F5F5F5F5F5F5F5F5F5F5F5F5F5F5F5F5F5F5F5F5F5F5F5000000000000000000000000000000000000000000000000000000000000000000000000000000000000000000000000000000000000000000000000000000000000000000000000000000000000000000000000000000000000000000000000000000000000
310
00000000000000000000000000000000000000000000000000000000000000000000000000000000000000000000000000000000000000000000000000000000000000000000000000000000000000000000000000000000000000000000000000000000000000000000000000000000000000000000000000000000000000
310
00000000000000F50000000000000000000000000000000000000000000000000000000000000000000000000000000000000000000000000000000000000000000000000000000000000000000000000000000000000000000000000000000000000000000000000000000000000000000000000000000000000000000000
310
00000000000000000000000000000000000000000000000000000000000000000000000000000000000000000000000000000000000000000000000000000000000000000000000000000000000000000000000000000000000000000000000000000000000000000000000000000000000000000000000000000000000000
310
000000000000000000F5000000000000000000000000000000000000000000000000000000000000000000000000000000000000000000000000000000000000000000000000000000000000000000000000000000000000000000000000000000000000000000000000000000000000000000000000000000000000000000
310
00000000000000000000000000000000000000000000000000000000000000000000000000000000000000000000000000000000000000000000000000000000000000000000000000000000000000000000000000000000000000000000000000000000000000000000000000000000000000000000000000000000000000
310
000000000000000000000000F5000000000000000000000000000000000000000000000000000000000000000000000000000000000000000000000000000000000000000000000000000000000000000000000000000000000000000000000000000000000000000000000000000000000000000000000000000000000000
310
00000000000000000000000000000000000000000000000000000000000000000000000000000000000000000000000000000000000000000000000000000000000000000000000000000000000000000000000000000000000000000000000000000000000000000000000000000000000000000000000000000000000000
310
000000000000000000000000000000F5000000000000000000000000000000000000000000000000000000000000000000000000000000000000000000000000000000000000000000000000000000000000000000000000000000000000000000000000000000000000000000000000000000000000000000000000000000
310
00000000000000000000000000000000000000000000000000000000000000000000000000000000000000000000000000000000000000000000000000000000000000000000000000000000000000000000000000000000000000000000000000000000000000000000000000000000000000000000000000000000000000
310
000000000000000000000000000000000000F5000000000000000000000000000000000000000000000000000000000000000000000000000000000000000000000000000000000000000000000000000000000000000000000000000000000000000000000000000000000000000000000000000000000000000000000000
310
00000000000000000000000000000000000000000000000000000000000000000000000000000000000000000000000000000000000000000000000000000000000000000000000000000000000000000000000000000000000000000000000000000000000000000000000000000000000000000000000000000000000000
310
0000000000000000000000000000000000000000F500000000000000000000000000000000000000000000000000000000000000000000000000000000000000000000000000000000000000000000000000000000000000000000000000000000000000000000000000000000000000000000000000000000000000000000
310
00000000000000000000000000000000000000000000000000000000000000000000000000000000000000000000000000000000000000000000000000000000000000000000000000000000000000000000000000000000000000000000000000000000000000000000000000000000000000000000000000000000000000
310
0000000000000000000000000000000000000000000000F500000000000000000000000000000000000000000000000000000000000000000000000000000000000000000000000000000000000000000000000000000000000000000000000000000000000000000000000000000000000000000000000000000000000000
310
00000000000000000000000000000000000000000000000000000000000000000000000000000000000000000000000000000000000000000000000000000000000000000000000000000000000000000000000000000000000000000000000000000000000000000000000000000000000000000000000000000000000000
310
0000000000000000000000000000000000000000000000000000F500000000000000000000000000000000000000000000000000000000000000000000000000000000000000000000000000000000000000000000000000000000000000000000000000000000000000000000000000000000000000000000000000000000
310
00000000000000000000000000000000000000000000000000000000000000000000000000000000000000000000000000000000000000000000000000000000000000000000000000000000000000000000000000000000000000000000000000000000000000000000000000000000000000000000000000000000000000
310
0000000000000000000000000000000000000000000000000000000000F500000000000000000000000000000000000000000000000000000000000000000000000000000000000000000000000000000000000000000000000000000000000000000000000000000000000000000000000000000000000000000000000000
310
00000000000000000000000000000000000000000000000000000000000000000000000000000000000000000000000000000000000000000000000000000000000000000000000000000000000000000000000000000000000000000000000000000000000000000000000000000000000000000000000000000000000000
310
00000000000000000000000000000000000000000000000000000000000000F50000000000F5F50000F5F500F500F5F5F5F500F5F5F5F5F5F5F5000000000000000000000000000000000000000000000000000000000000000000000000000000000000000000000000000000000000000000000000000000000000000000
310
00000000000000000000000000000000000000000000000000000000000000000000000000000000000000000000000000000000000000000000000000000000000000000000000000000000000000000000000000000000000000000000000000000000000000000000000000000000000000000000000000000000000000
310
00000000000000000000000000000000000000000000000000000000000000000000F5F5F5F5F5F5F5F500F5F5F5F500F5F5F5F500F5F5F5F5F5F5F5F5000000000000000000000000000000000000000000000000000000000000000000000000000000000000000000000000000000000000000000000000000000000000
310
00000000000000000000000000000000000000000000000000000000000000000000000000000000000000000000000000000000000000000000000000000000000000000000000000000000000000000000000000000000000000000000000000000000000000000000000000000000000000000000000000000000000000
310
0000000000000000000000000000000000000000000000000000000000000000000000000000000000F5F5F500F5F5F5F500F5F5F5F500F5F5F5F5F5F5F50000000000000000000000000000000000000000000000000000000000000000000000000000000000000000000000000000000000000000000000000000000000
310
00000000000000000000000000000000000000000000000000000000000000000000000000000000000000000000000000000000000000000000000000000000000000000000000000000000000000000000000000000000000000000000000000000000000000000000000000000000000000000000000000000000000000
310
00000000000000000000000000000000000000000000000000000000000000000000000000000000000000000000000000000000000000000000000000000000000000000000000000000000000000000000000000000000000000000000000000000000000000000000000000000000000000000000000000000000000000
310
00000000000000000000000000000000000000000000000000000000000000000000000000000000000000000000000000000000000000000000000000000000000000000000000000000000000000000000000000000000000000000000000000000000000000000000000000000000000000000000000000000000000000
310
00000000000000000000000000000000000000000000000000000000000000000000000000000000000000000000000000000000000000000000000000000000000000000000000000000000000000000000000000000000000000000000000000000000000000000000000000000000000000000000000000000000000000
310
00000000000000000000000000000000000000000000000000000000000000000000000000000000000000000000000000000000000000000000000000000000000000000000000000000000000000000000000000000000000000000000000000000000000000000000000000000000000000000000000000000000000000
310
00000000000000000000000000000000000000000000000000000000000000000000000000000000000000000000000000000000000000000000000000000000000000000000000000000000000000000000000000000000000000000000000000000000000000000000000000000000000000000000000000000000000000
310
00000000000000000000000000000000000000000000000000000000000000000000000000000000000000000000000000000000000000000000000000000000000000000000000000000000000000000000000000000000000000000000000000000000000000000000000000000000000000000000000000000000000000
310
00000000000000000000000000000000000000000000000000000000000000000000000000000000000000000000000000000000000000000000000000000000000000000000000000000000000000000000000000000000000000000000000000000000000000000000000000000000000000000000000000000000000000
310
00000000000000000000000000000000000000000000000000000000000000000000000000000000000000000000000000000000000000000000000000000000000000000000000000000000000000000000000000000000000000000000000000000000000000000000000000000000000000000000000000000000000000
310
00000000000000000000000000000000000000000000000000000000000000000000000000000000000000000000000000000000000000000000000000000000000000000000000000000000000000000000000000000000000000000000000000000000000000000000000000000000000000000000000000000000000000
310
00000000000000000000000000000000000000000000000000000000000000000000000000000000000000000000000000000000000000000000000000000000000000000000000000000000000000000000000000000000000000000000000000000000000000000000000000000000000000000000000000000000000000
310
00000000000000000000000000000000000000000000000000000000000000000000000000000000000000000000000000000000000000000000000000000000000000000000000000000000000000000000000000000000000000000000000000000000000000000000000000000000000000000000000000000000000000
310
00000000000000000000000000000000000000000000000000000000000000000000000000000000000000000000000000000000000000000000000000000000000000000000000000000000000000000000000000000000000000000000000000000000000000000000000000000000000000000000000000000000000000
310
00000000000000000000000000000000000000000000000000000000000000000000000000000000000000000000000000000000000000000000000000000000000000000000000000000000000000000000000000000000000000000000000000000000000000000000000000000000000000000000000000000000000000
310
00000000000000000000000000000000000000000000000000000000000000000000000000000000000000000000000000000000000000000000000000000000000000000000000000000000000000000000000000000000000000000000000000000000000000000000000000000000000000000000000000000000000000
310
00000000000000000000000000000000000000000000000000000000000000000000000000000000000000000000000000000000000000000000000000000000000000000000000000000000000000000000000000000000000000000000000000000000000000000000000000000000000000000000000000000000000000
310
00000000000000000000000000000000000000000000000000000000000000000000000000000000000000000000000000000000000000000000000000000000000000000000000000000000000000000000000000000000000000000000000000000000000000000000000000000000000000000000000000000000000000
310
00000000000000000000000000000000000000000000000000000000000000000000000000000000000000000000000000000000000000000000000000000000000000000000000000000000000000000000000000000000000000000000000000000000000000000000000000000000000000000000000000000000000000
310
00000000000000000000000000000000000000000000000000000000000000000000000000000000000000000000000000000000000000000000000000000000000000000000000000000000000000000000000000000000000000000000000000000000000000000000000000000000000000000000000000000000000000
310
00000000000000000000000000000000000000000000000000000000000000000000000000000000000000000000000000000000000000000000000000000000000000000000000000000000000000000000000000000000000000000000000000000000000000000000000000000000000000000000000000000000000000
310
00000000000000000000000000000000000000000000000000000000000000000000000000000000000000000000000000000000000000000000000000000000000000000000000000000000000000000000000000000000000000000000000000000000000000000000000000000000000000000000000000000000000000
310
00000000000000000000000000000000000000000000000000000000000000000000000000000000000000000000000000000000000000000000000000000000000000000000000000000000000000000000000000000000000000000000000000000000000000000000000000000000000000000000000000000000000000
310
00000000000000000000000000000000000000000000000000000000000000000000000000000000000000000000000000000000000000000000000000000000000000000000000000000000000000000000000000000000000000000000000000000000000000000000000000000000000000000000000000000000000000
310
00000000000000000000000000000000000000000000000000000000000000000000000000000000000000000000000000000000000000000000000000000000000000000000000000000000000000000000000000000000000000000000000000000000000000000000000000000000000000000000000000000000000000
310
00000000000000000000000000000000000000000000000000000000000000000000000000000000000000000000000000000000000000000000000000000000000000000000000000000000000000000000000000000000000000000000000000000000000000000000000000000000000000000000000000000000000000
310
00000000000000000000000000000000000000000000000000000000000000000000000000000000000000000000000000000000000000000000000000000000000000000000000000000000000000000000000000000000000000000000000000000000000000000000000000000000000000000000000000000000000000
310
00000000000000000000000000000000000000000000000000000000000000000000000000000000000000000000000000000000000000000000000000000000000000000000000000000000000000000000000000000000000000000000000000000000000000000000000000000000000000000000000000000000000000
310
00000000000000000000000000000000000000000000000000000000000000000000000000000000000000000000000000000000000000000000000000000000000000000000000000000000000000000000000000000000000000000000000000000000000000000000000000000000000000000000000000000000000000
310
00000000000000000000000000000000000000000000000000000000000000000000000000000000000000000000000000000000000000000000000000000000000000000000000000000000000000000000000000000000000000000000000000000000000000000000000000000000000000000000000000000000000000
310
00000000000000000000000000000000000000000000000000000000000000000000000000000000000000000000000000000000000000000000000000000000000000000000000000000000000000000000000000000000000000000000000000000000000000000000000000000000000000000000000000000000000000
310
00000000000000000000000000000000000000000000000000000000000000000000000000000000000000000000000000000000000000000000000000000000000000000000000000000000000000000000000000000000000000000000000000000000000000000000000000000000000000000000000000000000000000
310
00000000000000000000000000000000000000000000000000000000000000000000000000000000000000000000000000000000000000000000000000000000000000000000000000000000000000000000000000000000000000000000000000000000000000000000000000000000000000000000000000000000000000
310
00000000000000000000000000000000000000000000000000000000000000000000000000000000000000000000000000000000000000000000000000000000000000000000000000000000000000000000000000000000000000000000000000000000000000000000000000000000000000000000000000000000000000
310
00000000000000000000000000000000000000000000000000000000000000000000000000000000000000000000000000000000000000000000000000000000000000000000000000000000000000000000000000000000000000000000000000000000000000000000000000000000000000000000000000000000000000
310
00000000000000000000000000000000000000000000000000000000000000000000000000000000000000000000000000000000000000000000000000000000000000000000000000000000000000000000000000000000000000000000000000000000000000000000000000000000000000000000000000000000000000
310
00000000000000000000000000000000000000000000000000000000000000000000000000000000000000000000000000000000000000000000000000000000000000000000000000000000000000000000000000000000000000000000000000000000000000000000000000000000000000000000000000000000000000
310
00000000000000000000000000000000000000000000000000000000000000000000000000000000000000000000000000000000000000000000000000000000000000000000000000000000000000000000000000000000000000000000000000000000000000000000000000000000000000000000000000000000000000
310
00000000000000000000000000000000000000000000000000000000000000000000000000000000000000000000000000000000000000000000000000000000000000000000000000000000000000000000000000000000000000000000000000000000000000000000000000000000000000000000000000000000000000
310
00000000000000000000000000000000000000000000000000000000000000000000000000000000000000000000000000000000000000000000000000000000000000000000000000000000000000000000000000000000000000000000000000000000000000000000000000000000000000000000000000000000000000
310
00000000000000000000000000000000000000000000000000000000000000000000000000000000000000000000000000000000000000000000000000000000000000000000000000000000000000000000000000000000000000000000000000000000000000000000000000000000000000000000000000000000000000
310
00000000000000000000000000000000000000000000000000000000000000000000000000000000000000000000000000000000000000000000000000000000000000000000000000000000000000000000000000000000000000000000000000000000000000000000000000000000000000000000000000000000000000
310
00000000000000000000000000000000000000000000000000000000000000000000000000000000000000000000000000000000000000000000000000000000000000000000000000000000000000000000000000000000000000000000000000000000000000000000000000000000000000000000000000000000000000
310
00000000000000000000000000000000000000000000000000000000000000000000000000000000000000000000000000000000000000000000000000000000000000000000000000000000000000000000000000000000000000000000000000000000000000000000000000000000000000000000000000000000000000
310
00000000000000000000000000000000000000000000000000000000000000000000000000000000000000000000000000000000000000000000000000000000000000000000000000000000000000000000000000000000000000000000000000000000000000000000000000000000000000000000000000000000000000
310
00000000000000000000000000000000000000000000000000000000000000000000000000000000000000000000000000000000000000000000000000000000000000000000000000000000000000000000000000000000000000000000000000000000000000000000000000000000000000000000000000000000000000
310
00000000000000000000000000000000000000000000000000000000000000000000000000000000000000000000000000000000000000000000000000000000000000000000000000000000000000000000000000000000000000000000000000000000000000000000000000000000000000000000000000000000000000
310
00000000000000000000000000000000000000000000000000000000000000000000000000000000000000000000000000000000000000000000000000000000000000000000000000000000000000000000000000000000000000000000000000000000000000000000000000000000000000000000000000000000000000
310
00000000000000000000000000000000000000000000000000000000000000000000000000000000000000000000000000000000000000000000000000000000000000000000000000000000000000000000000000000000000000000000000000000000000000000000000000000000000000000000000000000000000000
310
00000000000000000000000000000000000000000000000000000000000000000000000000000000000000000000000000000000000000000000000000000000000000000000000000000000000000000000000000000000000000000000000000000000000000000000000000000000000000000000000000000000000000
310
00000000000000000000000000000000000000000000000000000000000000000000000000000000000000000000000000000000000000000000000000000000000000000000000000000000000000000000000000000000000000000000000000000000000000000000000000000000000000000000000000000000000000
310
00000000000000000000000000000000000000000000000000000000000000000000000000000000000000000000000000000000000000000000000000000000000000000000000000000000000000000000000000000000000000000000000000000000000000000000000000000000000000000000000000000000000000
310
00000000000000000000000000000000000000000000000000000000000000000000000000000000000000000000000000000000000000000000000000000000000000000000000000000000000000000000000000000000000000000000000000000000000000000000000000000000000000000000000000000000000000
310
00000000000000000000000000000000000000000000000000000000000000000000000000000000000000000000000000000000000000000000000000000000000000000000000000000000000000000000000000000000000000000000000000000000
  0
XRECORD
  5
751
102
{ACAD_REACTORS
330
74F
102
}
330
74F
100
AcDbXrecord
280
     1
270
     1
271
     1
  0
XRECORD
  5
750
102
{ACAD_REACTORS
330
74F
102
}
330
74F
100
AcDbXrecord
280
     1
270
     1
271
     1
  0
XRECORD
  5
754
102
{ACAD_REACTORS
330
74F
102
}
330
74F
100
AcDbXrecord
280
     1
270
     1
271
     1
  0
XRECORD
  5
753
102
{ACAD_REACTORS
330
74F
102
}
330
74F
100
AcDbXrecord
280
     1
270
     1
271
     1
  0
XRECORD
  5
755
102
{ACAD_REACTORS
330
74F
102
}
330
74F
100
AcDbXrecord
280
     1
270
     1
271
     1
  0
XRECORD
  5
752
102
{ACAD_REACTORS
330
74F
102
}
330
74F
100
AcDbXrecord
280
     1
270
     1
271
     1
  0
XRECORD
  5
749
102
{ACAD_REACTORS
330
747
102
}
330
747
100
AcDbXrecord
280
     1
270
     1
271
     1
  0
XRECORD
  5
748
102
{ACAD_REACTORS
330
747
102
}
330
747
100
AcDbXrecord
280
     1
270
     1
271
     1
  0
XRECORD
  5
74C
102
{ACAD_REACTORS
330
747
102
}
330
747
100
AcDbXrecord
280
     1
270
     1
271
     1
  0
XRECORD
  5
74B
102
{ACAD_REACTORS
330
747
102
}
330
747
100
AcDbXrecord
280
     1
270
     1
271
     1
  0
XRECORD
  5
74D
102
{ACAD_REACTORS
330
747
102
}
330
747
100
AcDbXrecord
280
     1
270
     1
271
     1
  0
XRECORD
  5
74A
102
{ACAD_REACTORS
330
747
102
}
330
747
100
AcDbXrecord
280
     1
270
     1
271
     1
  0
XRECORD
  5
759
102
{ACAD_REACTORS
330
757
102
}
330
757
100
AcDbXrecord
280
     1
270
     1
271
     1
  0
XRECORD
  5
758
102
{ACAD_REACTORS
330
757
102
}
330
757
100
AcDbXrecord
280
     1
270
     1
271
     1
  0
XRECORD
  5
75C
102
{ACAD_REACTORS
330
757
102
}
330
757
100
AcDbXrecord
280
     1
270
     1
271
     1
  0
XRECORD
  5
75B
102
{ACAD_REACTORS
330
757
102
}
330
757
100
AcDbXrecord
280
     1
270
     1
271
     1
  0
XRECORD
  5
75D
102
{ACAD_REACTORS
330
757
102
}
330
757
100
AcDbXrecord
280
     1
270
     1
271
     1
  0
XRECORD
  5
75A
102
{ACAD_REACTORS
330
757
102
}
330
757
100
AcDbXrecord
280
     1
270
     1
271
     1
  0
CELLSTYLEMAP
  5
81C
102
{ACAD_REACTORS
330
81B
102
}
330
81B
100
AcDbCellStyleMap
 90
        3
300
CELLSTYLE
  1
TABLEFORMAT_BEGIN
 90
        5
170
     1
 91
        0
 92
    32768
 62
   257
 93
        1
300
CONTENTFORMAT
  1
CONTENTFORMAT_BEGIN
 90
        0
 91
        0
 92
        4
 93
        0
300

 40
0.0
140
1.0
 94
        5
 62
     0
340
11
144
6.0
309
CONTENTFORMAT_END
171
     1
301
MARGIN
  1
CELLMARGIN_BEGIN
 40
1.5
 40
1.5
 40
1.5
 40
1.5
 40
0.18
 40
0.18
309
CELLMARGIN_END
 94
        6
 95
        1
302
GRIDFORMAT
  1
GRIDFORMAT_BEGIN
 90
        0
 91
        1
 62
     0
 92
       -2
340
0
 93
        0
 40
0.045
309
GRIDFORMAT_END
 95
        2
302
GRIDFORMAT
  1
GRIDFORMAT_BEGIN
 90
        0
 91
        1
 62
     0
 92
       -2
340
0
 93
        0
 40
0.045
309
GRIDFORMAT_END
 95
        4
302
GRIDFORMAT
  1
GRIDFORMAT_BEGIN
 90
        0
 91
        1
 62
     0
 92
       -2
340
0
 93
        0
 40
0.045
309
GRIDFORMAT_END
 95
        8
302
GRIDFORMAT
  1
GRIDFORMAT_BEGIN
 90
        0
 91
        1
 62
     0
 92
       -2
340
0
 93
        0
 40
0.045
309
GRIDFORMAT_END
 95
       16
302
GRIDFORMAT
  1
GRIDFORMAT_BEGIN
 90
        0
 91
        1
 62
     0
 92
       -2
340
0
 93
        0
 40
0.045
309
GRIDFORMAT_END
 95
       32
302
GRIDFORMAT
  1
GRIDFORMAT_BEGIN
 90
        0
 91
        1
 62
     0
 92
       -2
340
0
 93
        0
 40
0.045
309
GRIDFORMAT_END
309
TABLEFORMAT_END
  1
CELLSTYLE_BEGIN
 90
        1
 91
        1
300
_TITLE
309
CELLSTYLE_END
300
CELLSTYLE
  1
TABLEFORMAT_BEGIN
 90
        5
170
     1
 91
        0
 92
        0
 62
   257
 93
        1
300
CONTENTFORMAT
  1
CONTENTFORMAT_BEGIN
 90
        0
 91
        0
 92
        4
 93
        0
300

 40
0.0
140
1.0
 94
        5
 62
     0
340
11
144
4.5
309
CONTENTFORMAT_END
171
     1
301
MARGIN
  1
CELLMARGIN_BEGIN
 40
1.5
 40
1.5
 40
1.5
 40
1.5
 40
0.18
 40
0.18
309
CELLMARGIN_END
 94
        6
 95
        1
302
GRIDFORMAT
  1
GRIDFORMAT_BEGIN
 90
        0
 91
        1
 62
     0
 92
       -2
340
0
 93
        0
 40
0.045
309
GRIDFORMAT_END
 95
        2
302
GRIDFORMAT
  1
GRIDFORMAT_BEGIN
 90
        0
 91
        1
 62
     0
 92
       -2
340
0
 93
        0
 40
0.045
309
GRIDFORMAT_END
 95
        4
302
GRIDFORMAT
  1
GRIDFORMAT_BEGIN
 90
        0
 91
        1
 62
     0
 92
       -2
340
0
 93
        0
 40
0.045
309
GRIDFORMAT_END
 95
        8
302
GRIDFORMAT
  1
GRIDFORMAT_BEGIN
 90
        0
 91
        1
 62
     0
 92
       -2
340
0
 93
        0
 40
0.045
309
GRIDFORMAT_END
 95
       16
302
GRIDFORMAT
  1
GRIDFORMAT_BEGIN
 90
        0
 91
        1
 62
     0
 92
       -2
340
0
 93
        0
 40
0.045
309
GRIDFORMAT_END
 95
       32
302
GRIDFORMAT
  1
GRIDFORMAT_BEGIN
 90
        0
 91
        1
 62
     0
 92
       -2
340
0
 93
        0
 40
0.045
309
GRIDFORMAT_END
309
TABLEFORMAT_END
  1
CELLSTYLE_BEGIN
 90
        2
 91
        1
300
_HEADER
309
CELLSTYLE_END
300
CELLSTYLE
  1
TABLEFORMAT_BEGIN
 90
        5
170
     1
 91
        0
 92
        0
 62
   257
 93
        1
300
CONTENTFORMAT
  1
CONTENTFORMAT_BEGIN
 90
        0
 91
        0
 92
        4
 93
        0
300

 40
0.0
140
1.0
 94
        2
 62
     0
340
11
144
4.5
309
CONTENTFORMAT_END
171
     1
301
MARGIN
  1
CELLMARGIN_BEGIN
 40
1.5
 40
1.5
 40
1.5
 40
1.5
 40
0.18
 40
0.18
309
CELLMARGIN_END
 94
        6
 95
        1
302
GRIDFORMAT
  1
GRIDFORMAT_BEGIN
 90
        0
 91
        1
 62
     0
 92
       -2
340
0
 93
        0
 40
0.045
309
GRIDFORMAT_END
 95
        2
302
GRIDFORMAT
  1
GRIDFORMAT_BEGIN
 90
        0
 91
        1
 62
     0
 92
       -2
340
0
 93
        0
 40
0.045
309
GRIDFORMAT_END
 95
        4
302
GRIDFORMAT
  1
GRIDFORMAT_BEGIN
 90
        0
 91
        1
 62
     0
 92
       -2
340
0
 93
        0
 40
0.045
309
GRIDFORMAT_END
 95
        8
302
GRIDFORMAT
  1
GRIDFORMAT_BEGIN
 90
        0
 91
        1
 62
     0
 92
       -2
340
0
 93
        0
 40
0.045
309
GRIDFORMAT_END
 95
       16
302
GRIDFORMAT
  1
GRIDFORMAT_BEGIN
 90
        0
 91
        1
 62
     0
 92
       -2
340
0
 93
        0
 40
0.045
309
GRIDFORMAT_END
 95
       32
302
GRIDFORMAT
  1
GRIDFORMAT_BEGIN
 90
        0
 91
        1
 62
     0
 92
       -2
340
0
 93
        0
 40
0.045
309
GRIDFORMAT_END
309
TABLEFORMAT_END
  1
CELLSTYLE_BEGIN
 90
        3
 91
        2
300
_DATA
309
CELLSTYLE_END
  0
XRECORD
  5
827
102
{ACAD_REACTORS
330
826
102
}
330
826
100
AcDbXrecord
280
     1
102
RTVSPropertyOp0
 70
     1
102
RTVSPropertyOp1
 70
     1
102
RTVSPropertyOp2
 70
     1
102
RTVSPropertyOp3
 70
     1
102
RTVSPropertyOp4
 70
     1
102
RTVSPropertyOp5
 70
     1
102
RTVSPropertyOp6
 70
     1
102
RTVSPropertyOp7
 70
     1
102
RTVSPropertyOp8
 70
     1
102
RTVSPropertyOp9
 70
     1
102
RTVSPropertyOp10
 70
     1
102
RTVSPropertyOp11
 70
     1
102
RTVSPropertyOp12
 70
     1
102
RTVSPropertyOp13
 70
     1
102
RTVSPropertyOp14
 70
     1
102
RTVSPropertyOp15
 70
     1
102
RTVSPropertyOp16
 70
     1
102
RTVSPropertyOp17
 70
     1
102
RTVSPropertyOp18
 70
     1
102
RTVSPropertyOp19
 70
     1
102
RTVSPropertyOp20
 70
     1
102
RTVSPropertyOp21
 70
     1
102
RTVSPropertyOp22
 70
     1
102
RTVSPropertyOp23
 70
     1
102
RTVSPropertyOp24
 70
     1
102
RTVSPropertyOp25
 70
     1
102
RTVSPropertyOp26
 70
     1
102
RTVSPropertyOp27
 70
     1
102
RTVSPropertyOp28
 70
     1
102
RTVSPropertyOp29
 70
     1
102
RTVSPropertyOp30
 70
     1
102
RTVSPropertyOp31
 70
     1
102
RTVSPropertyOp32
 70
     1
  0
XRECORD
  5
82B
102
{ACAD_REACTORS
330
82A
102
}
330
82A
100
AcDbXrecord
280
     1
102
RTVSPropertyOp0
 70
     1
102
RTVSPropertyOp1
 70
     1
102
RTVSPropertyOp2
 70
     1
102
RTVSPropertyOp3
 70
     1
102
RTVSPropertyOp4
 70
     1
102
RTVSPropertyOp5
 70
     1
102
RTVSPropertyOp6
 70
     1
102
RTVSPropertyOp7
 70
     1
102
RTVSPropertyOp8
 70
     1
102
RTVSPropertyOp9
 70
     1
102
RTVSPropertyOp10
 70
     1
102
RTVSPropertyOp11
 70
     1
102
RTVSPropertyOp12
 70
     1
102
RTVSPropertyOp13
 70
     1
102
RTVSPropertyOp14
 70
     1
102
RTVSPropertyOp15
 70
     1
102
RTVSPropertyOp16
 70
     1
102
RTVSPropertyOp17
 70
     1
102
RTVSPropertyOp18
 70
     1
102
RTVSPropertyOp19
 70
     1
102
RTVSPropertyOp20
 70
     1
102
RTVSPropertyOp21
 70
     1
102
RTVSPropertyOp22
 70
     1
102
RTVSPropertyOp23
 70
     1
102
RTVSPropertyOp24
 70
     1
102
RTVSPropertyOp25
 70
     1
102
RTVSPropertyOp26
 70
     1
102
RTVSPropertyOp27
 70
     1
102
RTVSPropertyOp28
 70
     1
102
RTVSPropertyOp29
 70
     1
102
RTVSPropertyOp30
 70
     1
102
RTVSPropertyOp31
 70
     1
102
RTVSPropertyOp32
 70
     1
  0
XRECORD
  5
829
102
{ACAD_REACTORS
330
828
102
}
330
828
100
AcDbXrecord
280
     1
102
RTVSPropertyOp0
 70
     1
102
RTVSPropertyOp1
 70
     1
102
RTVSPropertyOp2
 70
     1
102
RTVSPropertyOp3
 70
     1
102
RTVSPropertyOp4
 70
     1
102
RTVSPropertyOp5
 70
     1
102
RTVSPropertyOp6
 70
     1
102
RTVSPropertyOp7
 70
     1
102
RTVSPropertyOp8
 70
     1
102
RTVSPropertyOp9
 70
     1
102
RTVSPropertyOp10
 70
     1
102
RTVSPropertyOp11
 70
     1
102
RTVSPropertyOp12
 70
     1
102
RTVSPropertyOp13
 70
     1
102
RTVSPropertyOp14
 70
     1
102
RTVSPropertyOp15
 70
     1
102
RTVSPropertyOp16
 70
     1
102
RTVSPropertyOp17
 70
     1
102
RTVSPropertyOp18
 70
     1
102
RTVSPropertyOp19
 70
     1
102
RTVSPropertyOp20
 70
     1
102
RTVSPropertyOp21
 70
     1
102
RTVSPropertyOp22
 70
     1
102
RTVSPropertyOp23
 70
     1
102
RTVSPropertyOp24
 70
     1
102
RTVSPropertyOp25
 70
     1
102
RTVSPropertyOp26
 70
     1
102
RTVSPropertyOp27
 70
     1
102
RTVSPropertyOp28
 70
     1
102
RTVSPropertyOp29
 70
     1
102
RTVSPropertyOp30
 70
     1
102
RTVSPropertyOp31
 70
     1
102
RTVSPropertyOp32
 70
     1
  0
XRECORD
  5
82D
102
{ACAD_REACTORS
330
82C
102
}
330
82C
100
AcDbXrecord
280
     1
102
RTVSPropertyOp0
 70
     1
102
RTVSPropertyOp1
 70
     1
102
RTVSPropertyOp2
 70
     1
102
RTVSPropertyOp3
 70
     1
102
RTVSPropertyOp4
 70
     1
102
RTVSPropertyOp5
 70
     1
102
RTVSPropertyOp6
 70
     1
102
RTVSPropertyOp7
 70
     1
102
RTVSPropertyOp8
 70
     1
102
RTVSPropertyOp9
 70
     1
102
RTVSPropertyOp10
 70
     1
102
RTVSPropertyOp11
 70
     1
102
RTVSPropertyOp12
 70
     1
102
RTVSPropertyOp13
 70
     1
102
RTVSPropertyOp14
 70
     1
102
RTVSPropertyOp15
 70
     1
102
RTVSPropertyOp16
 70
     1
102
RTVSPropertyOp17
 70
     1
102
RTVSPropertyOp18
 70
     1
102
RTVSPropertyOp19
 70
     1
102
RTVSPropertyOp20
 70
     1
102
RTVSPropertyOp21
 70
     1
102
RTVSPropertyOp22
 70
     1
102
RTVSPropertyOp23
 70
     1
102
RTVSPropertyOp24
 70
     1
102
RTVSPropertyOp25
 70
     1
102
RTVSPropertyOp26
 70
     1
102
RTVSPropertyOp27
 70
     1
102
RTVSPropertyOp28
 70
     1
102
RTVSPropertyOp29
 70
     1
102
RTVSPropertyOp30
 70
     1
102
RTVSPropertyOp31
 70
     1
102
RTVSPropertyOp32
 70
     1
  0
XRECORD
  5
835
102
{ACAD_REACTORS
330
834
102
}
330
834
100
AcDbXrecord
280
     1
102
RTVSPropertyOp0
 70
     1
102
RTVSPropertyOp1
 70
     1
102
RTVSPropertyOp2
 70
     1
102
RTVSPropertyOp3
 70
     1
102
RTVSPropertyOp4
 70
     1
102
RTVSPropertyOp5
 70
     1
102
RTVSPropertyOp6
 70
     1
102
RTVSPropertyOp7
 70
     1
102
RTVSPropertyOp8
 70
     1
102
RTVSPropertyOp9
 70
     1
102
RTVSPropertyOp10
 70
     1
102
RTVSPropertyOp11
 70
     1
102
RTVSPropertyOp12
 70
     1
102
RTVSPropertyOp13
 70
     1
102
RTVSPropertyOp14
 70
     1
102
RTVSPropertyOp15
 70
     1
102
RTVSPropertyOp16
 70
     1
102
RTVSPropertyOp17
 70
     1
102
RTVSPropertyOp18
 70
     1
102
RTVSPropertyOp19
 70
     1
102
RTVSPropertyOp20
 70
     1
102
RTVSPropertyOp21
 70
     1
102
RTVSPropertyOp22
 70
     1
102
RTVSPropertyOp23
 70
     1
102
RTVSPropertyOp24
 70
     1
102
RTVSPropertyOp25
 70
     1
102
RTVSPropertyOp26
 70
     1
102
RTVSPropertyOp27
 70
     1
102
RTVSPropertyOp28
 70
     1
102
RTVSPropertyOp29
 70
     1
102
RTVSPropertyOp30
 70
     1
102
RTVSPropertyOp31
 70
     1
102
RTVSPropertyOp32
 70
     1
  0
XRECORD
  5
83D
102
{ACAD_REACTORS
330
83C
102
}
330
83C
100
AcDbXrecord
280
     1
102
RTVSPropertyOp0
 70
     1
102
RTVSPropertyOp1
 70
     1
102
RTVSPropertyOp2
 70
     1
102
RTVSPropertyOp3
 70
     1
102
RTVSPropertyOp4
 70
     1
102
RTVSPropertyOp5
 70
     1
102
RTVSPropertyOp6
 70
     1
102
RTVSPropertyOp7
 70
     1
102
RTVSPropertyOp8
 70
     1
102
RTVSPropertyOp9
 70
     1
102
RTVSPropertyOp10
 70
     1
102
RTVSPropertyOp11
 70
     1
102
RTVSPropertyOp12
 70
     1
102
RTVSPropertyOp13
 70
     1
102
RTVSPropertyOp14
 70
     1
102
RTVSPropertyOp15
 70
     1
102
RTVSPropertyOp16
 70
     1
102
RTVSPropertyOp17
 70
     1
102
RTVSPropertyOp18
 70
     1
102
RTVSPropertyOp19
 70
     1
102
RTVSPropertyOp20
 70
     1
102
RTVSPropertyOp21
 70
     1
102
RTVSPropertyOp22
 70
     1
102
RTVSPropertyOp23
 70
     1
102
RTVSPropertyOp24
 70
     1
102
RTVSPropertyOp25
 70
     1
102
RTVSPropertyOp26
 70
     1
102
RTVSPropertyOp27
 70
     1
102
RTVSPropertyOp28
 70
     1
102
RTVSPropertyOp29
 70
     1
102
RTVSPropertyOp30
 70
     1
102
RTVSPropertyOp31
 70
     1
102
RTVSPropertyOp32
 70
     1
  0
XRECORD
  5
831
102
{ACAD_REACTORS
330
830
102
}
330
830
100
AcDbXrecord
280
     1
102
RTVSPropertyOp0
 70
     1
102
RTVSPropertyOp1
 70
     1
102
RTVSPropertyOp2
 70
     1
102
RTVSPropertyOp3
 70
     1
102
RTVSPropertyOp4
 70
     1
102
RTVSPropertyOp5
 70
     1
102
RTVSPropertyOp6
 70
     1
102
RTVSPropertyOp7
 70
     1
102
RTVSPropertyOp8
 70
     1
102
RTVSPropertyOp9
 70
     1
102
RTVSPropertyOp10
 70
     1
102
RTVSPropertyOp11
 70
     1
102
RTVSPropertyOp12
 70
     1
102
RTVSPropertyOp13
 70
     1
102
RTVSPropertyOp14
 70
     1
102
RTVSPropertyOp15
 70
     1
102
RTVSPropertyOp16
 70
     1
102
RTVSPropertyOp17
 70
     1
102
RTVSPropertyOp18
 70
     1
102
RTVSPropertyOp19
 70
     1
102
RTVSPropertyOp20
 70
     1
102
RTVSPropertyOp21
 70
     1
102
RTVSPropertyOp22
 70
     1
102
RTVSPropertyOp23
 70
     1
102
RTVSPropertyOp24
 70
     1
102
RTVSPropertyOp25
 70
     1
102
RTVSPropertyOp26
 70
     1
102
RTVSPropertyOp27
 70
     1
102
RTVSPropertyOp28
 70
     1
102
RTVSPropertyOp29
 70
     1
102
RTVSPropertyOp30
 70
     1
102
RTVSPropertyOp31
 70
     1
102
RTVSPropertyOp32
 70
     1
  0
XRECORD
  5
833
102
{ACAD_REACTORS
330
832
102
}
330
832
100
AcDbXrecord
280
     1
102
RTVSPropertyOp0
 70
     1
102
RTVSPropertyOp1
 70
     1
102
RTVSPropertyOp2
 70
     1
102
RTVSPropertyOp3
 70
     1
102
RTVSPropertyOp4
 70
     1
102
RTVSPropertyOp5
 70
     1
102
RTVSPropertyOp6
 70
     1
102
RTVSPropertyOp7
 70
     1
102
RTVSPropertyOp8
 70
     1
102
RTVSPropertyOp9
 70
     1
102
RTVSPropertyOp10
 70
     1
102
RTVSPropertyOp11
 70
     1
102
RTVSPropertyOp12
 70
     1
102
RTVSPropertyOp13
 70
     1
102
RTVSPropertyOp14
 70
     1
102
RTVSPropertyOp15
 70
     1
102
RTVSPropertyOp16
 70
     1
102
RTVSPropertyOp17
 70
     1
102
RTVSPropertyOp18
 70
     1
102
RTVSPropertyOp19
 70
     1
102
RTVSPropertyOp20
 70
     1
102
RTVSPropertyOp21
 70
     1
102
RTVSPropertyOp22
 70
     1
102
RTVSPropertyOp23
 70
     1
102
RTVSPropertyOp24
 70
     1
102
RTVSPropertyOp25
 70
     1
102
RTVSPropertyOp26
 70
     1
102
RTVSPropertyOp27
 70
     1
102
RTVSPropertyOp28
 70
     1
102
RTVSPropertyOp29
 70
     1
102
RTVSPropertyOp30
 70
     1
102
RTVSPropertyOp31
 70
     1
102
RTVSPropertyOp32
 70
     1
  0
XRECORD
  5
851
102
{ACAD_REACTORS
330
850
102
}
330
850
100
AcDbXrecord
280
     1
102
RTVSPropertyOp0
 70
     0
102
RTVSPropertyOp1
 70
     0
102
RTVSPropertyOp2
 70
     0
102
RTVSPropertyOp3
 70
     0
102
RTVSPropertyOp4
 70
     0
102
RTVSPropertyOp5
 70
     0
102
RTVSPropertyOp6
 70
     0
102
RTVSPropertyOp7
 70
     0
102
RTVSPropertyOp8
 70
     0
102
RTVSPropertyOp9
 70
     0
102
RTVSPropertyOp10
 70
     0
102
RTVSPropertyOp11
 70
     0
102
RTVSPropertyOp12
 70
     0
102
RTVSPropertyOp13
 70
     0
102
RTVSPropertyOp14
 70
     2
102
RTVSPropertyOp15
 70
     0
102
RTVSPropertyOp16
 70
     0
102
RTVSPropertyOp17
 70
     0
102
RTVSPropertyOp18
 70
     0
102
RTVSPropertyOp19
 70
     0
102
RTVSPropertyOp20
 70
     0
102
RTVSPropertyOp21
 70
     0
102
RTVSPropertyOp22
 70
     0
102
RTVSPropertyOp23
 70
     0
102
RTVSPropertyOp24
 70
     0
102
RTVSPropertyOp25
 70
     0
102
RTVSPropertyOp26
 70
     0
102
RTVSPropertyOp27
 70
     0
102
RTVSPropertyOp28
 70
     0
102
RTVSPropertyOp29
 70
     0
102
RTVSPropertyOp30
 70
     0
102
RTVSPropertyOp31
 70
     0
102
RTVSPropertyOp32
 70
     0
  0
XRECORD
  5
83B
102
{ACAD_REACTORS
330
83A
102
}
330
83A
100
AcDbXrecord
280
     1
102
RTVSPropertyOp0
 70
     1
102
RTVSPropertyOp1
 70
     1
102
RTVSPropertyOp2
 70
     1
102
RTVSPropertyOp3
 70
     1
102
RTVSPropertyOp4
 70
     1
102
RTVSPropertyOp5
 70
     1
102
RTVSPropertyOp6
 70
     1
102
RTVSPropertyOp7
 70
     1
102
RTVSPropertyOp8
 70
     1
102
RTVSPropertyOp9
 70
     1
102
RTVSPropertyOp10
 70
     1
102
RTVSPropertyOp11
 70
     1
102
RTVSPropertyOp12
 70
     1
102
RTVSPropertyOp13
 70
     1
102
RTVSPropertyOp14
 70
     1
102
RTVSPropertyOp15
 70
     1
102
RTVSPropertyOp16
 70
     1
102
RTVSPropertyOp17
 70
     1
102
RTVSPropertyOp18
 70
     1
102
RTVSPropertyOp19
 70
     1
102
RTVSPropertyOp20
 70
     1
102
RTVSPropertyOp21
 70
     1
102
RTVSPropertyOp22
 70
     1
102
RTVSPropertyOp23
 70
     1
102
RTVSPropertyOp24
 70
     1
102
RTVSPropertyOp25
 70
     1
102
RTVSPropertyOp26
 70
     1
102
RTVSPropertyOp27
 70
     1
102
RTVSPropertyOp28
 70
     1
102
RTVSPropertyOp29
 70
     1
102
RTVSPropertyOp30
 70
     1
102
RTVSPropertyOp31
 70
     1
102
RTVSPropertyOp32
 70
     1
  0
XRECORD
  5
81F
102
{ACAD_REACTORS
330
81E
102
}
330
81E
100
AcDbXrecord
280
     1
102
RTVSPropertyOp0
 70
     1
102
RTVSPropertyOp1
 70
     1
102
RTVSPropertyOp2
 70
     1
102
RTVSPropertyOp3
 70
     1
102
RTVSPropertyOp4
 70
     1
102
RTVSPropertyOp5
 70
     1
102
RTVSPropertyOp6
 70
     1
102
RTVSPropertyOp7
 70
     1
102
RTVSPropertyOp8
 70
     1
102
RTVSPropertyOp9
 70
     1
102
RTVSPropertyOp10
 70
     1
102
RTVSPropertyOp11
 70
     1
102
RTVSPropertyOp12
 70
     1
102
RTVSPropertyOp13
 70
     1
102
RTVSPropertyOp14
 70
     1
102
RTVSPropertyOp15
 70
     1
102
RTVSPropertyOp16
 70
     1
102
RTVSPropertyOp17
 70
     1
102
RTVSPropertyOp18
 70
     1
102
RTVSPropertyOp19
 70
     1
102
RTVSPropertyOp20
 70
     1
102
RTVSPropertyOp21
 70
     1
102
RTVSPropertyOp22
 70
     1
102
RTVSPropertyOp23
 70
     1
102
RTVSPropertyOp24
 70
     1
102
RTVSPropertyOp25
 70
     1
102
RTVSPropertyOp26
 70
     1
102
RTVSPropertyOp27
 70
     1
102
RTVSPropertyOp28
 70
     1
102
RTVSPropertyOp29
 70
     1
102
RTVSPropertyOp30
 70
     1
102
RTVSPropertyOp31
 70
     1
102
RTVSPropertyOp32
 70
     1
  0
XRECORD
  5
821
102
{ACAD_REACTORS
330
820
102
}
330
820
100
AcDbXrecord
280
     1
102
RTVSPropertyOp0
 70
     1
102
RTVSPropertyOp1
 70
     1
102
RTVSPropertyOp2
 70
     1
102
RTVSPropertyOp3
 70
     1
102
RTVSPropertyOp4
 70
     1
102
RTVSPropertyOp5
 70
     1
102
RTVSPropertyOp6
 70
     1
102
RTVSPropertyOp7
 70
     1
102
RTVSPropertyOp8
 70
     1
102
RTVSPropertyOp9
 70
     1
102
RTVSPropertyOp10
 70
     1
102
RTVSPropertyOp11
 70
     1
102
RTVSPropertyOp12
 70
     1
102
RTVSPropertyOp13
 70
     1
102
RTVSPropertyOp14
 70
     1
102
RTVSPropertyOp15
 70
     1
102
RTVSPropertyOp16
 70
     1
102
RTVSPropertyOp17
 70
     1
102
RTVSPropertyOp18
 70
     1
102
RTVSPropertyOp19
 70
     1
102
RTVSPropertyOp20
 70
     1
102
RTVSPropertyOp21
 70
     1
102
RTVSPropertyOp22
 70
     1
102
RTVSPropertyOp23
 70
     1
102
RTVSPropertyOp24
 70
     1
102
RTVSPropertyOp25
 70
     1
102
RTVSPropertyOp26
 70
     1
102
RTVSPropertyOp27
 70
     1
102
RTVSPropertyOp28
 70
     1
102
RTVSPropertyOp29
 70
     1
102
RTVSPropertyOp30
 70
     1
102
RTVSPropertyOp31
 70
     1
102
RTVSPropertyOp32
 70
     1
  0
XRECORD
  5
823
102
{ACAD_REACTORS
330
822
102
}
330
822
100
AcDbXrecord
280
     1
102
RTVSPropertyOp0
 70
     1
102
RTVSPropertyOp1
 70
     1
102
RTVSPropertyOp2
 70
     1
102
RTVSPropertyOp3
 70
     1
102
RTVSPropertyOp4
 70
     1
102
RTVSPropertyOp5
 70
     1
102
RTVSPropertyOp6
 70
     1
102
RTVSPropertyOp7
 70
     1
102
RTVSPropertyOp8
 70
     1
102
RTVSPropertyOp9
 70
     1
102
RTVSPropertyOp10
 70
     1
102
RTVSPropertyOp11
 70
     1
102
RTVSPropertyOp12
 70
     1
102
RTVSPropertyOp13
 70
     1
102
RTVSPropertyOp14
 70
     1
102
RTVSPropertyOp15
 70
     1
102
RTVSPropertyOp16
 70
     1
102
RTVSPropertyOp17
 70
     1
102
RTVSPropertyOp18
 70
     1
102
RTVSPropertyOp19
 70
     1
102
RTVSPropertyOp20
 70
     1
102
RTVSPropertyOp21
 70
     1
102
RTVSPropertyOp22
 70
     1
102
RTVSPropertyOp23
 70
     1
102
RTVSPropertyOp24
 70
     1
102
RTVSPropertyOp25
 70
     1
102
RTVSPropertyOp26
 70
     1
102
RTVSPropertyOp27
 70
     1
102
RTVSPropertyOp28
 70
     1
102
RTVSPropertyOp29
 70
     1
102
RTVSPropertyOp30
 70
     1
102
RTVSPropertyOp31
 70
     1
102
RTVSPropertyOp32
 70
     1
  0
XRECORD
  5
825
102
{ACAD_REACTORS
330
824
102
}
330
824
100
AcDbXrecord
280
     1
102
RTVSPropertyOp0
 70
     1
102
RTVSPropertyOp1
 70
     1
102
RTVSPropertyOp2
 70
     1
102
RTVSPropertyOp3
 70
     1
102
RTVSPropertyOp4
 70
     1
102
RTVSPropertyOp5
 70
     1
102
RTVSPropertyOp6
 70
     1
102
RTVSPropertyOp7
 70
     1
102
RTVSPropertyOp8
 70
     1
102
RTVSPropertyOp9
 70
     1
102
RTVSPropertyOp10
 70
     1
102
RTVSPropertyOp11
 70
     1
102
RTVSPropertyOp12
 70
     1
102
RTVSPropertyOp13
 70
     1
102
RTVSPropertyOp14
 70
     1
102
RTVSPropertyOp15
 70
     1
102
RTVSPropertyOp16
 70
     1
102
RTVSPropertyOp17
 70
     1
102
RTVSPropertyOp18
 70
     1
102
RTVSPropertyOp19
 70
     1
102
RTVSPropertyOp20
 70
     1
102
RTVSPropertyOp21
 70
     1
102
RTVSPropertyOp22
 70
     1
102
RTVSPropertyOp23
 70
     1
102
RTVSPropertyOp24
 70
     1
102
RTVSPropertyOp25
 70
     1
102
RTVSPropertyOp26
 70
     1
102
RTVSPropertyOp27
 70
     1
102
RTVSPropertyOp28
 70
     1
102
RTVSPropertyOp29
 70
     1
102
RTVSPropertyOp30
 70
     1
102
RTVSPropertyOp31
 70
     1
102
RTVSPropertyOp32
 70
     1
  0
XRECORD
  5
841
102
{ACAD_REACTORS
330
840
102
}
330
840
100
AcDbXrecord
280
     1
102
RTVSPropertyOp0
 70
     1
102
RTVSPropertyOp1
 70
     1
102
RTVSPropertyOp2
 70
     1
102
RTVSPropertyOp3
 70
     1
102
RTVSPropertyOp4
 70
     1
102
RTVSPropertyOp5
 70
     1
102
RTVSPropertyOp6
 70
     1
102
RTVSPropertyOp7
 70
     1
102
RTVSPropertyOp8
 70
     1
102
RTVSPropertyOp9
 70
     1
102
RTVSPropertyOp10
 70
     1
102
RTVSPropertyOp11
 70
     1
102
RTVSPropertyOp12
 70
     1
102
RTVSPropertyOp13
 70
     1
102
RTVSPropertyOp14
 70
     1
102
RTVSPropertyOp15
 70
     1
102
RTVSPropertyOp16
 70
     1
102
RTVSPropertyOp17
 70
     1
102
RTVSPropertyOp18
 70
     1
102
RTVSPropertyOp19
 70
     1
102
RTVSPropertyOp20
 70
     1
102
RTVSPropertyOp21
 70
     1
102
RTVSPropertyOp22
 70
     1
102
RTVSPropertyOp23
 70
     1
102
RTVSPropertyOp24
 70
     1
102
RTVSPropertyOp25
 70
     1
102
RTVSPropertyOp26
 70
     1
102
RTVSPropertyOp27
 70
     1
102
RTVSPropertyOp28
 70
     1
102
RTVSPropertyOp29
 70
     1
102
RTVSPropertyOp30
 70
     1
102
RTVSPropertyOp31
 70
     1
102
RTVSPropertyOp32
 70
     1
  0
XRECORD
  5
84D
102
{ACAD_REACTORS
330
84C
102
}
330
84C
100
AcDbXrecord
280
     1
102
RTVSPropertyOp0
 70
     0
102
RTVSPropertyOp1
 70
     0
102
RTVSPropertyOp2
 70
     0
102
RTVSPropertyOp3
 70
     0
102
RTVSPropertyOp4
 70
     0
102
RTVSPropertyOp5
 70
     0
102
RTVSPropertyOp6
 70
     0
102
RTVSPropertyOp7
 70
     0
102
RTVSPropertyOp8
 70
     0
102
RTVSPropertyOp9
 70
     0
102
RTVSPropertyOp10
 70
     0
102
RTVSPropertyOp11
 70
     0
102
RTVSPropertyOp12
 70
     0
102
RTVSPropertyOp13
 70
     0
102
RTVSPropertyOp14
 70
     2
102
RTVSPropertyOp15
 70
     0
102
RTVSPropertyOp16
 70
     0
102
RTVSPropertyOp17
 70
     0
102
RTVSPropertyOp18
 70
     0
102
RTVSPropertyOp19
 70
     0
102
RTVSPropertyOp20
 70
     0
102
RTVSPropertyOp21
 70
     0
102
RTVSPropertyOp22
 70
     0
102
RTVSPropertyOp23
 70
     0
102
RTVSPropertyOp24
 70
     0
102
RTVSPropertyOp25
 70
     0
102
RTVSPropertyOp26
 70
     0
102
RTVSPropertyOp27
 70
     0
102
RTVSPropertyOp28
 70
     0
102
RTVSPropertyOp29
 70
     0
102
RTVSPropertyOp30
 70
     0
102
RTVSPropertyOp31
 70
     0
102
RTVSPropertyOp32
 70
     0
  0
XRECORD
  5
839
102
{ACAD_REACTORS
330
838
102
}
330
838
100
AcDbXrecord
280
     1
102
RTVSPropertyOp0
 70
     1
102
RTVSPropertyOp1
 70
     1
102
RTVSPropertyOp2
 70
     1
102
RTVSPropertyOp3
 70
     1
102
RTVSPropertyOp4
 70
     1
102
RTVSPropertyOp5
 70
     1
102
RTVSPropertyOp6
 70
     1
102
RTVSPropertyOp7
 70
     1
102
RTVSPropertyOp8
 70
     1
102
RTVSPropertyOp9
 70
     1
102
RTVSPropertyOp10
 70
     1
102
RTVSPropertyOp11
 70
     1
102
RTVSPropertyOp12
 70
     1
102
RTVSPropertyOp13
 70
     1
102
RTVSPropertyOp14
 70
     1
102
RTVSPropertyOp15
 70
     1
102
RTVSPropertyOp16
 70
     1
102
RTVSPropertyOp17
 70
     1
102
RTVSPropertyOp18
 70
     1
102
RTVSPropertyOp19
 70
     1
102
RTVSPropertyOp20
 70
     1
102
RTVSPropertyOp21
 70
     1
102
RTVSPropertyOp22
 70
     1
102
RTVSPropertyOp23
 70
     1
102
RTVSPropertyOp24
 70
     1
102
RTVSPropertyOp25
 70
     1
102
RTVSPropertyOp26
 70
     1
102
RTVSPropertyOp27
 70
     1
102
RTVSPropertyOp28
 70
     1
102
RTVSPropertyOp29
 70
     1
102
RTVSPropertyOp30
 70
     1
102
RTVSPropertyOp31
 70
     1
102
RTVSPropertyOp32
 70
     1
  0
XRECORD
  5
84F
102
{ACAD_REACTORS
330
84E
102
}
330
84E
100
AcDbXrecord
280
     1
102
RTVSPropertyOp0
 70
     0
102
RTVSPropertyOp1
 70
     0
102
RTVSPropertyOp2
 70
     0
102
RTVSPropertyOp3
 70
     0
102
RTVSPropertyOp4
 70
     0
102
RTVSPropertyOp5
 70
     0
102
RTVSPropertyOp6
 70
     0
102
RTVSPropertyOp7
 70
     0
102
RTVSPropertyOp8
 70
     0
102
RTVSPropertyOp9
 70
     0
102
RTVSPropertyOp10
 70
     0
102
RTVSPropertyOp11
 70
     0
102
RTVSPropertyOp12
 70
     0
102
RTVSPropertyOp13
 70
     0
102
RTVSPropertyOp14
 70
     2
102
RTVSPropertyOp15
 70
     0
102
RTVSPropertyOp16
 70
     0
102
RTVSPropertyOp17
 70
     0
102
RTVSPropertyOp18
 70
     0
102
RTVSPropertyOp19
 70
     0
102
RTVSPropertyOp20
 70
     0
102
RTVSPropertyOp21
 70
     0
102
RTVSPropertyOp22
 70
     0
102
RTVSPropertyOp23
 70
     0
102
RTVSPropertyOp24
 70
     0
102
RTVSPropertyOp25
 70
     0
102
RTVSPropertyOp26
 70
     0
102
RTVSPropertyOp27
 70
     0
102
RTVSPropertyOp28
 70
     0
102
RTVSPropertyOp29
 70
     0
102
RTVSPropertyOp30
 70
     0
102
RTVSPropertyOp31
 70
     0
102
RTVSPropertyOp32
 70
     0
  0
XRECORD
  5
82F
102
{ACAD_REACTORS
330
82E
102
}
330
82E
100
AcDbXrecord
280
     1
102
RTVSPropertyOp0
 70
     1
102
RTVSPropertyOp1
 70
     1
102
RTVSPropertyOp2
 70
     1
102
RTVSPropertyOp3
 70
     1
102
RTVSPropertyOp4
 70
     1
102
RTVSPropertyOp5
 70
     1
102
RTVSPropertyOp6
 70
     1
102
RTVSPropertyOp7
 70
     1
102
RTVSPropertyOp8
 70
     1
102
RTVSPropertyOp9
 70
     1
102
RTVSPropertyOp10
 70
     1
102
RTVSPropertyOp11
 70
     1
102
RTVSPropertyOp12
 70
     1
102
RTVSPropertyOp13
 70
     1
102
RTVSPropertyOp14
 70
     1
102
RTVSPropertyOp15
 70
     1
102
RTVSPropertyOp16
 70
     1
102
RTVSPropertyOp17
 70
     1
102
RTVSPropertyOp18
 70
     1
102
RTVSPropertyOp19
 70
     1
102
RTVSPropertyOp20
 70
     1
102
RTVSPropertyOp21
 70
     1
102
RTVSPropertyOp22
 70
     1
102
RTVSPropertyOp23
 70
     1
102
RTVSPropertyOp24
 70
     1
102
RTVSPropertyOp25
 70
     1
102
RTVSPropertyOp26
 70
     1
102
RTVSPropertyOp27
 70
     1
102
RTVSPropertyOp28
 70
     1
102
RTVSPropertyOp29
 70
     1
102
RTVSPropertyOp30
 70
     1
102
RTVSPropertyOp31
 70
     1
102
RTVSPropertyOp32
 70
     1
  0
XRECORD
  5
84B
102
{ACAD_REACTORS
330
84A
102
}
330
84A
100
AcDbXrecord
280
     1
102
RTVSPropertyOp0
 70
     1
102
RTVSPropertyOp1
 70
     1
102
RTVSPropertyOp2
 70
     1
102
RTVSPropertyOp3
 70
     1
102
RTVSPropertyOp4
 70
     1
102
RTVSPropertyOp5
 70
     1
102
RTVSPropertyOp6
 70
     1
102
RTVSPropertyOp7
 70
     1
102
RTVSPropertyOp8
 70
     1
102
RTVSPropertyOp9
 70
     1
102
RTVSPropertyOp10
 70
     1
102
RTVSPropertyOp11
 70
     1
102
RTVSPropertyOp12
 70
     1
102
RTVSPropertyOp13
 70
     1
102
RTVSPropertyOp14
 70
     1
102
RTVSPropertyOp15
 70
     1
102
RTVSPropertyOp16
 70
     1
102
RTVSPropertyOp17
 70
     1
102
RTVSPropertyOp18
 70
     1
102
RTVSPropertyOp19
 70
     1
102
RTVSPropertyOp20
 70
     1
102
RTVSPropertyOp21
 70
     1
102
RTVSPropertyOp22
 70
     1
102
RTVSPropertyOp23
 70
     1
102
RTVSPropertyOp24
 70
     1
102
RTVSPropertyOp25
 70
     1
102
RTVSPropertyOp26
 70
     1
102
RTVSPropertyOp27
 70
     1
102
RTVSPropertyOp28
 70
     1
102
RTVSPropertyOp29
 70
     1
102
RTVSPropertyOp30
 70
     1
102
RTVSPropertyOp31
 70
     1
102
RTVSPropertyOp32
 70
     1
  0
XRECORD
  5
849
102
{ACAD_REACTORS
330
848
102
}
330
848
100
AcDbXrecord
280
     1
102
RTVSPropertyOp0
 70
     1
102
RTVSPropertyOp1
 70
     1
102
RTVSPropertyOp2
 70
     1
102
RTVSPropertyOp3
 70
     1
102
RTVSPropertyOp4
 70
     1
102
RTVSPropertyOp5
 70
     1
102
RTVSPropertyOp6
 70
     1
102
RTVSPropertyOp7
 70
     1
102
RTVSPropertyOp8
 70
     1
102
RTVSPropertyOp9
 70
     1
102
RTVSPropertyOp10
 70
     1
102
RTVSPropertyOp11
 70
     1
102
RTVSPropertyOp12
 70
     1
102
RTVSPropertyOp13
 70
     1
102
RTVSPropertyOp14
 70
     1
102
RTVSPropertyOp15
 70
     1
102
RTVSPropertyOp16
 70
     1
102
RTVSPropertyOp17
 70
     1
102
RTVSPropertyOp18
 70
     1
102
RTVSPropertyOp19
 70
     1
102
RTVSPropertyOp20
 70
     1
102
RTVSPropertyOp21
 70
     1
102
RTVSPropertyOp22
 70
     1
102
RTVSPropertyOp23
 70
     1
102
RTVSPropertyOp24
 70
     1
102
RTVSPropertyOp25
 70
     1
102
RTVSPropertyOp26
 70
     1
102
RTVSPropertyOp27
 70
     1
102
RTVSPropertyOp28
 70
     1
102
RTVSPropertyOp29
 70
     1
102
RTVSPropertyOp30
 70
     1
102
RTVSPropertyOp31
 70
     1
102
RTVSPropertyOp32
 70
     1
  0
XRECORD
  5
843
102
{ACAD_REACTORS
330
842
102
}
330
842
100
AcDbXrecord
280
     1
102
RTVSPropertyOp0
 70
     1
102
RTVSPropertyOp1
 70
     1
102
RTVSPropertyOp2
 70
     1
102
RTVSPropertyOp3
 70
     1
102
RTVSPropertyOp4
 70
     1
102
RTVSPropertyOp5
 70
     1
102
RTVSPropertyOp6
 70
     1
102
RTVSPropertyOp7
 70
     1
102
RTVSPropertyOp8
 70
     1
102
RTVSPropertyOp9
 70
     1
102
RTVSPropertyOp10
 70
     1
102
RTVSPropertyOp11
 70
     1
102
RTVSPropertyOp12
 70
     1
102
RTVSPropertyOp13
 70
     1
102
RTVSPropertyOp14
 70
     1
102
RTVSPropertyOp15
 70
     1
102
RTVSPropertyOp16
 70
     1
102
RTVSPropertyOp17
 70
     1
102
RTVSPropertyOp18
 70
     1
102
RTVSPropertyOp19
 70
     1
102
RTVSPropertyOp20
 70
     1
102
RTVSPropertyOp21
 70
     1
102
RTVSPropertyOp22
 70
     1
102
RTVSPropertyOp23
 70
     1
102
RTVSPropertyOp24
 70
     1
102
RTVSPropertyOp25
 70
     1
102
RTVSPropertyOp26
 70
     1
102
RTVSPropertyOp27
 70
     1
102
RTVSPropertyOp28
 70
     1
102
RTVSPropertyOp29
 70
     1
102
RTVSPropertyOp30
 70
     1
102
RTVSPropertyOp31
 70
     1
102
RTVSPropertyOp32
 70
     1
  0
XRECORD
  5
845
102
{ACAD_REACTORS
330
844
102
}
330
844
100
AcDbXrecord
280
     1
102
RTVSPropertyOp0
 70
     1
102
RTVSPropertyOp1
 70
     1
102
RTVSPropertyOp2
 70
     1
102
RTVSPropertyOp3
 70
     1
102
RTVSPropertyOp4
 70
     1
102
RTVSPropertyOp5
 70
     1
102
RTVSPropertyOp6
 70
     1
102
RTVSPropertyOp7
 70
     1
102
RTVSPropertyOp8
 70
     1
102
RTVSPropertyOp9
 70
     1
102
RTVSPropertyOp10
 70
     1
102
RTVSPropertyOp11
 70
     1
102
RTVSPropertyOp12
 70
     1
102
RTVSPropertyOp13
 70
     1
102
RTVSPropertyOp14
 70
     1
102
RTVSPropertyOp15
 70
     1
102
RTVSPropertyOp16
 70
     1
102
RTVSPropertyOp17
 70
     1
102
RTVSPropertyOp18
 70
     1
102
RTVSPropertyOp19
 70
     1
102
RTVSPropertyOp20
 70
     1
102
RTVSPropertyOp21
 70
     1
102
RTVSPropertyOp22
 70
     1
102
RTVSPropertyOp23
 70
     1
102
RTVSPropertyOp24
 70
     1
102
RTVSPropertyOp25
 70
     1
102
RTVSPropertyOp26
 70
     1
102
RTVSPropertyOp27
 70
     1
102
RTVSPropertyOp28
 70
     1
102
RTVSPropertyOp29
 70
     1
102
RTVSPropertyOp30
 70
     1
102
RTVSPropertyOp31
 70
     1
102
RTVSPropertyOp32
 70
     1
  0
XRECORD
  5
837
102
{ACAD_REACTORS
330
836
102
}
330
836
100
AcDbXrecord
280
     1
102
RTVSPropertyOp0
 70
     1
102
RTVSPropertyOp1
 70
     1
102
RTVSPropertyOp2
 70
     1
102
RTVSPropertyOp3
 70
     1
102
RTVSPropertyOp4
 70
     1
102
RTVSPropertyOp5
 70
     1
102
RTVSPropertyOp6
 70
     1
102
RTVSPropertyOp7
 70
     1
102
RTVSPropertyOp8
 70
     1
102
RTVSPropertyOp9
 70
     1
102
RTVSPropertyOp10
 70
     1
102
RTVSPropertyOp11
 70
     1
102
RTVSPropertyOp12
 70
     1
102
RTVSPropertyOp13
 70
     1
102
RTVSPropertyOp14
 70
     1
102
RTVSPropertyOp15
 70
     1
102
RTVSPropertyOp16
 70
     1
102
RTVSPropertyOp17
 70
     1
102
RTVSPropertyOp18
 70
     1
102
RTVSPropertyOp19
 70
     1
102
RTVSPropertyOp20
 70
     1
102
RTVSPropertyOp21
 70
     1
102
RTVSPropertyOp22
 70
     1
102
RTVSPropertyOp23
 70
     1
102
RTVSPropertyOp24
 70
     1
102
RTVSPropertyOp25
 70
     1
102
RTVSPropertyOp26
 70
     1
102
RTVSPropertyOp27
 70
     1
102
RTVSPropertyOp28
 70
     1
102
RTVSPropertyOp29
 70
     1
102
RTVSPropertyOp30
 70
     1
102
RTVSPropertyOp31
 70
     1
102
RTVSPropertyOp32
 70
     1
  0
XRECORD
  5
83F
102
{ACAD_REACTORS
330
83E
102
}
330
83E
100
AcDbXrecord
280
     1
102
RTVSPropertyOp0
 70
     1
102
RTVSPropertyOp1
 70
     1
102
RTVSPropertyOp2
 70
     1
102
RTVSPropertyOp3
 70
     1
102
RTVSPropertyOp4
 70
     1
102
RTVSPropertyOp5
 70
     1
102
RTVSPropertyOp6
 70
     1
102
RTVSPropertyOp7
 70
     1
102
RTVSPropertyOp8
 70
     1
102
RTVSPropertyOp9
 70
     1
102
RTVSPropertyOp10
 70
     1
102
RTVSPropertyOp11
 70
     1
102
RTVSPropertyOp12
 70
     1
102
RTVSPropertyOp13
 70
     1
102
RTVSPropertyOp14
 70
     1
102
RTVSPropertyOp15
 70
     1
102
RTVSPropertyOp16
 70
     1
102
RTVSPropertyOp17
 70
     1
102
RTVSPropertyOp18
 70
     1
102
RTVSPropertyOp19
 70
     1
102
RTVSPropertyOp20
 70
     1
102
RTVSPropertyOp21
 70
     1
102
RTVSPropertyOp22
 70
     1
102
RTVSPropertyOp23
 70
     1
102
RTVSPropertyOp24
 70
     1
102
RTVSPropertyOp25
 70
     1
102
RTVSPropertyOp26
 70
     1
102
RTVSPropertyOp27
 70
     1
102
RTVSPropertyOp28
 70
     1
102
RTVSPropertyOp29
 70
     1
102
RTVSPropertyOp30
 70
     1
102
RTVSPropertyOp31
 70
     1
102
RTVSPropertyOp32
 70
     1
  0
XRECORD
  5
847
102
{ACAD_REACTORS
330
846
102
}
330
846
100
AcDbXrecord
280
     1
102
RTVSPropertyOp0
 70
     1
102
RTVSPropertyOp1
 70
     1
102
RTVSPropertyOp2
 70
     1
102
RTVSPropertyOp3
 70
     1
102
RTVSPropertyOp4
 70
     1
102
RTVSPropertyOp5
 70
     1
102
RTVSPropertyOp6
 70
     1
102
RTVSPropertyOp7
 70
     1
102
RTVSPropertyOp8
 70
     1
102
RTVSPropertyOp9
 70
     1
102
RTVSPropertyOp10
 70
     1
102
RTVSPropertyOp11
 70
     1
102
RTVSPropertyOp12
 70
     1
102
RTVSPropertyOp13
 70
     1
102
RTVSPropertyOp14
 70
     1
102
RTVSPropertyOp15
 70
     1
102
RTVSPropertyOp16
 70
     1
102
RTVSPropertyOp17
 70
     1
102
RTVSPropertyOp18
 70
     1
102
RTVSPropertyOp19
 70
     1
102
RTVSPropertyOp20
 70
     1
102
RTVSPropertyOp21
 70
     1
102
RTVSPropertyOp22
 70
     1
102
RTVSPropertyOp23
 70
     1
102
RTVSPropertyOp24
 70
     1
102
RTVSPropertyOp25
 70
     1
102
RTVSPropertyOp26
 70
     1
102
RTVSPropertyOp27
 70
     1
102
RTVSPropertyOp28
 70
     1
102
RTVSPropertyOp29
 70
     1
102
RTVSPropertyOp30
 70
     1
102
RTVSPropertyOp31
 70
     1
102
RTVSPropertyOp32
 70
     1
  0
ENDSEC
  0
EOF
