  0
SECTION
  2
HEADER
  9
$ACADVER
  1
AC1014
  9
$DWGCODEPAGE
  3
ANSI_949
  9
$EXTMAX
 10
1682.0
 20
1188.0
 30
0.0
  9
$EXTMIN
 10
0.0
 20
0.0
 30
0.0
  9
$LIMMIN
 10
0.0
 20
0.0
  9
$LIMMAX
 10
1682.0
 20
1188.0
  9
$VIEWCTR
 10
841.0
 20
594.0
  9
$VIEWSIZE
 40
1188.0
  9
$CLAYER
  8
0
  9
$LTSCALE
 40
92.51
  9
$CELTYPE
  6
BYLAYER
  9
$DIMSCALE
 40
1.0
  9
$DIMASZ
 40
4.0
  9
$DIMEXO
 40
10.5125
  9
$DIMDLI
 40
63.916
  9
$DIMEXE
 40
30.276
  9
$DIMCEN
 40
15.138
  9
$DIMLFAC
 40
1.0
  9
$DIMBLK
  1
_ARROW_FILLED
  9
$DIMTXT
 40
6.0
  9
$DIMTOL
 70
1
  9
$DIMLIM
 70
0
  9
$DIMTFAC
 40
1.0
  9
$DIMTP
 40
0.016
  9
$DIMTM
 40
0.016
  9
$PDMODE
 70
3
  9
$PDSIZE
 40
1.0
  9
$HANDSEED
  5
7D5
  9
$TILEMODE
 70
1
  9
$MEASUREMENT
 70
1
  0
ENDSEC
  0
SECTION
  2
CLASSES
  0
ENDSEC
  0
SECTION
  2
TABLES
  0
TABLE
  2
VPORT
  5
8
100
AcDbSymbolTable
 70
2
  0
VPORT
  5
1F4
100
AcDbSymbolTableRecord
100
AcDbViewportTableRecord
  2
*ACTIVE
 70
0
 10
0.0
 20
0.0
 11
1.0
 21
1.0
 12
841.0
 22
594.0
 13
0.0
 23
0.0
 14
1.0
 24
1.0
 15
0.0
 25
0.0
 16
0.0
 26
0.0
 36
1.0
 17
0.0
 27
0.0
 37
0.0
 40
1188.0
 41
1.4158249158
 42
50.0
 43
0.0
 44
0.0
 50
0.0
 51
0.0
 71
0
 72
100
 73
1
 74
1
 75
0
 76
0
 77
0
 78
0
  0
ENDTAB
  0
TABLE
  2
LTYPE
  5
5
100
AcDbSymbolTable
 70
6
  0
LTYPE
  5
14
100
AcDbSymbolTableRecord
100
AcDbLinetypeTableRecord
  2
BYBLOCK
 70
0
  3

 72
65
 73
0
 40
0.0
  0
LTYPE
  5
15
100
AcDbSymbolTableRecord
100
AcDbLinetypeTableRecord
  2
BYLAYER
 70
0
  3

 72
65
 73
0
 40
0.0
  0
LTYPE
  5
16
100
AcDbSymbolTableRecord
100
AcDbLinetypeTableRecord
  2
CONTINUOUS
 70
64
  3
Solid line
 72
65
 73
0
 40
0.0
  0
LTYPE
  5
1F5
100
AcDbSymbolTableRecord
100
AcDbLinetypeTableRecord
  2
CENTER
 70
64
  3
____ _ ____ _ ____ _ ____ _ ____ _ ____ _ ____
 72
65
 73
4
 40
0.6
 49
0.375
 74
0
 49
-0.075
 74
0
 49
0.075
 74
0
 49
-0.075
 74
0
  0
LTYPE
  5
1F6
100
AcDbSymbolTableRecord
100
AcDbLinetypeTableRecord
  2
HIDDEN
 70
64
  3
- - - - - - - - - - - - - - - - - - - -
 72
65
 73
2
 40
0.2
 49
0.1
 74
0
 49
-0.1
 74
0
  0
LTYPE
  5
1F7
100
AcDbSymbolTableRecord
100
AcDbLinetypeTableRecord
  2
PHANTOM
 70
64
  3
_____ _ _ _____ _ _ _____ _ _ _____
 72
65
 73
6
 40
0.8
 49
0.45
 74
0
 49
-0.05
 74
0
 49
0.1
 74
0
 49
-0.05
 74
0
 49
0.1
 74
0
 49
-0.05
 74
0
  0
LTYPE
  5
1F8
100
AcDbSymbolTableRecord
100
AcDbLinetypeTableRecord
  2
DOT
 70
64
  3
. . . . . . . . . . . . . . . . . . . .
 72
65
 73
2
 40
0.2
 49
0.1
 74
0
 49
-0.1
 74
0
  0
LTYPE
  5
1F9
100
AcDbSymbolTableRecord
100
AcDbLinetypeTableRecord
  2
DASHED
 70
64
  3
- - - - - - - - - - - - - - - - - - - -
 72
65
 73
2
 40
0.2
 49
0.1
 74
0
 49
-0.1
 74
0
  0
ENDTAB
  0
TABLE
  2
LAYER
  5
2
100
AcDbSymbolTable
 70
36
  0
LAYER
  5
10
100
AcDbSymbolTableRecord
100
AcDbLayerTableRecord
  2
0
 70
0
 62
7
  6
CONTINUOUS
  0
LAYER
  5
1FA
100
AcDbSymbolTableRecord
100
AcDbLayerTableRecord
  2
DEFAULT_1
 70
0
 62
7
  6
CENTER
  0
LAYER
  5
1FB
100
AcDbSymbolTableRecord
100
AcDbLayerTableRecord
  2
DEFAULT_2
 70
0
 62
8
  6
HIDDEN
  0
LAYER
  5
1FC
100
AcDbSymbolTableRecord
100
AcDbLayerTableRecord
  2
DEFAULT_3
 70
0
 62
7
  6
PHANTOM
  0
LAYER
  5
1FD
100
AcDbSymbolTableRecord
100
AcDbLayerTableRecord
  2
00_PLANE_DEF
 70
0
 62
7
  6
CONTINUOUS
  0
LAYER
  5
1FE
100
AcDbSymbolTableRecord
100
AcDbLayerTableRecord
  2
00_PLANE_DEFAULT
 70
0
 62
7
  6
CONTINUOUS
  0
LAYER
  5
1FF
100
AcDbSymbolTableRecord
100
AcDbLayerTableRecord
  2
01_PLANE_CREATE
 70
0
 62
7
  6
CONTINUOUS
  0
LAYER
  5
200
100
AcDbSymbolTableRecord
100
AcDbLayerTableRecord
  2
01___PRT_ALL_DTM_PLN
 70
0
 62
7
  6
CONTINUOUS
  0
LAYER
  5
201
100
AcDbSymbolTableRecord
100
AcDbLayerTableRecord
  2
01___PRT_DEF_DTM_PLN
 70
0
 62
7
  6
CONTINUOUS
  0
LAYER
  5
202
100
AcDbSymbolTableRecord
100
AcDbLayerTableRecord
  2
02_AXIS
 70
0
 62
7
  6
CONTINUOUS
  0
LAYER
  5
203
100
AcDbSymbolTableRecord
100
AcDbLayerTableRecord
  2
02___PRT_ALL_AXES
 70
0
 62
7
  6
CONTINUOUS
  0
LAYER
  5
204
100
AcDbSymbolTableRecord
100
AcDbLayerTableRecord
  2
03_CURVE
 70
0
 62
7
  6
CONTINUOUS
  0
LAYER
  5
205
100
AcDbSymbolTableRecord
100
AcDbLayerTableRecord
  2
03___PRT_ALL_CURVES
 70
0
 62
7
  6
CONTINUOUS
  0
LAYER
  5
206
100
AcDbSymbolTableRecord
100
AcDbLayerTableRecord
  2
04_POINT
 70
0
 62
7
  6
CONTINUOUS
  0
LAYER
  5
207
100
AcDbSymbolTableRecord
100
AcDbLayerTableRecord
  2
04___PRT_ALL_DTM_PNT
 70
0
 62
7
  6
CONTINUOUS
  0
LAYER
  5
208
100
AcDbSymbolTableRecord
100
AcDbLayerTableRecord
  2
05_CSYS
 70
0
 62
7
  6
CONTINUOUS
  0
LAYER
  5
209
100
AcDbSymbolTableRecord
100
AcDbLayerTableRecord
  2
05___PRT_ALL_DTM_CSYS
 70
0
 62
7
  6
CONTINUOUS
  0
LAYER
  5
20A
100
AcDbSymbolTableRecord
100
AcDbLayerTableRecord
  2
05___PRT_DEF_DTM_CSYS
 70
0
 62
7
  6
CONTINUOUS
  0
LAYER
  5
20B
100
AcDbSymbolTableRecord
100
AcDbLayerTableRecord
  2
06_QUILT
 70
0
 62
7
  6
CONTINUOUS
  0
LAYER
  5
20C
100
AcDbSymbolTableRecord
100
AcDbLayerTableRecord
  2
06___PRT_ALL_SURFS
 70
0
 62
7
  6
CONTINUOUS
  0
LAYER
  5
20D
100
AcDbSymbolTableRecord
100
AcDbLayerTableRecord
  2
07_COPY_GEOM
 70
0
 62
7
  6
CONTINUOUS
  0
LAYER
  5
20E
100
AcDbSymbolTableRecord
100
AcDbLayerTableRecord
  2
07_COSMETICS
 70
0
 62
7
  6
CONTINUOUS
  0
LAYER
  5
20F
100
AcDbSymbolTableRecord
100
AcDbLayerTableRecord
  2
07_SHARED_FEAT
 70
0
 62
7
  6
CONTINUOUS
  0
LAYER
  5
210
100
AcDbSymbolTableRecord
100
AcDbLayerTableRecord
  2
08_COSMETIC
 70
0
 62
7
  6
CONTINUOUS
  0
LAYER
  5
211
100
AcDbSymbolTableRecord
100
AcDbLayerTableRecord
  2
08_COSMETICS
 70
0
 62
7
  6
CONTINUOUS
  0
LAYER
  5
212
100
AcDbSymbolTableRecord
100
AcDbLayerTableRecord
  2
09_ANNOTATION
 70
0
 62
7
  6
CONTINUOUS
  0
LAYER
  5
213
100
AcDbSymbolTableRecord
100
AcDbLayerTableRecord
  2
11_COMPONENT
 70
0
 62
7
  6
CONTINUOUS
  0
LAYER
  5
214
100
AcDbSymbolTableRecord
100
AcDbLayerTableRecord
  2
12_SKELETON
 70
0
 62
7
  6
CONTINUOUS
  0
LAYER
  5
215
100
AcDbSymbolTableRecord
100
AcDbLayerTableRecord
  2
1_ALL_PLANES
 70
0
 62
7
  6
CONTINUOUS
  0
LAYER
  5
216
100
AcDbSymbolTableRecord
100
AcDbLayerTableRecord
  2
1__DEF_PRT_PLN
 70
0
 62
7
  6
CONTINUOUS
  0
LAYER
  5
217
100
AcDbSymbolTableRecord
100
AcDbLayerTableRecord
  2
22_DIM
 70
0
 62
7
  6
CONTINUOUS
  0
LAYER
  5
218
100
AcDbSymbolTableRecord
100
AcDbLayerTableRecord
  2
23_NOTE
 70
0
 62
7
  6
CONTINUOUS
  0
LAYER
  5
219
100
AcDbSymbolTableRecord
100
AcDbLayerTableRecord
  2
2_ALL_CSYS
 70
0
 62
7
  6
CONTINUOUS
  0
LAYER
  5
21A
100
AcDbSymbolTableRecord
100
AcDbLayerTableRecord
  2
2__DEF_PRT_CSYS
 70
0
 62
7
  6
CONTINUOUS
  0
LAYER
  5
21B
100
AcDbSymbolTableRecord
100
AcDbLayerTableRecord
  2
37-ASSEMBLY-LENS-519
 70
0
 62
7
  6
CONTINUOUS
  0
LAYER
  5
21C
100
AcDbSymbolTableRecord
100
AcDbLayerTableRecord
  2
37-ASSEMBLY-LENS-520
 70
0
 62
7
  6
CONTINUOUS
  0
LAYER
  5
21D
100
AcDbSymbolTableRecord
100
AcDbLayerTableRecord
  2
37-ASSEMBLY-LENS-521
 70
0
 62
7
  6
CONTINUOUS
  0
LAYER
  5
21E
100
AcDbSymbolTableRecord
100
AcDbLayerTableRecord
  2
37-ASSEMBLY-LENS-522
 70
0
 62
7
  6
CONTINUOUS
  0
LAYER
  5
21F
100
AcDbSymbolTableRecord
100
AcDbLayerTableRecord
  2
37-ASSEMBLY-LENS-523
 70
0
 62
7
  6
CONTINUOUS
  0
LAYER
  5
220
100
AcDbSymbolTableRecord
100
AcDbLayerTableRecord
  2
37-ASSEMBLY-LENS-524
 70
0
 62
7
  6
CONTINUOUS
  0
LAYER
  5
221
100
AcDbSymbolTableRecord
100
AcDbLayerTableRecord
  2
37-ASSEMBLY-LENS-567
 70
0
 62
7
  6
CONTINUOUS
  0
LAYER
  5
222
100
AcDbSymbolTableRecord
100
AcDbLayerTableRecord
  2
37-FOCUS_IR_PI
 70
0
 62
7
  6
CONTINUOUS
  0
LAYER
  5
223
100
AcDbSymbolTableRecord
100
AcDbLayerTableRecord
  2
37-GUIDE_CELL_DN
 70
0
 62
7
  6
CONTINUOUS
  0
LAYER
  5
224
100
AcDbSymbolTableRecord
100
AcDbLayerTableRecord
  2
37-GUIDE_CELL_F
 70
0
 62
7
  6
CONTINUOUS
  0
LAYER
  5
225
100
AcDbSymbolTableRecord
100
AcDbLayerTableRecord
  2
37-ZOOM_PI_ASSY
 70
0
 62
7
  6
CONTINUOUS
  0
LAYER
  5
226
100
AcDbSymbolTableRecord
100
AcDbLayerTableRecord
  2
370-FPCB-MAIN
 70
0
 62
7
  6
CONTINUOUS
  0
LAYER
  5
227
100
AcDbSymbolTableRecord
100
AcDbLayerTableRecord
  2
370-FPCB-MAIN-ASSY
 70
0
 62
7
  6
CONTINUOUS
  0
LAYER
  5
228
100
AcDbSymbolTableRecord
100
AcDbLayerTableRecord
  2
370-FPCB-STIFFENER-CON
 70
0
 62
7
  6
CONTINUOUS
  0
LAYER
  5
229
100
AcDbSymbolTableRecord
100
AcDbLayerTableRecord
  2
370-FPCB-STIFFENER-DN
 70
0
 62
7
  6
CONTINUOUS
  0
LAYER
  5
22A
100
AcDbSymbolTableRecord
100
AcDbLayerTableRecord
  2
370-FPCB-STIIFFENER-A
 70
0
 62
7
  6
CONTINUOUS
  0
LAYER
  5
22B
100
AcDbSymbolTableRecord
100
AcDbLayerTableRecord
  2
370-GUIDE_CELL
 70
0
 62
7
  6
CONTINUOUS
  0
LAYER
  5
22C
100
AcDbSymbolTableRecord
100
AcDbLayerTableRecord
  2
370-GUIDE_CELL_1
 70
0
 62
7
  6
CONTINUOUS
  0
LAYER
  5
22D
100
AcDbSymbolTableRecord
100
AcDbLayerTableRecord
  2
370-OLPF
 70
0
 62
7
  6
CONTINUOUS
  0
LAYER
  5
22E
100
AcDbSymbolTableRecord
100
AcDbLayerTableRecord
  2
370-PIN-DN
 70
0
 62
7
  6
CONTINUOUS
  0
LAYER
  5
22F
100
AcDbSymbolTableRecord
100
AcDbLayerTableRecord
  2
370-PIN-FOCUS
 70
0
 62
7
  6
CONTINUOUS
  0
LAYER
  5
230
100
AcDbSymbolTableRecord
100
AcDbLayerTableRecord
  2
370-PIN-FOCUS-UPPER
 70
0
 62
7
  6
CONTINUOUS
  0
LAYER
  5
231
100
AcDbSymbolTableRecord
100
AcDbLayerTableRecord
  2
370-PIN-ZOOM
 70
0
 62
7
  6
CONTINUOUS
  0
LAYER
  5
232
100
AcDbSymbolTableRecord
100
AcDbLayerTableRecord
  2
370-PIN-ZOOM-UPPER
 70
0
 62
7
  6
CONTINUOUS
  0
LAYER
  5
233
100
AcDbSymbolTableRecord
100
AcDbLayerTableRecord
  2
370_WASHER_FRONT
 70
0
 62
7
  6
CONTINUOUS
  0
LAYER
  5
234
100
AcDbSymbolTableRecord
100
AcDbLayerTableRecord
  2
370_WASHER_FRONT_1
 70
0
 62
7
  6
CONTINUOUS
  0
LAYER
  5
235
100
AcDbSymbolTableRecord
100
AcDbLayerTableRecord
  2
370_WASHER_FRONT_2
 70
0
 62
7
  6
CONTINUOUS
  0
LAYER
  5
236
100
AcDbSymbolTableRecord
100
AcDbLayerTableRecord
  2
3_ALL_AXES
 70
0
 62
7
  6
CONTINUOUS
  0
LAYER
  5
237
100
AcDbSymbolTableRecord
100
AcDbLayerTableRecord
  2
5_ALL_CURVES
 70
0
 62
7
  6
CONTINUOUS
  0
LAYER
  5
238
100
AcDbSymbolTableRecord
100
AcDbLayerTableRecord
  2
ASSY_DAY_NIGHT
 70
0
 62
7
  6
CONTINUOUS
  0
LAYER
  5
239
100
AcDbSymbolTableRecord
100
AcDbLayerTableRecord
  2
ASSY_GEAR_BOX
 70
0
 62
7
  6
CONTINUOUS
  0
LAYER
  5
23A
100
AcDbSymbolTableRecord
100
AcDbLayerTableRecord
  2
AXIS
 70
0
 62
7
  6
CONTINUOUS
  0
LAYER
  5
23B
100
AcDbSymbolTableRecord
100
AcDbLayerTableRecord
  2
BARREL-FRONT
 70
0
 62
7
  6
CONTINUOUS
  0
LAYER
  5
23C
100
AcDbSymbolTableRecord
100
AcDbLayerTableRecord
  2
BARREL_FRONT
 70
0
 62
7
  6
CONTINUOUS
  0
LAYER
  5
23D
100
AcDbSymbolTableRecord
100
AcDbLayerTableRecord
  2
BARREL_MAIN
 70
0
 62
7
  6
CONTINUOUS
  0
LAYER
  5
23E
100
AcDbSymbolTableRecord
100
AcDbLayerTableRecord
  2
BARREL_MAIN_ASSY
 70
0
 62
7
  6
CONTINUOUS
  0
LAYER
  5
23F
100
AcDbSymbolTableRecord
100
AcDbLayerTableRecord
  2
BARREL_MASTER
 70
0
 62
7
  6
CONTINUOUS
  0
LAYER
  5
240
100
AcDbSymbolTableRecord
100
AcDbLayerTableRecord
  2
BARREL_MASTER_ASSY
 70
0
 62
7
  6
CONTINUOUS
  0
LAYER
  5
241
100
AcDbSymbolTableRecord
100
AcDbLayerTableRecord
  2
BOX_GEAR
 70
0
 62
7
  6
CONTINUOUS
  0
LAYER
  5
242
100
AcDbSymbolTableRecord
100
AcDbLayerTableRecord
  2
BRACKET_CCD_30X
 70
0
 62
7
  6
CONTINUOUS
  0
LAYER
  5
243
100
AcDbSymbolTableRecord
100
AcDbLayerTableRecord
  2
CCD_DN_COVER_ASSY
 70
0
 62
7
  6
CONTINUOUS
  0
LAYER
  5
244
100
AcDbSymbolTableRecord
100
AcDbLayerTableRecord
  2
CCD_ICX229AK_P_SONY
 70
0
 62
7
  6
CONTINUOUS
  0
LAYER
  5
245
100
AcDbSymbolTableRecord
100
AcDbLayerTableRecord
  2
CCD_PCB_30X
 70
0
 62
7
  6
CONTINUOUS
  0
LAYER
  5
246
100
AcDbSymbolTableRecord
100
AcDbLayerTableRecord
  2
CELL_FIXED
 70
0
 62
7
  6
CONTINUOUS
  0
LAYER
  5
247
100
AcDbSymbolTableRecord
100
AcDbLayerTableRecord
  2
CELL_FIXED_1
 70
0
 62
7
  6
CONTINUOUS
  0
LAYER
  5
248
100
AcDbSymbolTableRecord
100
AcDbLayerTableRecord
  2
CELL_FIXED_ASSY
 70
0
 62
7
  6
CONTINUOUS
  0
LAYER
  5
249
100
AcDbSymbolTableRecord
100
AcDbLayerTableRecord
  2
CELL_FOCUS
 70
0
 62
7
  6
CONTINUOUS
  0
LAYER
  5
24A
100
AcDbSymbolTableRecord
100
AcDbLayerTableRecord
  2
CELL_FOCUS_1
 70
0
 62
7
  6
CONTINUOUS
  0
LAYER
  5
24B
100
AcDbSymbolTableRecord
100
AcDbLayerTableRecord
  2
CELL_IR_HOLDER
 70
0
 62
7
  6
CONTINUOUS
  0
LAYER
  5
24C
100
AcDbSymbolTableRecord
100
AcDbLayerTableRecord
  2
CELL_OLPF_FIXED
 70
0
 62
7
  6
CONTINUOUS
  0
LAYER
  5
24D
100
AcDbSymbolTableRecord
100
AcDbLayerTableRecord
  2
CELL_ZOOM
 70
0
 62
7
  6
CONTINUOUS
  0
LAYER
  5
24E
100
AcDbSymbolTableRecord
100
AcDbLayerTableRecord
  2
CELL_ZOOM_1
 70
0
 62
7
  6
CONTINUOUS
  0
LAYER
  5
24F
100
AcDbSymbolTableRecord
100
AcDbLayerTableRecord
  2
COLOR10
 70
0
 62
7
  6
CONTINUOUS
  0
LAYER
  5
250
100
AcDbSymbolTableRecord
100
AcDbLayerTableRecord
  2
COLOR100
 70
0
 62
7
  6
CONTINUOUS
  0
LAYER
  5
251
100
AcDbSymbolTableRecord
100
AcDbLayerTableRecord
  2
COLOR106
 70
0
 62
7
  6
CONTINUOUS
  0
LAYER
  5
252
100
AcDbSymbolTableRecord
100
AcDbLayerTableRecord
  2
COLOR11
 70
0
 62
7
  6
CONTINUOUS
  0
LAYER
  5
253
100
AcDbSymbolTableRecord
100
AcDbLayerTableRecord
  2
COLOR113
 70
0
 62
7
  6
CONTINUOUS
  0
LAYER
  5
254
100
AcDbSymbolTableRecord
100
AcDbLayerTableRecord
  2
COLOR114
 70
0
 62
7
  6
CONTINUOUS
  0
LAYER
  5
255
100
AcDbSymbolTableRecord
100
AcDbLayerTableRecord
  2
COLOR115
 70
0
 62
7
  6
CONTINUOUS
  0
LAYER
  5
256
100
AcDbSymbolTableRecord
100
AcDbLayerTableRecord
  2
COLOR116
 70
0
 62
7
  6
CONTINUOUS
  0
LAYER
  5
257
100
AcDbSymbolTableRecord
100
AcDbLayerTableRecord
  2
COLOR117
 70
0
 62
7
  6
CONTINUOUS
  0
LAYER
  5
258
100
AcDbSymbolTableRecord
100
AcDbLayerTableRecord
  2
COLOR118
 70
0
 62
7
  6
CONTINUOUS
  0
LAYER
  5
259
100
AcDbSymbolTableRecord
100
AcDbLayerTableRecord
  2
COLOR119
 70
0
 62
7
  6
CONTINUOUS
  0
LAYER
  5
25A
100
AcDbSymbolTableRecord
100
AcDbLayerTableRecord
  2
COLOR120
 70
0
 62
7
  6
CONTINUOUS
  0
LAYER
  5
25B
100
AcDbSymbolTableRecord
100
AcDbLayerTableRecord
  2
COLOR121
 70
0
 62
7
  6
CONTINUOUS
  0
LAYER
  5
25C
100
AcDbSymbolTableRecord
100
AcDbLayerTableRecord
  2
COLOR122
 70
0
 62
7
  6
CONTINUOUS
  0
LAYER
  5
25D
100
AcDbSymbolTableRecord
100
AcDbLayerTableRecord
  2
COLOR123
 70
0
 62
7
  6
CONTINUOUS
  0
LAYER
  5
25E
100
AcDbSymbolTableRecord
100
AcDbLayerTableRecord
  2
COLOR25
 70
0
 62
7
  6
CONTINUOUS
  0
LAYER
  5
25F
100
AcDbSymbolTableRecord
100
AcDbLayerTableRecord
  2
COLOR30
 70
0
 62
7
  6
CONTINUOUS
  0
LAYER
  5
260
100
AcDbSymbolTableRecord
100
AcDbLayerTableRecord
  2
COLOR41
 70
0
 62
7
  6
CONTINUOUS
  0
LAYER
  5
261
100
AcDbSymbolTableRecord
100
AcDbLayerTableRecord
  2
COLOR48
 70
0
 62
7
  6
CONTINUOUS
  0
LAYER
  5
262
100
AcDbSymbolTableRecord
100
AcDbLayerTableRecord
  2
COLOR49
 70
0
 62
7
  6
CONTINUOUS
  0
LAYER
  5
263
100
AcDbSymbolTableRecord
100
AcDbLayerTableRecord
  2
COLOR50
 70
0
 62
7
  6
CONTINUOUS
  0
LAYER
  5
264
100
AcDbSymbolTableRecord
100
AcDbLayerTableRecord
  2
COLOR57
 70
0
 62
7
  6
CONTINUOUS
  0
LAYER
  5
265
100
AcDbSymbolTableRecord
100
AcDbLayerTableRecord
  2
COLOR58
 70
0
 62
7
  6
CONTINUOUS
  0
LAYER
  5
266
100
AcDbSymbolTableRecord
100
AcDbLayerTableRecord
  2
COLOR65
 70
0
 62
7
  6
CONTINUOUS
  0
LAYER
  5
267
100
AcDbSymbolTableRecord
100
AcDbLayerTableRecord
  2
COLOR66
 70
0
 62
7
  6
CONTINUOUS
  0
LAYER
  5
268
100
AcDbSymbolTableRecord
100
AcDbLayerTableRecord
  2
COLOR67
 70
0
 62
7
  6
CONTINUOUS
  0
LAYER
  5
269
100
AcDbSymbolTableRecord
100
AcDbLayerTableRecord
  2
COLOR68
 70
0
 62
7
  6
CONTINUOUS
  0
LAYER
  5
26A
100
AcDbSymbolTableRecord
100
AcDbLayerTableRecord
  2
COLOR69
 70
0
 62
7
  6
CONTINUOUS
  0
LAYER
  5
26B
100
AcDbSymbolTableRecord
100
AcDbLayerTableRecord
  2
COLOR75
 70
0
 62
7
  6
CONTINUOUS
  0
LAYER
  5
26C
100
AcDbSymbolTableRecord
100
AcDbLayerTableRecord
  2
COLOR85
 70
0
 62
7
  6
CONTINUOUS
  0
LAYER
  5
26D
100
AcDbSymbolTableRecord
100
AcDbLayerTableRecord
  2
COLOR91
 70
0
 62
7
  6
CONTINUOUS
  0
LAYER
  5
26E
100
AcDbSymbolTableRecord
100
AcDbLayerTableRecord
  2
COLOR96
 70
0
 62
7
  6
CONTINUOUS
  0
LAYER
  5
26F
100
AcDbSymbolTableRecord
100
AcDbLayerTableRecord
  2
COLOR98
 70
0
 62
7
  6
CONTINUOUS
  0
LAYER
  5
270
100
AcDbSymbolTableRecord
100
AcDbLayerTableRecord
  2
CONNECTOR_FPCB_IRIS
 70
0
 62
7
  6
CONTINUOUS
  0
LAYER
  5
271
100
AcDbSymbolTableRecord
100
AcDbLayerTableRecord
  2
COVER_DAY_NIGHT
 70
0
 62
7
  6
CONTINUOUS
  0
LAYER
  5
272
100
AcDbSymbolTableRecord
100
AcDbLayerTableRecord
  2
COVER_GEAR
 70
0
 62
7
  6
CONTINUOUS
  0
LAYER
  5
273
100
AcDbSymbolTableRecord
100
AcDbLayerTableRecord
  2
COVER_OLPF_DN
 70
0
 62
7
  6
CONTINUOUS
  0
LAYER
  5
274
100
AcDbSymbolTableRecord
100
AcDbLayerTableRecord
  2
COVER_OLPF_FIXED
 70
0
 62
7
  6
CONTINUOUS
  0
LAYER
  5
275
100
AcDbSymbolTableRecord
100
AcDbLayerTableRecord
  2
DAY_NIGHT_BASE
 70
0
 62
7
  6
CONTINUOUS
  0
LAYER
  5
276
100
AcDbSymbolTableRecord
100
AcDbLayerTableRecord
  2
DEF_ASSEM_MEMBER
 70
0
 62
7
  6
CONTINUOUS
  0
LAYER
  5
277
100
AcDbSymbolTableRecord
100
AcDbLayerTableRecord
  2
DEF_ASSEM_MEMBER_1
 70
0
 62
7
  6
CONTINUOUS
  0
LAYER
  5
278
100
AcDbSymbolTableRecord
100
AcDbLayerTableRecord
  2
DEF_ASSEM_MEMBER_5
 70
0
 62
7
  6
CONTINUOUS
  0
LAYER
  5
279
100
AcDbSymbolTableRecord
100
AcDbLayerTableRecord
  2
DEF_ASSEM_MEMBER_7
 70
0
 62
7
  6
CONTINUOUS
  0
LAYER
  5
27A
100
AcDbSymbolTableRecord
100
AcDbLayerTableRecord
  2
DEF_AXIS
 70
0
 62
7
  6
CONTINUOUS
  0
LAYER
  5
27B
100
AcDbSymbolTableRecord
100
AcDbLayerTableRecord
  2
DEF_CHAMFER_FEAT
 70
0
 62
7
  6
CONTINUOUS
  0
LAYER
  5
27C
100
AcDbSymbolTableRecord
100
AcDbLayerTableRecord
  2
DEF_CSYS
 70
0
 62
7
  6
CONTINUOUS
  0
LAYER
  5
27D
100
AcDbSymbolTableRecord
100
AcDbLayerTableRecord
  2
DEF_CURVE
 70
0
 62
7
  6
CONTINUOUS
  0
LAYER
  5
27E
100
AcDbSymbolTableRecord
100
AcDbLayerTableRecord
  2
DEF_CURVE_ENT
 70
0
 62
7
  6
CONTINUOUS
  0
LAYER
  5
27F
100
AcDbSymbolTableRecord
100
AcDbLayerTableRecord
  2
DEF_CUT_FEAT
 70
0
 62
7
  6
CONTINUOUS
  0
LAYER
  5
280
100
AcDbSymbolTableRecord
100
AcDbLayerTableRecord
  2
DEF_DATUM
 70
0
 62
7
  6
CONTINUOUS
  0
LAYER
  5
281
100
AcDbSymbolTableRecord
100
AcDbLayerTableRecord
  2
DEF_DATUM_PLANE
 70
0
 62
7
  6
CONTINUOUS
  0
LAYER
  5
282
100
AcDbSymbolTableRecord
100
AcDbLayerTableRecord
  2
DEF_DATUM_POINT
 70
0
 62
7
  6
CONTINUOUS
  0
LAYER
  5
283
100
AcDbSymbolTableRecord
100
AcDbLayerTableRecord
  2
DEF_DIM
 70
0
 62
7
  6
CONTINUOUS
  0
LAYER
  5
284
100
AcDbSymbolTableRecord
100
AcDbLayerTableRecord
  2
DEF_DRAFT_FEAT
 70
0
 62
7
  6
CONTINUOUS
  0
LAYER
  5
285
100
AcDbSymbolTableRecord
100
AcDbLayerTableRecord
  2
DEF_DRIVEN_DIM
 70
0
 62
7
  6
CONTINUOUS
  0
LAYER
  5
286
100
AcDbSymbolTableRecord
100
AcDbLayerTableRecord
  2
DEF_FEATURE
 70
0
 62
7
  6
CONTINUOUS
  0
LAYER
  5
287
100
AcDbSymbolTableRecord
100
AcDbLayerTableRecord
  2
DEF_FEATURE_4
 70
0
 62
7
  6
CONTINUOUS
  0
LAYER
  5
288
100
AcDbSymbolTableRecord
100
AcDbLayerTableRecord
  2
DEF_GEOM_FEAT
 70
0
 62
7
  6
CONTINUOUS
  0
LAYER
  5
289
100
AcDbSymbolTableRecord
100
AcDbLayerTableRecord
  2
DEF_GEOM_FEAT_24
 70
0
 62
7
  6
CONTINUOUS
  0
LAYER
  5
28A
100
AcDbSymbolTableRecord
100
AcDbLayerTableRecord
  2
DEF_LAYER_AXIS
 70
0
 62
7
  6
CONTINUOUS
  0
LAYER
  5
28B
100
AcDbSymbolTableRecord
100
AcDbLayerTableRecord
  2
DEF_LAYER_CSYS
 70
0
 62
7
  6
CONTINUOUS
  0
LAYER
  5
28C
100
AcDbSymbolTableRecord
100
AcDbLayerTableRecord
  2
DEF_LAYER_CURVE
 70
0
 62
7
  6
CONTINUOUS
  0
LAYER
  5
28D
100
AcDbSymbolTableRecord
100
AcDbLayerTableRecord
  2
DEF_LAYER_CUT_FEAT
 70
0
 62
7
  6
CONTINUOUS
  0
LAYER
  5
28E
100
AcDbSymbolTableRecord
100
AcDbLayerTableRecord
  2
DEF_LAYER_DATUM
 70
0
 62
7
  6
CONTINUOUS
  0
LAYER
  5
28F
100
AcDbSymbolTableRecord
100
AcDbLayerTableRecord
  2
DEF_LAYER_DATUM_POINT
 70
0
 62
7
  6
CONTINUOUS
  0
LAYER
  5
290
100
AcDbSymbolTableRecord
100
AcDbLayerTableRecord
  2
DEF_LAYER_DIM
 70
0
 62
7
  6
CONTINUOUS
  0
LAYER
  5
291
100
AcDbSymbolTableRecord
100
AcDbLayerTableRecord
  2
DEF_LAYER_GTOL
 70
0
 62
7
  6
CONTINUOUS
  0
LAYER
  5
292
100
AcDbSymbolTableRecord
100
AcDbLayerTableRecord
  2
DEF_LAYER_HOLE_FEAT
 70
0
 62
7
  6
CONTINUOUS
  0
LAYER
  5
293
100
AcDbSymbolTableRecord
100
AcDbLayerTableRecord
  2
DEF_LAYER_NOTE
 70
0
 62
7
  6
CONTINUOUS
  0
LAYER
  5
294
100
AcDbSymbolTableRecord
100
AcDbLayerTableRecord
  2
DEF_LAYER_POINT
 70
0
 62
7
  6
CONTINUOUS
  0
LAYER
  5
295
100
AcDbSymbolTableRecord
100
AcDbLayerTableRecord
  2
DEF_LAYER_QUILT
 70
0
 62
7
  6
CONTINUOUS
  0
LAYER
  5
296
100
AcDbSymbolTableRecord
100
AcDbLayerTableRecord
  2
DEF_LAYER_QUILT_3
 70
0
 62
7
  6
CONTINUOUS
  0
LAYER
  5
297
100
AcDbSymbolTableRecord
100
AcDbLayerTableRecord
  2
DEF_LAYER_ROUND_FEAT
 70
0
 62
7
  6
CONTINUOUS
  0
LAYER
  5
298
100
AcDbSymbolTableRecord
100
AcDbLayerTableRecord
  2
DEF_NOGEOM_FEAT
 70
0
 62
7
  6
CONTINUOUS
  0
LAYER
  5
299
100
AcDbSymbolTableRecord
100
AcDbLayerTableRecord
  2
DEF_PARAMETER_DIM
 70
0
 62
7
  6
CONTINUOUS
  0
LAYER
  5
29A
100
AcDbSymbolTableRecord
100
AcDbLayerTableRecord
  2
DEF_POINT
 70
0
 62
7
  6
CONTINUOUS
  0
LAYER
  5
29B
100
AcDbSymbolTableRecord
100
AcDbLayerTableRecord
  2
DEF_PROTRUSION_FEAT
 70
0
 62
7
  6
CONTINUOUS
  0
LAYER
  5
29C
100
AcDbSymbolTableRecord
100
AcDbLayerTableRecord
  2
DEF_QUILT
 70
0
 62
7
  6
CONTINUOUS
  0
LAYER
  5
29D
100
AcDbSymbolTableRecord
100
AcDbLayerTableRecord
  2
DEF_ROUND_FEAT
 70
0
 62
7
  6
CONTINUOUS
  0
LAYER
  5
29E
100
AcDbSymbolTableRecord
100
AcDbLayerTableRecord
  2
DEF_SHELL_FEAT
 70
0
 62
7
  6
CONTINUOUS
  0
LAYER
  5
29F
100
AcDbSymbolTableRecord
100
AcDbLayerTableRecord
  2
DEF_SURFACE
 70
0
 62
7
  6
CONTINUOUS
  0
LAYER
  5
2A0
100
AcDbSymbolTableRecord
100
AcDbLayerTableRecord
  2
DIMS
 70
0
 62
7
  6
CONTINUOUS
  0
LAYER
  5
2A1
100
AcDbSymbolTableRecord
100
AcDbLayerTableRecord
  2
DTM_PLANE
 70
0
 62
7
  6
CONTINUOUS
  0
LAYER
  5
2A2
100
AcDbSymbolTableRecord
100
AcDbLayerTableRecord
  2
FLEXIBLE_PCB_IRIS
 70
0
 62
7
  6
CONTINUOUS
  0
LAYER
  5
2A3
100
AcDbSymbolTableRecord
100
AcDbLayerTableRecord
  2
FOCUS_DN_PI_GUIDE
 70
0
 62
7
  6
CONTINUOUS
  0
LAYER
  5
2A4
100
AcDbSymbolTableRecord
100
AcDbLayerTableRecord
  2
FRONT_BARREL_ASSY
 70
0
 62
7
  6
CONTINUOUS
  0
LAYER
  5
2A5
100
AcDbSymbolTableRecord
100
AcDbLayerTableRecord
  2
G01
 70
0
 62
7
  6
CONTINUOUS
  0
LAYER
  5
2A6
100
AcDbSymbolTableRecord
100
AcDbLayerTableRecord
  2
G02
 70
0
 62
7
  6
CONTINUOUS
  0
LAYER
  5
2A7
100
AcDbSymbolTableRecord
100
AcDbLayerTableRecord
  2
G03
 70
0
 62
7
  6
CONTINUOUS
  0
LAYER
  5
2A8
100
AcDbSymbolTableRecord
100
AcDbLayerTableRecord
  2
G04
 70
0
 62
7
  6
CONTINUOUS
  0
LAYER
  5
2A9
100
AcDbSymbolTableRecord
100
AcDbLayerTableRecord
  2
G1-G2_ASSY
 70
0
 62
7
  6
CONTINUOUS
  0
LAYER
  5
2AA
100
AcDbSymbolTableRecord
100
AcDbLayerTableRecord
  2
GEAR_WORM
 70
0
 62
7
  6
CONTINUOUS
  0
LAYER
  5
2AB
100
AcDbSymbolTableRecord
100
AcDbLayerTableRecord
  2
GEAR_WORM_WHEEL
 70
0
 62
7
  6
CONTINUOUS
  0
LAYER
  5
2AC
100
AcDbSymbolTableRecord
100
AcDbLayerTableRecord
  2
GUIDE-FOCUS-CELL
 70
0
 62
7
  6
CONTINUOUS
  0
LAYER
  5
2AD
100
AcDbSymbolTableRecord
100
AcDbLayerTableRecord
  2
GUIDE-ZOOM-CELL
 70
0
 62
7
  6
CONTINUOUS
  0
LAYER
  5
2AE
100
AcDbSymbolTableRecord
100
AcDbLayerTableRecord
  2
INTF_1
 70
0
 62
7
  6
CONTINUOUS
  0
LAYER
  5
2AF
100
AcDbSymbolTableRecord
100
AcDbLayerTableRecord
  2
INTF_20
 70
0
 62
7
  6
CONTINUOUS
  0
LAYER
  5
2B0
100
AcDbSymbolTableRecord
100
AcDbLayerTableRecord
  2
INTF_29
 70
0
 62
7
  6
CONTINUOUS
  0
LAYER
  5
2B1
100
AcDbSymbolTableRecord
100
AcDbLayerTableRecord
  2
INTF_3
 70
0
 62
7
  6
CONTINUOUS
  0
LAYER
  5
2B2
100
AcDbSymbolTableRecord
100
AcDbLayerTableRecord
  2
INTF_36
 70
0
 62
7
  6
CONTINUOUS
  0
LAYER
  5
2B3
100
AcDbSymbolTableRecord
100
AcDbLayerTableRecord
  2
INTF_37
 70
0
 62
7
  6
CONTINUOUS
  0
LAYER
  5
2B4
100
AcDbSymbolTableRecord
100
AcDbLayerTableRecord
  2
INTF_BLANK
 70
0
 62
7
  6
CONTINUOUS
  0
LAYER
  5
2B5
100
AcDbSymbolTableRecord
100
AcDbLayerTableRecord
  2
INTF_CYAN
 70
0
 62
7
  6
CONTINUOUS
  0
LAYER
  5
2B6
100
AcDbSymbolTableRecord
100
AcDbLayerTableRecord
  2
INTF_GREEN
 70
0
 62
7
  6
CONTINUOUS
  0
LAYER
  5
2B7
100
AcDbSymbolTableRecord
100
AcDbLayerTableRecord
  2
INTF_MAGENTA
 70
0
 62
7
  6
CONTINUOUS
  0
LAYER
  5
2B8
100
AcDbSymbolTableRecord
100
AcDbLayerTableRecord
  2
INTF_RED
 70
0
 62
7
  6
CONTINUOUS
  0
LAYER
  5
2B9
100
AcDbSymbolTableRecord
100
AcDbLayerTableRecord
  2
INTF_YELLOW
 70
0
 62
7
  6
CONTINUOUS
  0
LAYER
  5
2BA
100
AcDbSymbolTableRecord
100
AcDbLayerTableRecord
  2
IRIS
 70
0
 62
7
  6
CONTINUOUS
  0
LAYER
  5
2BB
100
AcDbSymbolTableRecord
100
AcDbLayerTableRecord
  2
IRIS_CONNECTOR
 70
0
 62
7
  6
CONTINUOUS
  0
LAYER
  5
2BC
100
AcDbSymbolTableRecord
100
AcDbLayerTableRecord
  2
IRIS_HEAD
 70
0
 62
7
  6
CONTINUOUS
  0
LAYER
  5
2BD
100
AcDbSymbolTableRecord
100
AcDbLayerTableRecord
  2
LENS_1
 70
0
 62
7
  6
CONTINUOUS
  0
LAYER
  5
2BE
100
AcDbSymbolTableRecord
100
AcDbLayerTableRecord
  2
LENS_10
 70
0
 62
7
  6
CONTINUOUS
  0
LAYER
  5
2BF
100
AcDbSymbolTableRecord
100
AcDbLayerTableRecord
  2
LENS_2
 70
0
 62
7
  6
CONTINUOUS
  0
LAYER
  5
2C0
100
AcDbSymbolTableRecord
100
AcDbLayerTableRecord
  2
LENS_3
 70
0
 62
7
  6
CONTINUOUS
  0
LAYER
  5
2C1
100
AcDbSymbolTableRecord
100
AcDbLayerTableRecord
  2
LENS_4
 70
0
 62
7
  6
CONTINUOUS
  0
LAYER
  5
2C2
100
AcDbSymbolTableRecord
100
AcDbLayerTableRecord
  2
LENS_5
 70
0
 62
7
  6
CONTINUOUS
  0
LAYER
  5
2C3
100
AcDbSymbolTableRecord
100
AcDbLayerTableRecord
  2
LENS_6
 70
0
 62
7
  6
CONTINUOUS
  0
LAYER
  5
2C4
100
AcDbSymbolTableRecord
100
AcDbLayerTableRecord
  2
LENS_7
 70
0
 62
7
  6
CONTINUOUS
  0
LAYER
  5
2C5
100
AcDbSymbolTableRecord
100
AcDbLayerTableRecord
  2
LENS_8
 70
0
 62
7
  6
CONTINUOUS
  0
LAYER
  5
2C6
100
AcDbSymbolTableRecord
100
AcDbLayerTableRecord
  2
LENS_9
 70
0
 62
7
  6
CONTINUOUS
  0
LAYER
  5
2C7
100
AcDbSymbolTableRecord
100
AcDbLayerTableRecord
  2
MOTOR-ZOOM
 70
0
 62
7
  6
CONTINUOUS
  0
LAYER
  5
2C8
100
AcDbSymbolTableRecord
100
AcDbLayerTableRecord
  2
MOTOR_DN_MOATECH
 70
0
 62
7
  6
CONTINUOUS
  0
LAYER
  5
2C9
100
AcDbSymbolTableRecord
100
AcDbLayerTableRecord
  2
MOTOR_FOCUS_14X
 70
0
 62
7
  6
CONTINUOUS
  0
LAYER
  5
2CA
100
AcDbSymbolTableRecord
100
AcDbLayerTableRecord
  2
NUT_LEAD
 70
0
 62
7
  6
CONTINUOUS
  0
LAYER
  5
2CB
100
AcDbSymbolTableRecord
100
AcDbLayerTableRecord
  2
OLPF_DAY
 70
0
 62
7
  6
CONTINUOUS
  0
LAYER
  5
2CC
100
AcDbSymbolTableRecord
100
AcDbLayerTableRecord
  2
OLPF_NIGHT
 70
0
 62
7
  6
CONTINUOUS
  0
LAYER
  5
2CD
100
AcDbSymbolTableRecord
100
AcDbLayerTableRecord
  2
PARA_DIMS
 70
0
 62
7
  6
CONTINUOUS
  0
LAYER
  5
2CE
100
AcDbSymbolTableRecord
100
AcDbLayerTableRecord
  2
PCB_FLEXIBLE
 70
0
 62
7
  6
CONTINUOUS
  0
LAYER
  5
2CF
100
AcDbSymbolTableRecord
100
AcDbLayerTableRecord
  2
PI
 70
0
 62
7
  6
CONTINUOUS
  0
LAYER
  5
2D0
100
AcDbSymbolTableRecord
100
AcDbLayerTableRecord
  2
PIN-FOCUS_R
 70
0
 62
7
  6
CONTINUOUS
  0
LAYER
  5
2D1
100
AcDbSymbolTableRecord
100
AcDbLayerTableRecord
  2
PIN_DAY_NIGHT
 70
0
 62
7
  6
CONTINUOUS
  0
LAYER
  5
2D2
100
AcDbSymbolTableRecord
100
AcDbLayerTableRecord
  2
PIN_FOCUS_L
 70
0
 62
7
  6
CONTINUOUS
  0
LAYER
  5
2D3
100
AcDbSymbolTableRecord
100
AcDbLayerTableRecord
  2
PIN_ZOOM
 70
0
 62
7
  6
CONTINUOUS
  0
LAYER
  5
2D4
100
AcDbSymbolTableRecord
100
AcDbLayerTableRecord
  2
PIN_ZOOM_1
 70
0
 62
7
  6
CONTINUOUS
  0
LAYER
  5
2D5
100
AcDbSymbolTableRecord
100
AcDbLayerTableRecord
  2
PI_1
 70
0
 62
7
  6
CONTINUOUS
  0
LAYER
  5
2D6
100
AcDbSymbolTableRecord
100
AcDbLayerTableRecord
  2
PI_2
 70
0
 62
7
  6
CONTINUOUS
  0
LAYER
  5
2D7
100
AcDbSymbolTableRecord
100
AcDbLayerTableRecord
  2
QUILT
 70
0
 62
7
  6
CONTINUOUS
  0
LAYER
  5
2D8
100
AcDbSymbolTableRecord
100
AcDbLayerTableRecord
  2
SCREW_LEAD
 70
0
 62
7
  6
CONTINUOUS
  0
LAYER
  5
2D9
100
AcDbSymbolTableRecord
100
AcDbLayerTableRecord
  2
SUPPORT_GUIDE
 70
0
 62
7
  6
CONTINUOUS
  0
LAYER
  5
2DA
100
AcDbSymbolTableRecord
100
AcDbLayerTableRecord
  2
SZL370-DAY-NIGHT-ACT
 70
0
 62
7
  6
CONTINUOUS
  0
LAYER
  5
2DB
100
AcDbSymbolTableRecord
100
AcDbLayerTableRecord
  2
SZL370-DAY-NIGHT-BKT
 70
0
 62
7
  6
CONTINUOUS
  0
LAYER
  5
2DC
100
AcDbSymbolTableRecord
100
AcDbLayerTableRecord
  2
SZL370-DAY-NIGHT-MOTOR
 70
0
 62
7
  6
CONTINUOUS
  0
LAYER
  5
2DD
100
AcDbSymbolTableRecord
100
AcDbLayerTableRecord
  2
SZL370-DAY-NIGHT-SCREW
 70
0
 62
7
  6
CONTINUOUS
  0
LAYER
  5
2DE
100
AcDbSymbolTableRecord
100
AcDbLayerTableRecord
  2
SZL370-FOCUS-MOTOR
 70
0
 62
7
  6
CONTINUOUS
  0
LAYER
  5
2DF
100
AcDbSymbolTableRecord
100
AcDbLayerTableRecord
  2
SZL370-FOCUS-MOTOR-ACT
 70
0
 62
7
  6
CONTINUOUS
  0
LAYER
  5
2E0
100
AcDbSymbolTableRecord
100
AcDbLayerTableRecord
  2
SZL370-FOCUS-MOTOR-BKT
 70
0
 62
7
  6
CONTINUOUS
  0
LAYER
  5
2E1
100
AcDbSymbolTableRecord
100
AcDbLayerTableRecord
  2
SZL370-ZOOM-MOTOR
 70
0
 62
7
  6
CONTINUOUS
  0
LAYER
  5
2E2
100
AcDbSymbolTableRecord
100
AcDbLayerTableRecord
  2
SZL370-ZOOM-MOTOR-ACT
 70
0
 62
7
  6
CONTINUOUS
  0
LAYER
  5
2E3
100
AcDbSymbolTableRecord
100
AcDbLayerTableRecord
  2
SZL370-ZOOM-MOTOR-BKT
 70
0
 62
7
  6
CONTINUOUS
  0
LAYER
  5
2E4
100
AcDbSymbolTableRecord
100
AcDbLayerTableRecord
  2
XSEC_DATUMS
 70
0
 62
7
  6
CONTINUOUS
  0
LAYER
  5
2E5
100
AcDbSymbolTableRecord
100
AcDbLayerTableRecord
  2
ZOOM_PI_GUIDE
 70
0
 62
7
  6
CONTINUOUS
  0
LAYER
  5
2E6
100
AcDbSymbolTableRecord
100
AcDbLayerTableRecord
  2
___SHELL
 70
0
 62
7
  6
CONTINUOUS
  0
ENDTAB
  0
TABLE
  2
STYLE
  5
3
100
AcDbSymbolTable
 70
1
  0
STYLE
  5
11
100
AcDbSymbolTableRecord
100
AcDbTextStyleTableRecord
  2
STANDARD
 70
0
 40
0.0
 41
0.8
 50
0.0
 71
0
 42
0.2
  3
txt
  4

  0
STYLE
  5
2E7
100
AcDbSymbolTableRecord
100
AcDbTextStyleTableRecord
  2
TEXTSTYLE_1
 70
0
 40
0.0
 41
0.8
 50
0.0
 71
0
 42
0.2
  3
gdt
  4

  0
ENDTAB
  0
TABLE
  2
VIEW
  5
6
100
AcDbSymbolTable
 70
0
  0
ENDTAB
  0
TABLE
  2
UCS
  5
7
100
AcDbSymbolTable
 70
0
  0
ENDTAB
  0
TABLE
  2
APPID
  5
9
100
AcDbSymbolTable
 70
1
  0
APPID
  5
2E8
100
AcDbSymbolTableRecord
100
AcDbRegAppTableRecord
  2
ACAD
 70
0
  0
ENDTAB
  0
TABLE
  2
BLOCK_RECORD
  5
1
100
AcDbSymbolTable
 70
0
  0
BLOCK_RECORD
  5
1F
100
AcDbSymbolTableRecord
100
AcDbBlockTableRecord
  2
*MODEL_SPACE
  0
BLOCK_RECORD
  5
1B
100
AcDbSymbolTableRecord
100
AcDbBlockTableRecord
  2
*PAPER_SPACE
  0
BLOCK_RECORD
  5
2E9
100
AcDbSymbolTableRecord
100
AcDbBlockTableRecord
  2
_ARROW_FILLED
  0
BLOCK_RECORD
  5
2EA
100
AcDbSymbolTableRecord
100
AcDbBlockTableRecord
  2
*D0
  0
BLOCK_RECORD
  5
2EB
100
AcDbSymbolTableRecord
100
AcDbBlockTableRecord
  2
*D1
  0
BLOCK_RECORD
  5
2EC
100
AcDbSymbolTableRecord
100
AcDbBlockTableRecord
  2
*D2
  0
BLOCK_RECORD
  5
2ED
100
AcDbSymbolTableRecord
100
AcDbBlockTableRecord
  2
*D3
  0
ENDTAB
  0
TABLE
  2
DIMSTYLE
  5
A
100
AcDbSymbolTable
 70
1
  0
DIMSTYLE
105
2EE
100
AcDbSymbolTableRecord
100
AcDbDimStyleTableRecord
  2
STANDARD
 70
0
  3

  4

  5
_ARROW_FILLED
  6
_ARROW_FILLED
  7
_ARROW_FILLED
 40
1.0
 41
4.0
 42
0.0625
 43
0.38
 44
0.18
 45
0.0
 46
0.0
 47
0.016
 48
0.016
140
6.0
141
0.09
142
0.0
143
25.4
144
1.0
145
0.0
146
1.0
147
0.09
 71
1.0
 72
0.0
 73
0
 74
0
 75
0
 76
0
 77
1
 78
8
170
0
171
2
172
0
173
0
174
0
175
0
176
0
177
0
178
0
270
2
271
2
272
2
273
2
274
2
275
0
280
0
281
0
282
0
283
1
284
8
285
0
286
0
287
3
288
0
340
11
  0
DIMSTYLE
105
2EF
100
AcDbSymbolTableRecord
100
AcDbDimStyleTableRecord
  2
DIMSTYLE_1
 70
0
  3

  4

  5
_ARROW_FILLED
  6
_ARROW_FILLED
  7
_ARROW_FILLED
 40
1.0
 41
4.0
 42
0.0625
 43
0.38
 44
0.18
 45
0.0
 46
0.0
 47
0.5
 48
0.5
140
9.0
141
0.09
142
0.0
143
25.4
144
1.0
145
0.0
146
1.0
147
0.09
 71
0.0
 72
0.0
 73
0
 74
0
 75
0
 76
0
 77
1
 78
8
170
0
171
2
172
0
173
0
174
0
175
0
176
0
177
0
178
0
270
2
271
0
272
0
273
2
274
2
275
0
280
0
281
0
282
0
283
1
284
8
285
0
286
0
287
3
288
0
340
11
  0
ENDTAB
  0
ENDSEC
  0
SECTION
  2
BLOCKS
  0
BLOCK
  5
20
100
AcDbEntity
  8
0
100
AcDbBlockBegin
  2
*MODEL_SPACE
 70
0
 10
0.0
 20
0.0
 30
0.0
  3
*MODEL_SPACE
  1

  0
ENDBLK
  5
21
100
AcDbEntity
  8
0
100
AcDbBlockEnd
  0
BLOCK
  5
1C
100
AcDbEntity
  8
0
100
AcDbBlockBegin
  2
*PAPER_SPACE
 70
0
 10
0.0
 20
0.0
 30
0.0
  3
*PAPER_SPACE
  1

  0
ENDBLK
  5
1D
100
AcDbEntity
  8
0
100
AcDbBlockEnd
  0
BLOCK
  5
2F0
100
AcDbEntity
  8
0
100
AcDbBlockBegin
  2
_ARROW_FILLED
 70
64
 10
0.0
 20
0.0
  3
_ARROW_FILLED
  1

  0
SOLID
  5
2F1
100
AcDbEntity
  8
0
  6
BYBLOCK
 62
0
100
AcDbTrace
 10
0.0
 20
0.0
 11
-1.0
 21
0.175
 12
-1.0
 22
-0.175
 13
-1.0
 23
-0.175
  0
ENDBLK
  5
2F2
100
AcDbEntity
  8
0
  6
BYBLOCK
 62
0
100
AcDbBlockEnd
  0
BLOCK
  5
2F3
100
AcDbEntity
  8
0
100
AcDbBlockBegin
 62
2
  6
CONTINUOUS
  2
*D0
 70
65
 10
0.0
 20
0.0
  3
*D0
  1

  0
MTEXT
  5
2F4
100
AcDbEntity
  8
0
100
AcDbMText
 62
2
  6
CONTINUOUS
  7
STANDARD
 71
2
 72
1
 10
461.197829394
 20
292.1924350852
 30
0.0
 11
1.0
 21
0.0
 31
0.0
  1
250mm (9.8")
 40
9.0
 41
86.4
  0
LINE
  5
2F5
100
AcDbEntity
  8
0
100
AcDbLine
 62
2
  6
CONTINUOUS
 10
337.4999428282
 20
463.9306281023
 11
337.4999428282
 21
283.1924350852
  0
LINE
  5
2F6
100
AcDbEntity
  8
0
100
AcDbLine
 62
2
  6
CONTINUOUS
 10
337.4999428282
 20
283.1924350852
 11
337.4999428282
 21
278.9424350852
  0
LINE
  5
2F7
100
AcDbEntity
  8
0
100
AcDbLine
 62
2
  6
CONTINUOUS
 10
584.8957159599
 20
463.9306281023
 11
584.8957159599
 21
283.1924350852
  0
LINE
  5
2F8
100
AcDbEntity
  8
0
100
AcDbLine
 62
2
  6
CONTINUOUS
 10
584.8957159599
 20
283.1924350852
 11
584.8957159599
 21
278.9424350852
  0
LINE
  5
2F9
100
AcDbEntity
  8
0
100
AcDbLine
 62
2
  6
CONTINUOUS
 10
337.4999428282
 20
280.9424350852
 11
461.197829394
 21
280.9424350852
  0
LINE
  5
2FA
100
AcDbEntity
  8
0
100
AcDbLine
 62
2
  6
CONTINUOUS
 10
584.8957159599
 20
280.9424350852
 11
461.197829394
 21
280.9424350852
  0
INSERT
  5
2FB
100
AcDbEntity
  8
0
100
AcDbBlockReference
 62
2
  6
CONTINUOUS
  2
_ARROW_FILLED
 10
337.4999428282
 20
280.9424350852
 41
4.0
 42
4.0
 43
4.0
 50
180.0
  0
INSERT
  5
2FC
100
AcDbEntity
  8
0
100
AcDbBlockReference
 62
2
  6
CONTINUOUS
  2
_ARROW_FILLED
 10
584.8957159599
 20
280.9424350852
 41
4.0
 42
4.0
 43
4.0
  0
ENDBLK
  5
2FD
100
AcDbEntity
  8
0
  6
BYBLOCK
 62
0
100
AcDbBlockEnd
  0
BLOCK
  5
2FE
100
AcDbEntity
  8
0
100
AcDbBlockBegin
 62
2
  6
CONTINUOUS
  2
*D1
 70
65
 10
0.0
 20
0.0
  3
*D1
  1

  0
MTEXT
  5
2FF
100
AcDbEntity
  8
0
100
AcDbMText
 62
2
  6
CONTINUOUS
  7
STANDARD
 71
2
 72
1
 10
213.4468202928
 20
528.1554910629
 30
0.0
 11
0.0
 21
1.0
 31
0.0
  1
319mm (12.6")
 40
9.0
 41
93.6
  0
LINE
  5
300
100
AcDbEntity
  8
0
100
AcDbLine
 62
2
  6
CONTINUOUS
 10
436.7281509487
 20
687.4303540235
 11
222.6968202928
 21
687.4303540235
  0
LINE
  5
301
100
AcDbEntity
  8
0
100
AcDbLine
 62
2
  6
CONTINUOUS
 10
459.1978293938
 20
368.8806281023
 11
222.6968202928
 21
368.8806281023
  0
LINE
  5
302
100
AcDbEntity
  8
0
100
AcDbLine
 62
2
  6
CONTINUOUS
 10
224.6968202928
 20
687.4303540235
 11
224.6968202928
 21
528.1554910629
  0
LINE
  5
303
100
AcDbEntity
  8
0
100
AcDbLine
 62
2
  6
CONTINUOUS
 10
224.6968202928
 20
368.8806281023
 11
224.6968202928
 21
528.1554910629
  0
INSERT
  5
304
100
AcDbEntity
  8
0
100
AcDbBlockReference
 62
2
  6
CONTINUOUS
  2
_ARROW_FILLED
 10
224.6968202928
 20
687.4303540235
 41
4.0
 42
4.0
 43
4.0
 50
90.0
  0
INSERT
  5
305
100
AcDbEntity
  8
0
100
AcDbBlockReference
 62
2
  6
CONTINUOUS
  2
_ARROW_FILLED
 10
224.6968202928
 20
368.8806281023
 41
4.0
 42
4.0
 43
4.0
 50
270.0
  0
ENDBLK
  5
306
100
AcDbEntity
  8
0
  6
BYBLOCK
 62
0
100
AcDbBlockEnd
  0
BLOCK
  5
307
100
AcDbEntity
  8
0
100
AcDbBlockBegin
 62
2
  6
CONTINUOUS
  2
*D2
 70
65
 10
0.0
 20
0.0
  3
*D2
  1

  0
MTEXT
  5
308
100
AcDbEntity
  8
0
100
AcDbMText
 62
2
  6
CONTINUOUS
  7
STANDARD
 71
2
 72
1
 10
271.59654493
 20
517.1556281023
 30
0.0
 11
0.0
 21
1.0
 31
0.0
  1
297mm (11.7")
 40
9.0
 41
93.6
  0
LINE
  5
309
100
AcDbEntity
  8
0
100
AcDbLine
 62
2
  6
CONTINUOUS
 10
403.1963528414
 20
665.4306281023
 11
280.84654493
 21
665.4306281023
  0
LINE
  5
30A
100
AcDbEntity
  8
0
100
AcDbLine
 62
2
  6
CONTINUOUS
 10
459.1978293938
 20
368.8806281023
 11
280.84654493
 21
368.8806281023
  0
LINE
  5
30B
100
AcDbEntity
  8
0
100
AcDbLine
 62
2
  6
CONTINUOUS
 10
282.84654493
 20
665.4306281023
 11
282.84654493
 21
517.1556281023
  0
LINE
  5
30C
100
AcDbEntity
  8
0
100
AcDbLine
 62
2
  6
CONTINUOUS
 10
282.84654493
 20
368.8806281023
 11
282.84654493
 21
517.1556281023
  0
INSERT
  5
30D
100
AcDbEntity
  8
0
100
AcDbBlockReference
 62
2
  6
CONTINUOUS
  2
_ARROW_FILLED
 10
282.84654493
 20
665.4306281023
 41
4.0
 42
4.0
 43
4.0
 50
90.0
  0
INSERT
  5
30E
100
AcDbEntity
  8
0
100
AcDbBlockReference
 62
2
  6
CONTINUOUS
  2
_ARROW_FILLED
 10
282.84654493
 20
368.8806281023
 41
4.0
 42
4.0
 43
4.0
 50
270.0
  0
ENDBLK
  5
30F
100
AcDbEntity
  8
0
  6
BYBLOCK
 62
0
100
AcDbBlockEnd
  0
BLOCK
  5
310
100
AcDbEntity
  8
0
100
AcDbBlockBegin
 62
2
  6
CONTINUOUS
  2
*D3
 70
65
 10
0.0
 20
0.0
  3
*D3
  1

  0
MTEXT
  5
311
100
AcDbEntity
  8
0
100
AcDbMText
 62
2
  6
CONTINUOUS
  7
STANDARD
 71
2
 72
1
 10
461.1978293938
 20
334.9519327818
 30
0.0
 11
1.0
 21
0.0
 31
0.0
  1
235mm (9.3")
 40
9.0
 41
86.4
  0
LINE
  5
312
100
AcDbEntity
  8
0
100
AcDbLine
 62
2
  6
CONTINUOUS
 10
343.9465782601
 20
461.4124761835
 11
343.9465782601
 21
321.7019327818
  0
LINE
  5
313
100
AcDbEntity
  8
0
100
AcDbLine
 62
2
  6
CONTINUOUS
 10
578.4490805274
 20
461.4124761835
 11
578.4490805274
 21
321.7019327818
  0
LINE
  5
314
100
AcDbEntity
  8
0
100
AcDbLine
 62
2
  6
CONTINUOUS
 10
343.9465782601
 20
323.7019327818
 11
461.1978293938
 21
323.7019327818
  0
LINE
  5
315
100
AcDbEntity
  8
0
100
AcDbLine
 62
2
  6
CONTINUOUS
 10
578.4490805274
 20
323.7019327818
 11
461.1978293938
 21
323.7019327818
  0
INSERT
  5
316
100
AcDbEntity
  8
0
100
AcDbBlockReference
 62
2
  6
CONTINUOUS
  2
_ARROW_FILLED
 10
343.9465782601
 20
323.7019327818
 41
4.0
 42
4.0
 43
4.0
 50
180.0
  0
INSERT
  5
317
100
AcDbEntity
  8
0
100
AcDbBlockReference
 62
2
  6
CONTINUOUS
  2
_ARROW_FILLED
 10
578.4490805274
 20
323.7019327818
 41
4.0
 42
4.0
 43
4.0
  0
ENDBLK
  5
318
100
AcDbEntity
  8
0
  6
BYBLOCK
 62
0
100
AcDbBlockEnd
  0
ENDSEC
  0
SECTION
  2
ENTITIES
  0
MTEXT
  5
319
100
AcDbEntity
  8
0
100
AcDbMText
 62
2
  6
CONTINUOUS
  7
STANDARD
 71
1
 72
1
 10
1274.42895
 20
126.463236
 30
0.0
 11
1.0
 21
0.0
 31
0.0
  1
품번
 40
8.0
 41
14.933332
  0
MTEXT
  5
31A
100
AcDbEntity
  8
0
100
AcDbMText
 62
2
  6
CONTINUOUS
  7
STANDARD
 71
1
 72
1
 10
1302.93609
 20
126.463236
 30
0.0
 11
1.0
 21
0.0
 31
0.0
  1
품    명
 40
8.0
 41
40.533334
  0
MTEXT
  5
31B
100
AcDbEntity
  8
0
100
AcDbMText
 62
2
  6
CONTINUOUS
  7
STANDARD
 71
1
 72
1
 10
1378.93609
 20
126.463236
 30
0.0
 11
1.0
 21
0.0
 31
0.0
  1
재    질
 40
8.0
 41
40.533334
  0
MTEXT
  5
31C
100
AcDbEntity
  8
0
100
AcDbMText
 62
2
  6
CONTINUOUS
  7
STANDARD
 71
1
 72
1
 10
1444.42895
 20
126.463236
 30
0.0
 11
1.0
 21
0.0
 31
0.0
  1
수량
 40
8.0
 41
14.933332
  0
MTEXT
  5
31D
100
AcDbEntity
  8
0
100
AcDbMText
 62
2
  6
CONTINUOUS
  7
STANDARD
 71
1
 72
1
 10
1476.527312
 20
126.463236
 30
0.0
 11
1.0
 21
0.0
 31
0.0
  1
완 성 치 수
 40
8.0
 41
49.0666682
  0
MTEXT
  5
31E
100
AcDbEntity
  8
0
100
AcDbMText
 62
2
  6
CONTINUOUS
  7
STANDARD
 71
1
 72
1
 10
1565.398074
 20
125.838622
 30
0.0
 11
1.0
 21
0.0
 31
0.0
  1
비   고
 40
8.0
 41
34.1333344
  0
MTEXT
  5
31F
100
AcDbEntity
  8
0
100
AcDbMText
 62
2
  6
CONTINUOUS
  7
STANDARD
 71
1
 72
1
 10
1274.93124
 20
114.80421
 30
0.0
 11
1.0
 21
0.0
 31
0.0
  1
단
 40
8.0
 41
7.466666
  0
MTEXT
  5
320
100
AcDbEntity
  8
0
100
AcDbMText
 62
2
  6
CONTINUOUS
  7
STANDARD
 71
1
 72
1
 10
1274.93124
 20
102.80421
 30
0.0
 11
1.0
 21
0.0
 31
0.0
  1
위
 40
8.0
 41
7.466666
  0
MTEXT
  5
321
100
AcDbEntity
  8
0
100
AcDbMText
 62
2
  6
CONTINUOUS
  7
STANDARD
 71
1
 72
1
 10
1312.93124
 20
114.80421
 30
0.0
 11
1.0
 21
0.0
 31
0.0
  1
척
 40
8.0
 41
7.466666
  0
MTEXT
  5
322
100
AcDbEntity
  8
0
100
AcDbMText
 62
2
  6
CONTINUOUS
  7
STANDARD
 71
1
 72
1
 10
1312.93124
 20
102.80421
 30
0.0
 11
1.0
 21
0.0
 31
0.0
  1
도
 40
8.0
 41
7.466666
  0
MTEXT
  5
323
100
AcDbEntity
  8
0
100
AcDbMText
 62
2
  6
CONTINUOUS
  7
STANDARD
 71
1
 72
1
 10
1350.93124
 20
114.80421
 30
0.0
 11
1.0
 21
0.0
 31
0.0
  1
공
 40
8.0
 41
7.466666
  0
MTEXT
  5
324
100
AcDbEntity
  8
0
100
AcDbMText
 62
2
  6
CONTINUOUS
  7
STANDARD
 71
1
 72
1
 10
1350.93124
 20
102.80421
 30
0.0
 11
1.0
 21
0.0
 31
0.0
  1
차
 40
8.0
 41
7.466666
  0
MTEXT
  5
325
100
AcDbEntity
  8
0
100
AcDbMText
 62
2
  6
CONTINUOUS
  7
STANDARD
 71
1
 72
1
 10
1388.93124
 20
114.80421
 30
0.0
 11
1.0
 21
0.0
 31
0.0
  1
설
 40
8.0
 41
7.466666
  0
MTEXT
  5
326
100
AcDbEntity
  8
0
100
AcDbMText
 62
2
  6
CONTINUOUS
  7
STANDARD
 71
1
 72
1
 10
1388.93124
 20
102.80421
 30
0.0
 11
1.0
 21
0.0
 31
0.0
  1
계
 40
8.0
 41
7.466666
  0
MTEXT
  5
327
100
AcDbEntity
  8
0
100
AcDbMText
 62
2
  6
CONTINUOUS
  7
STANDARD
 71
1
 72
1
 10
1388.93124
 20
92.80421
 30
0.0
 11
1.0
 21
0.0
 31
0.0
  1
검
 40
8.0
 41
7.466666
  0
MTEXT
  5
328
100
AcDbEntity
  8
0
100
AcDbMText
 62
2
  6
CONTINUOUS
  7
STANDARD
 71
1
 72
1
 10
1388.93124
 20
80.80421
 30
0.0
 11
1.0
 21
0.0
 31
0.0
  1
도
 40
8.0
 41
7.466666
  0
MTEXT
  5
329
100
AcDbEntity
  8
0
100
AcDbMText
 62
2
  6
CONTINUOUS
  7
STANDARD
 71
1
 72
1
 10
1388.93124
 20
70.80421
 30
0.0
 11
1.0
 21
0.0
 31
0.0
  1
승
 40
8.0
 41
7.466666
  0
MTEXT
  5
32A
100
AcDbEntity
  8
0
100
AcDbMText
 62
2
  6
CONTINUOUS
  7
STANDARD
 71
1
 72
1
 10
1388.93124
 20
58.80421
 30
0.0
 11
1.0
 21
0.0
 31
0.0
  1
인
 40
8.0
 41
7.466666
  0
MTEXT
  5
32B
100
AcDbEntity
  8
0
100
AcDbMText
 62
2
  6
CONTINUOUS
  7
STANDARD
 71
1
 72
1
 10
1432.896144
 20
108.04905
 30
0.0
 11
1.0
 21
0.0
 31
0.0
  1
도
 40
8.0
 41
7.466666
  0
MTEXT
  5
32C
100
AcDbEntity
  8
0
100
AcDbMText
 62
2
  6
CONTINUOUS
  7
STANDARD
 71
1
 72
1
 10
1432.896144
 20
96.04905
 30
0.0
 11
1.0
 21
0.0
 31
0.0
  1
명
 40
8.0
 41
7.466666
  0
MTEXT
  5
32D
100
AcDbEntity
  8
0
100
AcDbMText
 62
2
  6
CONTINUOUS
  7
STANDARD
 71
1
 72
1
 10
1433.080502
 20
74.284368
 30
0.0
 11
1.0
 21
0.0
 31
0.0
  1
적용
 40
8.0
 41
14.933334
  0
MTEXT
  5
32E
100
AcDbEntity
  8
0
100
AcDbMText
 62
2
  6
CONTINUOUS
  7
STANDARD
 71
1
 72
1
 10
1433.080502
 20
62.284368
 30
0.0
 11
1.0
 21
0.0
 31
0.0
  1
기종
 40
8.0
 41
14.933334
  0
MTEXT
  5
32F
100
AcDbEntity
  8
0
100
AcDbMText
 62
2
  6
CONTINUOUS
  7
STANDARD
 71
1
 72
1
 10
1518.896144
 20
75.099944
 30
0.0
 11
1.0
 21
0.0
 31
0.0
  1
도
 40
8.0
 41
7.466666
  0
MTEXT
  5
330
100
AcDbEntity
  8
0
100
AcDbMText
 62
2
  6
CONTINUOUS
  7
STANDARD
 71
1
 72
1
 10
1518.896144
 20
63.099944
 30
0.0
 11
1.0
 21
0.0
 31
0.0
  1
번
 40
8.0
 41
7.466666
  0
MTEXT
  5
331
100
AcDbEntity
  8
0
100
AcDbMText
 62
2
  6
CONTINUOUS
  7
STANDARD
 71
1
 72
1
 10
1406.368954
 20
81.46293
 30
0.0
 11
1.0
 21
0.0
 31
0.0
  1
,
 40
8.0
 41
6.4
  0
MTEXT
  5
332
100
AcDbEntity
  8
0
100
AcDbMText
 62
2
  6
CONTINUOUS
  7
STANDARD
 71
1
 72
1
 10
1416.117478
 20
81.46293
 30
0.0
 11
1.0
 21
0.0
 31
0.0
  1
,
 40
8.0
 41
6.4
  0
MTEXT
  5
333
100
AcDbEntity
  8
0
100
AcDbMText
 62
2
  6
CONTINUOUS
  7
STANDARD
 71
1
 72
1
 10
1406.368954
 20
59.46293
 30
0.0
 11
1.0
 21
0.0
 31
0.0
  1
,
 40
8.0
 41
6.4
  0
MTEXT
  5
334
100
AcDbEntity
  8
0
100
AcDbMText
 62
2
  6
CONTINUOUS
  7
STANDARD
 71
1
 72
1
 10
1416.117478
 20
59.46293
 30
0.0
 11
1.0
 21
0.0
 31
0.0
  1
,
 40
8.0
 41
6.4
  0
MTEXT
  5
335
100
AcDbEntity
  8
0
100
AcDbMText
 62
2
  6
CONTINUOUS
  7
STANDARD
 71
1
 72
1
 10
1271.898658
 20
1140.025286
 30
0.0
 11
1.0
 21
0.0
 31
0.0
  1
NO.
 40
8.0
 41
19.2
  0
MTEXT
  5
336
100
AcDbEntity
  8
0
100
AcDbMText
 62
2
  6
CONTINUOUS
  7
STANDARD
 71
1
 72
1
 10
1276.357854
 20
1128.317196
 30
0.0
 11
1.0
 21
0.0
 31
0.0
  1
1
 40
8.0
 41
6.4
  0
MTEXT
  5
337
100
AcDbEntity
  8
0
100
AcDbMText
 62
2
  6
CONTINUOUS
  7
STANDARD
 71
1
 72
1
 10
1276.357854
 20
1116.317196
 30
0.0
 11
1.0
 21
0.0
 31
0.0
  1
2
 40
8.0
 41
6.4
  0
MTEXT
  5
338
100
AcDbEntity
  8
0
100
AcDbMText
 62
2
  6
CONTINUOUS
  7
STANDARD
 71
1
 72
1
 10
1276.357854
 20
1104.317196
 30
0.0
 11
1.0
 21
0.0
 31
0.0
  1
3
 40
8.0
 41
6.4
  0
MTEXT
  5
339
100
AcDbEntity
  8
0
100
AcDbMText
 62
2
  6
CONTINUOUS
  7
STANDARD
 71
1
 72
1
 10
1276.357854
 20
1092.317196
 30
0.0
 11
1.0
 21
0.0
 31
0.0
  1
4
 40
8.0
 41
6.4
  0
MTEXT
  5
33A
100
AcDbEntity
  8
0
100
AcDbMText
 62
2
  6
CONTINUOUS
  7
STANDARD
 71
1
 72
1
 10
1312.803918
 20
1140.025286
 30
0.0
 11
1.0
 21
0.0
 31
0.0
  1
변 경 사 항
 40
8.0
 41
49.0666682
  0
MTEXT
  5
33B
100
AcDbEntity
  8
0
100
AcDbMText
 62
2
  6
CONTINUOUS
  7
STANDARD
 71
1
 72
1
 10
1408.249526
 20
1140.025286
 30
0.0
 11
1.0
 21
0.0
 31
0.0
  1
변 경 사 유
 40
8.0
 41
49.066666
  0
MTEXT
  5
33C
100
AcDbEntity
  8
0
100
AcDbMText
 62
2
  6
CONTINUOUS
  7
STANDARD
 71
1
 72
1
 10
1487.721106
 20
1140.025286
 30
0.0
 11
1.0
 21
0.0
 31
0.0
  1
수 정
 40
8.0
 41
21.333334
  0
MTEXT
  5
33D
100
AcDbEntity
  8
0
100
AcDbMText
 62
2
  6
CONTINUOUS
  7
STANDARD
 71
1
 72
1
 10
1537.558784
 20
1140.025286
 30
0.0
 11
1.0
 21
0.0
 31
0.0
  1
심 사
 40
8.0
 41
21.333332
  0
MTEXT
  5
33E
100
AcDbEntity
  8
0
100
AcDbMText
 62
2
  6
CONTINUOUS
  7
STANDARD
 71
1
 72
1
 10
1587.39646
 20
1140.025286
 30
0.0
 11
1.0
 21
0.0
 31
0.0
  1
승 인
 40
8.0
 41
21.333334
  0
MTEXT
  5
33F
100
AcDbEntity
  8
0
100
AcDbMText
 62
2
  6
CONTINUOUS
  7
STANDARD
 71
1
 72
1
 10
1504.6955
 20
1128.08384
 30
0.0
 11
1.0
 21
0.0
 31
0.0
  1
,
 40
8.0
 41
6.4
  0
MTEXT
  5
340
100
AcDbEntity
  8
0
100
AcDbMText
 62
2
  6
CONTINUOUS
  7
STANDARD
 71
1
 72
1
 10
1512.712128
 20
1128.08384
 30
0.0
 11
1.0
 21
0.0
 31
0.0
  1
,
 40
8.0
 41
6.4
  0
MTEXT
  5
341
100
AcDbEntity
  8
0
100
AcDbMText
 62
2
  6
CONTINUOUS
  7
STANDARD
 71
1
 72
1
 10
1504.6955
 20
1116.08384
 30
0.0
 11
1.0
 21
0.0
 31
0.0
  1
,
 40
8.0
 41
6.4
  0
MTEXT
  5
342
100
AcDbEntity
  8
0
100
AcDbMText
 62
2
  6
CONTINUOUS
  7
STANDARD
 71
1
 72
1
 10
1512.712128
 20
1116.08384
 30
0.0
 11
1.0
 21
0.0
 31
0.0
  1
,
 40
8.0
 41
6.4
  0
MTEXT
  5
343
100
AcDbEntity
  8
0
100
AcDbMText
 62
2
  6
CONTINUOUS
  7
STANDARD
 71
1
 72
1
 10
1504.6955
 20
1104.08384
 30
0.0
 11
1.0
 21
0.0
 31
0.0
  1
,
 40
8.0
 41
6.4
  0
MTEXT
  5
344
100
AcDbEntity
  8
0
100
AcDbMText
 62
2
  6
CONTINUOUS
  7
STANDARD
 71
1
 72
1
 10
1512.712128
 20
1104.08384
 30
0.0
 11
1.0
 21
0.0
 31
0.0
  1
,
 40
8.0
 41
6.4
  0
MTEXT
  5
345
100
AcDbEntity
  8
0
100
AcDbMText
 62
2
  6
CONTINUOUS
  7
STANDARD
 71
1
 72
1
 10
1504.6955
 20
1092.08384
 30
0.0
 11
1.0
 21
0.0
 31
0.0
  1
,
 40
8.0
 41
6.4
  0
MTEXT
  5
346
100
AcDbEntity
  8
0
100
AcDbMText
 62
2
  6
CONTINUOUS
  7
STANDARD
 71
1
 72
1
 10
1512.712128
 20
1092.08384
 30
0.0
 11
1.0
 21
0.0
 31
0.0
  1
,
 40
8.0
 41
6.4
  0
MTEXT
  5
347
100
AcDbEntity
  8
0
100
AcDbMText
 62
2
  6
CONTINUOUS
  7
STANDARD
 71
1
 72
1
 10
1554.6955
 20
1128.08384
 30
0.0
 11
1.0
 21
0.0
 31
0.0
  1
,
 40
8.0
 41
6.4
  0
MTEXT
  5
348
100
AcDbEntity
  8
0
100
AcDbMText
 62
2
  6
CONTINUOUS
  7
STANDARD
 71
1
 72
1
 10
1562.712128
 20
1128.08384
 30
0.0
 11
1.0
 21
0.0
 31
0.0
  1
,
 40
8.0
 41
6.4
  0
MTEXT
  5
349
100
AcDbEntity
  8
0
100
AcDbMText
 62
2
  6
CONTINUOUS
  7
STANDARD
 71
1
 72
1
 10
1554.6955
 20
1116.08384
 30
0.0
 11
1.0
 21
0.0
 31
0.0
  1
,
 40
8.0
 41
6.4
  0
MTEXT
  5
34A
100
AcDbEntity
  8
0
100
AcDbMText
 62
2
  6
CONTINUOUS
  7
STANDARD
 71
1
 72
1
 10
1562.712128
 20
1116.08384
 30
0.0
 11
1.0
 21
0.0
 31
0.0
  1
,
 40
8.0
 41
6.4
  0
MTEXT
  5
34B
100
AcDbEntity
  8
0
100
AcDbMText
 62
2
  6
CONTINUOUS
  7
STANDARD
 71
1
 72
1
 10
1554.6955
 20
1104.08384
 30
0.0
 11
1.0
 21
0.0
 31
0.0
  1
,
 40
8.0
 41
6.4
  0
MTEXT
  5
34C
100
AcDbEntity
  8
0
100
AcDbMText
 62
2
  6
CONTINUOUS
  7
STANDARD
 71
1
 72
1
 10
1562.712128
 20
1104.08384
 30
0.0
 11
1.0
 21
0.0
 31
0.0
  1
,
 40
8.0
 41
6.4
  0
MTEXT
  5
34D
100
AcDbEntity
  8
0
100
AcDbMText
 62
2
  6
CONTINUOUS
  7
STANDARD
 71
1
 72
1
 10
1554.6955
 20
1092.08384
 30
0.0
 11
1.0
 21
0.0
 31
0.0
  1
,
 40
8.0
 41
6.4
  0
MTEXT
  5
34E
100
AcDbEntity
  8
0
100
AcDbMText
 62
2
  6
CONTINUOUS
  7
STANDARD
 71
1
 72
1
 10
1562.712128
 20
1092.08384
 30
0.0
 11
1.0
 21
0.0
 31
0.0
  1
,
 40
8.0
 41
6.4
  0
MTEXT
  5
34F
100
AcDbEntity
  8
0
100
AcDbMText
 62
2
  6
CONTINUOUS
  7
STANDARD
 71
1
 72
1
 10
1604.6955
 20
1128.08384
 30
0.0
 11
1.0
 21
0.0
 31
0.0
  1
,
 40
8.0
 41
6.4
  0
MTEXT
  5
350
100
AcDbEntity
  8
0
100
AcDbMText
 62
2
  6
CONTINUOUS
  7
STANDARD
 71
1
 72
1
 10
1612.712128
 20
1128.08384
 30
0.0
 11
1.0
 21
0.0
 31
0.0
  1
,
 40
8.0
 41
6.4
  0
MTEXT
  5
351
100
AcDbEntity
  8
0
100
AcDbMText
 62
2
  6
CONTINUOUS
  7
STANDARD
 71
1
 72
1
 10
1604.6955
 20
1116.08384
 30
0.0
 11
1.0
 21
0.0
 31
0.0
  1
,
 40
8.0
 41
6.4
  0
MTEXT
  5
352
100
AcDbEntity
  8
0
100
AcDbMText
 62
2
  6
CONTINUOUS
  7
STANDARD
 71
1
 72
1
 10
1612.712128
 20
1116.08384
 30
0.0
 11
1.0
 21
0.0
 31
0.0
  1
,
 40
8.0
 41
6.4
  0
MTEXT
  5
353
100
AcDbEntity
  8
0
100
AcDbMText
 62
2
  6
CONTINUOUS
  7
STANDARD
 71
1
 72
1
 10
1604.6955
 20
1104.08384
 30
0.0
 11
1.0
 21
0.0
 31
0.0
  1
,
 40
8.0
 41
6.4
  0
MTEXT
  5
354
100
AcDbEntity
  8
0
100
AcDbMText
 62
2
  6
CONTINUOUS
  7
STANDARD
 71
1
 72
1
 10
1612.712128
 20
1104.08384
 30
0.0
 11
1.0
 21
0.0
 31
0.0
  1
,
 40
8.0
 41
6.4
  0
MTEXT
  5
355
100
AcDbEntity
  8
0
100
AcDbMText
 62
2
  6
CONTINUOUS
  7
STANDARD
 71
1
 72
1
 10
1604.6955
 20
1092.08384
 30
0.0
 11
1.0
 21
0.0
 31
0.0
  1
,
 40
8.0
 41
6.4
  0
MTEXT
  5
356
100
AcDbEntity
  8
0
100
AcDbMText
 62
2
  6
CONTINUOUS
  7
STANDARD
 71
1
 72
1
 10
1612.712128
 20
1092.08384
 30
0.0
 11
1.0
 21
0.0
 31
0.0
  1
,
 40
8.0
 41
6.4
  0
MTEXT
  5
357
100
AcDbEntity
  8
0
100
AcDbMText
 62
2
  6
CONTINUOUS
  7
STANDARD
 71
1
 72
1
 10
1289.791576
 20
109.417626
 30
0.0
 11
1.0
 21
0.0
 31
0.0
  1
mm
 40
8.0
 41
12.8
  0
MTEXT
  5
358
100
AcDbEntity
  8
0
100
AcDbMText
 62
2
  6
CONTINUOUS
  7
STANDARD
 71
1
 72
1
 10
1618.079452
 20
48.768292
 30
0.0
 11
1.0
 21
0.0
 31
0.0
  1
A1
 40
4.0
 41
6.4
  0
MTEXT
  5
359
100
AcDbEntity
  8
0
100
AcDbMText
 62
2
  6
CONTINUOUS
  7
STANDARD
 71
1
 72
1
 10
60.032862
 20
49.252864
 30
0.0
 11
1.0
 21
0.0
 31
0.0
  1
I-J038(93,4)
 40
4.0
 41
38.4
  0
MTEXT
  5
35A
100
AcDbEntity
  8
0
100
AcDbMText
 62
2
  6
CONTINUOUS
  7
STANDARD
 71
1
 72
1
 10
1336.14572
 20
69.74423
 30
0.0
 11
1.0
 21
0.0
 31
0.0
  1
TECHWIN
 40
6.0
 41
33.6
  0
MTEXT
  5
35B
100
AcDbEntity
  8
0
100
AcDbMText
 62
2
  6
CONTINUOUS
  7
STANDARD
 71
2
 72
1
 10
1505.9631736796
 20
48.5285379257
 30
0.0
 11
1.0
 21
0.0
 31
0.0
  1
정밀기기연구소 광전자 UNIT
 40
4.0
 41
56.5333333333
  0
DIMENSION
  5
35C
100
AcDbEntity
  8
0
100
AcDbDimension
 62
2
  6
CONTINUOUS
  2
*D0
 10
584.8957159599
 20
280.9424350852
 11
417.997829394
 21
287.6924350852
 70
160
  1
250mm (9.8")
  3
DIMSTYLE_1
100
AcDbAlignedDimension
 13
337.4999428282
 23
463.9306281023
 14
584.8957159599
 24
463.9306281023
100
AcDbRotatedDimension
  0
DIMENSION
  5
35D
100
AcDbEntity
  8
0
100
AcDbDimension
 62
2
  6
CONTINUOUS
  2
*D1
 10
224.6968202928
 20
368.8806281023
 11
228.4317429102
 21
506.7716111733
 70
160
  1
<>mm (12.6")
  3
DIMSTYLE_1
100
AcDbAlignedDimension
 13
436.7281509487
 23
687.4303540235
 14
459.1978293938
 24
368.8806281023
 50
270.0
100
AcDbRotatedDimension
  0
DIMENSION
  5
35E
100
AcDbEntity
  8
0
100
AcDbDimension
 62
2
  6
CONTINUOUS
  2
*D2
 10
282.84654493
 20
368.8806281023
 11
286.5814675474
 21
495.7717482127
 70
160
  1
<>mm (11.7")
  3
DIMSTYLE_1
100
AcDbAlignedDimension
 13
403.1963528414
 23
665.4306281023
 14
459.1978293938
 24
368.8806281023
 50
270.0
100
AcDbRotatedDimension
  0
DIMENSION
  5
35F
100
AcDbEntity
  8
0
100
AcDbDimension
 62
2
  6
CONTINUOUS
  2
*D3
 10
578.4490805274
 20
323.7019327818
 11
439.5978293938
 21
330.4519327818
 70
160
  1
<>mm (9.3")
  3
DIMSTYLE_1
100
AcDbAlignedDimension
 13
343.9465782601
 23
461.4124761835
 14
578.4490805274
 24
461.4124761835
100
AcDbRotatedDimension
  0
LINE
  5
360
100
AcDbEntity
  8
0
100
AcDbLine
 62
2
  6
CONTINUOUS
 10
1290.0
 20
140.0
 11
1356.0
 21
140.0
  0
LINE
  5
361
100
AcDbEntity
  8
0
100
AcDbLine
 62
2
  6
CONTINUOUS
 10
1290.0
 20
140.0
 11
1290.0
 21
128.0
  0
LINE
  5
362
100
AcDbEntity
  8
0
100
AcDbLine
 62
2
  6
CONTINUOUS
 10
1290.0
 20
128.0
 11
1356.0
 21
128.0
  0
LINE
  5
363
100
AcDbEntity
  8
0
100
AcDbLine
 62
2
  6
CONTINUOUS
 10
1356.0
 20
140.0
 11
1356.0
 21
128.0
  0
MTEXT
  5
364
100
AcDbEntity
  8
0
100
AcDbMText
 62
2
  6
CONTINUOUS
  7
STANDARD
 71
2
 72
1
 10
1323.0
 20
136.5
 30
0.0
 11
1.0
 21
0.0
 31
0.0
  1
거짓
 40
5.0
 41
9.3333333333
  0
LINE
  5
365
100
AcDbEntity
  8
0
100
AcDbLine
 62
2
  6
CONTINUOUS
 10
1356.0
 20
140.0
 11
1442.0
 21
140.0
  0
LINE
  5
366
100
AcDbEntity
  8
0
100
AcDbLine
 62
2
  6
CONTINUOUS
 10
1356.0
 20
140.0
 11
1356.0
 21
128.0
  0
LINE
  5
367
100
AcDbEntity
  8
0
100
AcDbLine
 62
2
  6
CONTINUOUS
 10
1356.0
 20
128.0
 11
1442.0
 21
128.0
  0
LINE
  5
368
100
AcDbEntity
  8
0
100
AcDbLine
 62
2
  6
CONTINUOUS
 10
1442.0
 20
140.0
 11
1442.0
 21
128.0
  0
MTEXT
  5
369
100
AcDbEntity
  8
0
100
AcDbMText
 62
2
  6
CONTINUOUS
  7
STANDARD
 71
2
 72
1
 10
1399.0
 20
137.0
 30
0.0
 11
1.0
 21
0.0
 31
0.0
  1
[TBD]
 40
6.0
 41
24.0
  0
LINE
  5
36A
100
AcDbEntity
  8
0
100
AcDbLine
 62
2
  6
CONTINUOUS
 10
1442.0
 20
140.0
 11
1460.0
 21
140.0
  0
LINE
  5
36B
100
AcDbEntity
  8
0
100
AcDbLine
 62
2
  6
CONTINUOUS
 10
1442.0
 20
140.0
 11
1442.0
 21
128.0
  0
LINE
  5
36C
100
AcDbEntity
  8
0
100
AcDbLine
 62
2
  6
CONTINUOUS
 10
1442.0
 20
128.0
 11
1460.0
 21
128.0
  0
LINE
  5
36D
100
AcDbEntity
  8
0
100
AcDbLine
 62
2
  6
CONTINUOUS
 10
1460.0
 20
140.0
 11
1460.0
 21
128.0
  0
MTEXT
  5
36E
100
AcDbEntity
  8
0
100
AcDbMText
 62
2
  6
CONTINUOUS
  7
STANDARD
 71
2
 72
1
 10
1451.0
 20
137.0
 30
0.0
 11
1.0
 21
0.0
 31
0.0
  1
거짓
 40
6.0
 41
11.2
  0
LINE
  5
36F
100
AcDbEntity
  8
0
100
AcDbLine
 62
2
  6
CONTINUOUS
 10
1322.0
 20
116.0
 11
1348.0
 21
116.0
  0
LINE
  5
370
100
AcDbEntity
  8
0
100
AcDbLine
 62
2
  6
CONTINUOUS
 10
1322.0
 20
116.0
 11
1322.0
 21
94.0
  0
LINE
  5
371
100
AcDbEntity
  8
0
100
AcDbLine
 62
2
  6
CONTINUOUS
 10
1322.0
 20
94.0
 11
1348.0
 21
94.0
  0
LINE
  5
372
100
AcDbEntity
  8
0
100
AcDbLine
 62
2
  6
CONTINUOUS
 10
1348.0
 20
116.0
 11
1348.0
 21
94.0
  0
MTEXT
  5
373
100
AcDbEntity
  8
0
100
AcDbMText
 62
2
  6
CONTINUOUS
  7
STANDARD
 71
2
 72
1
 10
1335.0
 20
108.0
 30
0.0
 11
1.0
 21
0.0
 31
0.0
  1
거짓
 40
6.0
 41
11.2
  0
LINE
  5
374
100
AcDbEntity
  8
0
100
AcDbLine
 62
2
  6
CONTINUOUS
 10
1360.0
 20
116.0
 11
1386.0
 21
116.0
  0
LINE
  5
375
100
AcDbEntity
  8
0
100
AcDbLine
 62
2
  6
CONTINUOUS
 10
1360.0
 20
116.0
 11
1360.0
 21
94.0
  0
LINE
  5
376
100
AcDbEntity
  8
0
100
AcDbLine
 62
2
  6
CONTINUOUS
 10
1360.0
 20
94.0
 11
1386.0
 21
94.0
  0
LINE
  5
377
100
AcDbEntity
  8
0
100
AcDbLine
 62
2
  6
CONTINUOUS
 10
1386.0
 20
116.0
 11
1386.0
 21
94.0
  0
MTEXT
  5
378
100
AcDbEntity
  8
0
100
AcDbMText
 62
2
  6
CONTINUOUS
  7
TEXTSTYLE_1
 71
2
 72
1
 10
1373.0
 20
108.0
 30
0.0
 11
1.0
 21
0.0
 31
0.0
  1
{\Fgdt;`}\Ftxt;거짓
 40
6.0
 41
18.2
  0
LINE
  5
379
100
AcDbEntity
  8
0
100
AcDbLine
 62
2
  6
CONTINUOUS
 10
1398.0
 20
116.0
 11
1430.0
 21
116.0
  0
LINE
  5
37A
100
AcDbEntity
  8
0
100
AcDbLine
 62
2
  6
CONTINUOUS
 10
1398.0
 20
116.0
 11
1398.0
 21
102.0
  0
LINE
  5
37B
100
AcDbEntity
  8
0
100
AcDbLine
 62
2
  6
CONTINUOUS
 10
1398.0
 20
102.0
 11
1430.0
 21
102.0
  0
LINE
  5
37C
100
AcDbEntity
  8
0
100
AcDbLine
 62
2
  6
CONTINUOUS
 10
1430.0
 20
116.0
 11
1430.0
 21
102.0
  0
MTEXT
  5
37D
100
AcDbEntity
  8
0
100
AcDbMText
 62
2
  6
CONTINUOUS
  7
STANDARD
 71
2
 72
1
 10
1414.0
 20
112.0
 30
0.0
 11
1.0
 21
0.0
 31
0.0
  1
거짓
 40
6.0
 41
11.2
  0
LINE
  5
37E
100
AcDbEntity
  8
0
100
AcDbLine
 62
2
  6
CONTINUOUS
 10
1398.0
 20
102.0
 11
1430.0
 21
102.0
  0
LINE
  5
37F
100
AcDbEntity
  8
0
100
AcDbLine
 62
2
  6
CONTINUOUS
 10
1398.0
 20
102.0
 11
1398.0
 21
94.0
  0
LINE
  5
380
100
AcDbEntity
  8
0
100
AcDbLine
 62
2
  6
CONTINUOUS
 10
1398.0
 20
94.0
 11
1430.0
 21
94.0
  0
LINE
  5
381
100
AcDbEntity
  8
0
100
AcDbLine
 62
2
  6
CONTINUOUS
 10
1430.0
 20
102.0
 11
1430.0
 21
94.0
  0
MTEXT
  5
382
100
AcDbEntity
  8
0
100
AcDbMText
 62
2
  6
CONTINUOUS
  7
STANDARD
 71
2
 72
1
 10
1414.0
 20
100.0
 30
0.0
 11
1.0
 21
0.0
 31
0.0
  1
거짓
 40
4.0
 41
7.4666666667
  0
LINE
  5
383
100
AcDbEntity
  8
0
100
AcDbLine
 62
2
  6
CONTINUOUS
 10
1442.0
 20
116.0
 11
1624.0
 21
116.0
  0
LINE
  5
384
100
AcDbEntity
  8
0
100
AcDbLine
 62
2
  6
CONTINUOUS
 10
1442.0
 20
116.0
 11
1442.0
 21
98.0
  0
LINE
  5
385
100
AcDbEntity
  8
0
100
AcDbLine
 62
2
  6
CONTINUOUS
 10
1442.0
 20
98.0
 11
1624.0
 21
98.0
  0
LINE
  5
386
100
AcDbEntity
  8
0
100
AcDbLine
 62
2
  6
CONTINUOUS
 10
1624.0
 20
116.0
 11
1624.0
 21
98.0
  0
MTEXT
  5
387
100
AcDbEntity
  8
0
100
AcDbMText
 62
7
  6
CONTINUOUS
  7
STANDARD
 71
2
 72
1
 10
1533.0
 20
111.0
 30
0.0
 11
1.0
 21
0.0
 31
0.0
  1
거짓
 40
8.0
 41
14.9333333333
  0
LINE
  5
388
100
AcDbEntity
  8
0
100
AcDbLine
 62
2
  6
CONTINUOUS
 10
1442.0
 20
98.0
 11
1624.0
 21
98.0
  0
LINE
  5
389
100
AcDbEntity
  8
0
100
AcDbLine
 62
2
  6
CONTINUOUS
 10
1442.0
 20
98.0
 11
1442.0
 21
80.0
  0
LINE
  5
38A
100
AcDbEntity
  8
0
100
AcDbLine
 62
2
  6
CONTINUOUS
 10
1442.0
 20
80.0
 11
1624.0
 21
80.0
  0
LINE
  5
38B
100
AcDbEntity
  8
0
100
AcDbLine
 62
2
  6
CONTINUOUS
 10
1624.0
 20
98.0
 11
1624.0
 21
80.0
  0
MTEXT
  5
38C
100
AcDbEntity
  8
0
100
AcDbMText
 62
7
  6
CONTINUOUS
  7
STANDARD
 71
2
 72
1
 10
1533.0
 20
93.0
 30
0.0
 11
1.0
 21
0.0
 31
0.0
  1
거짓
 40
8.0
 41
14.9333333333
  0
LINE
  5
38D
100
AcDbEntity
  8
0
100
AcDbLine
 62
2
  6
CONTINUOUS
 10
1528.0
 20
80.0
 11
1612.0
 21
80.0
  0
LINE
  5
38E
100
AcDbEntity
  8
0
100
AcDbLine
 62
2
  6
CONTINUOUS
 10
1528.0
 20
80.0
 11
1528.0
 21
50.0
  0
LINE
  5
38F
100
AcDbEntity
  8
0
100
AcDbLine
 62
2
  6
CONTINUOUS
 10
1528.0
 20
50.0
 11
1612.0
 21
50.0
  0
LINE
  5
390
100
AcDbEntity
  8
0
100
AcDbLine
 62
2
  6
CONTINUOUS
 10
1612.0
 20
80.0
 11
1612.0
 21
50.0
  0
MTEXT
  5
391
100
AcDbEntity
  8
0
100
AcDbMText
 62
7
  6
CONTINUOUS
  7
STANDARD
 71
2
 72
1
 10
1570.0
 20
69.0
 30
0.0
 11
1.0
 21
0.0
 31
0.0
  1
[TBD]
 40
8.0
 41
32.0
  0
LINE
  5
392
100
AcDbEntity
  8
0
100
AcDbLine
 62
2
  6
CONTINUOUS
 10
1612.0
 20
80.0
 11
1624.0
 21
80.0
  0
LINE
  5
393
100
AcDbEntity
  8
0
100
AcDbLine
 62
2
  6
CONTINUOUS
 10
1612.0
 20
80.0
 11
1612.0
 21
64.0
  0
LINE
  5
394
100
AcDbEntity
  8
0
100
AcDbLine
 62
2
  6
CONTINUOUS
 10
1612.0
 20
64.0
 11
1624.0
 21
64.0
  0
LINE
  5
395
100
AcDbEntity
  8
0
100
AcDbLine
 62
2
  6
CONTINUOUS
 10
1624.0
 20
80.0
 11
1624.0
 21
64.0
  0
MTEXT
  5
396
100
AcDbEntity
  8
0
100
AcDbMText
 62
7
  6
CONTINUOUS
  7
STANDARD
 71
2
 72
1
 10
1618.0
 20
75.0
 30
0.0
 11
1.0
 21
0.0
 31
0.0
  1
거짓
 40
6.0
 41
11.2
  0
LINE
  5
397
100
AcDbEntity
  8
0
100
AcDbLine
 62
2
  6
CONTINUOUS
 10
1612.0
 20
64.0
 11
1624.0
 21
64.0
  0
LINE
  5
398
100
AcDbEntity
  8
0
100
AcDbLine
 62
2
  6
CONTINUOUS
 10
1612.0
 20
64.0
 11
1612.0
 21
50.0
  0
LINE
  5
399
100
AcDbEntity
  8
0
100
AcDbLine
 62
2
  6
CONTINUOUS
 10
1612.0
 20
50.0
 11
1624.0
 21
50.0
  0
LINE
  5
39A
100
AcDbEntity
  8
0
100
AcDbLine
 62
2
  6
CONTINUOUS
 10
1624.0
 20
64.0
 11
1624.0
 21
50.0
  0
MTEXT
  5
39B
100
AcDbEntity
  8
0
100
AcDbMText
 62
7
  6
CONTINUOUS
  7
STANDARD
 71
2
 72
1
 10
1618.0
 20
60.0
 30
0.0
 11
1.0
 21
0.0
 31
0.0
  1
거짓
 40
6.0
 41
11.2
  0
LINE
  5
39C
100
AcDbEntity
  8
0
100
AcDbLine
 62
2
  6
CONTINUOUS
 10
1535.8533826657
 20
49.3932013188
 11
1615.8533826657
 21
49.3932013188
  0
LINE
  5
39D
100
AcDbEntity
  8
0
100
AcDbLine
 62
2
  6
CONTINUOUS
 10
1535.8533826657
 20
49.3932013188
 11
1535.8533826657
 21
43.3932013188
  0
LINE
  5
39E
100
AcDbEntity
  8
0
100
AcDbLine
 62
2
  6
CONTINUOUS
 10
1535.8533826657
 20
43.3932013188
 11
1615.8533826657
 21
43.3932013188
  0
LINE
  5
39F
100
AcDbEntity
  8
0
100
AcDbLine
 62
2
  6
CONTINUOUS
 10
1615.8533826657
 20
49.3932013188
 11
1615.8533826657
 21
43.3932013188
  0
MTEXT
  5
3A0
100
AcDbEntity
  8
0
100
AcDbMText
 62
2
  6
CONTINUOUS
  7
STANDARD
 71
2
 72
1
 10
1575.8533826657
 20
48.3932013188
 30
0.0
 11
1.0
 21
0.0
 31
0.0
  1
SHP-3700H
 40
4.0
 41
28.8
  0
LINE
  5
3A1
100
AcDbEntity
  8
0
100
AcDbLine
 62
2
  6
CONTINUOUS
 10
1450.0
 20
80.0
 11
1516.0
 21
80.0
  0
LINE
  5
3A2
100
AcDbEntity
  8
0
100
AcDbLine
 62
2
  6
CONTINUOUS
 10
1450.0
 20
80.0
 11
1450.0
 21
50.0
  0
LINE
  5
3A3
100
AcDbEntity
  8
0
100
AcDbLine
 62
2
  6
CONTINUOUS
 10
1450.0
 20
50.0
 11
1516.0
 21
50.0
  0
LINE
  5
3A4
100
AcDbEntity
  8
0
100
AcDbLine
 62
2
  6
CONTINUOUS
 10
1516.0
 20
80.0
 11
1516.0
 21
50.0
  0
MTEXT
  5
3A5
100
AcDbEntity
  8
0
100
AcDbMText
 62
2
  6
CONTINUOUS
  7
STANDARD
 71
2
 72
1
 10
1483.0
 20
69.0
 30
0.0
 11
1.0
 21
0.0
 31
0.0
  1
거짓
 40
8.0
 41
14.9333333333
  0
LINE
  5
3A6
100
AcDbEntity
  8
0
100
AcDbLine
 62
7
  6
CONTINUOUS
 10
-0.0
 20
0.0
 11
-0.0
 21
1188.0
  0
LINE
  5
3A7
100
AcDbEntity
  8
0
100
AcDbLine
 62
7
  6
CONTINUOUS
 10
60.0
 20
1142.0
 11
60.0
 21
50.0
  0
LINE
  5
3A8
100
AcDbEntity
  8
0
100
AcDbLine
 62
7
  6
CONTINUOUS
 10
-0.0
 20
0.0
 11
1682.0
 21
0.0
  0
LINE
  5
3A9
100
AcDbEntity
  8
0
100
AcDbLine
 62
7
  6
CONTINUOUS
 10
60.0
 20
50.0
 11
1624.0
 21
50.0
  0
LINE
  5
3AA
100
AcDbEntity
  8
0
100
AcDbLine
 62
2
  6
CONTINUOUS
 10
1398.0
 20
58.0
 11
1430.0
 21
58.0
  0
LINE
  5
3AB
100
AcDbEntity
  8
0
100
AcDbLine
 62
2
  6
CONTINUOUS
 10
1612.0
 20
64.0
 11
1624.0
 21
64.0
  0
LINE
  5
3AC
100
AcDbEntity
  8
0
100
AcDbLine
 62
2
  6
CONTINUOUS
 10
1386.0
 20
72.0
 11
1430.0
 21
72.0
  0
LINE
  5
3AD
100
AcDbEntity
  8
0
100
AcDbLine
 62
2
  6
CONTINUOUS
 10
1398.0
 20
80.0
 11
1624.0
 21
80.0
  0
LINE
  5
3AE
100
AcDbEntity
  8
0
100
AcDbLine
 62
2
  6
CONTINUOUS
 10
1272.0
 20
94.0
 11
1430.0
 21
94.0
  0
LINE
  5
3AF
100
AcDbEntity
  8
0
100
AcDbLine
 62
2
  6
CONTINUOUS
 10
1442.0
 20
98.0
 11
1624.0
 21
98.0
  0
LINE
  5
3B0
100
AcDbEntity
  8
0
100
AcDbLine
 62
2
  6
CONTINUOUS
 10
1398.0
 20
102.0
 11
1430.0
 21
102.0
  0
LINE
  5
3B1
100
AcDbEntity
  8
0
100
AcDbLine
 62
7
  6
CONTINUOUS
 10
1272.0
 20
116.0
 11
1624.0
 21
116.0
  0
LINE
  5
3B2
100
AcDbEntity
  8
0
100
AcDbLine
 62
2
  6
CONTINUOUS
 10
1272.0
 20
128.0
 11
1624.0
 21
128.0
  0
LINE
  5
3B3
100
AcDbEntity
  8
0
100
AcDbLine
 62
2
  6
CONTINUOUS
 10
1624.0
 20
140.0
 11
1272.0
 21
140.0
  0
LINE
  5
3B4
100
AcDbEntity
  8
0
100
AcDbLine
 62
7
  6
CONTINUOUS
 10
1278.50793
 20
67.96772
 11
1277.999006
 21
68.476646
  0
LINE
  5
3B5
100
AcDbEntity
  8
0
100
AcDbLine
 62
7
  6
CONTINUOUS
 10
1279.547442
 20
67.352474
 11
1277.393104
 21
69.506812
  0
LINE
  5
3B6
100
AcDbEntity
  8
0
100
AcDbLine
 62
7
  6
CONTINUOUS
 10
1280.292812
 20
67.031366
 11
1277.212894
 21
70.111284
  0
LINE
  5
3B7
100
AcDbEntity
  8
0
100
AcDbLine
 62
7
  6
CONTINUOUS
 10
1281.001718
 20
66.746726
 11
1277.143084
 21
70.605362
  0
LINE
  5
3B8
100
AcDbEntity
  8
0
100
AcDbLine
 62
7
  6
CONTINUOUS
 10
1281.679892
 20
66.492816
 11
1277.135594
 21
71.037114
  0
LINE
  5
3B9
100
AcDbEntity
  8
0
100
AcDbLine
 62
7
  6
CONTINUOUS
 10
1282.331666
 20
66.265304
 11
1277.171176
 21
71.425794
  0
LINE
  5
3BA
100
AcDbEntity
  8
0
100
AcDbLine
 62
7
  6
CONTINUOUS
 10
1282.960412
 20
66.060824
 11
1277.239834
 21
71.7814
  0
LINE
  5
3BB
100
AcDbEntity
  8
0
100
AcDbLine
 62
7
  6
CONTINUOUS
 10
1283.56881
 20
65.87669
 11
1277.335636
 21
72.109864
  0
LINE
  5
3BC
100
AcDbEntity
  8
0
100
AcDbLine
 62
7
  6
CONTINUOUS
 10
1284.159038
 20
65.710724
 11
1277.454782
 21
72.414984
  0
LINE
  5
3BD
100
AcDbEntity
  8
0
100
AcDbLine
 62
7
  6
CONTINUOUS
 10
1284.732894
 20
65.561132
 11
1277.594732
 21
72.699296
  0
LINE
  5
3BE
100
AcDbEntity
  8
0
100
AcDbLine
 62
7
  6
CONTINUOUS
 10
1285.29188
 20
65.426412
 11
1277.75377
 21
72.96452
  0
LINE
  5
3BF
100
AcDbEntity
  8
0
100
AcDbLine
 62
7
  6
CONTINUOUS
 10
1285.83727
 20
65.305286
 11
1277.930752
 21
73.211804
  0
LINE
  5
3C0
100
AcDbEntity
  8
0
100
AcDbLine
 62
7
  6
CONTINUOUS
 10
1286.370154
 20
65.196666
 11
1278.124966
 21
73.441852
  0
LINE
  5
3C1
100
AcDbEntity
  8
0
100
AcDbLine
 62
7
  6
CONTINUOUS
 10
1286.891474
 20
65.09961
 11
1278.335344
 21
73.65574
  0
LINE
  5
3C2
100
AcDbEntity
  8
0
100
AcDbLine
 62
7
  6
CONTINUOUS
 10
1287.40205
 20
65.0133
 11
1278.551222
 21
73.864128
  0
LINE
  5
3C3
100
AcDbEntity
  8
0
100
AcDbLine
 62
7
  6
CONTINUOUS
 10
1287.902598
 20
64.937012
 11
1278.769118
 21
74.070494
  0
LINE
  5
3C4
100
AcDbEntity
  8
0
100
AcDbLine
 62
7
  6
CONTINUOUS
 10
1288.393758
 20
64.870118
 11
1278.989034
 21
74.274842
  0
LINE
  5
3C5
100
AcDbEntity
  8
0
100
AcDbLine
 62
7
  6
CONTINUOUS
 10
1288.876096
 20
64.812044
 11
1279.210972
 21
74.477168
  0
LINE
  5
3C6
100
AcDbEntity
  8
0
100
AcDbLine
 62
7
  6
CONTINUOUS
 10
1289.350364
 20
64.76204
 11
1279.434932
 21
74.677472
  0
LINE
  5
3C7
100
AcDbEntity
  8
0
100
AcDbLine
 62
7
  6
CONTINUOUS
 10
1289.82009
 20
64.716578
 11
1279.660918
 21
74.875748
  0
LINE
  5
3C8
100
AcDbEntity
  8
0
100
AcDbLine
 62
7
  6
CONTINUOUS
 10
1290.286336
 20
64.674596
 11
1279.888938
 21
75.071994
  0
LINE
  5
3C9
100
AcDbEntity
  8
0
100
AcDbLine
 62
7
  6
CONTINUOUS
 10
1290.749182
 20
64.636014
 11
1280.118992
 21
75.266202
  0
LINE
  5
3CA
100
AcDbEntity
  8
0
100
AcDbLine
 62
7
  6
CONTINUOUS
 10
1291.20871
 20
64.600748
 11
1280.35109
 21
75.458372
  0
LINE
  5
3CB
100
AcDbEntity
  8
0
100
AcDbLine
 62
7
  6
CONTINUOUS
 10
1291.664996
 20
64.568728
 11
1280.585228
 21
75.648496
  0
LINE
  5
3CC
100
AcDbEntity
  8
0
100
AcDbLine
 62
7
  6
CONTINUOUS
 10
1292.11811
 20
64.53988
 11
1280.821422
 21
75.836568
  0
LINE
  5
3CD
100
AcDbEntity
  8
0
100
AcDbLine
 62
7
  6
CONTINUOUS
 10
1292.568118
 20
64.514136
 11
1281.059672
 21
76.02258
  0
LINE
  5
3CE
100
AcDbEntity
  8
0
100
AcDbLine
 62
7
  6
CONTINUOUS
 10
1293.015092
 20
64.491426
 11
1281.29999
 21
76.206528
  0
LINE
  5
3CF
100
AcDbEntity
  8
0
100
AcDbLine
 62
7
  6
CONTINUOUS
 10
1293.459092
 20
64.471688
 11
1281.54238
 21
76.3884
  0
LINE
  5
3D0
100
AcDbEntity
  8
0
100
AcDbLine
 62
7
  6
CONTINUOUS
 10
1293.900178
 20
64.454868
 11
1281.786854
 21
76.56819
  0
LINE
  5
3D1
100
AcDbEntity
  8
0
100
AcDbLine
 62
7
  6
CONTINUOUS
 10
1294.338414
 20
64.440896
 11
1282.03342
 21
76.745892
  0
LINE
  5
3D2
100
AcDbEntity
  8
0
100
AcDbLine
 62
7
  6
CONTINUOUS
 10
1294.77385
 20
64.429722
 11
1282.282086
 21
76.921488
  0
LINE
  5
3D3
100
AcDbEntity
  8
0
100
AcDbLine
 62
7
  6
CONTINUOUS
 10
1295.206544
 20
64.421294
 11
1282.532862
 21
77.094974
  0
LINE
  5
3D4
100
AcDbEntity
  8
0
100
AcDbLine
 62
7
  6
CONTINUOUS
 10
1295.636546
 20
64.415556
 11
1282.785764
 21
77.266338
  0
LINE
  5
3D5
100
AcDbEntity
  8
0
100
AcDbLine
 62
7
  6
CONTINUOUS
 10
1286.821192
 20
73.655174
 11
1283.0408
 21
77.435564
  0
LINE
  5
3D6
100
AcDbEntity
  8
0
100
AcDbLine
 62
7
  6
CONTINUOUS
 10
1296.063908
 20
64.412456
 11
1287.353252
 21
73.123112
  0
LINE
  5
3D7
100
AcDbEntity
  8
0
100
AcDbLine
 62
7
  6
CONTINUOUS
 10
1286.706776
 20
74.193854
 11
1283.297984
 21
77.602646
  0
LINE
  5
3D8
100
AcDbEntity
  8
0
100
AcDbLine
 62
7
  6
CONTINUOUS
 10
1296.488678
 20
64.41195
 11
1287.891932
 21
73.008698
  0
LINE
  5
3D9
100
AcDbEntity
  8
0
100
AcDbLine
 62
7
  6
CONTINUOUS
 10
1296.910902
 20
64.41399
 11
1288.316194
 21
73.008698
  0
LINE
  5
3DA
100
AcDbEntity
  8
0
100
AcDbLine
 62
7
  6
CONTINUOUS
 10
1286.706776
 20
74.618118
 11
1283.557328
 21
77.767566
  0
LINE
  5
3DB
100
AcDbEntity
  8
0
100
AcDbLine
 62
7
  6
CONTINUOUS
 10
1286.706776
 20
75.04238
 11
1283.818846
 21
77.93031
  0
LINE
  5
3DC
100
AcDbEntity
  8
0
100
AcDbLine
 62
7
  6
CONTINUOUS
 10
1297.330626
 20
64.418532
 11
1288.74046
 21
73.008698
  0
LINE
  5
3DD
100
AcDbEntity
  8
0
100
AcDbLine
 62
7
  6
CONTINUOUS
 10
1297.747892
 20
64.42553
 11
1289.164724
 21
73.008698
  0
LINE
  5
3DE
100
AcDbEntity
  8
0
100
AcDbLine
 62
7
  6
CONTINUOUS
 10
1286.706776
 20
75.466646
 11
1284.082556
 21
78.090866
  0
LINE
  5
3DF
100
AcDbEntity
  8
0
100
AcDbLine
 62
7
  6
CONTINUOUS
 10
1298.162744
 20
64.434942
 11
1289.58899
 21
73.008698
  0
LINE
  5
3E0
100
AcDbEntity
  8
0
100
AcDbLine
 62
7
  6
CONTINUOUS
 10
1286.839758
 20
75.757928
 11
1284.348472
 21
78.249216
  0
LINE
  5
3E1
100
AcDbEntity
  8
0
100
AcDbLine
 62
7
  6
CONTINUOUS
 10
1287.26402
 20
75.757928
 11
1284.616606
 21
78.405342
  0
LINE
  5
3E2
100
AcDbEntity
  8
0
100
AcDbLine
 62
7
  6
CONTINUOUS
 10
1298.57522
 20
64.446728
 11
1290.013252
 21
73.008698
  0
LINE
  5
3E3
100
AcDbEntity
  8
0
100
AcDbLine
 62
7
  6
CONTINUOUS
 10
1298.985362
 20
64.460852
 11
1290.437516
 21
73.008698
  0
LINE
  5
3E4
100
AcDbEntity
  8
0
100
AcDbLine
 62
7
  6
CONTINUOUS
 10
1287.688286
 20
75.757928
 11
1284.886984
 21
78.55923
  0
LINE
  5
3E5
100
AcDbEntity
  8
0
100
AcDbLine
 62
7
  6
CONTINUOUS
 10
1299.393206
 20
64.477274
 11
1290.83726
 21
73.033216
  0
LINE
  5
3E6
100
AcDbEntity
  8
0
100
AcDbLine
 62
7
  6
CONTINUOUS
 10
1288.11255
 20
75.757928
 11
1285.159618
 21
78.71086
  0
LINE
  5
3E7
100
AcDbEntity
  8
0
100
AcDbLine
 62
7
  6
CONTINUOUS
 10
1289.486488
 20
74.383988
 11
1288.7687
 21
75.101778
  0
LINE
  5
3E8
100
AcDbEntity
  8
0
100
AcDbLine
 62
7
  6
CONTINUOUS
 10
1288.536812
 20
75.757928
 11
1287.635338
 21
76.659402
  0
LINE
  5
3E9
100
AcDbEntity
  8
0
100
AcDbLine
 62
7
  6
CONTINUOUS
 10
1299.798786
 20
64.495956
 11
1291.14754
 21
73.147204
  0
LINE
  5
3EA
100
AcDbEntity
  8
0
100
AcDbLine
 62
7
  6
CONTINUOUS
 10
1286.737218
 20
77.557524
 11
1285.43453
 21
78.860214
  0
LINE
  5
3EB
100
AcDbEntity
  8
0
100
AcDbLine
 62
7
  6
CONTINUOUS
 10
1289.81203
 20
74.48271
 11
1288.7687
 21
75.526044
  0
LINE
  5
3EC
100
AcDbEntity
  8
0
100
AcDbLine
 62
7
  6
CONTINUOUS
 10
1300.202142
 20
64.516864
 11
1291.39295
 21
73.326056
  0
LINE
  5
3ED
100
AcDbEntity
  8
0
100
AcDbLine
 62
7
  6
CONTINUOUS
 10
1290.028582
 20
74.690424
 11
1288.417396
 21
76.30161
  0
LINE
  5
3EE
100
AcDbEntity
  8
0
100
AcDbLine
 62
7
  6
CONTINUOUS
 10
1286.706776
 20
78.01223
 11
1285.711736
 21
79.00727
  0
LINE
  5
3EF
100
AcDbEntity
  8
0
100
AcDbLine
 62
7
  6
CONTINUOUS
 10
1290.140008
 20
75.003264
 11
1289.199452
 21
75.943818
  0
LINE
  5
3F0
100
AcDbEntity
  8
0
100
AcDbLine
 62
7
  6
CONTINUOUS
 10
1286.706776
 20
78.436494
 11
1285.991262
 21
79.152008
  0
LINE
  5
3F1
100
AcDbEntity
  8
0
100
AcDbLine
 62
7
  6
CONTINUOUS
 10
1300.603438
 20
64.539832
 11
1291.581772
 21
73.5615
  0
LINE
  5
3F2
100
AcDbEntity
  8
0
100
AcDbLine
 62
7
  6
CONTINUOUS
 10
1286.706776
 20
78.86076
 11
1286.273128
 21
79.294408
  0
LINE
  5
3F3
100
AcDbEntity
  8
0
100
AcDbLine
 62
7
  6
CONTINUOUS
 10
1301.003446
 20
64.564086
 11
1291.708382
 21
73.859152
  0
LINE
  5
3F4
100
AcDbEntity
  8
0
100
AcDbLine
 62
7
  6
CONTINUOUS
 10
1301.4023
 20
64.5895
 11
1291.747034
 21
74.244764
  0
LINE
  5
3F5
100
AcDbEntity
  8
0
100
AcDbLine
 62
7
  6
CONTINUOUS
 10
1286.710102
 20
79.281696
 11
1286.557358
 21
79.434444
  0
LINE
  5
3F6
100
AcDbEntity
  8
0
100
AcDbLine
 62
7
  6
CONTINUOUS
 10
1288.806142
 20
77.60992
 11
1288.341224
 21
78.074838
  0
LINE
  5
3F7
100
AcDbEntity
  8
0
100
AcDbLine
 62
7
  6
CONTINUOUS
 10
1301.800002
 20
64.616058
 11
1291.747034
 21
74.66903
  0
LINE
  5
3F8
100
AcDbEntity
  8
0
100
AcDbLine
 62
7
  6
CONTINUOUS
 10
1289.5882
 20
77.252126
 11
1288.345554
 21
78.494772
  0
LINE
  5
3F9
100
AcDbEntity
  8
0
100
AcDbLine
 62
7
  6
CONTINUOUS
 10
1302.196568
 20
64.64376
 11
1293.83163
 21
73.008698
  0
LINE
  5
3FA
100
AcDbEntity
  8
0
100
AcDbLine
 62
7
  6
CONTINUOUS
 10
1293.601434
 20
73.238892
 11
1291.747034
 21
75.093294
  0
LINE
  5
3FB
100
AcDbEntity
  8
0
100
AcDbLine
 62
7
  6
CONTINUOUS
 10
1293.637802
 20
73.626792
 11
1291.747034
 21
75.517556
  0
LINE
  5
3FC
100
AcDbEntity
  8
0
100
AcDbLine
 62
7
  6
CONTINUOUS
 10
1302.592002
 20
64.672588
 11
1294.255892
 21
73.008698
  0
LINE
  5
3FD
100
AcDbEntity
  8
0
100
AcDbLine
 62
7
  6
CONTINUOUS
 10
1290.370256
 20
76.894334
 11
1288.5062
 21
78.75839
  0
LINE
  5
3FE
100
AcDbEntity
  8
0
100
AcDbLine
 62
7
  6
CONTINUOUS
 10
1291.159724
 20
76.52913
 11
1290.098106
 21
77.590748
  0
LINE
  5
3FF
100
AcDbEntity
  8
0
100
AcDbLine
 62
7
  6
CONTINUOUS
 10
1302.986318
 20
64.702538
 11
1294.680158
 21
73.008698
  0
LINE
  5
400
100
AcDbEntity
  8
0
100
AcDbLine
 62
7
  6
CONTINUOUS
 10
1289.68511
 20
78.003746
 11
1288.764352
 21
78.924504
  0
LINE
  5
401
100
AcDbEntity
  8
0
100
AcDbLine
 62
7
  6
CONTINUOUS
 10
1293.674166
 20
74.014688
 11
1291.601824
 21
76.087032
  0
LINE
  5
402
100
AcDbEntity
  8
0
100
AcDbLine
 62
7
  6
CONTINUOUS
 10
1289.663302
 20
78.449816
 11
1289.16956
 21
78.943556
  0
LINE
  5
403
100
AcDbEntity
  8
0
100
AcDbLine
 62
7
  6
CONTINUOUS
 10
1293.71053
 20
74.402586
 11
1290.522368
 21
77.590748
  0
LINE
  5
404
100
AcDbEntity
  8
0
100
AcDbLine
 62
7
  6
CONTINUOUS
 10
1303.379518
 20
64.7336
 11
1295.104422
 21
73.008698
  0
LINE
  5
405
100
AcDbEntity
  8
0
100
AcDbLine
 62
7
  6
CONTINUOUS
 10
1303.771616
 20
64.765766
 11
1295.528684
 21
73.008698
  0
LINE
  5
406
100
AcDbEntity
  8
0
100
AcDbLine
 62
7
  6
CONTINUOUS
 10
1293.746896
 20
74.790486
 11
1290.946634
 21
77.590748
  0
LINE
  5
407
100
AcDbEntity
  8
0
100
AcDbLine
 62
7
  6
CONTINUOUS
 10
1304.16262
 20
64.799028
 11
1295.876958
 21
73.084688
  0
LINE
  5
408
100
AcDbEntity
  8
0
100
AcDbLine
 62
7
  6
CONTINUOUS
 10
1293.783262
 20
75.178384
 11
1291.370898
 21
77.590748
  0
LINE
  5
409
100
AcDbEntity
  8
0
100
AcDbLine
 62
7
  6
CONTINUOUS
 10
1288.621666
 20
80.33998
 11
1288.583276
 21
80.37837
  0
LINE
  5
40A
100
AcDbEntity
  8
0
100
AcDbLine
 62
7
  6
CONTINUOUS
 10
1304.552536
 20
64.833376
 11
1295.908386
 21
73.477526
  0
LINE
  5
40B
100
AcDbEntity
  8
0
100
AcDbLine
 62
7
  6
CONTINUOUS
 10
1293.819628
 20
75.566284
 11
1291.747034
 21
77.638878
  0
LINE
  5
40C
100
AcDbEntity
  8
0
100
AcDbLine
 62
7
  6
CONTINUOUS
 10
1289.04593
 20
80.33998
 11
1288.877094
 21
80.508818
  0
LINE
  5
40D
100
AcDbEntity
  8
0
100
AcDbLine
 62
7
  6
CONTINUOUS
 10
1293.855992
 20
75.954182
 11
1291.747034
 21
78.06314
  0
LINE
  5
40E
100
AcDbEntity
  8
0
100
AcDbLine
 62
7
  6
CONTINUOUS
 10
1289.470194
 20
80.33998
 11
1289.172026
 21
80.638148
  0
LINE
  5
40F
100
AcDbEntity
  8
0
100
AcDbLine
 62
7
  6
CONTINUOUS
 10
1304.941372
 20
64.868802
 11
1295.939814
 21
73.870362
  0
LINE
  5
410
100
AcDbEntity
  8
0
100
AcDbLine
 62
7
  6
CONTINUOUS
 10
1289.894458
 20
80.33998
 11
1289.468082
 21
80.766356
  0
LINE
  5
411
100
AcDbEntity
  8
0
100
AcDbLine
 62
7
  6
CONTINUOUS
 10
1305.32914
 20
64.9053
 11
1295.97124
 21
74.2632
  0
LINE
  5
412
100
AcDbEntity
  8
0
100
AcDbLine
 62
7
  6
CONTINUOUS
 10
1293.89236
 20
76.34208
 11
1291.747034
 21
78.487406
  0
LINE
  5
413
100
AcDbEntity
  8
0
100
AcDbLine
 62
7
  6
CONTINUOUS
 10
1297.168446
 20
73.490258
 11
1296.002668
 21
74.656036
  0
LINE
  5
414
100
AcDbEntity
  8
0
100
AcDbLine
 62
7
  6
CONTINUOUS
 10
1293.928724
 20
76.72998
 11
1291.747034
 21
78.91167
  0
LINE
  5
415
100
AcDbEntity
  8
0
100
AcDbLine
 62
7
  6
CONTINUOUS
 10
1290.318722
 20
80.33998
 11
1289.765266
 21
80.893436
  0
LINE
  5
416
100
AcDbEntity
  8
0
100
AcDbLine
 62
7
  6
CONTINUOUS
 10
1305.715842
 20
64.94286
 11
1297.650006
 21
73.008698
  0
LINE
  5
417
100
AcDbEntity
  8
0
100
AcDbLine
 62
7
  6
CONTINUOUS
 10
1290.753054
 20
80.329914
 11
1290.063584
 21
81.019382
  0
LINE
  5
418
100
AcDbEntity
  8
0
100
AcDbLine
 62
7
  6
CONTINUOUS
 10
1306.10149
 20
64.981476
 11
1298.074268
 21
73.008698
  0
LINE
  5
419
100
AcDbEntity
  8
0
100
AcDbLine
 62
7
  6
CONTINUOUS
 10
1297.087634
 20
73.995332
 11
1296.034094
 21
75.048872
  0
LINE
  5
41A
100
AcDbEntity
  8
0
100
AcDbLine
 62
7
  6
CONTINUOUS
 10
1293.96509
 20
77.117876
 11
1291.736966
 21
79.346
  0
LINE
  5
41B
100
AcDbEntity
  8
0
100
AcDbLine
 62
7
  6
CONTINUOUS
 10
1306.486094
 20
65.021138
 11
1298.498534
 21
73.008698
  0
LINE
  5
41C
100
AcDbEntity
  8
0
100
AcDbLine
 62
7
  6
CONTINUOUS
 10
1297.006822
 20
74.50041
 11
1296.065522
 21
75.44171
  0
LINE
  5
41D
100
AcDbEntity
  8
0
100
AcDbLine
 62
7
  6
CONTINUOUS
 10
1294.001454
 20
77.505776
 11
1290.363044
 21
81.144186
  0
LINE
  5
41E
100
AcDbEntity
  8
0
100
AcDbLine
 62
7
  6
CONTINUOUS
 10
1296.92601
 20
75.005486
 11
1296.096946
 21
75.834546
  0
LINE
  5
41F
100
AcDbEntity
  8
0
100
AcDbLine
 62
7
  6
CONTINUOUS
 10
1306.869654
 20
65.061842
 11
1298.922798
 21
73.008698
  0
LINE
  5
420
100
AcDbEntity
  8
0
100
AcDbLine
 62
7
  6
CONTINUOUS
 10
1294.037822
 20
77.893674
 11
1290.663652
 21
81.267844
  0
LINE
  5
421
100
AcDbEntity
  8
0
100
AcDbLine
 62
7
  6
CONTINUOUS
 10
1296.845198
 20
75.510564
 11
1296.128374
 21
76.227386
  0
LINE
  5
422
100
AcDbEntity
  8
0
100
AcDbLine
 62
7
  6
CONTINUOUS
 10
1294.074186
 20
78.281574
 11
1290.965416
 21
81.390344
  0
LINE
  5
423
100
AcDbEntity
  8
0
100
AcDbLine
 62
7
  6
CONTINUOUS
 10
1307.252182
 20
65.103576
 11
1299.347062
 21
73.008698
  0
LINE
  5
424
100
AcDbEntity
  8
0
100
AcDbLine
 62
7
  6
CONTINUOUS
 10
1307.633686
 20
65.146336
 11
1299.51223
 21
73.267792
  0
LINE
  5
425
100
AcDbEntity
  8
0
100
AcDbLine
 62
7
  6
CONTINUOUS
 10
1294.11055
 20
78.669472
 11
1291.268338
 21
81.511686
  0
LINE
  5
426
100
AcDbEntity
  8
0
100
AcDbLine
 62
7
  6
CONTINUOUS
 10
1296.764384
 20
76.015638
 11
1296.159802
 21
76.620222
  0
LINE
  5
427
100
AcDbEntity
  8
0
100
AcDbLine
 62
7
  6
CONTINUOUS
 10
1308.014174
 20
65.190114
 11
1299.468342
 21
73.735946
  0
LINE
  5
428
100
AcDbEntity
  8
0
100
AcDbLine
 62
7
  6
CONTINUOUS
 10
1294.146918
 20
79.05737
 11
1291.572428
 21
81.63186
  0
LINE
  5
429
100
AcDbEntity
  8
0
100
AcDbLine
 62
7
  6
CONTINUOUS
 10
1296.683572
 20
76.520714
 11
1296.191228
 21
77.01306
  0
LINE
  5
42A
100
AcDbEntity
  8
0
100
AcDbLine
 62
7
  6
CONTINUOUS
 10
1296.602762
 20
77.025792
 11
1296.222656
 21
77.405896
  0
LINE
  5
42B
100
AcDbEntity
  8
0
100
AcDbLine
 62
7
  6
CONTINUOUS
 10
1294.183282
 20
79.44527
 11
1291.877696
 21
81.750856
  0
LINE
  5
42C
100
AcDbEntity
  8
0
100
AcDbLine
 62
7
  6
CONTINUOUS
 10
1308.393646
 20
65.234904
 11
1299.424454
 21
74.2041
  0
LINE
  5
42D
100
AcDbEntity
  8
0
100
AcDbLine
 62
7
  6
CONTINUOUS
 10
1308.77212
 20
65.280698
 11
1299.380564
 21
74.672252
  0
LINE
  5
42E
100
AcDbEntity
  8
0
100
AcDbLine
 62
7
  6
CONTINUOUS
 10
1296.521948
 20
77.530866
 11
1296.254082
 21
77.798732
  0
LINE
  5
42F
100
AcDbEntity
  8
0
100
AcDbLine
 62
7
  6
CONTINUOUS
 10
1294.219648
 20
79.833168
 11
1292.184146
 21
81.86867
  0
LINE
  5
430
100
AcDbEntity
  8
0
100
AcDbLine
 62
7
  6
CONTINUOUS
 10
1309.149594
 20
65.327486
 11
1301.468382
 21
73.008698
  0
LINE
  5
431
100
AcDbEntity
  8
0
100
AcDbLine
 62
7
  6
CONTINUOUS
 10
1301.369342
 20
73.107738
 11
1299.336674
 21
75.140406
  0
LINE
  5
432
100
AcDbEntity
  8
0
100
AcDbLine
 62
7
  6
CONTINUOUS
 10
1296.441136
 20
78.035944
 11
1296.28551
 21
78.19157
  0
LINE
  5
433
100
AcDbEntity
  8
0
100
AcDbLine
 62
7
  6
CONTINUOUS
 10
1294.256012
 20
80.221068
 11
1292.491784
 21
81.985296
  0
LINE
  5
434
100
AcDbEntity
  8
0
100
AcDbLine
 62
7
  6
CONTINUOUS
 10
1309.526078
 20
65.375268
 11
1301.892646
 21
73.008698
  0
LINE
  5
435
100
AcDbEntity
  8
0
100
AcDbLine
 62
7
  6
CONTINUOUS
 10
1296.360322
 20
78.54102
 11
1296.316936
 21
78.584406
  0
LINE
  5
436
100
AcDbEntity
  8
0
100
AcDbLine
 62
7
  6
CONTINUOUS
 10
1294.561362
 20
80.33998
 11
1292.800618
 21
82.100724
  0
LINE
  5
437
100
AcDbEntity
  8
0
100
AcDbLine
 62
7
  6
CONTINUOUS
 10
1301.369342
 20
73.532
 11
1299.292784
 21
75.60856
  0
LINE
  5
438
100
AcDbEntity
  8
0
100
AcDbLine
 62
7
  6
CONTINUOUS
 10
1294.985626
 20
80.33998
 11
1293.11066
 21
82.214946
  0
LINE
  5
439
100
AcDbEntity
  8
0
100
AcDbLine
 62
7
  6
CONTINUOUS
 10
1309.901578
 20
65.42403
 11
1302.31691
 21
73.008698
  0
LINE
  5
43A
100
AcDbEntity
  8
0
100
AcDbLine
 62
7
  6
CONTINUOUS
 10
1301.369342
 20
73.956266
 11
1299.248896
 21
76.076714
  0
LINE
  5
43B
100
AcDbEntity
  8
0
100
AcDbLine
 62
7
  6
CONTINUOUS
 10
1310.276102
 20
65.47377
 11
1302.741174
 21
73.008698
  0
LINE
  5
43C
100
AcDbEntity
  8
0
100
AcDbLine
 62
7
  6
CONTINUOUS
 10
1301.369342
 20
74.38053
 11
1299.205006
 21
76.544868
  0
LINE
  5
43D
100
AcDbEntity
  8
0
100
AcDbLine
 62
7
  6
CONTINUOUS
 10
1295.409892
 20
80.33998
 11
1293.421916
 21
82.327958
  0
LINE
  5
43E
100
AcDbEntity
  8
0
100
AcDbLine
 62
7
  6
CONTINUOUS
 10
1295.834156
 20
80.33998
 11
1293.73439
 21
82.439744
  0
LINE
  5
43F
100
AcDbEntity
  8
0
100
AcDbLine
 62
7
  6
CONTINUOUS
 10
1310.649654
 20
65.524482
 11
1303.165438
 21
73.008698
  0
LINE
  5
440
100
AcDbEntity
  8
0
100
AcDbLine
 62
7
  6
CONTINUOUS
 10
1301.369342
 20
74.804792
 11
1299.161116
 21
77.01302
  0
LINE
  5
441
100
AcDbEntity
  8
0
100
AcDbLine
 62
7
  6
CONTINUOUS
 10
1301.369342
 20
75.229058
 11
1299.117226
 21
77.481172
  0
LINE
  5
442
100
AcDbEntity
  8
0
100
AcDbLine
 62
7
  6
CONTINUOUS
 10
1311.022244
 20
65.576156
 11
1303.431266
 21
73.167134
  0
LINE
  5
443
100
AcDbEntity
  8
0
100
AcDbLine
 62
7
  6
CONTINUOUS
 10
1296.258418
 20
80.33998
 11
1294.048096
 21
82.550306
  0
LINE
  5
444
100
AcDbEntity
  8
0
100
AcDbLine
 62
7
  6
CONTINUOUS
 10
1301.369342
 20
75.653322
 11
1299.073338
 21
77.949326
  0
LINE
  5
445
100
AcDbEntity
  8
0
100
AcDbLine
 62
7
  6
CONTINUOUS
 10
1296.682684
 20
80.33998
 11
1294.363036
 21
82.659628
  0
LINE
  5
446
100
AcDbEntity
  8
0
100
AcDbLine
 62
7
  6
CONTINUOUS
 10
1311.393874
 20
65.628788
 11
1303.431266
 21
73.591398
  0
LINE
  5
447
100
AcDbEntity
  8
0
100
AcDbLine
 62
7
  6
CONTINUOUS
 10
1311.764554
 20
65.682374
 11
1304.43823
 21
73.008698
  0
LINE
  5
448
100
AcDbEntity
  8
0
100
AcDbLine
 62
7
  6
CONTINUOUS
 10
1297.106948
 20
80.33998
 11
1294.679224
 21
82.767704
  0
LINE
  5
449
100
AcDbEntity
  8
0
100
AcDbLine
 62
7
  6
CONTINUOUS
 10
1301.369342
 20
76.077584
 11
1299.02945
 21
78.41748
  0
LINE
  5
44A
100
AcDbEntity
  8
0
100
AcDbLine
 62
7
  6
CONTINUOUS
 10
1304.32678
 20
73.120148
 11
1303.431266
 21
74.015664
  0
LINE
  5
44B
100
AcDbEntity
  8
0
100
AcDbLine
 62
7
  6
CONTINUOUS
 10
1304.228872
 20
73.642322
 11
1303.431266
 21
74.439926
  0
LINE
  5
44C
100
AcDbEntity
  8
0
100
AcDbLine
 62
7
  6
CONTINUOUS
 10
1301.369342
 20
76.50185
 11
1298.985558
 21
78.885632
  0
LINE
  5
44D
100
AcDbEntity
  8
0
100
AcDbLine
 62
7
  6
CONTINUOUS
 10
1297.53121
 20
80.33998
 11
1294.996666
 21
82.874524
  0
LINE
  5
44E
100
AcDbEntity
  8
0
100
AcDbLine
 62
7
  6
CONTINUOUS
 10
1312.134286
 20
65.736904
 11
1304.862496
 21
73.008698
  0
LINE
  5
44F
100
AcDbEntity
  8
0
100
AcDbLine
 62
7
  6
CONTINUOUS
 10
1312.503082
 20
65.792376
 11
1305.286758
 21
73.008698
  0
LINE
  5
450
100
AcDbEntity
  8
0
100
AcDbLine
 62
7
  6
CONTINUOUS
 10
1304.130964
 20
74.164492
 11
1303.431266
 21
74.86419
  0
LINE
  5
451
100
AcDbEntity
  8
0
100
AcDbLine
 62
7
  6
CONTINUOUS
 10
1301.369342
 20
76.926114
 11
1298.94167
 21
79.353786
  0
LINE
  5
452
100
AcDbEntity
  8
0
100
AcDbLine
 62
7
  6
CONTINUOUS
 10
1297.955476
 20
80.33998
 11
1295.315372
 21
82.980084
  0
LINE
  5
453
100
AcDbEntity
  8
0
100
AcDbLine
 62
7
  6
CONTINUOUS
 10
1301.369342
 20
77.35038
 11
1298.89778
 21
79.82194
  0
LINE
  5
454
100
AcDbEntity
  8
0
100
AcDbLine
 62
7
  6
CONTINUOUS
 10
1312.870942
 20
65.848778
 11
1305.711022
 21
73.008698
  0
LINE
  5
455
100
AcDbEntity
  8
0
100
AcDbLine
 62
7
  6
CONTINUOUS
 10
1298.37974
 20
80.33998
 11
1295.635352
 21
83.084368
  0
LINE
  5
456
100
AcDbEntity
  8
0
100
AcDbLine
 62
7
  6
CONTINUOUS
 10
1304.033058
 20
74.686662
 11
1303.431266
 21
75.288456
  0
LINE
  5
457
100
AcDbEntity
  8
0
100
AcDbLine
 62
7
  6
CONTINUOUS
 10
1298.804002
 20
80.33998
 11
1295.956614
 21
83.187368
  0
LINE
  5
458
100
AcDbEntity
  8
0
100
AcDbLine
 62
7
  6
CONTINUOUS
 10
1313.237876
 20
65.906108
 11
1306.135288
 21
73.008698
  0
LINE
  5
459
100
AcDbEntity
  8
0
100
AcDbLine
 62
7
  6
CONTINUOUS
 10
1301.369342
 20
77.774642
 11
1298.853892
 21
80.290094
  0
LINE
  5
45A
100
AcDbEntity
  8
0
100
AcDbLine
 62
7
  6
CONTINUOUS
 10
1303.93515
 20
75.208832
 11
1303.431266
 21
75.712718
  0
LINE
  5
45B
100
AcDbEntity
  8
0
100
AcDbLine
 62
7
  6
CONTINUOUS
 10
1303.837244
 20
75.731006
 11
1303.431266
 21
76.136982
  0
LINE
  5
45C
100
AcDbEntity
  8
0
100
AcDbLine
 62
7
  6
CONTINUOUS
 10
1301.369342
 20
78.198906
 11
1296.279166
 21
83.28908
  0
LINE
  5
45D
100
AcDbEntity
  8
0
100
AcDbLine
 62
7
  6
CONTINUOUS
 10
1313.603886
 20
65.964362
 11
1306.55955
 21
73.008698
  0
LINE
  5
45E
100
AcDbEntity
  8
0
100
AcDbLine
 62
7
  6
CONTINUOUS
 10
1301.369342
 20
78.623172
 11
1296.603022
 21
83.38949
  0
LINE
  5
45F
100
AcDbEntity
  8
0
100
AcDbLine
 62
7
  6
CONTINUOUS
 10
1313.968982
 20
66.023532
 11
1306.693194
 21
73.299318
  0
LINE
  5
460
100
AcDbEntity
  8
0
100
AcDbLine
 62
7
  6
CONTINUOUS
 10
1303.739336
 20
76.253176
 11
1303.431266
 21
76.561248
  0
LINE
  5
461
100
AcDbEntity
  8
0
100
AcDbLine
 62
7
  6
CONTINUOUS
 10
1314.333164
 20
66.083612
 11
1306.760182
 21
73.656594
  0
LINE
  5
462
100
AcDbEntity
  8
0
100
AcDbLine
 62
7
  6
CONTINUOUS
 10
1301.369342
 20
79.047434
 11
1296.92819
 21
83.488588
  0
LINE
  5
463
100
AcDbEntity
  8
0
100
AcDbLine
 62
7
  6
CONTINUOUS
 10
1303.641428
 20
76.775346
 11
1303.431266
 21
76.985512
  0
LINE
  5
464
100
AcDbEntity
  8
0
100
AcDbLine
 62
7
  6
CONTINUOUS
 10
1303.543522
 20
77.29752
 11
1303.431266
 21
77.409774
  0
LINE
  5
465
100
AcDbEntity
  8
0
100
AcDbLine
 62
7
  6
CONTINUOUS
 10
1307.555114
 20
73.285928
 11
1306.827172
 21
74.013868
  0
LINE
  5
466
100
AcDbEntity
  8
0
100
AcDbLine
 62
7
  6
CONTINUOUS
 10
1314.696442
 20
66.144596
 11
1307.832342
 21
73.008698
  0
LINE
  5
467
100
AcDbEntity
  8
0
100
AcDbLine
 62
7
  6
CONTINUOUS
 10
1301.369342
 20
79.471698
 11
1297.254556
 21
83.586486
  0
LINE
  5
468
100
AcDbEntity
  8
0
100
AcDbLine
 62
7
  6
CONTINUOUS
 10
1307.555114
 20
73.710192
 11
1306.89416
 21
74.371144
  0
LINE
  5
469
100
AcDbEntity
  8
0
100
AcDbLine
 62
7
  6
CONTINUOUS
 10
1315.058824
 20
66.206484
 11
1308.256606
 21
73.008698
  0
LINE
  5
46A
100
AcDbEntity
  8
0
100
AcDbLine
 62
7
  6
CONTINUOUS
 10
1301.369342
 20
79.895964
 11
1297.581678
 21
83.683626
  0
LINE
  5
46B
100
AcDbEntity
  8
0
100
AcDbLine
 62
7
  6
CONTINUOUS
 10
1307.555114
 20
74.134456
 11
1306.96115
 21
74.72842
  0
LINE
  5
46C
100
AcDbEntity
  8
0
100
AcDbLine
 62
7
  6
CONTINUOUS
 10
1301.369342
 20
80.320226
 11
1297.909522
 21
83.780046
  0
LINE
  5
46D
100
AcDbEntity
  8
0
100
AcDbLine
 62
7
  6
CONTINUOUS
 10
1315.420306
 20
66.269262
 11
1308.680872
 21
73.008698
  0
LINE
  5
46E
100
AcDbEntity
  8
0
100
AcDbLine
 62
7
  6
CONTINUOUS
 10
1307.555114
 20
74.55872
 11
1307.028138
 21
75.085694
  0
LINE
  5
46F
100
AcDbEntity
  8
0
100
AcDbLine
 62
7
  6
CONTINUOUS
 10
1305.550976
 20
76.562858
 11
1305.412288
 21
76.701546
  0
LINE
  5
470
100
AcDbEntity
  8
0
100
AcDbLine
 62
7
  6
CONTINUOUS
 10
1315.780902
 20
66.33293
 11
1309.105136
 21
73.008698
  0
LINE
  5
471
100
AcDbEntity
  8
0
100
AcDbLine
 62
7
  6
CONTINUOUS
 10
1301.773852
 20
80.33998
 11
1298.238088
 21
83.875746
  0
LINE
  5
472
100
AcDbEntity
  8
0
100
AcDbLine
 62
7
  6
CONTINUOUS
 10
1307.555114
 20
74.982986
 11
1307.095126
 21
75.44297
  0
LINE
  5
473
100
AcDbEntity
  8
0
100
AcDbLine
 62
7
  6
CONTINUOUS
 10
1316.140614
 20
66.397482
 11
1309.529398
 21
73.008698
  0
LINE
  5
474
100
AcDbEntity
  8
0
100
AcDbLine
 62
7
  6
CONTINUOUS
 10
1305.611586
 20
76.926512
 11
1305.327434
 21
77.210664
  0
LINE
  5
475
100
AcDbEntity
  8
0
100
AcDbLine
 62
7
  6
CONTINUOUS
 10
1302.198116
 20
80.33998
 11
1298.567378
 21
83.97072
  0
LINE
  5
476
100
AcDbEntity
  8
0
100
AcDbLine
 62
7
  6
CONTINUOUS
 10
1302.622382
 20
80.33998
 11
1298.897396
 21
84.064964
  0
LINE
  5
477
100
AcDbEntity
  8
0
100
AcDbLine
 62
7
  6
CONTINUOUS
 10
1316.499448
 20
66.462914
 11
1309.617034
 21
73.345326
  0
LINE
  5
478
100
AcDbEntity
  8
0
100
AcDbLine
 62
7
  6
CONTINUOUS
 10
1307.555114
 20
75.407248
 11
1307.162118
 21
75.800244
  0
LINE
  5
479
100
AcDbEntity
  8
0
100
AcDbLine
 62
7
  6
CONTINUOUS
 10
1305.672196
 20
77.290166
 11
1305.242582
 21
77.71978
  0
LINE
  5
47A
100
AcDbEntity
  8
0
100
AcDbLine
 62
7
  6
CONTINUOUS
 10
1316.857406
 20
66.529218
 11
1309.617034
 21
73.769588
  0
LINE
  5
47B
100
AcDbEntity
  8
0
100
AcDbLine
 62
7
  6
CONTINUOUS
 10
1307.555114
 20
75.831512
 11
1307.229106
 21
76.15752
  0
LINE
  5
47C
100
AcDbEntity
  8
0
100
AcDbLine
 62
7
  6
CONTINUOUS
 10
1303.046644
 20
80.33998
 11
1299.228146
 21
84.15848
  0
LINE
  5
47D
100
AcDbEntity
  8
0
100
AcDbLine
 62
7
  6
CONTINUOUS
 10
1305.732802
 20
77.65382
 11
1305.15773
 21
78.228896
  0
LINE
  5
47E
100
AcDbEntity
  8
0
100
AcDbLine
 62
7
  6
CONTINUOUS
 10
1317.214496
 20
66.596392
 11
1309.617034
 21
74.193854
  0
LINE
  5
47F
100
AcDbEntity
  8
0
100
AcDbLine
 62
7
  6
CONTINUOUS
 10
1305.793412
 20
78.017476
 11
1305.072874
 21
78.738014
  0
LINE
  5
480
100
AcDbEntity
  8
0
100
AcDbLine
 62
7
  6
CONTINUOUS
 10
1307.555114
 20
76.255778
 11
1307.296096
 21
76.514796
  0
LINE
  5
481
100
AcDbEntity
  8
0
100
AcDbLine
 62
7
  6
CONTINUOUS
 10
1303.470908
 20
80.33998
 11
1299.55963
 21
84.25126
  0
LINE
  5
482
100
AcDbEntity
  8
0
100
AcDbLine
 62
7
  6
CONTINUOUS
 10
1307.555114
 20
76.68004
 11
1307.363084
 21
76.872068
  0
LINE
  5
483
100
AcDbEntity
  8
0
100
AcDbLine
 62
7
  6
CONTINUOUS
 10
1305.854022
 20
78.381132
 11
1304.988022
 21
79.24713
  0
LINE
  5
484
100
AcDbEntity
  8
0
100
AcDbLine
 62
7
  6
CONTINUOUS
 10
1317.570724
 20
66.66443
 11
1309.617034
 21
74.618118
  0
LINE
  5
485
100
AcDbEntity
  8
0
100
AcDbLine
 62
7
  6
CONTINUOUS
 10
1303.895174
 20
80.33998
 11
1299.891854
 21
84.3433
  0
LINE
  5
486
100
AcDbEntity
  8
0
100
AcDbLine
 62
7
  6
CONTINUOUS
 10
1317.926092
 20
66.733326
 11
1309.617034
 21
75.04238
  0
LINE
  5
487
100
AcDbEntity
  8
0
100
AcDbLine
 62
7
  6
CONTINUOUS
 10
1307.555114
 20
77.104304
 11
1307.430074
 21
77.229344
  0
LINE
  5
488
100
AcDbEntity
  8
0
100
AcDbLine
 62
7
  6
CONTINUOUS
 10
1305.914632
 20
78.744786
 11
1304.90317
 21
79.756248
  0
LINE
  5
489
100
AcDbEntity
  8
0
100
AcDbLine
 62
7
  6
CONTINUOUS
 10
1304.319436
 20
80.33998
 11
1300.224818
 21
84.4346
  0
LINE
  5
48A
100
AcDbEntity
  8
0
100
AcDbLine
 62
7
  6
CONTINUOUS
 10
1307.555114
 20
77.52857
 11
1307.497062
 21
77.586618
  0
LINE
  5
48B
100
AcDbEntity
  8
0
100
AcDbLine
 62
7
  6
CONTINUOUS
 10
1305.975242
 20
79.108442
 11
1304.818316
 21
80.265364
  0
LINE
  5
48C
100
AcDbEntity
  8
0
100
AcDbLine
 62
7
  6
CONTINUOUS
 10
1318.280606
 20
66.803076
 11
1309.617034
 21
75.466646
  0
LINE
  5
48D
100
AcDbEntity
  8
0
100
AcDbLine
 62
7
  6
CONTINUOUS
 10
1304.7437
 20
80.33998
 11
1300.558526
 21
84.525156
  0
LINE
  5
48E
100
AcDbEntity
  8
0
100
AcDbLine
 62
7
  6
CONTINUOUS
 10
1318.63427
 20
66.873676
 11
1309.617034
 21
75.89091
  0
LINE
  5
48F
100
AcDbEntity
  8
0
100
AcDbLine
 62
7
  6
CONTINUOUS
 10
1306.035848
 20
79.472096
 11
1300.892984
 21
84.61496
  0
LINE
  5
490
100
AcDbEntity
  8
0
100
AcDbLine
 62
7
  6
CONTINUOUS
 10
1312.230196
 20
73.702014
 11
1309.617034
 21
76.315172
  0
LINE
  5
491
100
AcDbEntity
  8
0
100
AcDbLine
 62
7
  6
CONTINUOUS
 10
1318.98709
 20
66.94512
 11
1312.830482
 21
73.101728
  0
LINE
  5
492
100
AcDbEntity
  8
0
100
AcDbLine
 62
7
  6
CONTINUOUS
 10
1306.096458
 20
79.835752
 11
1301.228192
 21
84.704018
  0
LINE
  5
493
100
AcDbEntity
  8
0
100
AcDbLine
 62
7
  6
CONTINUOUS
 10
1312.137164
 20
74.21931
 11
1309.617034
 21
76.739438
  0
LINE
  5
494
100
AcDbEntity
  8
0
100
AcDbLine
 62
7
  6
CONTINUOUS
 10
1319.33907
 20
67.017402
 11
1313.347774
 21
73.008698
  0
LINE
  5
495
100
AcDbEntity
  8
0
100
AcDbLine
 62
7
  6
CONTINUOUS
 10
1306.157068
 20
80.199404
 11
1301.564156
 21
84.792318
  0
LINE
  5
496
100
AcDbEntity
  8
0
100
AcDbLine
 62
7
  6
CONTINUOUS
 10
1306.440758
 20
80.33998
 11
1301.900878
 21
84.879858
  0
LINE
  5
497
100
AcDbEntity
  8
0
100
AcDbLine
 62
7
  6
CONTINUOUS
 10
1319.690214
 20
67.090524
 11
1313.77204
 21
73.008698
  0
LINE
  5
498
100
AcDbEntity
  8
0
100
AcDbLine
 62
7
  6
CONTINUOUS
 10
1312.137164
 20
74.643572
 11
1309.617034
 21
77.163702
  0
LINE
  5
499
100
AcDbEntity
  8
0
100
AcDbLine
 62
7
  6
CONTINUOUS
 10
1312.137164
 20
75.067838
 11
1309.617034
 21
77.587964
  0
LINE
  5
49A
100
AcDbEntity
  8
0
100
AcDbLine
 62
7
  6
CONTINUOUS
 10
1306.865022
 20
80.33998
 11
1302.238362
 21
84.966638
  0
LINE
  5
49B
100
AcDbEntity
  8
0
100
AcDbLine
 62
7
  6
CONTINUOUS
 10
1320.04053
 20
67.164472
 11
1314.196304
 21
73.008698
  0
LINE
  5
49C
100
AcDbEntity
  8
0
100
AcDbLine
 62
7
  6
CONTINUOUS
 10
1312.137164
 20
75.492102
 11
1309.617034
 21
78.01223
  0
LINE
  5
49D
100
AcDbEntity
  8
0
100
AcDbLine
 62
7
  6
CONTINUOUS
 10
1307.289284
 20
80.33998
 11
1302.576614
 21
85.052652
  0
LINE
  5
49E
100
AcDbEntity
  8
0
100
AcDbLine
 62
7
  6
CONTINUOUS
 10
1320.390016
 20
67.239248
 11
1314.62057
 21
73.008698
  0
LINE
  5
49F
100
AcDbEntity
  8
0
100
AcDbLine
 62
7
  6
CONTINUOUS
 10
1307.71355
 20
80.33998
 11
1302.915632
 21
85.137896
  0
LINE
  5
4A0
100
AcDbEntity
  8
0
100
AcDbLine
 62
7
  6
CONTINUOUS
 10
1312.2956
 20
75.757928
 11
1309.617034
 21
78.436494
  0
LINE
  5
4A1
100
AcDbEntity
  8
0
100
AcDbLine
 62
7
  6
CONTINUOUS
 10
1320.738682
 20
67.314848
 11
1315.044832
 21
73.008698
  0
LINE
  5
4A2
100
AcDbEntity
  8
0
100
AcDbLine
 62
7
  6
CONTINUOUS
 10
1321.08653
 20
67.391264
 11
1315.469096
 21
73.008698
  0
LINE
  5
4A3
100
AcDbEntity
  8
0
100
AcDbLine
 62
7
  6
CONTINUOUS
 10
1312.719866
 20
75.757928
 11
1309.617034
 21
78.86076
  0
LINE
  5
4A4
100
AcDbEntity
  8
0
100
AcDbLine
 62
7
  6
CONTINUOUS
 10
1308.137814
 20
80.33998
 11
1303.255426
 21
85.222368
  0
LINE
  5
4A5
100
AcDbEntity
  8
0
100
AcDbLine
 62
7
  6
CONTINUOUS
 10
1313.14413
 20
75.757928
 11
1309.617034
 21
79.285022
  0
LINE
  5
4A6
100
AcDbEntity
  8
0
100
AcDbLine
 62
7
  6
CONTINUOUS
 10
1321.433564
 20
67.468494
 11
1315.893362
 21
73.008698
  0
LINE
  5
4A7
100
AcDbEntity
  8
0
100
AcDbLine
 62
7
  6
CONTINUOUS
 10
1308.562076
 20
80.33998
 11
1303.595996
 21
85.306062
  0
LINE
  5
4A8
100
AcDbEntity
  8
0
100
AcDbLine
 62
7
  6
CONTINUOUS
 10
1313.568392
 20
75.757928
 11
1309.617034
 21
79.709286
  0
LINE
  5
4A9
100
AcDbEntity
  8
0
100
AcDbLine
 62
7
  6
CONTINUOUS
 10
1308.986342
 20
80.33998
 11
1303.937346
 21
85.388976
  0
LINE
  5
4AA
100
AcDbEntity
  8
0
100
AcDbLine
 62
7
  6
CONTINUOUS
 10
1314.94085
 20
74.385474
 11
1314.199088
 21
75.127236
  0
LINE
  5
4AB
100
AcDbEntity
  8
0
100
AcDbLine
 62
7
  6
CONTINUOUS
 10
1321.779788
 20
67.546532
 11
1316.288514
 21
73.03781
  0
LINE
  5
4AC
100
AcDbEntity
  8
0
100
AcDbLine
 62
7
  6
CONTINUOUS
 10
1322.125208
 20
67.625378
 11
1316.59432
 21
73.156266
  0
LINE
  5
4AD
100
AcDbEntity
  8
0
100
AcDbLine
 62
7
  6
CONTINUOUS
 10
1315.258094
 20
74.492492
 11
1314.199088
 21
75.551498
  0
LINE
  5
4AE
100
AcDbEntity
  8
0
100
AcDbLine
 62
7
  6
CONTINUOUS
 10
1313.992658
 20
75.757928
 11
1313.11265
 21
76.637936
  0
LINE
  5
4AF
100
AcDbEntity
  8
0
100
AcDbLine
 62
7
  6
CONTINUOUS
 10
1312.16043
 20
77.590156
 11
1309.617034
 21
80.133552
  0
LINE
  5
4B0
100
AcDbEntity
  8
0
100
AcDbLine
 62
7
  6
CONTINUOUS
 10
1309.410606
 20
80.33998
 11
1304.279482
 21
85.471104
  0
LINE
  5
4B1
100
AcDbEntity
  8
0
100
AcDbLine
 62
7
  6
CONTINUOUS
 10
1315.46895
 20
74.7059
 11
1313.894706
 21
76.280142
  0
LINE
  5
4B2
100
AcDbEntity
  8
0
100
AcDbLine
 62
7
  6
CONTINUOUS
 10
1322.469826
 20
67.705024
 11
1316.836254
 21
73.338596
  0
LINE
  5
4B3
100
AcDbEntity
  8
0
100
AcDbLine
 62
7
  6
CONTINUOUS
 10
1312.137164
 20
78.037686
 11
1304.622406
 21
85.552444
  0
LINE
  5
4B4
100
AcDbEntity
  8
0
100
AcDbLine
 62
7
  6
CONTINUOUS
 10
1315.572306
 20
75.02681
 11
1314.676762
 21
75.92235
  0
LINE
  5
4B5
100
AcDbEntity
  8
0
100
AcDbLine
 62
7
  6
CONTINUOUS
 10
1312.137164
 20
78.461948
 11
1304.966122
 21
85.632992
  0
LINE
  5
4B6
100
AcDbEntity
  8
0
100
AcDbLine
 62
7
  6
CONTINUOUS
 10
1322.813648
 20
67.785464
 11
1317.021642
 21
73.577472
  0
LINE
  5
4B7
100
AcDbEntity
  8
0
100
AcDbLine
 62
7
  6
CONTINUOUS
 10
1323.156678
 20
67.8667
 11
1317.14397
 21
73.879408
  0
LINE
  5
4B8
100
AcDbEntity
  8
0
100
AcDbLine
 62
7
  6
CONTINUOUS
 10
1312.137164
 20
78.886214
 11
1305.310634
 21
85.712744
  0
LINE
  5
4B9
100
AcDbEntity
  8
0
100
AcDbLine
 62
7
  6
CONTINUOUS
 10
1312.142522
 20
79.305122
 11
1305.655948
 21
85.791696
  0
LINE
  5
4BA
100
AcDbEntity
  8
0
100
AcDbLine
 62
7
  6
CONTINUOUS
 10
1323.498918
 20
67.948724
 11
1317.177422
 21
74.270222
  0
LINE
  5
4BB
100
AcDbEntity
  8
0
100
AcDbLine
 62
7
  6
CONTINUOUS
 10
1314.283456
 20
77.588452
 11
1313.76169
 21
78.110214
  0
LINE
  5
4BC
100
AcDbEntity
  8
0
100
AcDbLine
 62
7
  6
CONTINUOUS
 10
1312.228712
 20
79.643196
 11
1306.002064
 21
85.869842
  0
LINE
  5
4BD
100
AcDbEntity
  8
0
100
AcDbLine
 62
7
  6
CONTINUOUS
 10
1323.840374
 20
68.031534
 11
1317.177422
 21
74.694484
  0
LINE
  5
4BE
100
AcDbEntity
  8
0
100
AcDbLine
 62
7
  6
CONTINUOUS
 10
1315.065512
 20
77.23066
 11
1313.78252
 21
78.51365
  0
LINE
  5
4BF
100
AcDbEntity
  8
0
100
AcDbLine
 62
7
  6
CONTINUOUS
 10
1312.387262
 20
79.908912
 11
1306.34899
 21
85.94718
  0
LINE
  5
4C0
100
AcDbEntity
  8
0
100
AcDbLine
 62
7
  6
CONTINUOUS
 10
1324.181046
 20
68.115124
 11
1317.177422
 21
75.118748
  0
LINE
  5
4C1
100
AcDbEntity
  8
0
100
AcDbLine
 62
7
  6
CONTINUOUS
 10
1315.84757
 20
76.872866
 11
1315.129686
 21
77.590748
  0
LINE
  5
4C2
100
AcDbEntity
  8
0
100
AcDbLine
 62
7
  6
CONTINUOUS
 10
1315.115498
 20
77.604938
 11
1313.949334
 21
78.7711
  0
LINE
  5
4C3
100
AcDbEntity
  8
0
100
AcDbLine
 62
7
  6
CONTINUOUS
 10
1324.520942
 20
68.199492
 11
1317.177332
 21
75.543102
  0
LINE
  5
4C4
100
AcDbEntity
  8
0
100
AcDbLine
 62
7
  6
CONTINUOUS
 10
1312.603508
 20
80.116926
 11
1306.69673
 21
86.023706
  0
LINE
  5
4C5
100
AcDbEntity
  8
0
100
AcDbLine
 62
7
  6
CONTINUOUS
 10
1316.653996
 20
76.490704
 11
1315.553948
 21
77.590748
  0
LINE
  5
4C6
100
AcDbEntity
  8
0
100
AcDbLine
 62
7
  6
CONTINUOUS
 10
1315.115498
 20
78.0292
 11
1314.213668
 21
78.931028
  0
LINE
  5
4C7
100
AcDbEntity
  8
0
100
AcDbLine
 62
7
  6
CONTINUOUS
 10
1324.860066
 20
68.284634
 11
1316.993786
 21
76.150912
  0
LINE
  5
4C8
100
AcDbEntity
  8
0
100
AcDbLine
 62
7
  6
CONTINUOUS
 10
1312.878422
 20
80.266278
 11
1307.045286
 21
86.099414
  0
LINE
  5
4C9
100
AcDbEntity
  8
0
100
AcDbLine
 62
7
  6
CONTINUOUS
 10
1325.198418
 20
68.370544
 11
1320.511114
 21
73.057848
  0
LINE
  5
4CA
100
AcDbEntity
  8
0
100
AcDbLine
 62
7
  6
CONTINUOUS
 10
1319.7467
 20
73.822262
 11
1315.978214
 21
77.590748
  0
LINE
  5
4CB
100
AcDbEntity
  8
0
100
AcDbLine
 62
7
  6
CONTINUOUS
 10
1315.083438
 20
78.485524
 11
1314.635658
 21
78.933304
  0
LINE
  5
4CC
100
AcDbEntity
  8
0
100
AcDbLine
 62
7
  6
CONTINUOUS
 10
1313.230184
 20
80.338778
 11
1307.394664
 21
86.174298
  0
LINE
  5
4CD
100
AcDbEntity
  8
0
100
AcDbLine
 62
7
  6
CONTINUOUS
 10
1319.69755
 20
74.295676
 11
1316.402478
 21
77.590748
  0
LINE
  5
4CE
100
AcDbEntity
  8
0
100
AcDbLine
 62
7
  6
CONTINUOUS
 10
1313.653246
 20
80.33998
 11
1307.744866
 21
86.24836
  0
LINE
  5
4CF
100
AcDbEntity
  8
0
100
AcDbLine
 62
7
  6
CONTINUOUS
 10
1325.536004
 20
68.457222
 11
1320.98453
 21
73.008698
  0
LINE
  5
4D0
100
AcDbEntity
  8
0
100
AcDbLine
 62
7
  6
CONTINUOUS
 10
1319.69755
 20
74.71994
 11
1316.82674
 21
77.590748
  0
LINE
  5
4D1
100
AcDbEntity
  8
0
100
AcDbLine
 62
7
  6
CONTINUOUS
 10
1314.07751
 20
80.33998
 11
1308.0959
 21
86.321588
  0
LINE
  5
4D2
100
AcDbEntity
  8
0
100
AcDbLine
 62
7
  6
CONTINUOUS
 10
1325.872828
 20
68.544664
 11
1321.408794
 21
73.008698
  0
LINE
  5
4D3
100
AcDbEntity
  8
0
100
AcDbLine
 62
7
  6
CONTINUOUS
 10
1319.69755
 20
75.144206
 11
1317.177422
 21
77.664332
  0
LINE
  5
4D4
100
AcDbEntity
  8
0
100
AcDbLine
 62
7
  6
CONTINUOUS
 10
1326.208892
 20
68.632862
 11
1321.833056
 21
73.008698
  0
LINE
  5
4D5
100
AcDbEntity
  8
0
100
AcDbLine
 62
7
  6
CONTINUOUS
 10
1314.501774
 20
80.33998
 11
1308.44777
 21
86.393984
  0
LINE
  5
4D6
100
AcDbEntity
  8
0
100
AcDbLine
 62
7
  6
CONTINUOUS
 10
1326.544202
 20
68.721818
 11
1322.257322
 21
73.008698
  0
LINE
  5
4D7
100
AcDbEntity
  8
0
100
AcDbLine
 62
7
  6
CONTINUOUS
 10
1314.926038
 20
80.33998
 11
1308.800478
 21
86.46554
  0
LINE
  5
4D8
100
AcDbEntity
  8
0
100
AcDbLine
 62
7
  6
CONTINUOUS
 10
1319.69755
 20
75.568468
 11
1317.177422
 21
78.088598
  0
LINE
  5
4D9
100
AcDbEntity
  8
0
100
AcDbLine
 62
7
  6
CONTINUOUS
 10
1315.350302
 20
80.33998
 11
1309.15403
 21
86.536252
  0
LINE
  5
4DA
100
AcDbEntity
  8
0
100
AcDbLine
 62
7
  6
CONTINUOUS
 10
1326.878758
 20
68.811524
 11
1322.681586
 21
73.008698
  0
LINE
  5
4DB
100
AcDbEntity
  8
0
100
AcDbLine
 62
7
  6
CONTINUOUS
 10
1319.69755
 20
75.992732
 11
1317.177422
 21
78.512862
  0
LINE
  5
4DC
100
AcDbEntity
  8
0
100
AcDbLine
 62
7
  6
CONTINUOUS
 10
1319.69755
 20
76.416998
 11
1317.177422
 21
78.937124
  0
LINE
  5
4DD
100
AcDbEntity
  8
0
100
AcDbLine
 62
7
  6
CONTINUOUS
 10
1327.212568
 20
68.90198
 11
1323.105848
 21
73.008698
  0
LINE
  5
4DE
100
AcDbEntity
  8
0
100
AcDbLine
 62
7
  6
CONTINUOUS
 10
1315.774566
 20
80.33998
 11
1309.50843
 21
86.606116
  0
LINE
  5
4DF
100
AcDbEntity
  8
0
100
AcDbLine
 62
7
  6
CONTINUOUS
 10
1316.213282
 20
80.325532
 11
1309.863686
 21
86.675126
  0
LINE
  5
4E0
100
AcDbEntity
  8
0
100
AcDbLine
 62
7
  6
CONTINUOUS
 10
1319.69755
 20
76.84126
 11
1317.16297
 21
79.37584
  0
LINE
  5
4E1
100
AcDbEntity
  8
0
100
AcDbLine
 62
7
  6
CONTINUOUS
 10
1327.54563
 20
68.99318
 11
1323.530114
 21
73.008698
  0
LINE
  5
4E2
100
AcDbEntity
  8
0
100
AcDbLine
 62
7
  6
CONTINUOUS
 10
1322.568836
 20
74.394236
 11
1321.759472
 21
75.2036
  0
LINE
  5
4E3
100
AcDbEntity
  8
0
100
AcDbLine
 62
7
  6
CONTINUOUS
 10
1319.69755
 20
77.265524
 11
1310.219798
 21
86.743278
  0
LINE
  5
4E4
100
AcDbEntity
  8
0
100
AcDbLine
 62
7
  6
CONTINUOUS
 10
1327.87795
 20
69.085124
 11
1323.954378
 21
73.008698
  0
LINE
  5
4E5
100
AcDbEntity
  8
0
100
AcDbLine
 62
7
  6
CONTINUOUS
 10
1322.863378
 20
74.52396
 11
1321.759472
 21
75.627866
  0
LINE
  5
4E6
100
AcDbEntity
  8
0
100
AcDbLine
 62
7
  6
CONTINUOUS
 10
1328.209534
 20
69.177806
 11
1324.341154
 21
73.046186
  0
LINE
  5
4E7
100
AcDbEntity
  8
0
100
AcDbLine
 62
7
  6
CONTINUOUS
 10
1319.69755
 20
77.68979
 11
1310.576774
 21
86.810568
  0
LINE
  5
4E8
100
AcDbEntity
  8
0
100
AcDbLine
 62
7
  6
CONTINUOUS
 10
1323.057086
 20
74.754518
 11
1321.759472
 21
76.05213
  0
LINE
  5
4E9
100
AcDbEntity
  8
0
100
AcDbLine
 62
7
  6
CONTINUOUS
 10
1328.540382
 20
69.27122
 11
1324.639736
 21
73.171866
  0
LINE
  5
4EA
100
AcDbEntity
  8
0
100
AcDbLine
 62
7
  6
CONTINUOUS
 10
1319.69755
 20
78.114054
 11
1310.934616
 21
86.876988
  0
LINE
  5
4EB
100
AcDbEntity
  8
0
100
AcDbLine
 62
7
  6
CONTINUOUS
 10
1328.870498
 20
69.36537
 11
1324.875928
 21
73.35994
  0
LINE
  5
4EC
100
AcDbEntity
  8
0
100
AcDbLine
 62
7
  6
CONTINUOUS
 10
1323.13409
 20
75.101778
 11
1321.759472
 21
76.476396
  0
LINE
  5
4ED
100
AcDbEntity
  8
0
100
AcDbLine
 62
7
  6
CONTINUOUS
 10
1319.69755
 20
78.538316
 11
1311.293332
 21
86.942536
  0
LINE
  5
4EE
100
AcDbEntity
  8
0
100
AcDbLine
 62
7
  6
CONTINUOUS
 10
1323.13409
 20
75.526044
 11
1321.759472
 21
76.900658
  0
LINE
  5
4EF
100
AcDbEntity
  8
0
100
AcDbLine
 62
7
  6
CONTINUOUS
 10
1329.199886
 20
69.460248
 11
1325.055544
 21
73.604588
  0
LINE
  5
4F0
100
AcDbEntity
  8
0
100
AcDbLine
 62
7
  6
CONTINUOUS
 10
1319.69755
 20
78.962582
 11
1311.652926
 21
87.007206
  0
LINE
  5
4F1
100
AcDbEntity
  8
0
100
AcDbLine
 62
7
  6
CONTINUOUS
 10
1323.13409
 20
75.950306
 11
1321.759472
 21
77.324922
  0
LINE
  5
4F2
100
AcDbEntity
  8
0
100
AcDbLine
 62
7
  6
CONTINUOUS
 10
1319.69755
 20
79.386846
 11
1312.013404
 21
87.070992
  0
LINE
  5
4F3
100
AcDbEntity
  8
0
100
AcDbLine
 62
7
  6
CONTINUOUS
 10
1329.528546
 20
69.555848
 11
1325.170518
 21
73.91388
  0
LINE
  5
4F4
100
AcDbEntity
  8
0
100
AcDbLine
 62
7
  6
CONTINUOUS
 10
1329.856484
 20
69.652176
 11
1325.196014
 21
74.312646
  0
LINE
  5
4F5
100
AcDbEntity
  8
0
100
AcDbLine
 62
7
  6
CONTINUOUS
 10
1323.13409
 20
76.37457
 11
1321.759472
 21
77.749188
  0
LINE
  5
4F6
100
AcDbEntity
  8
0
100
AcDbLine
 62
7
  6
CONTINUOUS
 10
1319.69755
 20
79.811108
 11
1312.37477
 21
87.13389
  0
LINE
  5
4F7
100
AcDbEntity
  8
0
100
AcDbLine
 62
7
  6
CONTINUOUS
 10
1323.13409
 20
76.798836
 11
1321.759472
 21
78.17345
  0
LINE
  5
4F8
100
AcDbEntity
  8
0
100
AcDbLine
 62
7
  6
CONTINUOUS
 10
1319.69755
 20
80.235374
 11
1312.73703
 21
87.195894
  0
LINE
  5
4F9
100
AcDbEntity
  8
0
100
AcDbLine
 62
7
  6
CONTINUOUS
 10
1330.183702
 20
69.74922
 11
1325.196014
 21
74.736912
  0
LINE
  5
4FA
100
AcDbEntity
  8
0
100
AcDbLine
 62
7
  6
CONTINUOUS
 10
1323.13409
 20
77.2231
 11
1321.759472
 21
78.597714
  0
LINE
  5
4FB
100
AcDbEntity
  8
0
100
AcDbLine
 62
7
  6
CONTINUOUS
 10
1320.017206
 20
80.33998
 11
1313.100188
 21
87.257
  0
LINE
  5
4FC
100
AcDbEntity
  8
0
100
AcDbLine
 62
7
  6
CONTINUOUS
 10
1330.51019
 20
69.846998
 11
1325.196014
 21
75.161176
  0
LINE
  5
4FD
100
AcDbEntity
  8
0
100
AcDbLine
 62
7
  6
CONTINUOUS
 10
1323.13409
 20
77.647362
 11
1321.759472
 21
79.02198
  0
LINE
  5
4FE
100
AcDbEntity
  8
0
100
AcDbLine
 62
7
  6
CONTINUOUS
 10
1320.441472
 20
80.33998
 11
1313.464252
 21
87.317202
  0
LINE
  5
4FF
100
AcDbEntity
  8
0
100
AcDbLine
 62
7
  6
CONTINUOUS
 10
1330.83553
 20
69.94592
 11
1327.772754
 21
73.008698
  0
LINE
  5
500
100
AcDbEntity
  8
0
100
AcDbLine
 62
7
  6
CONTINUOUS
 10
1327.487038
 20
73.294412
 11
1325.196014
 21
75.585438
  0
LINE
  5
501
100
AcDbEntity
  8
0
100
AcDbLine
 62
7
  6
CONTINUOUS
 10
1323.13409
 20
78.071628
 11
1321.759472
 21
79.446242
  0
LINE
  5
502
100
AcDbEntity
  8
0
100
AcDbLine
 62
7
  6
CONTINUOUS
 10
1331.15956
 20
70.046156
 11
1328.197018
 21
73.008698
  0
LINE
  5
503
100
AcDbEntity
  8
0
100
AcDbLine
 62
7
  6
CONTINUOUS
 10
1320.865736
 20
80.33998
 11
1313.829224
 21
87.376492
  0
LINE
  5
504
100
AcDbEntity
  8
0
100
AcDbLine
 62
7
  6
CONTINUOUS
 10
1327.487038
 20
73.718678
 11
1325.196014
 21
76.009704
  0
LINE
  5
505
100
AcDbEntity
  8
0
100
AcDbLine
 62
7
  6
CONTINUOUS
 10
1323.13409
 20
78.495892
 11
1321.759472
 21
79.870506
  0
LINE
  5
506
100
AcDbEntity
  8
0
100
AcDbLine
 62
7
  6
CONTINUOUS
 10
1321.289998
 20
80.33998
 11
1314.195112
 21
87.434868
  0
LINE
  5
507
100
AcDbEntity
  8
0
100
AcDbLine
 62
7
  6
CONTINUOUS
 10
1331.482286
 20
70.147694
 11
1328.621284
 21
73.008698
  0
LINE
  5
508
100
AcDbEntity
  8
0
100
AcDbLine
 62
7
  6
CONTINUOUS
 10
1327.487038
 20
74.142942
 11
1325.196014
 21
76.433968
  0
LINE
  5
509
100
AcDbEntity
  8
0
100
AcDbLine
 62
7
  6
CONTINUOUS
 10
1321.714264
 20
80.33998
 11
1314.561922
 21
87.49232
  0
LINE
  5
50A
100
AcDbEntity
  8
0
100
AcDbLine
 62
7
  6
CONTINUOUS
 10
1331.80372
 20
70.250524
 11
1329.045546
 21
73.008698
  0
LINE
  5
50B
100
AcDbEntity
  8
0
100
AcDbLine
 62
7
  6
CONTINUOUS
 10
1323.13409
 20
78.920154
 11
1321.759472
 21
80.294772
  0
LINE
  5
50C
100
AcDbEntity
  8
0
100
AcDbLine
 62
7
  6
CONTINUOUS
 10
1327.487038
 20
74.567204
 11
1325.196014
 21
76.858232
  0
LINE
  5
50D
100
AcDbEntity
  8
0
100
AcDbLine
 62
7
  6
CONTINUOUS
 10
1323.13409
 20
79.34442
 11
1314.929658
 21
87.548848
  0
LINE
  5
50E
100
AcDbEntity
  8
0
100
AcDbLine
 62
7
  6
CONTINUOUS
 10
1332.123868
 20
70.354638
 11
1329.46981
 21
73.008698
  0
LINE
  5
50F
100
AcDbEntity
  8
0
100
AcDbLine
 62
7
  6
CONTINUOUS
 10
1327.487038
 20
74.99147
 11
1325.196014
 21
77.282496
  0
LINE
  5
510
100
AcDbEntity
  8
0
100
AcDbLine
 62
7
  6
CONTINUOUS
 10
1332.442744
 20
70.460028
 11
1329.548962
 21
73.35381
  0
LINE
  5
511
100
AcDbEntity
  8
0
100
AcDbLine
 62
7
  6
CONTINUOUS
 10
1323.13409
 20
79.768684
 11
1315.29833
 21
87.604444
  0
LINE
  5
512
100
AcDbEntity
  8
0
100
AcDbLine
 62
7
  6
CONTINUOUS
 10
1327.487038
 20
75.415734
 11
1325.196014
 21
77.70676
  0
LINE
  5
513
100
AcDbEntity
  8
0
100
AcDbLine
 62
7
  6
CONTINUOUS
 10
1323.13409
 20
80.192946
 11
1315.667936
 21
87.6591
  0
LINE
  5
514
100
AcDbEntity
  8
0
100
AcDbLine
 62
7
  6
CONTINUOUS
 10
1332.760354
 20
70.56668
 11
1329.548962
 21
73.778076
  0
LINE
  5
515
100
AcDbEntity
  8
0
100
AcDbLine
 62
7
  6
CONTINUOUS
 10
1327.487038
 20
75.839996
 11
1325.196014
 21
78.131024
  0
LINE
  5
516
100
AcDbEntity
  8
0
100
AcDbLine
 62
7
  6
CONTINUOUS
 10
1333.076708
 20
70.674592
 11
1329.548962
 21
74.202338
  0
LINE
  5
517
100
AcDbEntity
  8
0
100
AcDbLine
 62
7
  6
CONTINUOUS
 10
1323.41132
 20
80.33998
 11
1316.03849
 21
87.712812
  0
LINE
  5
518
100
AcDbEntity
  8
0
100
AcDbLine
 62
7
  6
CONTINUOUS
 10
1327.487038
 20
76.264262
 11
1325.196014
 21
78.555288
  0
LINE
  5
519
100
AcDbEntity
  8
0
100
AcDbLine
 62
7
  6
CONTINUOUS
 10
1323.835582
 20
80.33998
 11
1316.409994
 21
87.76557
  0
LINE
  5
51A
100
AcDbEntity
  8
0
100
AcDbLine
 62
7
  6
CONTINUOUS
 10
1327.487038
 20
76.688526
 11
1325.196014
 21
78.979552
  0
LINE
  5
51B
100
AcDbEntity
  8
0
100
AcDbLine
 62
7
  6
CONTINUOUS
 10
1333.391816
 20
70.783748
 11
1331.166868
 21
73.008698
  0
LINE
  5
51C
100
AcDbEntity
  8
0
100
AcDbLine
 62
7
  6
CONTINUOUS
 10
1330.596212
 20
73.57935
 11
1329.548962
 21
74.626602
  0
LINE
  5
51D
100
AcDbEntity
  8
0
100
AcDbLine
 62
7
  6
CONTINUOUS
 10
1333.705684
 20
70.894144
 11
1331.59113
 21
73.008698
  0
LINE
  5
51E
100
AcDbEntity
  8
0
100
AcDbLine
 62
7
  6
CONTINUOUS
 10
1324.259848
 20
80.33998
 11
1316.782456
 21
87.817372
  0
LINE
  5
51F
100
AcDbEntity
  8
0
100
AcDbLine
 62
7
  6
CONTINUOUS
 10
1327.487038
 20
77.112792
 11
1325.196014
 21
79.403816
  0
LINE
  5
520
100
AcDbEntity
  8
0
100
AcDbLine
 62
7
  6
CONTINUOUS
 10
1330.398222
 20
74.201606
 11
1329.548962
 21
75.050868
  0
LINE
  5
521
100
AcDbEntity
  8
0
100
AcDbLine
 62
7
  6
CONTINUOUS
 10
1334.018322
 20
71.00577
 11
1332.015394
 21
73.008698
  0
LINE
  5
522
100
AcDbEntity
  8
0
100
AcDbLine
 62
7
  6
CONTINUOUS
 10
1324.684112
 20
80.33998
 11
1317.155878
 21
87.868214
  0
LINE
  5
523
100
AcDbEntity
  8
0
100
AcDbLine
 62
7
  6
CONTINUOUS
 10
1327.487038
 20
77.537054
 11
1325.196014
 21
79.82808
  0
LINE
  5
524
100
AcDbEntity
  8
0
100
AcDbLine
 62
7
  6
CONTINUOUS
 10
1330.200234
 20
74.823858
 11
1329.548962
 21
75.475132
  0
LINE
  5
525
100
AcDbEntity
  8
0
100
AcDbLine
 62
7
  6
CONTINUOUS
 10
1330.002244
 20
75.446114
 11
1329.548962
 21
75.899394
  0
LINE
  5
526
100
AcDbEntity
  8
0
100
AcDbLine
 62
7
  6
CONTINUOUS
 10
1325.108374
 20
80.33998
 11
1317.530274
 21
87.918084
  0
LINE
  5
527
100
AcDbEntity
  8
0
100
AcDbLine
 62
7
  6
CONTINUOUS
 10
1327.487038
 20
77.961318
 11
1325.196014
 21
80.252344
  0
LINE
  5
528
100
AcDbEntity
  8
0
100
AcDbLine
 62
7
  6
CONTINUOUS
 10
1334.329738
 20
71.118618
 11
1332.43966
 21
73.008698
  0
LINE
  5
529
100
AcDbEntity
  8
0
100
AcDbLine
 62
7
  6
CONTINUOUS
 10
1327.487038
 20
78.385584
 11
1317.905644
 21
87.966976
  0
LINE
  5
52A
100
AcDbEntity
  8
0
100
AcDbLine
 62
7
  6
CONTINUOUS
 10
1334.639942
 20
71.232678
 11
1332.863922
 21
73.008698
  0
LINE
  5
52B
100
AcDbEntity
  8
0
100
AcDbLine
 62
7
  6
CONTINUOUS
 10
1329.804254
 20
76.068366
 11
1329.548962
 21
76.32366
  0
LINE
  5
52C
100
AcDbEntity
  8
0
100
AcDbLine
 62
7
  6
CONTINUOUS
 10
1334.948938
 20
71.347948
 11
1333.288186
 21
73.008698
  0
LINE
  5
52D
100
AcDbEntity
  8
0
100
AcDbLine
 62
7
  6
CONTINUOUS
 10
1327.487038
 20
78.809846
 11
1318.281998
 21
88.01489
  0
LINE
  5
52E
100
AcDbEntity
  8
0
100
AcDbLine
 62
7
  6
CONTINUOUS
 10
1329.606262
 20
76.690622
 11
1329.548962
 21
76.747924
  0
LINE
  5
52F
100
AcDbEntity
  8
0
100
AcDbLine
 62
7
  6
CONTINUOUS
 10
1335.256736
 20
71.464412
 11
1333.443706
 21
73.277442
  0
LINE
  5
530
100
AcDbEntity
  8
0
100
AcDbLine
 62
7
  6
CONTINUOUS
 10
1327.487038
 20
79.23411
 11
1318.659338
 21
88.06181
  0
LINE
  5
531
100
AcDbEntity
  8
0
100
AcDbLine
 62
7
  6
CONTINUOUS
 10
1327.487038
 20
79.658376
 11
1319.037676
 21
88.107736
  0
LINE
  5
532
100
AcDbEntity
  8
0
100
AcDbLine
 62
7
  6
CONTINUOUS
 10
1335.563344
 20
71.58207
 11
1333.443706
 21
73.701708
  0
LINE
  5
533
100
AcDbEntity
  8
0
100
AcDbLine
 62
7
  6
CONTINUOUS
 10
1335.868766
 20
71.700912
 11
1333.443706
 21
74.125972
  0
LINE
  5
534
100
AcDbEntity
  8
0
100
AcDbLine
 62
7
  6
CONTINUOUS
 10
1327.487038
 20
80.082638
 11
1319.417018
 21
88.15266
  0
LINE
  5
535
100
AcDbEntity
  8
0
100
AcDbLine
 62
7
  6
CONTINUOUS
 10
1336.173014
 20
71.820928
 11
1333.443706
 21
74.550234
  0
LINE
  5
536
100
AcDbEntity
  8
0
100
AcDbLine
 62
7
  6
CONTINUOUS
 10
1331.381782
 20
76.612158
 11
1331.237158
 21
76.756782
  0
LINE
  5
537
100
AcDbEntity
  8
0
100
AcDbLine
 62
7
  6
CONTINUOUS
 10
1327.653962
 20
80.33998
 11
1319.79737
 21
88.196572
  0
LINE
  5
538
100
AcDbEntity
  8
0
100
AcDbLine
 62
7
  6
CONTINUOUS
 10
1336.476092
 20
71.942114
 11
1333.443706
 21
74.9745
  0
LINE
  5
539
100
AcDbEntity
  8
0
100
AcDbLine
 62
7
  6
CONTINUOUS
 10
1331.381782
 20
77.036424
 11
1331.051546
 21
77.36666
  0
LINE
  5
53A
100
AcDbEntity
  8
0
100
AcDbLine
 62
7
  6
CONTINUOUS
 10
1328.078224
 20
80.33998
 11
1320.178736
 21
88.23947
  0
LINE
  5
53B
100
AcDbEntity
  8
0
100
AcDbLine
 62
7
  6
CONTINUOUS
 10
1328.502488
 20
80.33998
 11
1320.561128
 21
88.28134
  0
LINE
  5
53C
100
AcDbEntity
  8
0
100
AcDbLine
 62
7
  6
CONTINUOUS
 10
1336.778008
 20
72.06446
 11
1333.443706
 21
75.398764
  0
LINE
  5
53D
100
AcDbEntity
  8
0
100
AcDbLine
 62
7
  6
CONTINUOUS
 10
1331.381782
 20
77.460686
 11
1330.86593
 21
77.976542
  0
LINE
  5
53E
100
AcDbEntity
  8
0
100
AcDbLine
 62
7
  6
CONTINUOUS
 10
1328.926754
 20
80.33998
 11
1320.944552
 21
88.32218
  0
LINE
  5
53F
100
AcDbEntity
  8
0
100
AcDbLine
 62
7
  6
CONTINUOUS
 10
1337.078768
 20
72.187964
 11
1333.443706
 21
75.823026
  0
LINE
  5
540
100
AcDbEntity
  8
0
100
AcDbLine
 62
7
  6
CONTINUOUS
 10
1331.381782
 20
77.88495
 11
1330.680314
 21
78.58642
  0
LINE
  5
541
100
AcDbEntity
  8
0
100
AcDbLine
 62
7
  6
CONTINUOUS
 10
1337.378382
 20
72.312616
 11
1336.51765
 21
73.173344
  0
LINE
  5
542
100
AcDbEntity
  8
0
100
AcDbLine
 62
7
  6
CONTINUOUS
 10
1331.381782
 20
78.309216
 11
1330.494698
 21
79.1963
  0
LINE
  5
543
100
AcDbEntity
  8
0
100
AcDbLine
 62
7
  6
CONTINUOUS
 10
1329.351016
 20
80.33998
 11
1321.329016
 21
88.361982
  0
LINE
  5
544
100
AcDbEntity
  8
0
100
AcDbLine
 62
7
  6
CONTINUOUS
 10
1336.128482
 20
73.562514
 11
1333.443706
 21
76.247292
  0
LINE
  5
545
100
AcDbEntity
  8
0
100
AcDbLine
 62
7
  6
CONTINUOUS
 10
1337.676854
 20
72.43841
 11
1337.10656
 21
73.0087
  0
LINE
  5
546
100
AcDbEntity
  8
0
100
AcDbLine
 62
7
  6
CONTINUOUS
 10
1329.77528
 20
80.33998
 11
1321.714522
 21
88.400738
  0
LINE
  5
547
100
AcDbEntity
  8
0
100
AcDbLine
 62
7
  6
CONTINUOUS
 10
1335.963838
 20
74.151424
 11
1333.443706
 21
76.671556
  0
LINE
  5
548
100
AcDbEntity
  8
0
100
AcDbLine
 62
7
  6
CONTINUOUS
 10
1331.381782
 20
78.73348
 11
1330.309082
 21
79.80618
  0
LINE
  5
549
100
AcDbEntity
  8
0
100
AcDbLine
 62
7
  6
CONTINUOUS
 10
1335.963834
 20
74.575692
 11
1333.443706
 21
77.09582
  0
LINE
  5
54A
100
AcDbEntity
  8
0
100
AcDbLine
 62
7
  6
CONTINUOUS
 10
1331.381782
 20
79.157742
 11
1322.101086
 21
88.43844
  0
LINE
  5
54B
100
AcDbEntity
  8
0
100
AcDbLine
 62
7
  6
CONTINUOUS
 10
1337.974186
 20
72.565338
 11
1337.530828
 21
73.008698
  0
LINE
  5
54C
100
AcDbEntity
  8
0
100
AcDbLine
 62
7
  6
CONTINUOUS
 10
1338.270392
 20
72.693398
 11
1337.955092
 21
73.008698
  0
LINE
  5
54D
100
AcDbEntity
  8
0
100
AcDbLine
 62
7
  6
CONTINUOUS
 10
1335.963834
 20
74.999956
 11
1333.443706
 21
77.520084
  0
LINE
  5
54E
100
AcDbEntity
  8
0
100
AcDbLine
 62
7
  6
CONTINUOUS
 10
1331.381782
 20
79.582008
 11
1322.48871
 21
88.47508
  0
LINE
  5
54F
100
AcDbEntity
  8
0
100
AcDbLine
 62
7
  6
CONTINUOUS
 10
1331.381782
 20
80.006272
 11
1322.877404
 21
88.510648
  0
LINE
  5
550
100
AcDbEntity
  8
0
100
AcDbLine
 62
7
  6
CONTINUOUS
 10
1335.963834
 20
75.424218
 11
1333.443706
 21
77.944348
  0
LINE
  5
551
100
AcDbEntity
  8
0
100
AcDbLine
 62
7
  6
CONTINUOUS
 10
1338.565474
 20
72.82258
 11
1338.379358
 21
73.008698
  0
LINE
  5
552
100
AcDbEntity
  8
0
100
AcDbLine
 62
7
  6
CONTINUOUS
 10
1331.472338
 20
80.33998
 11
1323.267176
 21
88.54514
  0
LINE
  5
553
100
AcDbEntity
  8
0
100
AcDbLine
 62
7
  6
CONTINUOUS
 10
1335.963834
 20
75.848484
 11
1333.443706
 21
78.368612
  0
LINE
  5
554
100
AcDbEntity
  8
0
100
AcDbLine
 62
7
  6
CONTINUOUS
 10
1338.859438
 20
72.952878
 11
1338.80362
 21
73.008698
  0
LINE
  5
555
100
AcDbEntity
  8
0
100
AcDbLine
 62
7
  6
CONTINUOUS
 10
1331.896602
 20
80.33998
 11
1323.658034
 21
88.578546
  0
LINE
  5
556
100
AcDbEntity
  8
0
100
AcDbLine
 62
7
  6
CONTINUOUS
 10
1335.963834
 20
76.272748
 11
1333.443706
 21
78.792876
  0
LINE
  5
557
100
AcDbEntity
  8
0
100
AcDbLine
 62
7
  6
CONTINUOUS
 10
1338.276998
 20
74.383848
 11
1337.796656
 21
74.86419
  0
LINE
  5
558
100
AcDbEntity
  8
0
100
AcDbLine
 62
7
  6
CONTINUOUS
 10
1332.320864
 20
80.33998
 11
1324.049986
 21
88.61086
  0
LINE
  5
559
100
AcDbEntity
  8
0
100
AcDbLine
 62
7
  6
CONTINUOUS
 10
1335.963834
 20
76.69701
 11
1333.443706
 21
79.21714
  0
LINE
  5
55A
100
AcDbEntity
  8
0
100
AcDbLine
 62
7
  6
CONTINUOUS
 10
1335.963834
 20
77.121276
 11
1333.443706
 21
79.641404
  0
LINE
  5
55B
100
AcDbEntity
  8
0
100
AcDbLine
 62
7
  6
CONTINUOUS
 10
1332.74513
 20
80.33998
 11
1324.44304
 21
88.64207
  0
LINE
  5
55C
100
AcDbEntity
  8
0
100
AcDbLine
 62
7
  6
CONTINUOUS
 10
1338.573176
 20
74.511932
 11
1337.796656
 21
75.288456
  0
LINE
  5
55D
100
AcDbEntity
  8
0
100
AcDbLine
 62
7
  6
CONTINUOUS
 10
1338.711028
 20
74.798346
 11
1337.796656
 21
75.712718
  0
LINE
  5
55E
100
AcDbEntity
  8
0
100
AcDbLine
 62
7
  6
CONTINUOUS
 10
1335.963834
 20
77.54554
 11
1333.443706
 21
80.065668
  0
LINE
  5
55F
100
AcDbEntity
  8
0
100
AcDbLine
 62
7
  6
CONTINUOUS
 10
1333.169394
 20
80.33998
 11
1324.837206
 21
88.672168
  0
LINE
  5
560
100
AcDbEntity
  8
0
100
AcDbLine
 62
7
  6
CONTINUOUS
 10
1338.713066
 20
75.220574
 11
1338.404812
 21
75.528828
  0
LINE
  5
561
100
AcDbEntity
  8
0
100
AcDbLine
 62
7
  6
CONTINUOUS
 10
1335.963834
 20
77.969802
 11
1325.23249
 21
88.701148
  0
LINE
  5
562
100
AcDbEntity
  8
0
100
AcDbLine
 62
7
  6
CONTINUOUS
 10
1338.25486
 20
75.678776
 11
1337.796656
 21
76.136982
  0
LINE
  5
563
100
AcDbEntity
  8
0
100
AcDbLine
 62
7
  6
CONTINUOUS
 10
1340.60009
 20
73.757812
 11
1340.50543
 21
73.85247
  0
LINE
  5
564
100
AcDbEntity
  8
0
100
AcDbLine
 62
7
  6
CONTINUOUS
 10
1335.963834
 20
78.394068
 11
1325.628906
 21
88.728998
  0
LINE
  5
565
100
AcDbEntity
  8
0
100
AcDbLine
 62
7
  6
CONTINUOUS
 10
1338.25486
 20
76.103042
 11
1337.796656
 21
76.561248
  0
LINE
  5
566
100
AcDbEntity
  8
0
100
AcDbLine
 62
7
  6
CONTINUOUS
 10
1340.886392
 20
73.895774
 11
1340.545886
 21
74.23628
  0
LINE
  5
567
100
AcDbEntity
  8
0
100
AcDbLine
 62
7
  6
CONTINUOUS
 10
1335.963834
 20
78.818332
 11
1326.026456
 21
88.75571
  0
LINE
  5
568
100
AcDbEntity
  8
0
100
AcDbLine
 62
7
  6
CONTINUOUS
 10
1338.25486
 20
76.527306
 11
1337.796656
 21
76.985512
  0
LINE
  5
569
100
AcDbEntity
  8
0
100
AcDbLine
 62
7
  6
CONTINUOUS
 10
1335.964806
 20
79.241624
 11
1326.425154
 21
88.781274
  0
LINE
  5
56A
100
AcDbEntity
  8
0
100
AcDbLine
 62
7
  6
CONTINUOUS
 10
1341.170938
 20
74.035492
 11
1340.545886
 21
74.660544
  0
LINE
  5
56B
100
AcDbEntity
  8
0
100
AcDbLine
 62
7
  6
CONTINUOUS
 10
1338.53209
 20
76.67434
 11
1337.796656
 21
77.409774
  0
LINE
  5
56C
100
AcDbEntity
  8
0
100
AcDbLine
 62
7
  6
CONTINUOUS
 10
1336.036018
 20
79.594674
 11
1326.825008
 21
88.805684
  0
LINE
  5
56D
100
AcDbEntity
  8
0
100
AcDbLine
 62
7
  6
CONTINUOUS
 10
1338.956356
 20
76.67434
 11
1337.796656
 21
77.83404
  0
LINE
  5
56E
100
AcDbEntity
  8
0
100
AcDbLine
 62
7
  6
CONTINUOUS
 10
1341.453116
 20
74.177576
 11
1340.545886
 21
75.084808
  0
LINE
  5
56F
100
AcDbEntity
  8
0
100
AcDbLine
 62
7
  6
CONTINUOUS
 10
1341.732952
 20
74.322006
 11
1340.545886
 21
75.509072
  0
LINE
  5
570
100
AcDbEntity
  8
0
100
AcDbLine
 62
7
  6
CONTINUOUS
 10
1336.184534
 20
79.870424
 11
1327.226092
 21
88.828866
  0
LINE
  5
571
100
AcDbEntity
  8
0
100
AcDbLine
 62
7
  6
CONTINUOUS
 10
1339.38062
 20
76.67434
 11
1337.796656
 21
78.258304
  0
LINE
  5
572
100
AcDbEntity
  8
0
100
AcDbLine
 62
7
  6
CONTINUOUS
 10
1342.010468
 20
74.468754
 11
1340.545886
 21
75.933336
  0
LINE
  5
573
100
AcDbEntity
  8
0
100
AcDbLine
 62
7
  6
CONTINUOUS
 10
1339.804882
 20
76.67434
 11
1338.888474
 21
77.590748
  0
LINE
  5
574
100
AcDbEntity
  8
0
100
AcDbLine
 62
7
  6
CONTINUOUS
 10
1336.391814
 20
80.087408
 11
1327.629154
 21
88.850068
  0
LINE
  5
575
100
AcDbEntity
  8
0
100
AcDbLine
 62
7
  6
CONTINUOUS
 10
1338.713066
 20
77.766158
 11
1337.821946
 21
78.657278
  0
LINE
  5
576
100
AcDbEntity
  8
0
100
AcDbLine
 62
7
  6
CONTINUOUS
 10
1340.229148
 20
76.67434
 11
1339.312736
 21
77.590748
  0
LINE
  5
577
100
AcDbEntity
  8
0
100
AcDbLine
 62
7
  6
CONTINUOUS
 10
1342.285684
 20
74.617804
 11
1340.545886
 21
76.3576
  0
LINE
  5
578
100
AcDbEntity
  8
0
100
AcDbLine
 62
7
  6
CONTINUOUS
 10
1336.656722
 20
80.246764
 11
1328.034438
 21
88.869048
  0
LINE
  5
579
100
AcDbEntity
  8
0
100
AcDbLine
 62
7
  6
CONTINUOUS
 10
1338.713066
 20
78.19042
 11
1338.00941
 21
78.894078
  0
LINE
  5
57A
100
AcDbEntity
  8
0
100
AcDbLine
 62
7
  6
CONTINUOUS
 10
1342.558618
 20
74.769134
 11
1339.737002
 21
77.590748
  0
LINE
  5
57B
100
AcDbEntity
  8
0
100
AcDbLine
 62
7
  6
CONTINUOUS
 10
1336.99363
 20
80.334122
 11
1328.44198
 21
88.88577
  0
LINE
  5
57C
100
AcDbEntity
  8
0
100
AcDbLine
 62
7
  6
CONTINUOUS
 10
1338.695722
 20
78.632028
 11
1338.379726
 21
78.948024
  0
LINE
  5
57D
100
AcDbEntity
  8
0
100
AcDbLine
 62
7
  6
CONTINUOUS
 10
1342.829294
 20
74.922722
 11
1340.161266
 21
77.590748
  0
LINE
  5
57E
100
AcDbEntity
  8
0
100
AcDbLine
 62
7
  6
CONTINUOUS
 10
1337.412034
 20
80.33998
 11
1328.851814
 21
88.900202
  0
LINE
  5
57F
100
AcDbEntity
  8
0
100
AcDbLine
 62
7
  6
CONTINUOUS
 10
1343.097728
 20
75.078552
 11
1340.545886
 21
77.630392
  0
LINE
  5
580
100
AcDbEntity
  8
0
100
AcDbLine
 62
7
  6
CONTINUOUS
 10
1337.836298
 20
80.33998
 11
1329.263974
 21
88.912302
  0
LINE
  5
581
100
AcDbEntity
  8
0
100
AcDbLine
 62
7
  6
CONTINUOUS
 10
1343.363936
 20
75.236606
 11
1340.545886
 21
78.054656
  0
LINE
  5
582
100
AcDbEntity
  8
0
100
AcDbLine
 62
7
  6
CONTINUOUS
 10
1338.260562
 20
80.33998
 11
1329.678508
 21
88.922034
  0
LINE
  5
583
100
AcDbEntity
  8
0
100
AcDbLine
 62
7
  6
CONTINUOUS
 10
1338.684826
 20
80.33998
 11
1330.09545
 21
88.929356
  0
LINE
  5
584
100
AcDbEntity
  8
0
100
AcDbLine
 62
7
  6
CONTINUOUS
 10
1343.627938
 20
75.396868
 11
1340.545886
 21
78.478922
  0
LINE
  5
585
100
AcDbEntity
  8
0
100
AcDbLine
 62
7
  6
CONTINUOUS
 10
1343.88975
 20
75.559322
 11
1340.545886
 21
78.903184
  0
LINE
  5
586
100
AcDbEntity
  8
0
100
AcDbLine
 62
7
  6
CONTINUOUS
 10
1339.10909
 20
80.33998
 11
1330.514846
 21
88.934226
  0
LINE
  5
587
100
AcDbEntity
  8
0
100
AcDbLine
 62
7
  6
CONTINUOUS
 10
1344.149382
 20
75.723952
 11
1340.537078
 21
79.336256
  0
LINE
  5
588
100
AcDbEntity
  8
0
100
AcDbLine
 62
7
  6
CONTINUOUS
 10
1339.542164
 20
80.331172
 11
1330.936734
 21
88.936602
  0
LINE
  5
589
100
AcDbEntity
  8
0
100
AcDbLine
 62
7
  6
CONTINUOUS
 10
1344.406852
 20
75.890748
 11
1331.361162
 21
88.936436
  0
LINE
  5
58A
100
AcDbEntity
  8
0
100
AcDbLine
 62
7
  6
CONTINUOUS
 10
1344.662174
 20
76.05969
 11
1331.788178
 21
88.933686
  0
LINE
  5
58B
100
AcDbEntity
  8
0
100
AcDbLine
 62
7
  6
CONTINUOUS
 10
1344.915358
 20
76.23077
 11
1332.217826
 21
88.928304
  0
LINE
  5
58C
100
AcDbEntity
  8
0
100
AcDbLine
 62
7
  6
CONTINUOUS
 10
1345.166418
 20
76.403972
 11
1332.650156
 21
88.920234
  0
LINE
  5
58D
100
AcDbEntity
  8
0
100
AcDbLine
 62
7
  6
CONTINUOUS
 10
1345.415366
 20
76.57929
 11
1333.085226
 21
88.90943
  0
LINE
  5
58E
100
AcDbEntity
  8
0
100
AcDbLine
 62
7
  6
CONTINUOUS
 10
1345.662208
 20
76.75671
 11
1333.523084
 21
88.895836
  0
LINE
  5
58F
100
AcDbEntity
  8
0
100
AcDbLine
 62
7
  6
CONTINUOUS
 10
1345.90696
 20
76.936224
 11
1333.96379
 21
88.879396
  0
LINE
  5
590
100
AcDbEntity
  8
0
100
AcDbLine
 62
7
  6
CONTINUOUS
 10
1346.149628
 20
77.11782
 11
1334.407398
 21
88.86005
  0
LINE
  5
591
100
AcDbEntity
  8
0
100
AcDbLine
 62
7
  6
CONTINUOUS
 10
1346.390222
 20
77.301492
 11
1334.85397
 21
88.837742
  0
LINE
  5
592
100
AcDbEntity
  8
0
100
AcDbLine
 62
7
  6
CONTINUOUS
 10
1346.628746
 20
77.48723
 11
1335.303572
 21
88.812402
  0
LINE
  5
593
100
AcDbEntity
  8
0
100
AcDbLine
 62
7
  6
CONTINUOUS
 10
1346.865212
 20
77.675028
 11
1335.756268
 21
88.783972
  0
LINE
  5
594
100
AcDbEntity
  8
0
100
AcDbLine
 62
7
  6
CONTINUOUS
 10
1347.099626
 20
77.864876
 11
1336.212126
 21
88.752378
  0
LINE
  5
595
100
AcDbEntity
  8
0
100
AcDbLine
 62
7
  6
CONTINUOUS
 10
1347.331994
 20
78.056776
 11
1336.67122
 21
88.71755
  0
LINE
  5
596
100
AcDbEntity
  8
0
100
AcDbLine
 62
7
  6
CONTINUOUS
 10
1347.562318
 20
78.250712
 11
1337.13362
 21
88.679412
  0
LINE
  5
597
100
AcDbEntity
  8
0
100
AcDbLine
 62
7
  6
CONTINUOUS
 10
1347.79061
 20
78.446688
 11
1337.599408
 21
88.637886
  0
LINE
  5
598
100
AcDbEntity
  8
0
100
AcDbLine
 62
7
  6
CONTINUOUS
 10
1348.016866
 20
78.644694
 11
1338.068666
 21
88.592894
  0
LINE
  5
599
100
AcDbEntity
  8
0
100
AcDbLine
 62
7
  6
CONTINUOUS
 10
1348.241096
 20
78.844728
 11
1338.542098
 21
88.543724
  0
LINE
  5
59A
100
AcDbEntity
  8
0
100
AcDbLine
 62
7
  6
CONTINUOUS
 10
1348.463302
 20
79.046786
 11
1339.023298
 21
88.48679
  0
LINE
  5
59B
100
AcDbEntity
  8
0
100
AcDbLine
 62
7
  6
CONTINUOUS
 10
1348.683488
 20
79.250864
 11
1339.513254
 21
88.4211
  0
LINE
  5
59C
100
AcDbEntity
  8
0
100
AcDbLine
 62
7
  6
CONTINUOUS
 10
1348.901654
 20
79.456964
 11
1340.012518
 21
88.346096
  0
LINE
  5
59D
100
AcDbEntity
  8
0
100
AcDbLine
 62
7
  6
CONTINUOUS
 10
1349.1178
 20
79.66508
 11
1340.52172
 21
88.26116
  0
LINE
  5
59E
100
AcDbEntity
  8
0
100
AcDbLine
 62
7
  6
CONTINUOUS
 10
1349.329666
 20
79.877478
 11
1341.041564
 21
88.16558
  0
LINE
  5
59F
100
AcDbEntity
  8
0
100
AcDbLine
 62
7
  6
CONTINUOUS
 10
1349.526142
 20
80.105268
 11
1341.572858
 21
88.058552
  0
LINE
  5
5A0
100
AcDbEntity
  8
0
100
AcDbLine
 62
7
  6
CONTINUOUS
 10
1349.70545
 20
80.350224
 11
1342.116522
 21
87.93915
  0
LINE
  5
5A1
100
AcDbEntity
  8
0
100
AcDbLine
 62
7
  6
CONTINUOUS
 10
1349.866934
 20
80.613004
 11
1342.67363
 21
87.806308
  0
LINE
  5
5A2
100
AcDbEntity
  8
0
100
AcDbLine
 62
7
  6
CONTINUOUS
 10
1350.00951
 20
80.89469
 11
1343.245424
 21
87.658776
  0
LINE
  5
5A3
100
AcDbEntity
  8
0
100
AcDbLine
 62
7
  6
CONTINUOUS
 10
1350.13155
 20
81.196914
 11
1343.833376
 21
87.495088
  0
LINE
  5
5A4
100
AcDbEntity
  8
0
100
AcDbLine
 62
7
  6
CONTINUOUS
 10
1350.230644
 20
81.522086
 11
1344.43924
 21
87.31349
  0
LINE
  5
5A5
100
AcDbEntity
  8
0
100
AcDbLine
 62
7
  6
CONTINUOUS
 10
1350.303198
 20
81.873794
 11
1345.065136
 21
87.111858
  0
LINE
  5
5A6
100
AcDbEntity
  8
0
100
AcDbLine
 62
7
  6
CONTINUOUS
 10
1350.343642
 20
82.257614
 11
1345.713666
 21
86.88759
  0
LINE
  5
5A7
100
AcDbEntity
  8
0
100
AcDbLine
 62
7
  6
CONTINUOUS
 10
1350.342706
 20
82.682814
 11
1346.3881
 21
86.637422
  0
LINE
  5
5A8
100
AcDbEntity
  8
0
100
AcDbLine
 62
7
  6
CONTINUOUS
 10
1350.282938
 20
83.166848
 11
1347.09262
 21
86.357166
  0
LINE
  5
5A9
100
AcDbEntity
  8
0
100
AcDbLine
 62
7
  6
CONTINUOUS
 10
1350.122812
 20
83.75124
 11
1347.832738
 21
86.04131
  0
LINE
  5
5AA
100
AcDbEntity
  8
0
100
AcDbLine
 62
7
  6
CONTINUOUS
 10
1349.663142
 20
84.635172
 11
1348.736972
 21
85.56134
  0
LINE
  5
5AB
100
AcDbEntity
  8
0
100
AcDbLine
 62
7
  6
CONTINUOUS
 10
1303.445614
 20
77.81969
 11
1303.431266
 21
77.83404
  0
LINE
  5
5AC
100
AcDbEntity
  8
0
100
AcDbLine
 62
2
  6
CONTINUOUS
 10
1272.0
 20
1142.0
 11
1272.0
 21
1082.0
  0
LINE
  5
5AD
100
AcDbEntity
  8
0
100
AcDbLine
 62
7
  6
CONTINUOUS
 10
1272.0
 20
140.0
 11
1272.0
 21
50.0
  0
LINE
  5
5AE
100
AcDbEntity
  8
0
100
AcDbLine
 62
2
  6
CONTINUOUS
 10
1284.0
 20
116.0
 11
1284.0
 21
94.0
  0
LINE
  5
5AF
100
AcDbEntity
  8
0
100
AcDbLine
 62
2
  6
CONTINUOUS
 10
1288.0
 20
1142.0
 11
1288.0
 21
1082.0
  0
LINE
  5
5B0
100
AcDbEntity
  8
0
100
AcDbLine
 62
2
  6
CONTINUOUS
 10
1290.0
 20
140.0
 11
1290.0
 21
116.0
  0
LINE
  5
5B1
100
AcDbEntity
  8
0
100
AcDbLine
 62
2
  6
CONTINUOUS
 10
1310.0
 20
116.0
 11
1310.0
 21
94.0
  0
LINE
  5
5B2
100
AcDbEntity
  8
0
100
AcDbLine
 62
2
  6
CONTINUOUS
 10
1322.0
 20
116.0
 11
1322.0
 21
94.0
  0
LINE
  5
5B3
100
AcDbEntity
  8
0
100
AcDbLine
 62
2
  6
CONTINUOUS
 10
1348.0
 20
116.0
 11
1348.0
 21
94.0
  0
LINE
  5
5B4
100
AcDbEntity
  8
0
100
AcDbLine
 62
2
  6
CONTINUOUS
 10
1356.0
 20
140.0
 11
1356.0
 21
116.0
  0
LINE
  5
5B5
100
AcDbEntity
  8
0
100
AcDbLine
 62
2
  6
CONTINUOUS
 10
1360.0
 20
116.0
 11
1360.0
 21
94.0
  0
LINE
  5
5B6
100
AcDbEntity
  8
0
100
AcDbLine
 62
2
  6
CONTINUOUS
 10
1272.0
 20
1082.0
 11
1624.0
 21
1082.0
  0
LINE
  5
5B7
100
AcDbEntity
  8
0
100
AcDbLine
 62
2
  6
CONTINUOUS
 10
1624.0
 20
1094.0
 11
1272.0
 21
1094.0
  0
LINE
  5
5B8
100
AcDbEntity
  8
0
100
AcDbLine
 62
2
  6
CONTINUOUS
 10
1272.0
 20
1106.0
 11
1624.0
 21
1106.0
  0
LINE
  5
5B9
100
AcDbEntity
  8
0
100
AcDbLine
 62
2
  6
CONTINUOUS
 10
1624.0
 20
1118.0
 11
1272.0
 21
1118.0
  0
LINE
  5
5BA
100
AcDbEntity
  8
0
100
AcDbLine
 62
2
  6
CONTINUOUS
 10
1272.0
 20
1130.0
 11
1624.0
 21
1130.0
  0
LINE
  5
5BB
100
AcDbEntity
  8
0
100
AcDbLine
 62
2
  6
CONTINUOUS
 10
1386.0
 20
116.0
 11
1386.0
 21
50.0
  0
LINE
  5
5BC
100
AcDbEntity
  8
0
100
AcDbLine
 62
2
  6
CONTINUOUS
 10
1388.0
 20
1082.0
 11
1388.0
 21
1142.0
  0
LINE
  5
5BD
100
AcDbEntity
  8
0
100
AcDbLine
 62
2
  6
CONTINUOUS
 10
1398.0
 20
116.0
 11
1398.0
 21
50.0
  0
LINE
  5
5BE
100
AcDbEntity
  8
0
100
AcDbLine
 62
2
  6
CONTINUOUS
 10
1430.0
 20
116.0
 11
1430.0
 21
50.0
  0
LINE
  5
5BF
100
AcDbEntity
  8
0
100
AcDbLine
 62
7
  6
CONTINUOUS
 10
1624.0
 20
1142.0
 11
60.0
 21
1142.0
  0
LINE
  5
5C0
100
AcDbEntity
  8
0
100
AcDbLine
 62
7
  6
CONTINUOUS
 10
-0.0
 20
1188.0
 11
1682.0
 21
1188.0
  0
LINE
  5
5C1
100
AcDbEntity
  8
0
100
AcDbLine
 62
2
  6
CONTINUOUS
 10
1442.0
 20
140.0
 11
1442.0
 21
80.0
  0
LINE
  5
5C2
100
AcDbEntity
  8
0
100
AcDbLine
 62
2
  6
CONTINUOUS
 10
1450.0
 20
80.0
 11
1450.0
 21
50.0
  0
LINE
  5
5C3
100
AcDbEntity
  8
0
100
AcDbLine
 62
2
  6
CONTINUOUS
 10
1460.0
 20
140.0
 11
1460.0
 21
116.0
  0
LINE
  5
5C4
100
AcDbEntity
  8
0
100
AcDbLine
 62
2
  6
CONTINUOUS
 10
1474.0
 20
1142.0
 11
1474.0
 21
1082.0
  0
LINE
  5
5C5
100
AcDbEntity
  8
0
100
AcDbLine
 62
2
  6
CONTINUOUS
 10
1499.0
 20
1130.0
 11
1499.0
 21
1082.0
  0
LINE
  5
5C6
100
AcDbEntity
  8
0
100
AcDbLine
 62
2
  6
CONTINUOUS
 10
1516.0
 20
80.0
 11
1516.0
 21
50.0
  0
LINE
  5
5C7
100
AcDbEntity
  8
0
100
AcDbLine
 62
2
  6
CONTINUOUS
 10
1524.0
 20
1082.0
 11
1524.0
 21
1142.0
  0
LINE
  5
5C8
100
AcDbEntity
  8
0
100
AcDbLine
 62
2
  6
CONTINUOUS
 10
1528.0
 20
80.0
 11
1528.0
 21
50.0
  0
LINE
  5
5C9
100
AcDbEntity
  8
0
100
AcDbLine
 62
2
  6
CONTINUOUS
 10
1542.0
 20
140.0
 11
1542.0
 21
116.0
  0
LINE
  5
5CA
100
AcDbEntity
  8
0
100
AcDbLine
 62
2
  6
CONTINUOUS
 10
1549.0
 20
1130.0
 11
1549.0
 21
1082.0
  0
LINE
  5
5CB
100
AcDbEntity
  8
0
100
AcDbLine
 62
2
  6
CONTINUOUS
 10
1574.0
 20
1082.0
 11
1574.0
 21
1142.0
  0
LINE
  5
5CC
100
AcDbEntity
  8
0
100
AcDbLine
 62
2
  6
CONTINUOUS
 10
1599.0
 20
1130.0
 11
1599.0
 21
1082.0
  0
LINE
  5
5CD
100
AcDbEntity
  8
0
100
AcDbLine
 62
2
  6
CONTINUOUS
 10
1612.0
 20
80.0
 11
1612.0
 21
50.0
  0
LINE
  5
5CE
100
AcDbEntity
  8
0
100
AcDbLine
 62
7
  6
CONTINUOUS
 10
1624.0
 20
50.0
 11
1624.0
 21
1142.0
  0
LINE
  5
5CF
100
AcDbEntity
  8
0
100
AcDbLine
 62
7
  6
CONTINUOUS
 10
1682.0
 20
0.0
 11
1682.0
 21
1188.0
  0
LWPOLYLINE
  5
5D0
100
AcDbEntity
  8
11_COMPONENT
100
AcDbPolyline
 62
7
  6
CONTINUOUS
 90
4
 70
0
 10
366.2212262152
 20
640.9944560009
 10
366.1071998794
 20
640.8815215113
 10
366.0072665275
 20
640.7428664915
 10
365.9291039021
 20
640.5805925614
  0
LWPOLYLINE
  5
5D1
100
AcDbEntity
  8
11_COMPONENT
100
AcDbPolyline
 62
7
  6
CONTINUOUS
 90
7
 70
0
 10
367.1364018873
 20
641.3847952261
 10
367.144842983
 20
641.3892431666
 10
367.1286819576
 20
641.3820350191
 10
367.0659837767
 20
641.3565281176
 10
366.9640695052
 20
641.3184882926
 10
366.8284699408
 20
641.2710483353
 10
366.6649294194
 20
641.2166077185
  0
LWPOLYLINE
  5
5D2
100
AcDbEntity
  8
11_COMPONENT
100
AcDbPolyline
 62
7
  6
CONTINUOUS
 90
4
 70
0
 10
366.5711175395
 20
641.1863191471
 10
366.46233707
 20
641.1451113291
 10
366.3417139645
 20
641.0816090276
 10
366.2212262152
 20
640.9944560009
  0
LINE
  5
5D3
100
AcDbEntity
  8
11_COMPONENT
100
AcDbLine
 62
7
  6
CONTINUOUS
 10
366.6649294194
 20
641.2166077185
 11
366.5707058198
 21
641.186185108
  0
LWPOLYLINE
  5
5D4
100
AcDbEntity
  8
11_COMPONENT
100
AcDbPolyline
 62
7
  6
CONTINUOUS
 90
4
 70
0
 10
337.8205201358
 20
467.5314529828
 10
337.9047159482
 20
467.3581977342
 10
338.0107352935
 20
467.2146254054
 10
338.1009731239
 20
467.1241831051
  0
LWPOLYLINE
  5
5D5
100
AcDbEntity
  8
11_COMPONENT
100
AcDbPolyline
 62
7
  6
CONTINUOUS
 90
3
 70
0
 10
337.7599260142
 20
467.9515825081
 10
337.7691891359
 20
467.7284999092
 10
337.8205201358
 20
467.5314529828
  0
LINE
  5
5D6
100
AcDbEntity
  8
11_COMPONENT
100
AcDbLine
 62
7
  6
CONTINUOUS
 10
365.9291039021
 20
640.5805925614
 11
365.897265437
 21
640.4797673439
  0
LINE
  5
5D7
100
AcDbEntity
  8
11_COMPONENT
100
AcDbLine
 62
7
  6
CONTINUOUS
 10
438.7281967176
 20
687.4303997935
 11
437.2280719857
 21
685.9302352959
  0
LINE
  5
5D8
100
AcDbEntity
  8
11_COMPONENT
100
AcDbLine
 62
9
  6
CONTINUOUS
 10
338.1009731239
 20
467.1241831051
 11
338.2721283996
 21
467.0053371958
  0
LWPOLYLINE
  5
5D9
100
AcDbEntity
  8
11_COMPONENT
100
AcDbPolyline
 62
7
  6
CONTINUOUS
 90
4
 70
0
 10
338.0996238494
 20
467.1253851508
 10
338.1376779465
 20
467.0912273284
 10
338.330826639
 20
466.9109874871
 10
338.4612871067
 20
466.7781083896
  0
LINE
  5
5DA
100
AcDbEntity
  8
11_COMPONENT
100
AcDbLine
 62
7
  6
CONTINUOUS
 10
338.4612871067
 20
466.7781083896
 11
338.5057038901
 21
466.7281632089
  0
LINE
  5
5DB
100
AcDbEntity
  8
11_COMPONENT
100
AcDbLine
 62
7
  6
CONTINUOUS
 10
343.9465782601
 20
465.0124761835
 11
343.9465782601
 21
462.5237186036
  0
LINE
  5
5DC
100
AcDbEntity
  8
11_COMPONENT
100
AcDbLine
 62
7
  6
CONTINUOUS
 10
344.0229851278
 20
465.9306281023
 11
343.9978293938
 21
465.4506281023
  0
LWPOLYLINE
  5
5DD
100
AcDbEntity
  8
11_COMPONENT
100
AcDbPolyline
 62
7
  6
CONTINUOUS
 90
5
 70
0
 10
365.8972532955
 20
640.4797536245
 10
355.9989869246
 20
598.2659384389
 10
347.8831178885
 20
554.8206215128
 10
341.7796306626
 20
511.0839900032
 10
337.759923658
 20
467.9515794742
  0
LINE
  5
5DE
100
AcDbEntity
  8
11_COMPONENT
100
AcDbLine
 62
7
  6
CONTINUOUS
 10
394.4204437742
 20
647.7662075193
 11
404.3303269538
 21
664.9306286834
  0
LINE
  5
5DF
100
AcDbEntity
  8
11_COMPONENT
100
AcDbLine
 62
7
  6
CONTINUOUS
 10
338.5059513662
 20
465.9306281023
 11
338.0733437442
 21
466.1803942294
  0
LINE
  5
5E0
100
AcDbEntity
  8
0
100
AcDbLine
 62
6
  6
CONTINUOUS
 10
368.2175433516
 20
468.4806281023
 11
368.2175433516
 21
468.2806281023
  0
LINE
  5
5E1
100
AcDbEntity
  8
11_COMPONENT
100
AcDbLine
 62
7
  6
CONTINUOUS
 10
346.235975401
 20
461.7207786706
 11
344.0918031494
 21
462.3313655764
  0
LINE
  5
5E2
100
AcDbEntity
  8
11_COMPONENT
100
AcDbLine
 62
7
  6
CONTINUOUS
 10
371.0806866417
 20
454.4606280717
 11
347.89988925
 21
461.2216939776
  0
LINE
  5
5E3
100
AcDbEntity
  8
11_COMPONENT
100
AcDbLine
 62
7
  6
CONTINUOUS
 10
347.89988925
 20
461.2216939776
 11
346.235975401
 21
461.7207786706
  0
LINE
  5
5E4
100
AcDbEntity
  8
11_COMPONENT
100
AcDbLine
 62
7
  6
CONTINUOUS
 10
400.6901508891
 20
457.5967982076
 11
400.7143049646
 21
457.5720173012
  0
LINE
  5
5E5
100
AcDbEntity
  8
11_COMPONENT
100
AcDbLine
 62
7
  6
CONTINUOUS
 10
380.0408743712
 20
454.3752318817
 11
380.1978293938
 21
449.8806281024
  0
LINE
  5
5E6
100
AcDbEntity
  8
0
100
AcDbLine
 62
6
  6
CONTINUOUS
 10
369.0386209363
 20
468.4806281023
 11
369.0386209363
 21
468.2806281023
  0
LINE
  5
5E7
100
AcDbEntity
  8
0
100
AcDbLine
 62
6
  6
CONTINUOUS
 10
369.2171161892
 20
468.4806281023
 11
369.2171161892
 21
468.2806281023
  0
LINE
  5
5E8
100
AcDbEntity
  8
0
100
AcDbLine
 62
6
  6
CONTINUOUS
 10
370.0162208741
 20
468.4806281023
 11
370.0162208741
 21
468.2806281023
  0
LINE
  5
5E9
100
AcDbEntity
  8
0
100
AcDbLine
 62
6
  6
CONTINUOUS
 10
370.3751166112
 20
468.4806281023
 11
370.3751166112
 21
468.2806281023
  0
LINE
  5
5EA
100
AcDbEntity
  8
0
100
AcDbLine
 62
6
  6
CONTINUOUS
 10
370.8372984588
 20
468.4806281023
 11
370.8372984588
 21
468.2806281023
  0
LINE
  5
5EB
100
AcDbEntity
  8
0
100
AcDbLine
 62
6
  6
CONTINUOUS
 10
371.3527165489
 20
468.4806281023
 11
371.3527165489
 21
468.2806281023
  0
LINE
  5
5EC
100
AcDbEntity
  8
11_COMPONENT
100
AcDbLine
 62
7
  6
CONTINUOUS
 10
550.7549721389
 20
454.3806281023
 11
551.3149721458
 21
454.4606280717
  0
LINE
  5
5ED
100
AcDbEntity
  8
11_COMPONENT
100
AcDbLine
 62
7
  6
CONTINUOUS
 10
371.6406866486
 20
454.3806281023
 11
371.0806866417
 21
454.4606280717
  0
LINE
  5
5EE
100
AcDbEntity
  8
11_COMPONENT
100
AcDbLine
 62
9
  6
CONTINUOUS
 10
337.7599241395
 20
467.9515863249
 11
337.7754859688
 21
467.9481769653
  0
LINE
  5
5EF
100
AcDbEntity
  8
11_COMPONENT
100
AcDbLine
 62
7
  6
CONTINUOUS
 10
399.3072929581
 20
458.3214142693
 11
399.8158821565
 21
458.1091911716
  0
LINE
  5
5F0
100
AcDbEntity
  8
11_COMPONENT
100
AcDbLine
 62
7
  6
CONTINUOUS
 10
399.8172671221
 20
458.1085708209
 11
400.1372408699
 21
457.9538913234
  0
LWPOLYLINE
  5
5F1
100
AcDbEntity
  8
11_COMPONENT
100
AcDbPolyline
 62
7
  6
CONTINUOUS
 90
3
 70
0
 10
400.1372408699
 20
457.9538913234
 10
400.5152193069
 20
457.7327938145
 10
400.6901508891
 20
457.5967982076
  0
LINE
  5
5F2
100
AcDbEntity
  8
11_COMPONENT
100
AcDbLine
 62
7
  6
CONTINUOUS
 10
543.391286573
 20
459.7028930395
 11
543.9285782208
 21
459.7181461081
  0
LINE
  5
5F3
100
AcDbEntity
  8
11_COMPONENT
100
AcDbLine
 62
7
  6
CONTINUOUS
 10
380.1978293938
 20
449.8806281024
 11
542.1978293938
 21
449.8806281023
  0
LINE
  5
5F4
100
AcDbEntity
  8
11_COMPONENT
100
AcDbLine
 62
7
  6
CONTINUOUS
 10
371.6408232329
 20
454.3806281023
 11
550.7548355546
 21
454.3806281023
  0
LINE
  5
5F5
100
AcDbEntity
  8
11_COMPONENT
100
AcDbLine
 62
9
  6
CONTINUOUS
 10
371.0806866411
 20
454.4606280719
 11
551.3149721464
 21
454.4606280719
  0
LINE
  5
5F6
100
AcDbEntity
  8
11_COMPONENT
100
AcDbLine
 62
7
  6
CONTINUOUS
 10
347.8998892499
 20
461.2216939776
 11
574.4957695376
 21
461.2216939776
  0
LINE
  5
5F7
100
AcDbEntity
  8
11_COMPONENT
100
AcDbLine
 62
7
  6
CONTINUOUS
 10
346.235975401
 20
461.7207786706
 11
576.1596833866
 21
461.7207786706
  0
LINE
  5
5F8
100
AcDbEntity
  8
11_COMPONENT
100
AcDbLine
 62
9
  6
CONTINUOUS
 10
344.0918031211
 20
462.3313655845
 11
578.3038556665
 21
462.3313655844
  0
LINE
  5
5F9
100
AcDbEntity
  8
11_COMPONENT
100
AcDbLine
 62
9
  6
CONTINUOUS
 10
343.9465782601
 20
462.5237186037
 11
578.4490805274
 21
462.5237186036
  0
LWPOLYLINE
  5
5FA
100
AcDbEntity
  8
11_COMPONENT
100
AcDbPolyline
 62
7
  6
CONTINUOUS
 90
3
 70
0
 10
543.9309358684
 20
459.7181455931
 10
544.0824839252
 20
459.7166128391
 10
544.4619856714
 20
459.6948835724
  0
LINE
  5
5FB
100
AcDbEntity
  8
11_COMPONENT
100
AcDbLine
 62
7
  6
CONTINUOUS
 10
343.9467562033
 20
465.0124761835
 11
578.4489025842
 21
465.0124761835
  0
LINE
  5
5FC
100
AcDbEntity
  8
11_COMPONENT
100
AcDbLine
 62
7
  6
CONTINUOUS
 10
578.3973973604
 20
465.4506281023
 11
522.6117209687
 21
465.4506281023
  0
LINE
  5
5FD
100
AcDbEntity
  8
11_COMPONENT
100
AcDbLine
 62
7
  6
CONTINUOUS
 10
517.3716761128
 20
465.4506281023
 11
343.9982158965
 21
465.4506281023
  0
LINE
  5
5FE
100
AcDbEntity
  8
11_COMPONENT
100
AcDbLine
 62
9
  6
CONTINUOUS
 10
517.6219627168
 20
465.5560540558
 11
522.3036185145
 21
465.5560540555
  0
LINE
  5
5FF
100
AcDbEntity
  8
11_COMPONENT
100
AcDbLine
 62
7
  6
CONTINUOUS
 10
338.5060854905
 20
465.9306281023
 11
583.8895732976
 21
465.9306281023
  0
LINE
  5
600
100
AcDbEntity
  8
11_COMPONENT
100
AcDbLine
 62
9
  6
CONTINUOUS
 10
372.1486582102
 20
466.1804447104
 11
534.1290384446
 21
466.1804447096
  0
LINE
  5
601
100
AcDbEntity
  8
11_COMPONENT
100
AcDbLine
 62
9
  6
CONTINUOUS
 10
579.3595605485
 20
466.1804447104
 11
584.3223619769
 21
466.1804420988
  0
LINE
  5
602
100
AcDbEntity
  8
11_COMPONENT
100
AcDbLine
 62
9
  6
CONTINUOUS
 10
338.0733503277
 20
466.180390682
 11
338.8222462129
 21
466.1804447097
  0
LINE
  5
603
100
AcDbEntity
  8
11_COMPONENT
100
AcDbLine
 62
9
  6
CONTINUOUS
 10
540.1238750035
 20
467.0169280573
 11
578.7602282267
 21
467.0169279594
  0
LINE
  5
604
100
AcDbEntity
  8
11_COMPONENT
100
AcDbLine
 62
9
  6
CONTINUOUS
 10
338.2667925339
 20
467.0169280573
 11
366.7345387998
 21
467.0169279594
  0
LINE
  5
605
100
AcDbEntity
  8
11_COMPONENT
100
AcDbLine
 62
9
  6
CONTINUOUS
 10
579.8373922862
 20
467.110871892
 11
584.8202907316
 21
467.1108723011
  0
LINE
  5
606
100
AcDbEntity
  8
11_COMPONENT
100
AcDbLine
 62
9
  6
CONTINUOUS
 10
337.5753319074
 20
467.1108719228
 11
338.1157881756
 21
467.1108719009
  0
LINE
  5
607
100
AcDbEntity
  8
11_COMPONENT
100
AcDbLine
 62
9
  6
CONTINUOUS
 10
371.7891196535
 20
467.110871892
 11
534.4240421554
 21
467.1108718918
  0
LINE
  5
608
100
AcDbEntity
  8
11_COMPONENT
100
AcDbLine
 62
9
  6
CONTINUOUS
 10
337.7754854304
 20
467.9481768606
 11
366.357006106
 21
467.9481768588
  0
LINE
  5
609
100
AcDbEntity
  8
11_COMPONENT
100
AcDbLine
 62
9
  6
CONTINUOUS
 10
540.4393114003
 20
467.9481768606
 11
579.2300791014
 21
467.9481768588
  0
LINE
  5
60A
100
AcDbEntity
  8
0
100
AcDbLine
 62
7
  6
CONTINUOUS
 10
371.3527165489
 20
468.2806281023
 11
368.2175433516
 21
468.2806281023
  0
LINE
  5
60B
100
AcDbEntity
  8
0
100
AcDbLine
 62
7
  6
CONTINUOUS
 10
371.3527165489
 20
468.4806281023
 11
368.2175433516
 21
468.4806281023
  0
LINE
  5
60C
100
AcDbEntity
  8
11_COMPONENT
100
AcDbLine
 62
7
  6
CONTINUOUS
 10
522.4268918915
 20
465.4783548557
 11
522.6113656686
 21
465.4506291572
  0
LINE
  5
60D
100
AcDbEntity
  8
11_COMPONENT
100
AcDbLine
 62
7
  6
CONTINUOUS
 10
544.4619856714
 20
459.6948835724
 11
544.6816953898
 21
459.6606505295
  0
LINE
  5
60E
100
AcDbEntity
  8
11_COMPONENT
100
AcDbLine
 62
7
  6
CONTINUOUS
 10
544.6816953898
 20
459.6606505295
 11
544.7240516637
 21
459.6490050063
  0
LINE
  5
60F
100
AcDbEntity
  8
11_COMPONENT
100
AcDbLine
 62
7
  6
CONTINUOUS
 10
441.531530555
 20
665.5034242556
 11
441.5246141207
 21
665.4086653483
  0
LINE
  5
610
100
AcDbEntity
  8
11_COMPONENT
100
AcDbLine
 62
9
  6
CONTINUOUS
 10
441.9560870257
 20
665.4829640586
 11
441.9522670343
 21
665.4306281023
  0
LINE
  5
611
100
AcDbEntity
  8
11_COMPONENT
100
AcDbLine
 62
9
  6
CONTINUOUS
 10
442.2035289936
 20
665.4829640586
 11
442.2042025611
 21
665.4306281023
  0
LINE
  5
612
100
AcDbEntity
  8
11_COMPONENT
100
AcDbLine
 62
9
  6
CONTINUOUS
 10
443.5943487882
 20
665.4829640586
 11
443.5950223558
 21
665.4306281023
  0
LINE
  5
613
100
AcDbEntity
  8
11_COMPONENT
100
AcDbLine
 62
7
  6
CONTINUOUS
 10
437.2278293938
 20
685.9304778478
 11
437.2278293938
 21
666.4306281023
  0
LINE
  5
614
100
AcDbEntity
  8
11_COMPONENT
100
AcDbLine
 62
7
  6
CONTINUOUS
 10
522.1297202684
 20
465.6656621063
 11
522.4268918915
 21
465.4783548557
  0
LINE
  5
615
100
AcDbEntity
  8
11_COMPONENT
100
AcDbLine
 62
7
  6
CONTINUOUS
 10
485.1678293938
 20
685.9304778478
 11
485.1678293938
 21
666.4306281023
  0
LWPOLYLINE
  5
616
100
AcDbEntity
  8
11_COMPONENT
100
AcDbPolyline
 62
7
  6
CONTINUOUS
 90
13
 70
0
 10
390.3831116151
 20
459.5803838784
 10
390.3645760359
 20
459.5676864052
 10
390.4232837458
 20
459.587600934
 10
390.7280454358
 20
459.6536061323
 10
391.2542932569
 20
459.7049521792
 10
391.9716815686
 20
459.7165815703
 10
392.8466272741
 20
459.6777161136
 10
393.8476897935
 20
459.5835516367
 10
394.940166511
 20
459.4323364902
 10
396.0835029297
 20
459.2249338394
 10
397.2297824987
 20
458.9650676485
 10
398.3242195882
 20
458.6600915611
 10
399.3072929581
 20
458.3214142693
  0
LINE
  5
617
100
AcDbEntity
  8
11_COMPONENT
100
AcDbLine
 62
7
  6
CONTINUOUS
 10
521.9786516944
 20
465.9306281023
 11
522.1297202684
 21
465.6656621063
  0
LINE
  5
618
100
AcDbEntity
  8
11_COMPONENT
100
AcDbLine
 62
7
  6
CONTINUOUS
 10
542.3547844163
 20
454.3752318817
 11
542.1978293938
 21
449.8806281023
  0
LINE
  5
619
100
AcDbEntity
  8
11_COMPONENT
100
AcDbLine
 62
7
  6
CONTINUOUS
 10
576.1596833866
 20
461.7207786706
 11
578.3038556381
 21
462.3313655764
  0
LWPOLYLINE
  5
61A
100
AcDbEntity
  8
11_COMPONENT
100
AcDbPolyline
 62
7
  6
CONTINUOUS
 90
13
 70
0
 10
534.2271331966
 20
457.2746735012
 10
534.2393573783
 20
457.2860536783
 10
534.4310763686
 20
457.4266908609
 10
534.8109680474
 20
457.6414482689
 10
535.3626285966
 20
457.8962844786
 10
536.0706048445
 20
458.1729987969
 10
536.9181188362
 20
458.458457815
 10
537.8871836161
 20
458.7417490071
 10
538.9545728032
 20
459.0118417928
 10
540.0890309929
 20
459.2567301455
 10
541.2464902235
 20
459.4629133246
 10
542.3700935936
 20
459.6161515529
 10
543.391286573
 20
459.7028930395
  0
LINE
  5
61B
100
AcDbEntity
  8
11_COMPONENT
100
AcDbLine
 62
7
  6
CONTINUOUS
 10
574.4957695376
 20
461.2216939776
 11
576.1596833866
 21
461.7207786706
  0
LINE
  5
61C
100
AcDbEntity
  8
11_COMPONENT
100
AcDbLine
 62
7
  6
CONTINUOUS
 10
551.3149721458
 20
454.4606280717
 11
574.4957695376
 21
461.2216939776
  0
LWPOLYLINE
  5
61D
100
AcDbEntity
  8
11_COMPONENT
100
AcDbPolyline
 62
7
  6
CONTINUOUS
 90
5
 70
0
 10
579.2973720551
 20
467.9500567028
 10
575.2409698814
 20
511.0129381359
 10
569.2899130006
 20
554.7444959703
 10
561.5220922248
 20
598.1855887175
 10
552.1369120401
 20
640.468319617
  0
LINE
  5
61E
100
AcDbEntity
  8
11_COMPONENT
100
AcDbLine
 62
7
  6
CONTINUOUS
 10
578.3726736597
 20
465.9306281023
 11
578.3978293938
 21
465.4506281023
  0
LINE
  5
61F
100
AcDbEntity
  8
11_COMPONENT
100
AcDbLine
 62
7
  6
CONTINUOUS
 10
578.4490805274
 20
465.0124761835
 11
578.4490805274
 21
462.5237186036
  0
LINE
  5
620
100
AcDbEntity
  8
11_COMPONENT
100
AcDbLine
 62
7
  6
CONTINUOUS
 10
579.2827584055
 20
467.6901060986
 11
579.297369864
 21
467.9500592192
  0
LINE
  5
621
100
AcDbEntity
  8
11_COMPONENT
100
AcDbLine
 62
7
  6
CONTINUOUS
 10
583.8897074219
 20
465.9306281023
 11
584.3223978716
 21
466.18044205
  0
LINE
  5
622
100
AcDbEntity
  8
11_COMPONENT
100
AcDbLine
 62
9
  6
CONTINUOUS
 10
552.0613247726
 20
640.4853883851
 11
523.6494792147
 21
640.4853883757
  0
LINE
  5
623
100
AcDbEntity
  8
11_COMPONENT
100
AcDbLine
 62
9
  6
CONTINUOUS
 10
386.8511823868
 20
640.4853883851
 11
365.9169806771
 21
640.4853883757
  0
LINE
  5
624
100
AcDbEntity
  8
11_COMPONENT
100
AcDbLine
 62
9
  6
CONTINUOUS
 10
366.0743192211
 20
640.8359004225
 11
366.0395972955
 21
640.8359009724
  0
LINE
  5
625
100
AcDbEntity
  8
11_COMPONENT
100
AcDbLine
 62
9
  6
CONTINUOUS
 10
556.3560667999
 20
640.8358915873
 11
552.5059524059
 21
640.8358917163
  0
LINE
  5
626
100
AcDbEntity
  8
11_COMPONENT
100
AcDbLine
 62
9
  6
CONTINUOUS
 10
517.6051423215
 20
640.8358917161
 11
392.3395094717
 21
640.8358917152
  0
LINE
  5
627
100
AcDbEntity
  8
11_COMPONENT
100
AcDbLine
 62
9
  6
CONTINUOUS
 10
551.3492716557
 20
641.2069237048
 11
523.1600759956
 21
641.2069236912
  0
LINE
  5
628
100
AcDbEntity
  8
11_COMPONENT
100
AcDbLine
 62
9
  6
CONTINUOUS
 10
387.433800933
 20
641.2069237048
 11
366.6636503799
 21
641.2069236912
  0
LINE
  5
629
100
AcDbEntity
  8
11_COMPONENT
100
AcDbLine
 62
9
  6
CONTINUOUS
 10
367.377884669
 20
641.5566098133
 11
366.7980150718
 21
641.5566171887
  0
LINE
  5
62A
100
AcDbEntity
  8
11_COMPONENT
100
AcDbLine
 62
9
  6
CONTINUOUS
 10
555.5976244529
 20
641.5566122062
 11
551.7782512093
 21
641.5566098139
  0
LINE
  5
62B
100
AcDbEntity
  8
11_COMPONENT
100
AcDbLine
 62
9
  6
CONTINUOUS
 10
517.1555911994
 20
641.5566098133
 11
392.8882917718
 21
641.5566098139
  0
LINE
  5
62C
100
AcDbEntity
  8
11_COMPONENT
100
AcDbLine
 62
9
  6
CONTINUOUS
 10
393.7623301561
 20
647.2880598816
 11
528.633328632
 21
647.2880598816
  0
LINE
  5
62D
100
AcDbEntity
  8
11_COMPONENT
100
AcDbLine
 62
9
  6
CONTINUOUS
 10
394.4204437711
 20
647.7662075131
 11
527.975215017
 21
647.7662075131
  0
LINE
  5
62E
100
AcDbEntity
  8
11_COMPONENT
100
AcDbLine
 62
7
  6
CONTINUOUS
 10
527.9752150139
 20
647.7662075193
 11
518.0653318343
 21
664.9306286834
  0
LINE
  5
62F
100
AcDbEntity
  8
11_COMPONENT
100
AcDbLine
 62
7
  6
CONTINUOUS
 10
579.2021736255
 20
467.4418429529
 11
579.2000665426
 21
467.4289373033
  0
LINE
  5
630
100
AcDbEntity
  8
11_COMPONENT
100
AcDbLine
 62
7
  6
CONTINUOUS
 10
579.221566791
 20
467.4857437181
 11
579.2827584055
 21
467.6901060986
  0
LINE
  5
631
100
AcDbEntity
  8
11_COMPONENT
100
AcDbLine
 62
7
  6
CONTINUOUS
 10
579.2000665426
 20
467.4289373033
 11
579.2176152955
 21
467.4763569239
  0
LINE
  5
632
100
AcDbEntity
  8
11_COMPONENT
100
AcDbLine
 62
7
  6
CONTINUOUS
 10
579.2215885822
 20
467.4857347007
 11
579.2176152955
 21
467.4763569239
  0
LINE
  5
633
100
AcDbEntity
  8
11_COMPONENT
100
AcDbLine
 62
7
  6
CONTINUOUS
 10
579.1821102735
 20
467.4021822791
 11
579.221566791
 21
467.4857437181
  0
LINE
  5
634
100
AcDbEntity
  8
11_COMPONENT
100
AcDbLine
 62
9
  6
CONTINUOUS
 10
579.2176152955
 20
467.4763569239
 11
579.1853702345
 21
467.4089713437
  0
LINE
  5
635
100
AcDbEntity
  8
11_COMPONENT
100
AcDbLine
 62
9
  6
CONTINUOUS
 10
366.5711185176
 20
641.1863170076
 11
366.6707851426
 21
641.2118909688
  0
LINE
  5
636
100
AcDbEntity
  8
11_COMPONENT
100
AcDbLine
 62
7
  6
CONTINUOUS
 10
366.798012697
 20
641.5566172748
 11
393.7623301696
 21
647.2880598846
  0
LINE
  5
637
100
AcDbEntity
  8
11_COMPONENT
100
AcDbLine
 62
7
  6
CONTINUOUS
 10
555.5976734957
 20
641.5566114498
 11
528.6333286185
 21
647.2880598846
  0
LINE
  5
638
100
AcDbEntity
  8
11_COMPONENT
100
AcDbLine
 62
7
  6
CONTINUOUS
 10
483.66746207
 20
687.4303997935
 11
485.1219063569
 21
685.9759169517
  0
LWPOLYLINE
  5
639
100
AcDbEntity
  8
11_COMPONENT
100
AcDbPolyline
 62
7
  6
CONTINUOUS
 90
3
 70
0
 10
552.0664397954
 20
640.6651971951
 10
551.9633041262
 20
640.8344352725
 10
551.835939638
 20
640.9737945772
  0
LINE
  5
63A
100
AcDbEntity
  8
11_COMPONENT
100
AcDbLine
 62
7
  6
CONTINUOUS
 10
552.1369097862
 20
640.4682917835
 11
552.0664397954
 21
640.6651971951
  0
LINE
  5
63B
100
AcDbEntity
  8
11_COMPONENT
100
AcDbLine
 62
9
  6
CONTINUOUS
 10
518.0653318358
 20
664.9306286778
 11
404.3303269523
 21
664.9306286778
  0
LINE
  5
63C
100
AcDbEntity
  8
11_COMPONENT
100
AcDbLine
 62
7
  6
CONTINUOUS
 10
517.1989789492
 20
665.4306281023
 11
405.1966798389
 21
665.4306281023
  0
LINE
  5
63D
100
AcDbEntity
  8
11_COMPONENT
100
AcDbLine
 62
9
  6
CONTINUOUS
 10
444.8309141507
 20
665.4829640586
 11
443.5943487882
 21
665.4829640586
  0
LINE
  5
63E
100
AcDbEntity
  8
11_COMPONENT
100
AcDbLine
 62
9
  6
CONTINUOUS
 10
441.9560870257
 20
665.4829640586
 11
442.2035289936
 21
665.4829640586
  0
LINE
  5
63F
100
AcDbEntity
  8
11_COMPONENT
100
AcDbLine
 62
7
  6
CONTINUOUS
 10
431.9985436761
 20
666.4306281023
 11
490.3971988531
 21
666.4306281023
  0
LINE
  5
640
100
AcDbEntity
  8
11_COMPONENT
100
AcDbLine
 62
9
  6
CONTINUOUS
 10
551.7222008804
 20
641.0629205653
 11
551.3584189467
 21
641.2119039028
  0
LINE
  5
641
100
AcDbEntity
  8
11_COMPONENT
100
AcDbLine
 62
7
  6
CONTINUOUS
 10
551.7250381211
 20
641.0610009858
 11
551.7222008804
 21
641.0629205653
  0
LINE
  5
642
100
AcDbEntity
  8
11_COMPONENT
100
AcDbLine
 62
7
  6
CONTINUOUS
 10
551.835939638
 20
640.9737945772
 11
551.7222008804
 21
641.0629205653
  0
LINE
  5
643
100
AcDbEntity
  8
11_COMPONENT
100
AcDbLine
 62
7
  6
CONTINUOUS
 10
483.6710232555
 20
687.4306281023
 11
438.7246355321
 21
687.4306281023
  0
LINE
  5
644
100
AcDbEntity
  8
11_COMPONENT
100
AcDbLine
 62
7
  6
CONTINUOUS
 10
485.1678254173
 20
685.9303902146
 11
437.2278333698
 21
685.9303902146
  0
LWPOLYLINE
  5
645
100
AcDbEntity
  8
11_COMPONENT
100
AcDbPolyline
 62
7
  6
CONTINUOUS
 90
4
 70
0
 10
338.3251905059
 20
857.3731088236
 10
338.4207319657
 20
855.6867230693
 10
338.217685219
 20
853.1186110487
 10
337.8046049855
 20
851.2757385756
  0
LWPOLYLINE
  5
646
100
AcDbEntity
  8
11_COMPONENT
100
AcDbPolyline
 62
7
  6
CONTINUOUS
 90
3
 70
0
 10
337.8046218131
 20
851.2755445168
 10
337.7621600833
 20
851.0476237791
 10
337.7734053893
 20
850.7457172163
  0
LWPOLYLINE
  5
647
100
AcDbEntity
  8
11_COMPONENT
100
AcDbPolyline
 62
7
  6
CONTINUOUS
 90
4
 70
0
 10
437.5186236646
 20
993.6821170582
 10
435.9866205549
 20
992.6964817299
 10
433.6482302372
 20
991.6176863401
 10
431.9670223211
 20
991.1075039774
  0
LWPOLYLINE
  5
648
100
AcDbEntity
  8
11_COMPONENT
100
AcDbPolyline
 62
7
  6
CONTINUOUS
 90
3
 70
0
 10
438.0060101219
 20
993.8927257747
 10
437.7301195047
 20
993.8053934015
 10
437.5188192212
 20
993.6821585612
  0
LWPOLYLINE
  5
649
100
AcDbEntity
  8
11_COMPONENT
100
AcDbPolyline
 62
7
  6
CONTINUOUS
 90
4
 70
0
 10
366.7814843106
 20
789.1346229142
 10
368.4010711029
 20
788.300686963
 10
370.5045304758
 20
786.8149792371
 10
371.7869653201
 20
785.6141016546
  0
LWPOLYLINE
  5
64A
100
AcDbEntity
  8
11_COMPONENT
100
AcDbPolyline
 62
7
  6
CONTINUOUS
 90
3
 70
0
 10
366.3553985838
 20
789.4514076086
 10
366.5689758953
 20
789.2561455508
 10
366.781350593
 20
789.1347715123
  0
LINE
  5
64B
100
AcDbEntity
  8
11_COMPONENT
100
AcDbLine
 62
7
  6
CONTINUOUS
 10
337.8046719523
 20
851.2757194035
 11
337.8046218131
 21
851.2755445168
  0
LINE
  5
64C
100
AcDbEntity
  8
11_COMPONENT
100
AcDbLine
 62
7
  6
CONTINUOUS
 10
437.5186236646
 20
993.6821170582
 11
437.518771476
 21
993.6822243998
  0
LINE
  5
64D
100
AcDbEntity
  8
11_COMPONENT
100
AcDbLine
 62
7
  6
CONTINUOUS
 10
539.9660251351
 20
773.9830081936
 11
539.9661947474
 21
773.9830505022
  0
LINE
  5
64E
100
AcDbEntity
  8
11_COMPONENT
100
AcDbLine
 62
9
  6
CONTINUOUS
 10
539.9475227505
 20
773.9814365393
 11
539.9660251351
 21
773.9830081936
  0
LINE
  5
64F
100
AcDbEntity
  8
11_COMPONENT
100
AcDbLine
 62
9
  6
CONTINUOUS
 10
366.7994241792
 20
789.1298625951
 11
366.7814843106
 21
789.1346229142
  0
LINE
  5
650
100
AcDbEntity
  8
11_COMPONENT
100
AcDbLine
 62
7
  6
CONTINUOUS
 10
366.7814843106
 20
789.1346229142
 11
366.78131745
 21
789.1346972493
  0
LINE
  5
651
100
AcDbEntity
  8
11_COMPONENT
100
AcDbLine
 62
9
  6
CONTINUOUS
 10
337.8125600708
 20
851.2925219025
 11
337.8046719523
 21
851.2757194035
  0
LINE
  5
652
100
AcDbEntity
  8
11_COMPONENT
100
AcDbLine
 62
9
  6
CONTINUOUS
 10
437.5055311736
 20
993.6689608366
 11
437.5186236646
 21
993.6821170582
  0
LINE
  5
653
100
AcDbEntity
  8
0
100
AcDbLine
 62
7
  6
CONTINUOUS
 10
369.0386209363
 20
857.6424579041
 11
370.3751166112
 21
851.4346982993
  0
LINE
  5
654
100
AcDbEntity
  8
0
100
AcDbLine
 62
7
  6
CONTINUOUS
 10
371.3527165489
 20
851.6451700591
 11
370.0162208741
 21
857.852929664
  0
LINE
  5
655
100
AcDbEntity
  8
0
100
AcDbLine
 62
7
  6
CONTINUOUS
 10
369.2171161892
 20
859.1889981722
 11
368.2175433516
 21
857.4656845252
  0
LINE
  5
656
100
AcDbEntity
  8
0
100
AcDbLine
 62
7
  6
CONTINUOUS
 10
370.8372984588
 20
858.0297030428
 11
369.2171161892
 21
859.1889981722
  0
LINE
  5
657
100
AcDbEntity
  8
11_COMPONENT
100
AcDbLine
 62
7
  6
CONTINUOUS
 10
441.4692880683
 20
843.6847631888
 11
442.2884401126
 21
843.1111867525
  0
LINE
  5
658
100
AcDbEntity
  8
11_COMPONENT
100
AcDbLine
 62
7
  6
CONTINUOUS
 10
441.5873180003
 20
843.706559065
 11
442.2685529224
 21
843.2295532373
  0
LINE
  5
659
100
AcDbEntity
  8
11_COMPONENT
100
AcDbLine
 62
9
  6
CONTINUOUS
 10
441.9560870257
 20
843.7715829939
 11
442.2035289936
 21
843.5983222627
  0
LINE
  5
65A
100
AcDbEntity
  8
11_COMPONENT
100
AcDbLine
 62
9
  6
CONTINUOUS
 10
441.9560870257
 20
843.7715829939
 11
441.5873180003
 21
843.706559065
  0
LINE
  5
65B
100
AcDbEntity
  8
11_COMPONENT
100
AcDbLine
 62
9
  6
CONTINUOUS
 10
441.7108479706
 20
845.1624027885
 11
441.3420789452
 21
845.0973788597
  0
LWPOLYLINE
  5
65C
100
AcDbEntity
  8
11_COMPONENT
100
AcDbPolyline
 62
7
  6
CONTINUOUS
 90
3
 70
0
 10
442.9474133331
 20
846.9284011461
 10
442.9457360343
 20
846.9283867458
 10
442.9444399215
 20
846.9289366198
  0
LINE
  5
65D
100
AcDbEntity
  8
11_COMPONENT
100
AcDbLine
 62
9
  6
CONTINUOUS
 10
441.7108479706
 20
845.1624027885
 11
443.5943487882
 21
843.8435613178
  0
LWPOLYLINE
  5
65E
100
AcDbEntity
  8
11_COMPONENT
100
AcDbPolyline
 62
7
  6
CONTINUOUS
 90
3
 70
0
 10
444.832434298
 20
845.6069487253
 10
444.8314742888
 20
845.6079786049
 10
444.8309141507
 20
845.6095596754
  0
LINE
  5
65F
100
AcDbEntity
  8
11_COMPONENT
100
AcDbLine
 62
9
  6
CONTINUOUS
 10
442.2035289936
 20
843.5983222627
 11
442.2685529224
 21
843.2295532373
  0
LINE
  5
660
100
AcDbEntity
  8
11_COMPONENT
100
AcDbLine
 62
9
  6
CONTINUOUS
 10
443.5943487882
 20
843.8435613178
 11
443.659372717
 21
843.4747922924
  0
LINE
  5
661
100
AcDbEntity
  8
11_COMPONENT
100
AcDbLine
 62
40
  6
CONTINUOUS
 10
463.0154755934
 20
891.7641078908
 11
459.3801855587
 21
850.2125526588
  0
LINE
  5
662
100
AcDbEntity
  8
11_COMPONENT
100
AcDbLine
 62
9
  6
CONTINUOUS
 10
494.0270282887
 20
962.055217255
 11
493.7697618124
 21
961.3415702159
  0
LINE
  5
663
100
AcDbEntity
  8
11_COMPONENT
100
AcDbLine
 62
9
  6
CONTINUOUS
 10
505.3786913001
 20
987.9963312092
 11
505.3794434574
 21
987.9983232136
  0
LINE
  5
664
100
AcDbEntity
  8
11_COMPONENT
100
AcDbLine
 62
9
  6
CONTINUOUS
 10
499.3641879352
 20
958.1572287393
 11
499.0600123165
 21
957.4625159446
  0
LINE
  5
665
100
AcDbEntity
  8
11_COMPONENT
100
AcDbLine
 62
9
  6
CONTINUOUS
 10
510.8421600366
 20
984.204756912
 11
510.84299371
 21
984.2066580947
  0
LINE
  5
666
100
AcDbEntity
  8
11_COMPONENT
100
AcDbLine
 62
7
  6
CONTINUOUS
 10
477.9963964889
 20
901.9529440564
 11
475.3788416122
 21
898.2146882766
  0
LINE
  5
667
100
AcDbEntity
  8
11_COMPONENT
100
AcDbLine
 62
7
  6
CONTINUOUS
 10
442.3823983569
 20
846.732266623
 11
441.2237124604
 21
845.0774916695
  0
LINE
  5
668
100
AcDbEntity
  8
11_COMPONENT
100
AcDbLine
 62
7
  6
CONTINUOUS
 10
442.7361834196
 20
847.088366386
 11
441.3420789452
 21
845.0973788597
  0
LINE
  5
669
100
AcDbEntity
  8
11_COMPONENT
100
AcDbLine
 62
9
  6
CONTINUOUS
 10
441.7108479706
 20
845.1624027885
 11
442.9474133331
 21
846.9284011461
  0
LINE
  5
66A
100
AcDbEntity
  8
11_COMPONENT
100
AcDbLine
 62
9
  6
CONTINUOUS
 10
441.9560870257
 20
843.7715829939
 11
444.3259005153
 21
847.1560274054
  0
LINE
  5
66B
100
AcDbEntity
  8
11_COMPONENT
100
AcDbLine
 62
9
  6
CONTINUOUS
 10
442.2035289936
 20
843.5983222627
 11
444.5733424832
 21
846.9827666743
  0
LINE
  5
66C
100
AcDbEntity
  8
11_COMPONENT
100
AcDbLine
 62
9
  6
CONTINUOUS
 10
444.8309141507
 20
845.6095596754
 11
443.5943487882
 21
843.8435613178
  0
LINE
  5
66D
100
AcDbEntity
  8
11_COMPONENT
100
AcDbLine
 62
9
  6
CONTINUOUS
 10
371.7885371173
 20
785.6156025024
 11
371.7870357094
 21
785.6141688773
  0
LINE
  5
66E
100
AcDbEntity
  8
11_COMPONENT
100
AcDbLine
 62
9
  6
CONTINUOUS
 10
392.3395094717
 20
805.3101475026
 11
392.8882917697
 21
805.8335848556
  0
LINE
  5
66F
100
AcDbEntity
  8
11_COMPONENT
100
AcDbLine
 62
9
  6
CONTINUOUS
 10
366.3570060095
 20
789.4527893909
 11
366.3553913259
 21
789.4514013654
  0
LINE
  5
670
100
AcDbEntity
  8
11_COMPONENT
100
AcDbLine
 62
9
  6
CONTINUOUS
 10
386.8511823491
 20
808.9922464166
 11
387.4338009342
 21
809.4780795313
  0
LINE
  5
671
100
AcDbEntity
  8
0
100
AcDbLine
 62
7
  6
CONTINUOUS
 10
370.3751166112
 20
851.4346982993
 11
371.3527165489
 21
851.6451700591
  0
LINE
  5
672
100
AcDbEntity
  8
11_COMPONENT
100
AcDbLine
 62
9
  6
CONTINUOUS
 10
365.9169806764
 20
853.8857867392
 11
366.6636503813
 21
854.0198109516
  0
LINE
  5
673
100
AcDbEntity
  8
11_COMPONENT
100
AcDbLine
 62
9
  6
CONTINUOUS
 10
337.7754854815
 20
850.746058317
 11
337.7733842764
 21
850.745713702
  0
LINE
  5
674
100
AcDbEntity
  8
11_COMPONENT
100
AcDbLine
 62
9
  6
CONTINUOUS
 10
366.6241579308
 20
860.4568968346
 11
367.377884669
 21
860.5408294188
  0
LINE
  5
675
100
AcDbEntity
  8
11_COMPONENT
100
AcDbLine
 62
9
  6
CONTINUOUS
 10
338.3273507766
 20
857.3733481732
 11
338.3252874673
 21
857.3731195644
  0
LINE
  5
676
100
AcDbEntity
  8
11_COMPONENT
100
AcDbLine
 62
7
  6
CONTINUOUS
 10
425.9823919896
 20
870.0539889647
 11
430.5285938998
 21
869.6562478355
  0
LINE
  5
677
100
AcDbEntity
  8
11_COMPONENT
100
AcDbLine
 62
40
  6
CONTINUOUS
 10
482.0880322127
 20
869.1606608355
 11
440.3076265748
 21
872.8159726863
  0
LINE
  5
678
100
AcDbEntity
  8
11_COMPONENT
100
AcDbLine
 62
9
  6
CONTINUOUS
 10
579.8374148696
 20
836.2439554414
 11
579.8394071305
 21
836.2433719954
  0
LINE
  5
679
100
AcDbEntity
  8
11_COMPONENT
100
AcDbLine
 62
9
  6
CONTINUOUS
 10
552.5059524059
 20
844.1943470722
 11
551.7782512087
 21
844.40788781
  0
LINE
  5
67A
100
AcDbEntity
  8
11_COMPONENT
100
AcDbLine
 62
9
  6
CONTINUOUS
 10
579.2300791014
 20
829.6215180834
 11
579.2320885085
 21
829.6208137392
  0
LINE
  5
67B
100
AcDbEntity
  8
11_COMPONENT
100
AcDbLine
 62
9
  6
CONTINUOUS
 10
552.0613247654
 20
837.600266893
 11
551.3492716557
 21
837.8619128342
  0
LINE
  5
67C
100
AcDbEntity
  8
11_COMPONENT
100
AcDbLine
 62
9
  6
CONTINUOUS
 10
523.6494792227
 20
797.0239462896
 11
523.1600759956
 21
797.6035691131
  0
LINE
  5
67D
100
AcDbEntity
  8
11_COMPONENT
100
AcDbLine
 62
9
  6
CONTINUOUS
 10
540.4393114003
 20
774.2225607665
 11
540.440660448
 21
774.2209133769
  0
LINE
  5
67E
100
AcDbEntity
  8
11_COMPONENT
100
AcDbLine
 62
9
  6
CONTINUOUS
 10
517.6051423215
 20
794.3508247097
 11
517.1555911989
 21
794.9616049188
  0
LINE
  5
67F
100
AcDbEntity
  8
11_COMPONENT
100
AcDbLine
 62
9
  6
CONTINUOUS
 10
534.4239773702
 20
771.3868451962
 11
534.4252070252
 21
771.3851726349
  0
LINE
  5
680
100
AcDbEntity
  8
11_COMPONENT
100
AcDbLine
 62
7
  6
CONTINUOUS
 10
470.4355903734
 20
841.7130680773
 11
472.3642374066
 21
837.5770711676
  0
LINE
  5
681
100
AcDbEntity
  8
11_COMPONENT
100
AcDbLine
 62
9
  6
CONTINUOUS
 10
431.967536198
 20
991.1053923377
 11
431.9670453461
 21
991.1074094076
  0
LINE
  5
682
100
AcDbEntity
  8
11_COMPONENT
100
AcDbLine
 62
9
  6
CONTINUOUS
 10
438.7480263049
 20
963.4604557057
 11
438.9269452001
 21
962.7234776182
  0
LINE
  5
683
100
AcDbEntity
  8
11_COMPONENT
100
AcDbLine
 62
9
  6
CONTINUOUS
 10
438.0064030681
 20
993.8906428125
 11
438.0060083445
 21
993.8927351822
  0
LINE
  5
684
100
AcDbEntity
  8
11_COMPONENT
100
AcDbLine
 62
9
  6
CONTINUOUS
 10
444.6809810775
 20
966.3724369638
 11
444.8104156005
 21
965.6249579113
  0
LINE
  5
685
100
AcDbEntity
  8
11_COMPONENT
100
AcDbLine
 62
7
  6
CONTINUOUS
 10
443.659372717
 20
843.4747922924
 11
445.0534771914
 21
845.4657798187
  0
LINE
  5
686
100
AcDbEntity
  8
11_COMPONENT
100
AcDbLine
 62
7
  6
CONTINUOUS
 10
443.6811685932
 20
843.3567623604
 11
444.8398544898
 21
845.011537314
  0
LINE
  5
687
100
AcDbEntity
  8
11_COMPONENT
100
AcDbLine
 62
7
  6
CONTINUOUS
 10
481.9320579665
 20
893.6260767858
 11
484.5496128432
 21
897.3643325656
  0
LINE
  5
688
100
AcDbEntity
  8
0
100
AcDbLine
 62
7
  6
CONTINUOUS
 10
368.2175433516
 20
857.4656845252
 11
369.0386209363
 21
857.6424579041
  0
LINE
  5
689
100
AcDbEntity
  8
0
100
AcDbLine
 62
7
  6
CONTINUOUS
 10
370.0162208741
 20
857.852929664
 11
370.8372984588
 21
858.0297030428
  0
LINE
  5
68A
100
AcDbEntity
  8
11_COMPONENT
100
AcDbLine
 62
7
  6
CONTINUOUS
 10
431.2258398417
 20
877.6258054202
 11
426.6796379315
 21
878.0235465494
  0
LINE
  5
68B
100
AcDbEntity
  8
11_COMPONENT
100
AcDbLine
 62
7
  6
CONTINUOUS
 10
479.6146997028
 20
840.9580172616
 11
477.6860526697
 21
845.0940141711
  0
LINE
  5
68C
100
AcDbEntity
  8
11_COMPONENT
100
AcDbLine
 62
9
  6
CONTINUOUS
 10
505.8334053311
 20
987.6909918588
 11
505.8227979991
 21
987.7062244227
  0
LINE
  5
68D
100
AcDbEntity
  8
11_COMPONENT
100
AcDbLine
 62
9
  6
CONTINUOUS
 10
579.2884887312
 20
830.1661213526
 11
579.2933387613
 21
830.1481976227
  0
LINE
  5
68E
100
AcDbEntity
  8
11_COMPONENT
100
AcDbLine
 62
7
  6
CONTINUOUS
 10
579.2933387613
 20
830.1481976227
 11
579.2933569652
 21
830.1480241354
  0
LWPOLYLINE
  5
68F
100
AcDbEntity
  8
11_COMPONENT
100
AcDbPolyline
 62
7
  6
CONTINUOUS
 90
4
 70
0
 10
579.2933387613
 20
830.1481976227
 10
579.2057790207
 20
831.9658895072
 10
579.4404848711
 20
834.5308758339
 10
579.8394122542
 20
836.2433704948
  0
LWPOLYLINE
  5
690
100
AcDbEntity
  8
11_COMPONENT
100
AcDbPolyline
 62
7
  6
CONTINUOUS
 90
3
 70
0
 10
539.9661947474
 20
773.9830505022
 10
540.1848096048
 20
774.0602373528
 10
540.4406468498
 20
774.2209299123
  0
LWPOLYLINE
  5
691
100
AcDbEntity
  8
11_COMPONENT
100
AcDbPolyline
 62
7
  6
CONTINUOUS
 90
3
 70
0
 10
505.8226715992
 20
987.7063553016
 10
505.6465183977
 20
987.8570878958
 10
505.3794359381
 20
987.9983031688
  0
LINE
  5
692
100
AcDbEntity
  8
11_COMPONENT
100
AcDbLine
 62
7
  6
CONTINUOUS
 10
505.8227979991
 20
987.7062244227
 11
505.8226715992
 21
987.7063553016
  0
LWPOLYLINE
  5
693
100
AcDbEntity
  8
11_COMPONENT
100
AcDbPolyline
 62
7
  6
CONTINUOUS
 90
3
 70
0
 10
579.232079473
 20
829.6208169037
 10
579.2943927126
 20
829.9034112372
 10
579.2933183779
 20
830.148020152
  0
LWPOLYLINE
  5
694
100
AcDbEntity
  8
11_COMPONENT
100
AcDbPolyline
 62
7
  6
CONTINUOUS
 90
4
 70
0
 10
534.425210007
 20
771.385168585
 10
535.8398166082
 20
772.3121172481
 10
538.1659477401
 20
773.4201580774
 10
539.9660319986
 20
773.9829808047
  0
LWPOLYLINE
  5
695
100
AcDbEntity
  8
11_COMPONENT
100
AcDbPolyline
 62
7
  6
CONTINUOUS
 90
4
 70
0
 10
510.8430328897
 20
984.2067474353
 10
509.3348092551
 20
984.9671989816
 10
507.212282373
 20
986.4270986359
 10
505.8228481066
 20
987.7062728517
  0
ARC
  5
696
100
AcDbEntity
  8
11_COMPONENT
100
AcDbCircle
 62
9
  6
CONTINUOUS
 10
-478.1082300904
 20
389.8988549692
 40
1060.2184458775
100
AcDbArc
 50
8.4666386809
 51
9.3904853626
  0
ARC
  5
697
100
AcDbEntity
  8
11_COMPONENT
100
AcDbCircle
 62
9
  6
CONTINUOUS
 10
-478.0700585453
 20
389.9034779653
 40
1060.1800096756
100
AcDbArc
 50
7.3366288302
 51
8.4666952924
  0
ARC
  5
698
100
AcDbEntity
  8
11_COMPONENT
100
AcDbCircle
 62
9
  6
CONTINUOUS
 10
-477.1010733334
 20
390.0275006539
 40
1059.2031200024
100
AcDbArc
 50
6.312954657
 51
7.3366683632
  0
ARC
  5
699
100
AcDbEntity
  8
11_COMPONENT
100
AcDbCircle
 62
9
  6
CONTINUOUS
 10
-476.6193675018
 20
390.1508772724
 40
1058.7084146543
100
AcDbArc
 50
9.3901758568
 51
11.0061416978
  0
ARC
  5
69A
100
AcDbEntity
  8
11_COMPONENT
100
AcDbCircle
 62
9
  6
CONTINUOUS
 10
-475.6054957634
 20
390.1938409637
 40
1057.6983208158
100
AcDbArc
 50
5.7011189676
 51
6.3129070218
  0
ARC
  5
69B
100
AcDbEntity
  8
11_COMPONENT
100
AcDbCircle
 62
9
  6
CONTINUOUS
 10
-473.6762265514
 20
390.7182335048
 40
1055.7110913468
100
AcDbArc
 50
11.0064112548
 51
11.804509145
  0
ARC
  5
69C
100
AcDbEntity
  8
11_COMPONENT
100
AcDbCircle
 62
9
  6
CONTINUOUS
 10
-472.1061210742
 20
390.5323052482
 40
1054.1826326184
100
AcDbArc
 50
4.2114137797
 51
5.7017078546
  0
ARC
  5
69D
100
AcDbEntity
  8
11_COMPONENT
100
AcDbCircle
 62
9
  6
CONTINUOUS
 10
-469.2692234104
 20
391.6511847043
 40
1051.2064339856
100
AcDbArc
 50
11.8038732787
 51
13.3219799765
  0
ARC
  5
69E
100
AcDbEntity
  8
11_COMPONENT
100
AcDbCircle
 62
9
  6
CONTINUOUS
 10
-464.5055954322
 20
392.764064943
 40
1046.3145594622
100
AcDbArc
 50
13.3227858444
 51
13.6951597465
  0
ARC
  5
69F
100
AcDbEntity
  8
11_COMPONENT
100
AcDbCircle
 62
9
  6
CONTINUOUS
 10
-453.7676233886
 20
393.511112834
 40
1036.2221455871
100
AcDbArc
 50
4.12181203
 51
13.7933497074
  0
ARC
  5
6A0
100
AcDbEntity
  8
11_COMPONENT
100
AcDbCircle
 62
9
  6
CONTINUOUS
 10
-490.8620140305
 20
454.6763598904
 40
1031.3867194187
100
AcDbArc
 50
0.7372986986
 51
10.3787630587
  0
ARC
  5
6A1
100
AcDbEntity
  8
11_COMPONENT
100
AcDbCircle
 62
9
  6
CONTINUOUS
 10
-489.9599506242
 20
454.7703329879
 40
1029.9917534982
100
AcDbArc
 50
0.732926759
 51
10.3860128969
  0
ARC
  5
6A2
100
AcDbEntity
  8
11_COMPONENT
100
AcDbCircle
 62
9
  6
CONTINUOUS
 10
-488.7102801857
 20
455.7346857962
 40
1023.1975660459
100
AcDbArc
 50
0.6370430321
 51
10.42245801
  0
ARC
  5
6A3
100
AcDbEntity
  8
11_COMPONENT
100
AcDbCircle
 62
7
  6
CONTINUOUS
 10
-313.3113281951
 20
409.1494179151
 40
900.0
100
AcDbArc
 50
3.6924962761
 51
14.917587237
  0
ARC
  5
6A4
100
AcDbEntity
  8
11_COMPONENT
100
AcDbCircle
 62
9
  6
CONTINUOUS
 10
396.0901392689
 20
449.2807010447
 40
9.6358386133
100
AcDbArc
 50
65.6526251444
 51
66.9945067834
  0
ARC
  5
6A5
100
AcDbEntity
  8
11_COMPONENT
100
AcDbCircle
 62
9
  6
CONTINUOUS
 10
399.3600957229
 20
459.7125136039
 40
2.4577258702
100
AcDbArc
 50
283.5793159512
 51
284.3867513455
  0
ARC
  5
6A6
100
AcDbEntity
  8
11_COMPONENT
100
AcDbCircle
 62
9
  6
CONTINUOUS
 10
339.33497233
 20
467.0465221757
 40
1.0095242755
100
AcDbArc
 50
189.240981938
 51
197.3697303618
  0
ARC
  5
6A7
100
AcDbEntity
  8
11_COMPONENT
100
AcDbCircle
 62
9
  6
CONTINUOUS
 10
339.3306298156
 20
467.0501721368
 40
1.0075291159
100
AcDbArc
 50
218.6943414739
 51
235.3850803192
  0
ARC
  5
6A8
100
AcDbEntity
  8
11_COMPONENT
100
AcDbCircle
 62
7
  6
CONTINUOUS
 10
338.5732559687
 20
467.0464703104
 40
1.0
100
AcDbArc
 50
179.1195043444
 51
240.0058075397
  0
ARC
  5
6A9
100
AcDbEntity
  8
11_COMPONENT
100
AcDbCircle
 62
9
  6
CONTINUOUS
 10
338.7674221807
 20
467.870631062
 40
0.9896660363
100
AcDbArc
 50
228.1260363297
 51
239.6117311669
  0
ARC
  5
6AA
100
AcDbEntity
  8
11_COMPONENT
100
AcDbCircle
 62
9
  6
CONTINUOUS
 10
339.31504615
 20
467.0284917027
 40
0.9808340739
100
AcDbArc
 50
235.4148389575
 51
239.839137204
  0
ARC
  5
6AB
100
AcDbEntity
  8
11_COMPONENT
100
AcDbCircle
 62
7
  6
CONTINUOUS
 10
347.0051503185
 20
465.5124761835
 40
0.5
100
AcDbArc
 50
187.2559760069
 51
270.0000083617
  0
ARC
  5
6AC
100
AcDbEntity
  8
11_COMPONENT
100
AcDbCircle
 62
7
  6
CONTINUOUS
 10
344.1465782601
 20
462.523718604
 40
0.2
100
AcDbArc
 50
179.9999999999
 51
254.1049843068
  0
ARC
  5
6AD
100
AcDbEntity
  8
11_COMPONENT
100
AcDbCircle
 62
7
  6
CONTINUOUS
 10
405.1963520221
 20
664.4306281023
 40
1.0
100
AcDbArc
 50
89.999927214
 51
149.9999615584
  0
ARC
  5
6AE
100
AcDbEntity
  8
11_COMPONENT
100
AcDbCircle
 62
7
  6
CONTINUOUS
 10
393.5544183329
 20
648.2662074543
 40
1.0
100
AcDbArc
 50
282.0000085416
 51
330.0000043011
  0
ARC
  5
6AF
100
AcDbEntity
  8
11_COMPONENT
100
AcDbCircle
 62
7
  6
CONTINUOUS
 10
367.0058890938
 20
640.5784621721
 40
1.0
100
AcDbArc
 50
101.9979326084
 51
165.0818496956
  0
ARC
  5
6B0
100
AcDbEntity
  8
11_COMPONENT
100
AcDbCircle
 62
9
  6
CONTINUOUS
 10
367.5853103183
 20
640.5867161533
 40
0.9916889834
100
AcDbArc
 50
123.1634393049
 51
132.5352013273
  0
ARC
  5
6B1
100
AcDbEntity
  8
11_COMPONENT
100
AcDbCircle
 62
9
  6
CONTINUOUS
 10
367.584189157
 20
640.5876518987
 40
0.9902924423
100
AcDbArc
 50
118.8745234152
 51
123.1387538949
  0
ARC
  5
6B2
100
AcDbEntity
  8
11_COMPONENT
100
AcDbCircle
 62
9
  6
CONTINUOUS
 10
366.8751743995
 20
640.2418282775
 40
0.9881513429
100
AcDbArc
 50
107.7760223988
 51
123.3738622805
  0
ARC
  5
6B3
100
AcDbEntity
  8
11_COMPONENT
100
AcDbCircle
 62
9
  6
CONTINUOUS
 10
366.8671507014
 20
640.2657751541
 40
0.9628982032
100
AcDbArc
 50
102.2009773014
 51
107.7564029605
  0
ARC
  5
6B4
100
AcDbEntity
  8
11_COMPONENT
100
AcDbCircle
 62
9
  6
CONTINUOUS
 10
1296.4186133766
 20
400.1078350497
 40
961.0512883474
100
AcDbArc
 50
168.3243021454
 51
170.6572295161
  0
ARC
  5
6B5
100
AcDbEntity
  8
11_COMPONENT
100
AcDbCircle
 62
9
  6
CONTINUOUS
 10
1296.1537313421
 20
400.1519687839
 40
960.7827553342
100
AcDbArc
 50
170.6572621494
 51
170.9805116443
  0
ARC
  5
6B6
100
AcDbEntity
  8
11_COMPONENT
100
AcDbCircle
 62
9
  6
CONTINUOUS
 10
1295.6581136031
 20
400.2616801702
 40
960.2753903463
100
AcDbArc
 50
167.9790798046
 51
168.3241087118
  0
ARC
  5
6B7
100
AcDbEntity
  8
11_COMPONENT
100
AcDbCircle
 62
9
  6
CONTINUOUS
 10
1295.0143471332
 20
400.32653619
 40
959.6300925435
100
AcDbArc
 50
170.9801407003
 51
172.9696459506
  0
ARC
  5
6B8
100
AcDbEntity
  8
11_COMPONENT
100
AcDbCircle
 62
9
  6
CONTINUOUS
 10
1293.441480455
 20
400.7495817111
 40
958.0057498148
100
AcDbArc
 50
165.5907940426
 51
167.9800096336
  0
ARC
  5
6B9
100
AcDbEntity
  8
11_COMPONENT
100
AcDbCircle
 62
9
  6
CONTINUOUS
 10
1292.8151023919
 20
400.605344779
 40
957.4132581457
100
AcDbArc
 50
172.9700969047
 51
173.6439944711
  0
ARC
  5
6BA
100
AcDbEntity
  8
11_COMPONENT
100
AcDbCircle
 62
9
  6
CONTINUOUS
 10
1289.2665585294
 20
400.9827977482
 40
953.8447403285
100
AcDbArc
 50
173.6429305623
 51
175.7994549225
  0
ARC
  5
6BB
100
AcDbEntity
  8
11_COMPONENT
100
AcDbCircle
 62
9
  6
CONTINUOUS
 10
1285.2353706355
 20
401.3009096617
 40
949.8010803836
100
AcDbArc
 50
175.8007809771
 51
175.9762650958
  0
ARC
  5
6BC
100
AcDbEntity
  8
11_COMPONENT
100
AcDbCircle
 62
9
  6
CONTINUOUS
 10
1309.133463696
 20
443.4498291314
 40
943.0947025763
100
AcDbArc
 50
167.9406692097
 51
178.5114858205
  0
ARC
  5
6BD
100
AcDbEntity
  8
11_COMPONENT
100
AcDbCircle
 62
9
  6
CONTINUOUS
 10
1308.4208393958
 20
443.5556945533
 40
941.9372586425
100
AcDbArc
 50
167.9340257032
 51
178.5162534488
  0
ARC
  5
6BE
100
AcDbEntity
  8
11_COMPONENT
100
AcDbCircle
 62
9
  6
CONTINUOUS
 10
1305.129334562
 20
444.7786652304
 40
933.6073501316
100
AcDbArc
 50
167.877667656
 51
178.6293346533
  0
ARC
  5
6BF
100
AcDbEntity
  8
11_COMPONENT
100
AcDbCircle
 62
7
  6
CONTINUOUS
 10
1235.7069869832
 20
409.1494179151
 40
900.0
100
AcDbArc
 50
165.7391205584
 51
176.3075037486
  0
ARC
  5
6C0
100
AcDbEntity
  8
11_COMPONENT
100
AcDbCircle
 62
7
  6
CONTINUOUS
 10
1235.7069869832
 20
409.1494179151
 40
900.0
100
AcDbArc
 50
165.0824121374
 51
165.0871455079
  0
ARC
  5
6C1
100
AcDbEntity
  8
11_COMPONENT
100
AcDbCircle
 62
7
  6
CONTINUOUS
 10
461.1978293938
 20
449.8806281023
 40
81.0
100
AcDbArc
 50
180.0
 51
360.0
  0
ARC
  5
6C2
100
AcDbEntity
  8
11_COMPONENT
100
AcDbCircle
 62
9
  6
CONTINUOUS
 10
532.6884886502
 20
494.5242726969
 40
27.5521120904
100
AcDbArc
 50
281.8956080082
 51
285.2758207071
  0
ARC
  5
6C3
100
AcDbEntity
  8
11_COMPONENT
100
AcDbCircle
 62
9
  6
CONTINUOUS
 10
544.1483052604
 20
449.959051182
 40
9.7990774375
100
AcDbArc
 50
90.0186144955
 51
91.1607730737
  0
ARC
  5
6C4
100
AcDbEntity
  8
11_COMPONENT
100
AcDbCircle
 62
9
  6
CONTINUOUS
 10
578.1665179883
 20
467.8839499676
 40
1.065498632
100
AcDbArc
 50
343.5448544989
 51
3.4558110696
  0
ARC
  5
6C5
100
AcDbEntity
  8
11_COMPONENT
100
AcDbCircle
 62
7
  6
CONTINUOUS
 10
583.8224028194
 20
467.0464703104
 40
1.0
100
AcDbArc
 50
299.9996726589
 51
3.6925181694
  0
ARC
  5
6C6
100
AcDbEntity
  8
11_COMPONENT
100
AcDbCircle
 62
9
  6
CONTINUOUS
 10
578.3594004539
 20
467.8459697396
 40
0.9344981258
100
AcDbArc
 50
319.5135742483
 51
332.1179048126
  0
ARC
  5
6C7
100
AcDbEntity
  8
11_COMPONENT
100
AcDbCircle
 62
7
  6
CONTINUOUS
 10
575.390508469
 20
465.5124761835
 40
0.5
100
AcDbArc
 50
293.7498473203
 51
352.7440239954
  0
ARC
  5
6C8
100
AcDbEntity
  8
11_COMPONENT
100
AcDbCircle
 62
7
  6
CONTINUOUS
 10
578.2490805274
 20
462.523718604
 40
0.2
100
AcDbArc
 50
285.8950156932
 51
360.0
  0
ARC
  5
6C9
100
AcDbEntity
  8
11_COMPONENT
100
AcDbCircle
 62
7
  6
CONTINUOUS
 10
442.5292275546
 20
665.430401393
 40
1.0004222089
100
AcDbArc
 50
154.035274607
 51
175.811984425
  0
ARC
  5
6CA
100
AcDbEntity
  8
11_COMPONENT
100
AcDbCircle
 62
7
  6
CONTINUOUS
 10
517.199306766
 20
664.4306281023
 40
1.0
100
AcDbArc
 50
30.0000384416
 51
90.000072786
  0
ARC
  5
6CB
100
AcDbEntity
  8
11_COMPONENT
100
AcDbCircle
 62
7
  6
CONTINUOUS
 10
528.8412404552
 20
648.2662074543
 40
1.0
100
AcDbArc
 50
209.9999956989
 51
257.9999914584
  0
ARC
  5
6CC
100
AcDbEntity
  8
11_COMPONENT
100
AcDbCircle
 62
7
  6
CONTINUOUS
 10
555.3897696943
 20
640.5784621721
 40
1.0
100
AcDbArc
 50
14.917587237
 51
78.0004621317
  0
ARC
  5
6CD
100
AcDbEntity
  8
11_COMPONENT
100
AcDbCircle
 62
7
  6
CONTINUOUS
 10
490.3978293938
 20
665.4306281023
 40
1.0
100
AcDbArc
 50
0.0
 51
90.0
  0
ARC
  5
6CE
100
AcDbEntity
  8
11_COMPONENT
100
AcDbCircle
 62
7
  6
CONTINUOUS
 10
431.9978293938
 20
665.4306281023
 40
1.0
100
AcDbArc
 50
90.0
 51
180.0
  0
ARC
  5
6CF
100
AcDbEntity
  8
11_COMPONENT
100
AcDbCircle
 62
9
  6
CONTINUOUS
 10
551.5675646614
 20
640.6265198958
 40
0.9539389321
100
AcDbArc
 50
55.9463007187
 51
68.564196015
  0
ARC
  5
6D0
100
AcDbEntity
  8
11_COMPONENT
100
AcDbCircle
 62
9
  6
CONTINUOUS
 10
551.5768813078
 20
640.6505703847
 40
0.9281472322
100
AcDbArc
 50
68.5569571282
 51
77.4695166983
  0
ARC
  5
6D1
100
AcDbEntity
  8
11_COMPONENT
100
AcDbCircle
 62
9
  6
CONTINUOUS
 10
322.6159545323
 20
855.6448680492
 40
15.807629728
100
AcDbArc
 50
346.098030616
 51
351.0451087356
  0
ARC
  5
6D2
100
AcDbEntity
  8
11_COMPONENT
100
AcDbCircle
 62
9
  6
CONTINUOUS
 10
360.3659431499
 20
774.6920198143
 40
15.8064702563
100
AcDbArc
 50
59.0962345759
 51
64.3998579917
  0
ARC
  5
6D3
100
AcDbEntity
  8
11_COMPONENT
100
AcDbCircle
 62
9
  6
CONTINUOUS
 10
360.3735058544
 20
774.7074267522
 40
15.7893665006
100
AcDbArc
 50
50.4360614393
 51
59.0910674761
  0
ARC
  5
6D4
100
AcDbEntity
  8
11_COMPONENT
100
AcDbCircle
 62
9
  6
CONTINUOUS
 10
322.6341468517
 20
855.6404789848
 40
15.788976035
100
AcDbArc
 50
351.0505658266
 51
359.7089382189
  0
ARC
  5
6D5
100
AcDbEntity
  8
11_COMPONENT
100
AcDbCircle
 62
9
  6
CONTINUOUS
 10
360.3820466035
 20
774.7213053242
 40
15.7732275372
100
AcDbArc
 50
44.59830353
 51
50.4278679775
  0
ARC
  5
6D6
100
AcDbEntity
  8
11_COMPONENT
100
AcDbCircle
 62
9
  6
CONTINUOUS
 10
322.6523429708
 20
855.6382666495
 40
15.7707690546
100
AcDbArc
 50
359.716639788
 51
5.5885788712
  0
ARC
  5
6D7
100
AcDbEntity
  8
11_COMPONENT
100
AcDbCircle
 62
9
  6
CONTINUOUS
 10
322.6903571175
 20
855.6263902093
 40
15.7309670149
100
AcDbArc
 50
344.0080408214
 51
346.0982510482
  0
ARC
  5
6D8
100
AcDbEntity
  8
11_COMPONENT
100
AcDbCircle
 62
9
  6
CONTINUOUS
 10
360.4042053319
 20
774.7711933572
 40
15.7185364386
100
AcDbArc
 50
64.4009373188
 51
65.992449291
  0
ARC
  5
6D9
100
AcDbEntity
  8
11_COMPONENT
100
AcDbCircle
 62
9
  6
CONTINUOUS
 10
360.4745552887
 20
774.8138815505
 40
15.6423563221
100
AcDbArc
 50
43.6700135688
 51
44.594767757
  0
ARC
  5
6DA
100
AcDbEntity
  8
11_COMPONENT
100
AcDbCircle
 62
9
  6
CONTINUOUS
 10
322.787550765
 20
855.6503098865
 40
15.6350311456
100
AcDbArc
 50
5.5929072928
 51
6.3300473392
  0
ARC
  5
6DB
100
AcDbEntity
  8
11_COMPONENT
100
AcDbCircle
 62
7
  6
CONTINUOUS
 10
426.3310149605
 20
874.0387677571
 40
4.0
100
AcDbArc
 50
85.0000000007
 51
265.0000000007
  0
CIRCLE
  5
6DC
100
AcDbEntity
  8
11_COMPONENT
100
AcDbCircle
 62
7
  6
CONTINUOUS
 10
426.3310149605
 20
874.0387677571
 40
2.4499908135
  0
CIRCLE
  5
6DD
100
AcDbEntity
  8
11_COMPONENT
100
AcDbCircle
 62
7
  6
CONTINUOUS
 10
426.3310149605
 20
874.0387677571
 40
2.15
  0
CIRCLE
  5
6DE
100
AcDbEntity
  8
11_COMPONENT
100
AcDbCircle
 62
7
  6
CONTINUOUS
 10
426.3310149605
 20
874.0387677571
 40
1.7
  0
ARC
  5
6DF
100
AcDbEntity
  8
11_COMPONENT
100
AcDbCircle
 62
9
  6
CONTINUOUS
 10
338.973650375
 20
850.9397130697
 40
1.2137132994
100
AcDbArc
 50
177.3280280254
 51
189.181085991
  0
ARC
  5
6E0
100
AcDbEntity
  8
11_COMPONENT
100
AcDbCircle
 62
9
  6
CONTINUOUS
 10
367.2745212657
 20
790.2462578286
 40
1.213212524
100
AcDbArc
 50
240.484764048
 51
246.9446367357
  0
ARC
  5
6E1
100
AcDbEntity
  8
11_COMPONENT
100
AcDbCircle
 62
9
  6
CONTINUOUS
 10
367.274724052
 20
790.2452966879
 40
1.2125477543
100
AcDbArc
 50
220.8126800353
 51
231.7366541644
  0
ARC
  5
6E2
100
AcDbEntity
  8
11_COMPONENT
100
AcDbCircle
 62
9
  6
CONTINUOUS
 10
338.9704715946
 20
850.9394274109
 40
1.2105513695
100
AcDbArc
 50
163.0475283859
 51
177.3075086292
  0
ARC
  5
6E3
100
AcDbEntity
  8
11_COMPONENT
100
AcDbCircle
 62
9
  6
CONTINUOUS
 10
367.2728331023
 20
790.243397307
 40
1.2098915468
100
AcDbArc
 50
231.7482484749
 51
240.4875974258
  0
ARC
  5
6E4
100
AcDbEntity
  8
11_COMPONENT
100
AcDbCircle
 62
7
  6
CONTINUOUS
 10
442.0428645047
 20
844.5039152331
 40
1.0
100
AcDbArc
 50
145.0
 51
235.0
  0
ARC
  5
6E5
100
AcDbEntity
  8
11_COMPONENT
100
AcDbCircle
 62
7
  6
CONTINUOUS
 10
442.862016549
 20
843.9303387968
 40
1.0
100
AcDbArc
 50
235.0
 51
325.0
  0
ARC
  5
6E6
100
AcDbEntity
  8
11_COMPONENT
100
AcDbCircle
 62
7
  6
CONTINUOUS
 10
429.6981863956
 20
931.4525236258
 40
85.5562346962
100
AcDbArc
 50
278.9086689639
 51
279.8443336121
  0
ARC
  5
6E7
100
AcDbEntity
  8
11_COMPONENT
100
AcDbCircle
 62
9
  6
CONTINUOUS
 10
428.2187371497
 20
1006.4594332713
 40
15.8064621961
100
AcDbArc
 50
299.0962337312
 51
304.399884678
  0
ARC
  5
6E8
100
AcDbEntity
  8
11_COMPONENT
100
AcDbCircle
 62
9
  6
CONTINUOUS
 10
428.2282771006
 20
1006.4452242804
 40
15.789407317
100
AcDbArc
 50
290.43606887
 51
299.0910572129
  0
ARC
  5
6E9
100
AcDbEntity
  8
11_COMPONENT
100
AcDbCircle
 62
9
  6
CONTINUOUS
 10
428.2360809716
 20
1006.4307246042
 40
15.7730955612
100
AcDbArc
 50
284.5990749274
 51
290.4278958245
  0
ARC
  5
6EA
100
AcDbEntity
  8
11_COMPONENT
100
AcDbCircle
 62
9
  6
CONTINUOUS
 10
428.2681542695
 20
1006.3867375735
 40
15.7185609546
100
AcDbArc
 50
304.4009627578
 51
305.9924516851
  0
ARC
  5
6EB
100
AcDbEntity
  8
11_COMPONENT
100
AcDbCircle
 62
9
  6
CONTINUOUS
 10
428.2700609293
 20
1006.3041055321
 40
15.6419998634
100
AcDbArc
 50
283.6700730996
 51
284.595529032
  0
ARC
  5
6EC
100
AcDbEntity
  8
11_COMPONENT
100
AcDbCircle
 62
9
  6
CONTINUOUS
 10
438.2348057894
 20
992.6993224113
 40
1.2132061705
100
AcDbArc
 50
120.4846692543
 51
126.9446024267
  0
ARC
  5
6ED
100
AcDbEntity
  8
11_COMPONENT
100
AcDbCircle
 62
9
  6
CONTINUOUS
 10
438.2338752147
 20
992.69962306
 40
1.2125466852
100
AcDbArc
 50
100.8126912227
 51
111.736663638
  0
ARC
  5
6EE
100
AcDbEntity
  8
11_COMPONENT
100
AcDbCircle
 62
9
  6
CONTINUOUS
 10
438.233176595
 20
992.7022079911
 40
1.2098929775
100
AcDbArc
 50
111.7482552478
 51
120.4875056245
  0
ARC
  5
6EF
100
AcDbEntity
  8
11_COMPONENT
100
AcDbCircle
 62
7
  6
CONTINUOUS
 10
475.9894685547
 20
839.2675442146
 40
4.0
100
AcDbArc
 50
205.0000000007
 51
25.0000000007
  0
CIRCLE
  5
6F0
100
AcDbEntity
  8
11_COMPONENT
100
AcDbCircle
 62
7
  6
CONTINUOUS
 10
475.9894685547
 20
839.2675442146
 40
2.4499908135
  0
CIRCLE
  5
6F1
100
AcDbEntity
  8
11_COMPONENT
100
AcDbCircle
 62
7
  6
CONTINUOUS
 10
475.9894685547
 20
839.2675442146
 40
2.15
  0
CIRCLE
  5
6F2
100
AcDbEntity
  8
11_COMPONENT
100
AcDbCircle
 62
7
  6
CONTINUOUS
 10
475.9894685547
 20
839.2675442146
 40
1.7
  0
ARC
  5
6F3
100
AcDbEntity
  8
11_COMPONENT
100
AcDbCircle
 62
7
  6
CONTINUOUS
 10
461.197829394
 20
870.9883167613
 40
125.0734049976
100
AcDbArc
 50
69.3140482859
 51
100.6859514332
  0
ARC
  5
6F4
100
AcDbEntity
  8
11_COMPONENT
100
AcDbCircle
 62
7
  6
CONTINUOUS
 10
461.197829394
 20
870.9883167613
 40
125.0734049976
100
AcDbArc
 50
309.3140482865
 51
340.685951433
  0
ARC
  5
6F5
100
AcDbEntity
  8
11_COMPONENT
100
AcDbCircle
 62
7
  6
CONTINUOUS
 10
461.197829394
 20
870.9883167613
 40
125.0734049976
100
AcDbArc
 50
189.3140482822
 51
220.6859514311
  0
ARC
  5
6F6
100
AcDbEntity
  8
11_COMPONENT
100
AcDbCircle
 62
9
  6
CONTINUOUS
 10
461.197829394
 20
870.9883167613
 40
125.0712757154
100
AcDbArc
 50
189.3140481377
 51
220.6859515316
  0
ARC
  5
6F7
100
AcDbEntity
  8
11_COMPONENT
100
AcDbCircle
 62
9
  6
CONTINUOUS
 10
461.197829394
 20
870.9883167613
 40
125.071275701
100
AcDbArc
 50
69.3140482294
 51
100.6859516812
  0
ARC
  5
6F8
100
AcDbEntity
  8
11_COMPONENT
100
AcDbCircle
 62
9
  6
CONTINUOUS
 10
461.197829394
 20
870.9883167613
 40
125.0712756945
100
AcDbArc
 50
309.3140482865
 51
340.6859514656
  0
ARC
  5
6F9
100
AcDbEntity
  8
11_COMPONENT
100
AcDbCircle
 62
7
  6
CONTINUOUS
 10
461.197829394
 20
870.9883167613
 40
123.6245734253
100
AcDbArc
 50
103.6769932296
 51
186.3230067655
  0
ARC
  5
6FA
100
AcDbEntity
  8
11_COMPONENT
100
AcDbCircle
 62
7
  6
CONTINUOUS
 10
461.197829394
 20
870.9883167613
 40
123.6245734253
100
AcDbArc
 50
343.6769932296
 51
66.3230067641
  0
ARC
  5
6FB
100
AcDbEntity
  8
11_COMPONENT
100
AcDbCircle
 62
7
  6
CONTINUOUS
 10
461.197829394
 20
870.9883167613
 40
123.6245734253
100
AcDbArc
 50
223.6769932314
 51
306.3230067719
  0
ARC
  5
6FC
100
AcDbEntity
  8
11_COMPONENT
100
AcDbCircle
 62
9
  6
CONTINUOUS
 10
461.197829394
 20
870.9883167613
 40
123.6224974865
100
AcDbArc
 50
103.6769932292
 51
186.3230067723
  0
ARC
  5
6FD
100
AcDbEntity
  8
11_COMPONENT
100
AcDbCircle
 62
9
  6
CONTINUOUS
 10
461.197829394
 20
870.9883167613
 40
123.6224974606
100
AcDbArc
 50
223.6773841844
 51
306.3230440391
  0
ARC
  5
6FE
100
AcDbEntity
  8
11_COMPONENT
100
AcDbCircle
 62
9
  6
CONTINUOUS
 10
461.197829394
 20
870.9883167613
 40
123.6224974407
100
AcDbArc
 50
343.6769559879
 51
66.3226149027
  0
ARC
  5
6FF
100
AcDbEntity
  8
11_COMPONENT
100
AcDbCircle
 62
9
  6
CONTINUOUS
 10
461.197829394
 20
870.9883167613
 40
96.8035990016
100
AcDbArc
 50
190.1759997525
 51
219.8240003195
  0
ARC
  5
700
100
AcDbEntity
  8
11_COMPONENT
100
AcDbCircle
 62
9
  6
CONTINUOUS
 10
461.197829394
 20
870.9883167613
 40
96.8035983924
100
AcDbArc
 50
70.1759997346
 51
99.8240002539
  0
ARC
  5
701
100
AcDbEntity
  8
11_COMPONENT
100
AcDbCircle
 62
9
  6
CONTINUOUS
 10
461.197829394
 20
870.9883167613
 40
96.8035982315
100
AcDbArc
 50
310.1759997438
 51
339.8240002883
  0
ARC
  5
702
100
AcDbEntity
  8
11_COMPONENT
100
AcDbCircle
 62
9
  6
CONTINUOUS
 10
461.197829394
 20
870.9883167613
 40
96.0450040517
100
AcDbArc
 50
190.175999751
 51
219.8240002823
  0
ARC
  5
703
100
AcDbEntity
  8
11_COMPONENT
100
AcDbCircle
 62
9
  6
CONTINUOUS
 10
461.197829394
 20
870.9883167613
 40
96.044995365
100
AcDbArc
 50
70.1759997465
 51
99.8240002759
  0
ARC
  5
704
100
AcDbEntity
  8
11_COMPONENT
100
AcDbCircle
 62
9
  6
CONTINUOUS
 10
461.197829394
 20
870.9883167613
 40
96.0449931051
100
AcDbArc
 50
310.17599975
 51
339.8240002761
  0
ARC
  5
705
100
AcDbEntity
  8
11_COMPONENT
100
AcDbCircle
 62
9
  6
CONTINUOUS
 10
461.197829394
 20
870.9883167613
 40
95.1582374058
100
AcDbArc
 50
343.6459042616
 51
66.3540957419
  0
ARC
  5
706
100
AcDbEntity
  8
11_COMPONENT
100
AcDbCircle
 62
9
  6
CONTINUOUS
 10
461.197829394
 20
870.9883167613
 40
95.1582374058
100
AcDbArc
 50
223.645904264
 51
306.3540957456
  0
ARC
  5
707
100
AcDbEntity
  8
11_COMPONENT
100
AcDbCircle
 62
9
  6
CONTINUOUS
 10
461.197829394
 20
870.9883167613
 40
95.1582331465
100
AcDbArc
 50
103.6463716112
 51
186.3536293534
  0
ARC
  5
708
100
AcDbEntity
  8
11_COMPONENT
100
AcDbCircle
 62
9
  6
CONTINUOUS
 10
461.197829394
 20
870.9883167613
 40
94.3998516234
100
AcDbArc
 50
343.6459042626
 51
66.3540957427
  0
ARC
  5
709
100
AcDbEntity
  8
11_COMPONENT
100
AcDbCircle
 62
9
  6
CONTINUOUS
 10
461.197829394
 20
870.9883167613
 40
94.3998497354
100
AcDbArc
 50
223.6459042632
 51
306.3540957443
  0
ARC
  5
70A
100
AcDbEntity
  8
11_COMPONENT
100
AcDbCircle
 62
9
  6
CONTINUOUS
 10
461.197829394
 20
870.9883167613
 40
94.3997925442
100
AcDbArc
 50
103.6459042625
 51
186.3540957454
  0
CIRCLE
  5
70B
100
AcDbEntity
  8
11_COMPONENT
100
AcDbCircle
 62
9
  6
CONTINUOUS
 10
461.197829394
 20
870.9883167613
 40
67.435495982
  0
CIRCLE
  5
70C
100
AcDbEntity
  8
11_COMPONENT
100
AcDbCircle
 62
9
  6
CONTINUOUS
 10
461.197829394
 20
870.9883167613
 40
66.7773847857
  0
CIRCLE
  5
70D
100
AcDbEntity
  8
11_COMPONENT
100
AcDbCircle
 62
9
  6
CONTINUOUS
 10
461.197829394
 20
870.9883167613
 40
56.8675025489
  0
CIRCLE
  5
70E
100
AcDbEntity
  8
11_COMPONENT
100
AcDbCircle
 62
9
  6
CONTINUOUS
 10
461.197829394
 20
870.9883167613
 40
56.0014765527
  0
ARC
  5
70F
100
AcDbEntity
  8
11_COMPONENT
100
AcDbCircle
 62
7
  6
CONTINUOUS
 10
461.197829394
 20
870.9883167613
 40
30.69815
100
AcDbArc
 50
237.8007520207
 51
232.1992479793
  0
ARC
  5
710
100
AcDbEntity
  8
11_COMPONENT
100
AcDbCircle
 62
7
  6
CONTINUOUS
 10
461.1978293938
 20
870.9883167609
 40
30.2
100
AcDbArc
 50
237.1868919446
 51
232.8131080554
  0
ARC
  5
711
100
AcDbEntity
  8
11_COMPONENT
100
AcDbCircle
 62
9
  6
CONTINUOUS
 10
461.1978293938
 20
870.9883167609
 40
29.2
100
AcDbArc
 50
235.2963606668
 51
234.7036393332
  0
CIRCLE
  5
712
100
AcDbEntity
  8
11_COMPONENT
100
AcDbCircle
 62
7
  6
CONTINUOUS
 10
461.1978293938
 20
870.9883167609
 40
23.97
  0
CIRCLE
  5
713
100
AcDbEntity
  8
11_COMPONENT
100
AcDbCircle
 62
7
  6
CONTINUOUS
 10
461.1978293938
 20
870.9883167609
 40
22.469678445
  0
CIRCLE
  5
714
100
AcDbEntity
  8
11_COMPONENT
100
AcDbCircle
 62
7
  6
CONTINUOUS
 10
461.1978293938
 20
870.9883167609
 40
20.97
  0
ARC
  5
715
100
AcDbEntity
  8
11_COMPONENT
100
AcDbCircle
 62
7
  6
CONTINUOUS
 10
527.9254898769
 20
861.9063224798
 40
84.6775825884
100
AcDbArc
 50
190.1508118429
 51
191.0961855811
  0
ARC
  5
716
100
AcDbEntity
  8
11_COMPONENT
100
AcDbCircle
 62
9
  6
CONTINUOUS
 10
543.7799307836
 20
758.644119147
 40
15.8093047373
100
AcDbArc
 50
110.9652402008
 51
119.5178221305
  0
ARC
  5
717
100
AcDbEntity
  8
11_COMPONENT
100
AcDbCircle
 62
9
  6
CONTINUOUS
 10
543.7674732282
 20
758.67183544
 40
15.7789669112
100
AcDbArc
 50
104.0099656533
 51
110.7380524774
  0
ARC
  5
718
100
AcDbEntity
  8
11_COMPONENT
100
AcDbCircle
 62
9
  6
CONTINUOUS
 10
543.7623949322
 20
758.685768762
 40
15.7641381388
100
AcDbArc
 50
110.7387229295
 51
110.9598877877
  0
ARC
  5
719
100
AcDbEntity
  8
11_COMPONENT
100
AcDbCircle
 62
9
  6
CONTINUOUS
 10
543.7582166346
 20
758.6860594678
 40
15.7621098285
100
AcDbArc
 50
119.5242490467
 51
120.6660980202
  0
ARC
  5
71A
100
AcDbEntity
  8
11_COMPONENT
100
AcDbCircle
 62
9
  6
CONTINUOUS
 10
543.7361616213
 20
758.7229426992
 40
15.7191357547
100
AcDbArc
 50
120.6655184386
 51
126.3279751757
  0
ARC
  5
71B
100
AcDbEntity
  8
11_COMPONENT
100
AcDbCircle
 62
9
  6
CONTINUOUS
 10
539.6725124527
 20
775.1633838207
 40
1.2137245744
100
AcDbArc
 50
297.3280982284
 51
309.1810678301
  0
ARC
  5
71C
100
AcDbEntity
  8
11_COMPONENT
100
AcDbCircle
 62
9
  6
CONTINUOUS
 10
539.674097042
 20
775.1614676741
 40
1.2112979278
100
AcDbArc
 50
283.0462626645
 51
288.3618638971
  0
ARC
  5
71D
100
AcDbEntity
  8
11_COMPONENT
100
AcDbCircle
 62
9
  6
CONTINUOUS
 10
539.6743838219
 20
775.1607037549
 40
1.210484584
100
AcDbArc
 50
288.3593289552
 51
297.307644202
  0
ARC
  5
71E
100
AcDbEntity
  8
11_COMPONENT
100
AcDbCircle
 62
9
  6
CONTINUOUS
 10
594.9841351314
 20
831.8129390326
 40
15.7818286719
100
AcDbArc
 50
170.7540241533
 51
185.9897022191
  0
ARC
  5
71F
100
AcDbEntity
  8
11_COMPONENT
100
AcDbCircle
 62
9
  6
CONTINUOUS
 10
594.9693097496
 20
831.8157628598
 40
15.7667421983
100
AcDbArc
 50
169.5112335143
 51
170.755496261
  0
ARC
  5
720
100
AcDbEntity
  8
11_COMPONENT
100
AcDbCircle
 62
9
  6
CONTINUOUS
 10
594.924331204
 20
831.8242383336
 40
15.7209723186
100
AcDbArc
 50
163.6723295467
 51
169.5117650199
  0
ARC
  5
721
100
AcDbEntity
  8
11_COMPONENT
100
AcDbCircle
 62
9
  6
CONTINUOUS
 10
578.0838969477
 20
830.0193615824
 40
1.2134729531
100
AcDbArc
 50
0.4837545347
 51
6.9459085181
  0
ARC
  5
722
100
AcDbEntity
  8
11_COMPONENT
100
AcDbCircle
 62
9
  6
CONTINUOUS
 10
578.0848786555
 20
830.0200345146
 40
1.2125581396
100
AcDbArc
 50
340.8126924138
 51
351.7365808254
  0
ARC
  5
723
100
AcDbEntity
  8
11_COMPONENT
100
AcDbCircle
 62
9
  6
CONTINUOUS
 10
578.0875442025
 20
830.0193352092
 40
1.2098260524
100
AcDbArc
 50
351.7481229845
 51
0.4864618469
  0
ARC
  5
724
100
AcDbEntity
  8
11_COMPONENT
100
AcDbCircle
 62
9
  6
CONTINUOUS
 10
517.200957463
 20
998.6754734708
 40
15.8076405175
100
AcDbArc
 50
226.0980658249
 51
231.0451075511
  0
ARC
  5
725
100
AcDbEntity
  8
11_COMPONENT
100
AcDbCircle
 62
9
  6
CONTINUOUS
 10
517.188028724
 20
998.6618699762
 40
15.788933545
100
AcDbArc
 50
231.0505555134
 51
239.7089451336
  0
ARC
  5
726
100
AcDbEntity
  8
11_COMPONENT
100
AcDbCircle
 62
9
  6
CONTINUOUS
 10
517.177104549
 20
998.6473828682
 40
15.7709143672
100
AcDbArc
 50
239.7166672671
 51
245.5892044194
  0
ARC
  5
727
100
AcDbEntity
  8
11_COMPONENT
100
AcDbCircle
 62
9
  6
CONTINUOUS
 10
517.147730337
 20
998.6202529253
 40
15.7309435035
100
AcDbArc
 50
224.0080435968
 51
226.0982852641
  0
ARC
  5
728
100
AcDbEntity
  8
11_COMPONENT
100
AcDbCircle
 62
9
  6
CONTINUOUS
 10
517.1200266795
 20
998.5244692441
 40
15.6353996373
100
AcDbArc
 50
245.5935218753
 51
246.3301067157
  0
ARC
  5
729
100
AcDbEntity
  8
11_COMPONENT
100
AcDbCircle
 62
7
  6
CONTINUOUS
 10
481.273004666
 20
899.658638311
 40
4.0
100
AcDbArc
 50
325.0000000007
 51
145.0000000007
  0
CIRCLE
  5
72A
100
AcDbEntity
  8
11_COMPONENT
100
AcDbCircle
 62
7
  6
CONTINUOUS
 10
481.273004666
 20
899.658638311
 40
2.4499908135
  0
CIRCLE
  5
72B
100
AcDbEntity
  8
11_COMPONENT
100
AcDbCircle
 62
7
  6
CONTINUOUS
 10
481.273004666
 20
899.658638311
 40
2.15
  0
CIRCLE
  5
72C
100
AcDbEntity
  8
11_COMPONENT
100
AcDbCircle
 62
7
  6
CONTINUOUS
 10
481.273004666
 20
899.658638311
 40
1.7
  0
ARC
  5
72D
100
AcDbEntity
  8
11_COMPONENT
100
AcDbCircle
 62
9
  6
CONTINUOUS
 10
504.9473184717
 20
986.8618618931
 40
1.21371407
100
AcDbArc
 50
57.3280272711
 51
69.1810928733
  0
ARC
  5
72E
100
AcDbEntity
  8
11_COMPONENT
100
AcDbCircle
 62
9
  6
CONTINUOUS
 10
504.9486628224
 20
986.8647613415
 40
1.2105477456
100
AcDbArc
 50
43.0474967662
 51
57.3075064659
  0
SPLINE
  5
72F
100
AcDbEntity
  8
11_COMPONENT
100
AcDbSpline
 62
9
  6
CONTINUOUS
 70
0
 71
3
 72
9
 73
5
 74
0
 42
0.0000001
 43
0.0000001
 44
0.0000000001
 40
0.0
 40
0.0
 40
0.0
 40
0.0
 40
0.2778873883
 40
1.0
 40
1.0
 40
1.0
 40
1.0
 10
391.8032709901
 20
459.0195542427
 30
0.0
 10
391.7347935523
 20
459.0567834468
 30
0.0
 10
391.4905968852
 20
459.1945823587
 30
0.0
 10
391.2542349866
 20
459.3478675783
 30
0.0
 10
391.0953755808
 20
459.4735139588
 30
0.0
  0
SPLINE
  5
730
100
AcDbEntity
  8
11_COMPONENT
100
AcDbSpline
 62
9
  6
CONTINUOUS
 70
0
 71
3
 72
9
 73
5
 74
0
 42
0.0000001
 43
0.0000001
 44
0.0000000001
 40
0.0
 40
0.0
 40
0.0
 40
0.0
 40
0.2685825997
 40
1.0
 40
1.0
 40
1.0
 40
1.0
 10
391.0953755808
 20
459.4735139588
 30
0.0
 10
391.0739497912
 20
459.4904602196
 30
0.0
 10
390.9950652919
 20
459.5546469152
 30
0.0
 10
390.9197834727
 20
459.6234416179
 30
0.0
 10
390.8683181645
 20
459.6771585108
 30
0.0
  0
SPLINE
  5
731
100
AcDbEntity
  8
11_COMPONENT
100
AcDbSpline
 62
9
  6
CONTINUOUS
 70
0
 71
3
 72
9
 73
5
 74
0
 42
0.0000001
 43
0.0000001
 44
0.0000000001
 40
0.0
 40
0.0
 40
0.0
 40
0.0
 40
0.2841606018
 40
1.0
 40
1.0
 40
1.0
 40
1.0
 10
535.5041403763
 20
457.2181281023
 30
0.0
 10
535.4400700391
 20
457.2181426704
 30
0.0
 10
535.2147706128
 20
457.222316146
 30
0.0
 10
534.9886839186
 20
457.2421441426
 30
0.0
 10
534.8307264909
 20
457.2753109595
 30
0.0
  0
SPLINE
  5
732
100
AcDbEntity
  8
11_COMPONENT
100
AcDbSpline
 62
9
  6
CONTINUOUS
 70
0
 71
3
 72
9
 73
5
 74
0
 42
0.0000001
 43
0.0000001
 44
0.0000000001
 40
0.0
 40
0.0
 40
0.0
 40
0.0
 40
0.3005280236
 40
1.0
 40
1.0
 40
1.0
 40
1.0
 10
534.8307264909
 20
457.2753109595
 30
0.0
 10
534.7894603984
 20
457.2839757304
 30
0.0
 10
534.6539254239
 20
457.3175925939
 30
0.0
 10
534.5187419246
 20
457.3722442439
 30
0.0
 10
534.443395196
 20
457.4351281806
 30
0.0
  0
SPLINE
  5
733
100
AcDbEntity
  8
11_COMPONENT
100
AcDbSpline
 62
9
  6
CONTINUOUS
 70
0
 71
3
 72
14
 73
10
 74
0
 42
0.0000001
 43
0.0000001
 44
0.0000000001
 40
0.0
 40
0.0
 40
0.0
 40
0.0
 40
0.1959680272
 40
0.3471061795
 40
0.5194115832
 40
0.5865049833
 40
0.6833536911
 40
0.8209346849
 40
1.0
 40
1.0
 40
1.0
 40
1.0
 10
534.9525883773
 20
456.2581281023
 30
0.0
 10
534.7652775748
 20
456.2581797209
 30
0.0
 10
534.4245584725
 20
456.2714665198
 30
0.0
 10
533.9645807805
 20
456.3343140055
 30
0.0
 10
533.5103324993
 20
456.5033867216
 30
0.0
 10
533.5627755209
 20
456.8585138415
 30
0.0
 10
533.7654457466
 20
457.0715663539
 30
0.0
 10
534.0794938674
 20
457.3108015216
 30
0.0
 10
534.3444350545
 20
457.4597791569
 30
0.0
 10
534.4961140233
 20
457.539072644
 30
0.0
  0
SPLINE
  5
734
100
AcDbEntity
  8
11_COMPONENT
100
AcDbSpline
 62
9
  6
CONTINUOUS
 70
0
 71
3
 72
11
 73
7
 74
0
 42
0.0000001
 43
0.0000001
 44
0.0000000001
 40
0.0
 40
0.0
 40
0.0
 40
0.0
 40
0.2110508799
 40
0.4818762798
 40
0.7638553546
 40
1.0
 40
1.0
 40
1.0
 40
1.0
 10
534.4961140233
 20
457.539072644
 30
0.0
 10
535.1047475647
 20
457.8572490943
 30
0.0
 10
536.5798410226
 20
458.4123384982
 30
0.0
 10
538.9769774501
 20
459.0728453222
 30
0.0
 10
541.5006301175
 20
459.5553340418
 30
0.0
 10
543.1815083821
 20
459.7407774907
 30
0.0
 10
543.9497962732
 20
459.7561177229
 30
0.0
  0
SPLINE
  5
735
100
AcDbEntity
  8
11_COMPONENT
100
AcDbSpline
 62
9
  6
CONTINUOUS
 70
0
 71
3
 72
9
 73
5
 74
0
 42
0.0000001
 43
0.0000001
 44
0.0000000001
 40
0.0
 40
0.0
 40
0.0
 40
0.0
 40
0.2778839346
 40
1.0
 40
1.0
 40
1.0
 40
1.0
 10
400.062685343
 20
458.0595542427
 30
0.0
 10
400.1404856316
 20
458.0243154474
 30
0.0
 10
400.4184747156
 20
457.8934075204
 30
0.0
 10
400.6895254109
 20
457.7460597798
 30
0.0
 10
400.8746253612
 20
457.6235945166
 30
0.0
  0
SPLINE
  5
736
100
AcDbEntity
  8
11_COMPONENT
100
AcDbSpline
 62
9
  6
CONTINUOUS
 70
0
 71
3
 72
20
 73
16
 74
0
 42
0.0000001
 43
0.0000001
 44
0.0000000001
 40
0.0
 40
0.0
 40
0.0
 40
0.0
 40
0.0397184311
 40
0.0678121565
 40
0.0885850425
 40
0.1124666217
 40
0.1474003203
 40
0.1955991319
 40
0.2567604115
 40
0.3293485812
 40
0.4110482433
 40
0.4990670742
 40
0.6820918242
 40
0.8555368525
 40
1.0
 40
1.0
 40
1.0
 40
1.0
 10
400.8746253612
 20
457.6235945166
 30
0.0
 10
401.007518162
 20
457.535670388
 30
0.0
 10
401.2228284651
 20
457.3706290016
 30
0.0
 10
401.4598489011
 20
457.0898783627
 30
0.0
 10
401.4735378442
 20
456.7675875872
 30
0.0
 10
401.2138602869
 20
456.5380040997
 30
0.0
 10
400.8114028956
 20
456.3925797148
 30
0.0
 10
400.23758707
 20
456.2914478477
 30
0.0
 10
399.5084753911
 20
456.2496564759
 30
0.0
 10
398.6434350939
 20
456.2663344772
 30
0.0
 10
397.673947685
 20
456.343079772
 30
0.0
 10
396.2698624117
 20
456.5231011675
 30
0.0
 10
394.5166479714
 20
456.8607650275
 30
0.0
 10
392.5754915669
 20
457.3855965089
 30
0.0
 10
391.3728773468
 20
457.8203758527
 30
0.0
 10
390.8449611655
 20
458.0595542427
 30
0.0
  0
SPLINE
  5
737
100
AcDbEntity
  8
11_COMPONENT
100
AcDbSpline
 62
9
  6
CONTINUOUS
 70
0
 71
3
 72
9
 73
5
 74
0
 42
0.0000001
 43
0.0000001
 44
0.0000000001
 40
0.0
 40
0.0
 40
0.0
 40
0.0
 40
0.580778692
 40
1.0
 40
1.0
 40
1.0
 40
1.0
 10
390.8449611655
 20
458.0595542427
 30
0.0
 10
390.5947454825
 20
458.1729487985
 30
0.0
 10
390.1723120834
 20
458.3848503495
 30
0.0
 10
389.7776235692
 20
458.6560650661
 30
0.0
 10
389.6386106615
 20
458.7974716067
 30
0.0
  0
SPLINE
  5
738
100
AcDbEntity
  8
11_COMPONENT
100
AcDbSpline
 62
9
  6
CONTINUOUS
 70
0
 71
3
 72
9
 73
5
 74
0
 42
0.0000001
 43
0.0000001
 44
0.0000000001
 40
0.0
 40
0.0
 40
0.0
 40
0.0
 40
0.4865979616
 40
1.0
 40
1.0
 40
1.0
 40
1.0
 10
389.6386106615
 20
458.7974716067
 30
0.0
 10
389.5299933162
 20
458.9079592103
 30
0.0
 10
389.3061650184
 20
459.2664719626
 30
0.0
 10
389.6722373828
 20
459.4824147781
 30
0.0
 10
389.8245035621
 20
459.5418935858
 30
0.0
  0
SPLINE
  5
739
100
AcDbEntity
  8
11_COMPONENT
100
AcDbSpline
 62
9
  6
CONTINUOUS
 70
0
 71
3
 72
9
 73
5
 74
0
 42
0.0000001
 43
0.0000001
 44
0.0000000001
 40
0.0
 40
0.0
 40
0.0
 40
0.0
 40
0.2090223583
 40
1.0
 40
1.0
 40
1.0
 40
1.0
 10
389.8245035621
 20
459.5418935858
 30
0.0
 10
389.8728053534
 20
459.5607614195
 30
0.0
 10
390.1086167757
 20
459.6388979426
 30
0.0
 10
390.3550490593
 20
459.6798564242
 30
0.0
 10
390.5498499503
 20
459.7035190189
 30
0.0
  0
SPLINE
  5
73A
100
AcDbEntity
  8
11_COMPONENT
100
AcDbSpline
 62
9
  6
CONTINUOUS
 70
0
 71
3
 72
11
 73
7
 74
0
 42
0.0000001
 43
0.0000001
 44
0.0000000001
 40
0.0
 40
0.0
 40
0.0
 40
0.0
 40
0.2108082188
 40
0.4828183291
 40
0.7624794404
 40
1.0
 40
1.0
 40
1.0
 40
1.0
 10
390.5498499503
 20
459.7035190189
 30
0.0
 10
391.212577452
 20
459.7840209725
 30
0.0
 10
392.7515007551
 20
459.7521541903
 30
0.0
 10
395.1493111067
 20
459.4632764901
 30
0.0
 10
397.596485599
 20
458.9402545517
 30
0.0
 10
399.1637324131
 20
458.4443592581
 30
0.0
 10
399.85601174
 20
458.1501762442
 30
0.0
  0
SPLINE
  5
73B
100
AcDbEntity
  8
11_COMPONENT
100
AcDbSpline
 62
9
  6
CONTINUOUS
 70
0
 71
3
 72
9
 73
5
 74
0
 42
0.0000001
 43
0.0000001
 44
0.0000000001
 40
0.0
 40
0.0
 40
0.0
 40
0.0
 40
0.2864560146
 40
1.0
 40
1.0
 40
1.0
 40
1.0
 10
544.1451216947
 20
459.7581281023
 30
0.0
 10
544.2256061285
 20
459.7581260671
 30
0.0
 10
544.5064226938
 20
459.7540887498
 30
0.0
 10
544.7879702571
 20
459.7353366808
 30
0.0
 10
544.9857204383
 20
459.7023553113
 30
0.0
  0
SPLINE
  5
73C
100
AcDbEntity
  8
11_COMPONENT
100
AcDbSpline
 62
9
  6
CONTINUOUS
 70
0
 71
3
 72
22
 73
18
 74
0
 42
0.0000001
 43
0.0000001
 44
0.0000000001
 40
0.0
 40
0.0
 40
0.0
 40
0.0
 40
0.0324750748
 40
0.0522498038
 40
0.0602386178
 40
0.0694297655
 40
0.0811946714
 40
0.0961130122
 40
0.1359747544
 40
0.1888813919
 40
0.2535704897
 40
0.3282963847
 40
0.4110230649
 40
0.4994851625
 40
0.683419187
 40
0.8579720068
 40
1.0
 40
1.0
 40
1.0
 40
1.0
 10
544.9857204383
 20
459.7023553113
 30
0.0
 10
545.1134079396
 20
459.6810592061
 30
0.0
 10
545.3130141142
 20
459.6400138169
 30
0.0
 10
545.5377272859
 20
459.4963138357
 30
0.0
 10
545.5630321594
 20
459.3428336067
 30
0.0
 10
545.520692709
 20
459.2319281401
 30
0.0
 10
545.4332091496
 20
459.1177496607
 30
0.0
 10
545.2368857542
 20
458.937974233
 30
0.0
 10
544.8730997464
 20
458.7060411086
 30
0.0
 10
544.3124147911
 20
458.4235140524
 30
0.0
 10
543.6053627702
 20
458.125722251
 30
0.0
 10
542.7736878082
 20
457.8211684379
 30
0.0
 10
541.8408088294
 20
457.5193309796
 30
0.0
 10
540.4801914177
 20
457.1281767405
 30
0.0
 10
538.7459163175
 20
456.7138173358
 30
0.0
 10
536.7794628074
 20
456.3733115691
 30
0.0
 10
535.5187363712
 20
456.2582696555
 30
0.0
 10
534.9525883773
 20
456.2581281023
 30
0.0
  0
SPLINE
  5
73D
100
AcDbEntity
  8
11_COMPONENT
100
AcDbSpline
 62
9
  6
CONTINUOUS
 70
0
 71
3
 72
9
 73
5
 74
0
 42
0.0000001
 43
0.0000001
 44
0.0000000001
 40
0.0
 40
0.0
 40
0.0
 40
0.0
 40
0.229067072
 40
1.0
 40
1.0
 40
1.0
 40
1.0
 10
543.8257953324
 20
459.7200544565
 30
0.0
 10
543.792423954
 20
459.6963602716
 30
0.0
 10
543.6450136646
 20
459.5953542322
 30
0.0
 10
543.4918251256
 20
459.5029741448
 30
0.0
 10
543.3720154705
 20
459.4350125303
 30
0.0
  0
SPLINE
  5
73E
100
AcDbEntity
  8
11_COMPONENT
100
AcDbSpline
 62
9
  6
CONTINUOUS
 70
0
 71
3
 72
11
 73
7
 74
0
 42
0.0000001
 43
0.0000001
 44
0.0000000001
 40
0.0
 40
0.0
 40
0.0
 40
0.0
 40
0.2216344811
 40
0.4949023658
 40
0.7731352091
 40
1.0
 40
1.0
 40
1.0
 40
1.0
 10
543.3720154705
 20
459.4350125303
 30
0.0
 10
542.8432444699
 20
459.1350689998
 30
0.0
 10
541.5950175951
 20
458.5883773713
 30
0.0
 10
539.5835205567
 20
457.9110269207
 30
0.0
 10
537.507813209
 20
457.4081796288
 30
0.0
 10
536.1264050075
 20
457.2182558769
 30
0.0
 10
535.5041403763
 20
457.2181281023
 30
0.0
  0
SPLINE
  5
73F
100
AcDbEntity
  8
11_COMPONENT
100
AcDbSpline
 62
9
  6
CONTINUOUS
 70
0
 71
3
 72
8
 73
4
 74
0
 42
0.0000001
 43
0.0000001
 44
0.0000000001
 40
0.0
 40
0.0
 40
0.0
 40
0.0
 40
1.0
 40
1.0
 40
1.0
 40
1.0
 10
400.5866877471
 20
457.6950819981
 30
0.0
 10
400.5727576338
 20
457.6700401219
 30
0.0
 10
400.5560401859
 20
457.6464256007
 30
0.0
 10
400.5374888426
 20
457.6245854706
 30
0.0
  0
SPLINE
  5
740
100
AcDbEntity
  8
11_COMPONENT
100
AcDbSpline
 62
9
  6
CONTINUOUS
 70
0
 71
3
 72
9
 73
5
 74
0
 42
0.0000001
 43
0.0000001
 44
0.0000000001
 40
0.0
 40
0.0
 40
0.0
 40
0.0
 40
0.2002131188
 40
1.0
 40
1.0
 40
1.0
 40
1.0
 10
400.5374888426
 20
457.6245854706
 30
0.0
 10
400.5096727479
 20
457.5918381319
 30
0.0
 10
400.3486017738
 20
457.4470206186
 30
0.0
 10
400.1370088005
 20
457.3745183924
 30
0.0
 10
399.9707568239
 20
457.3318604429
 30
0.0
  0
SPLINE
  5
741
100
AcDbEntity
  8
11_COMPONENT
100
AcDbSpline
 62
9
  6
CONTINUOUS
 70
0
 71
3
 72
12
 73
8
 74
0
 42
0.0000001
 43
0.0000001
 44
0.0000000001
 40
0.0
 40
0.0
 40
0.0
 40
0.0
 40
0.0889939665
 40
0.2027151078
 40
0.4775651553
 40
0.7619081847
 40
1.0
 40
1.0
 40
1.0
 40
1.0
 10
399.9371481667
 20
457.3234914336
 30
0.0
 10
399.6944140717
 20
457.264842547
 30
0.0
 10
399.1247115822
 20
457.2049070131
 30
0.0
 10
397.7838467765
 20
457.2372775635
 30
0.0
 10
395.9112815668
 20
457.5412573367
 30
0.0
 10
393.7556870409
 20
458.1459285534
 30
0.0
 10
392.3902312601
 20
458.700457667
 30
0.0
 10
391.8032709901
 20
459.0195542427
 30
0.0
  0
SPLINE
  5
742
100
AcDbEntity
  8
11_COMPONENT
100
AcDbSpline
 62
9
  6
CONTINUOUS
 70
0
 71
3
 72
11
 73
7
 74
0
 42
0.0000001
 43
0.0000001
 44
0.0000000001
 40
0.0
 40
0.0
 40
0.0
 40
0.0
 40
0.4824413505
 40
0.7852043814
 40
0.9034771291
 40
1.0
 40
1.0
 40
1.0
 40
1.0
 10
366.6707824412
 20
641.211903885
 30
0.0
 10
366.8171483803
 20
641.2587758632
 30
0.0
 10
367.0802482499
 20
641.3493493589
 30
0.0
 10
367.28291083
 20
641.4209787146
 30
0.0
 10
367.5216368412
 20
641.538610089
 30
0.0
 10
367.4086332685
 20
641.5565964461
 30
0.0
 10
367.377884669
 20
641.5566098133
 30
0.0
  0
SPLINE
  5
743
100
AcDbEntity
  8
11_COMPONENT
100
AcDbSpline
 62
9
  6
CONTINUOUS
 70
0
 71
3
 72
9
 73
5
 74
0
 42
0.0000001
 43
0.0000001
 44
0.0000000001
 40
0.0
 40
0.0
 40
0.0
 40
0.0
 40
0.7511036921
 40
1.0
 40
1.0
 40
1.0
 40
1.0
 10
338.272128399
 20
467.0053371948
 30
0.0
 10
338.2692786127
 20
467.0078867369
 30
0.0
 10
338.2621467842
 20
467.0103279579
 30
0.0
 10
338.2655254258
 20
467.0169274376
 30
0.0
 10
338.2667925339
 20
467.0169280573
 30
0.0
  0
SPLINE
  5
744
100
AcDbEntity
  8
11_COMPONENT
100
AcDbSpline
 62
9
  6
CONTINUOUS
 70
0
 71
3
 72
9
 73
5
 74
0
 42
0.0000001
 43
0.0000001
 44
0.0000000001
 40
0.0
 40
0.0
 40
0.0
 40
0.0
 40
0.4583831833
 40
1.0
 40
1.0
 40
1.0
 40
1.0
 10
366.7345387998
 20
467.0169279594
 30
0.0
 10
366.7459576024
 20
467.0169276841
 30
0.0
 10
366.7708461288
 20
467.0142482104
 30
0.0
 10
366.7951946865
 20
467.0088494096
 30
0.0
 10
366.8082217534
 20
467.005337139
 30
0.0
  0
SPLINE
  5
745
100
AcDbEntity
  8
11_COMPONENT
100
AcDbSpline
 62
9
  6
CONTINUOUS
 70
0
 71
3
 72
9
 73
5
 74
0
 42
0.0000001
 43
0.0000001
 44
0.0000000001
 40
0.0
 40
0.0
 40
0.0
 40
0.0
 40
0.2206741489
 40
1.0
 40
1.0
 40
1.0
 40
1.0
 10
392.3400735938
 20
640.8359236972
 30
0.0
 10
391.9676602572
 20
640.8346174184
 30
0.0
 10
390.280193356
 20
640.7888840165
 30
0.0
 10
388.598153248
 20
640.6208533152
 30
0.0
 10
387.2932839287
 20
640.4562424911
 30
0.0
  0
SPLINE
  5
746
100
AcDbEntity
  8
11_COMPONENT
100
AcDbSpline
 62
9
  6
CONTINUOUS
 70
0
 71
3
 72
9
 73
5
 74
0
 42
0.0000001
 43
0.0000001
 44
0.0000000001
 40
0.0
 40
0.0
 40
0.0
 40
0.0
 40
0.2754688632
 40
1.0
 40
1.0
 40
1.0
 40
1.0
 10
366.7994023973
 20
467.9456228791
 30
0.0
 10
367.2463495261
 20
467.8163708638
 30
0.0
 10
368.878262436
 20
467.38732018
 30
0.0
 10
370.5654100577
 20
467.1153240859
 30
0.0
 10
371.7891194329
 20
467.1108358088
 30
0.0
  0
SPLINE
  5
747
100
AcDbEntity
  8
11_COMPONENT
100
AcDbSpline
 62
9
  6
CONTINUOUS
 70
0
 71
3
 72
9
 73
5
 74
0
 42
0.0000001
 43
0.0000001
 44
0.0000000001
 40
0.0
 40
0.0
 40
0.0
 40
0.0
 40
0.2664861496
 40
1.0
 40
1.0
 40
1.0
 40
1.0
 10
523.1559133087
 20
640.4562466208
 30
0.0
 10
522.6650751422
 20
640.5151229275
 30
0.0
 10
520.8209992283
 20
640.7151177658
 30
0.0
 10
518.9659095198
 20
640.8319211738
 30
0.0
 10
517.6051786592
 20
640.8358904933
 30
0.0
  0
SPLINE
  5
748
100
AcDbEntity
  8
11_COMPONENT
100
AcDbSpline
 62
9
  6
CONTINUOUS
 70
0
 71
3
 72
9
 73
5
 74
0
 42
0.0000001
 43
0.0000001
 44
0.0000000001
 40
0.0
 40
0.0
 40
0.0
 40
0.0
 40
0.2348464333
 40
1.0
 40
1.0
 40
1.0
 40
1.0
 10
534.4240416984
 20
467.110874296
 30
0.0
 10
534.7351079284
 20
467.1118141223
 30
0.0
 10
536.0595073957
 20
467.1582249359
 30
0.0
 10
537.3758996883
 20
467.3556897914
 30
0.0
 10
538.3677828527
 20
467.5638480341
 30
0.0
  0
SPLINE
  5
749
100
AcDbEntity
  8
11_COMPONENT
100
AcDbSpline
 62
9
  6
CONTINUOUS
 70
0
 71
3
 72
9
 73
5
 74
0
 42
0.0000001
 43
0.0000001
 44
0.0000000001
 40
0.0
 40
0.0
 40
0.0
 40
0.0
 40
0.6245640245
 40
1.0
 40
1.0
 40
1.0
 40
1.0
 10
552.5059304168
 20
640.8358898602
 30
0.0
 10
552.3998381717
 20
640.8350034402
 30
0.0
 10
552.2323142261
 20
640.8268917805
 30
0.0
 10
552.0592748259
 20
640.7897466872
 30
0.0
 10
552.006734451
 20
640.753595678
 30
0.0
  0
SPLINE
  5
74A
100
AcDbEntity
  8
11_COMPONENT
100
AcDbSpline
 62
9
  6
CONTINUOUS
 70
0
 71
3
 72
9
 73
5
 74
0
 42
0.0000001
 43
0.0000001
 44
0.0000000001
 40
0.0
 40
0.0
 40
0.0
 40
0.0
 40
0.2753582771
 40
1.0
 40
1.0
 40
1.0
 40
1.0
 10
366.8082217534
 20
467.005337139
 30
0.0
 10
367.2877853716
 20
466.876047245
 30
0.0
 10
369.0384363207
 20
466.4477380046
 30
0.0
 10
370.841562908
 20
466.1806313521
 30
0.0
 10
372.1486582102
 20
466.1804447104
 30
0.0
  0
SPLINE
  5
74B
100
AcDbEntity
  8
11_COMPONENT
100
AcDbSpline
 62
9
  6
CONTINUOUS
 70
0
 71
3
 72
9
 73
5
 74
0
 42
0.0000001
 43
0.0000001
 44
0.0000000001
 40
0.0
 40
0.0
 40
0.0
 40
0.0
 40
0.2314875736
 40
1.0
 40
1.0
 40
1.0
 40
1.0
 10
534.1290384446
 20
466.1804447096
 30
0.0
 10
534.5903918907
 20
466.1804392282
 30
0.0
 10
536.5833544311
 20
466.2635688088
 30
0.0
 10
538.5572308299
 20
466.628477088
 30
0.0
 10
540.0417848307
 20
467.0053371948
 30
0.0
  0
SPLINE
  5
74C
100
AcDbEntity
  8
11_COMPONENT
100
AcDbSpline
 62
9
  6
CONTINUOUS
 70
0
 71
3
 72
9
 73
5
 74
0
 42
0.0000001
 43
0.0000001
 44
0.0000000001
 40
0.0
 40
0.0
 40
0.0
 40
0.0
 40
0.4753912988
 40
1.0
 40
1.0
 40
1.0
 40
1.0
 10
579.2095421452
 20
467.4750150494
 30
0.0
 10
579.2219979211
 20
467.4020613013
 30
0.0
 10
579.2929691941
 20
467.2502557931
 30
0.0
 10
579.4410397073
 20
467.1769622266
 30
0.0
 10
579.5191241865
 20
467.1530232999
 30
0.0
  0
SPLINE
  5
74D
100
AcDbEntity
  8
11_COMPONENT
100
AcDbSpline
 62
9
  6
CONTINUOUS
 70
0
 71
3
 72
9
 73
5
 74
0
 42
0.0000001
 43
0.0000001
 44
0.0000000001
 40
0.0
 40
0.0
 40
0.0
 40
0.0
 40
0.7208217148
 40
1.0
 40
1.0
 40
1.0
 40
1.0
 10
579.5191241865
 20
467.1530232999
 30
0.0
 10
579.5930053309
 20
467.1303730202
 30
0.0
 10
579.7004120125
 20
467.1148370009
 30
0.0
 10
579.8074634396
 20
467.1111333503
 30
0.0
 10
579.8373914414
 20
467.1108743117
 30
0.0
  0
SPLINE
  5
74E
100
AcDbEntity
  8
11_COMPONENT
100
AcDbSpline
 62
9
  6
CONTINUOUS
 70
0
 71
3
 72
9
 73
5
 74
0
 42
0.0000001
 43
0.0000001
 44
0.0000000001
 40
0.0
 40
0.0
 40
0.0
 40
0.0
 40
0.5278310962
 40
1.0
 40
1.0
 40
1.0
 40
1.0
 10
540.0417848307
 20
467.0053371948
 30
0.0
 10
540.0559479359
 20
467.0089329147
 30
0.0
 10
540.0831254751
 20
467.0144296114
 30
0.0
 10
540.1108035318
 20
467.0169267205
 30
0.0
 10
540.1238750035
 20
467.0169280573
 30
0.0
  0
SPLINE
  5
74F
100
AcDbEntity
  8
11_COMPONENT
100
AcDbSpline
 62
9
  6
CONTINUOUS
 70
0
 71
3
 72
13
 73
9
 74
0
 42
0.0000001
 43
0.0000001
 44
0.0000000001
 40
0.0
 40
0.0
 40
0.0
 40
0.0
 40
0.4077520136
 40
0.541342088
 40
0.6327652398
 40
0.6955520682
 40
0.7625304542
 40
1.0
 40
1.0
 40
1.0
 40
1.0
 10
551.7782512093
 20
641.5566098139
 30
0.0
 10
551.6543326163
 20
641.5566118675
 30
0.0
 10
551.4883716936
 20
641.5536474208
 30
0.0
 10
551.3002539494
 20
641.5132361226
 30
0.0
 10
551.2178541871
 20
641.4798661907
 30
0.0
 10
551.1751705235
 20
641.4185722085
 30
0.0
 10
551.2171498821
 20
641.3042274586
 30
0.0
 10
551.298820473
 20
641.2526019225
 30
0.0
 10
551.3584189468
 20
641.2119039033
 30
0.0
  0
SPLINE
  5
750
100
AcDbEntity
  8
11_COMPONENT
100
AcDbSpline
 62
9
  6
CONTINUOUS
 70
0
 71
3
 72
9
 73
5
 74
0
 42
0.0000001
 43
0.0000001
 44
0.0000000001
 40
0.0
 40
0.0
 40
0.0
 40
0.0
 40
0.5562614454
 40
1.0
 40
1.0
 40
1.0
 40
1.0
 10
338.8222462129
 20
466.1804447097
 30
0.0
 10
338.8514210309
 20
466.1804709205
 30
0.0
 10
338.9161464657
 20
466.1840589419
 30
0.0
 10
338.9268615956
 20
466.2487230344
 30
0.0
 10
338.922011364
 20
466.2714852438
 30
0.0
  0
SPLINE
  5
751
100
AcDbEntity
  8
11_COMPONENT
100
AcDbSpline
 62
9
  6
CONTINUOUS
 70
0
 71
3
 72
9
 73
5
 74
0
 42
0.0000001
 43
0.0000001
 44
0.0000000001
 40
0.0
 40
0.0
 40
0.0
 40
0.0
 40
0.360236329
 40
1.0
 40
1.0
 40
1.0
 40
1.0
 10
338.922011364
 20
466.2714852438
 30
0.0
 10
338.9073321258
 20
466.3403751287
 30
0.0
 10
338.7835726481
 20
466.5035936406
 30
0.0
 10
338.6531208104
 20
466.6441213788
 30
0.0
 10
338.5642018625
 20
466.7321068164
 30
0.0
  0
SPLINE
  5
752
100
AcDbEntity
  8
11_COMPONENT
100
AcDbSpline
 62
9
  6
CONTINUOUS
 70
0
 71
3
 72
8
 73
4
 74
0
 42
0.0000001
 43
0.0000001
 44
0.0000000001
 40
0.0
 40
0.0
 40
0.0
 40
0.0
 40
1.0
 40
1.0
 40
1.0
 40
1.0
 10
338.5642018625
 20
466.7321068164
 30
0.0
 10
338.4694360952
 20
466.8258776908
 30
0.0
 10
338.3714808836
 20
466.9164405619
 30
0.0
 10
338.272128399
 20
467.0053371948
 30
0.0
  0
SPLINE
  5
753
100
AcDbEntity
  8
11_COMPONENT
100
AcDbSpline
 62
9
  6
CONTINUOUS
 70
0
 71
3
 72
9
 73
5
 74
0
 42
0.0000001
 43
0.0000001
 44
0.0000000001
 40
0.0
 40
0.0
 40
0.0
 40
0.0
 40
0.2705943976
 40
1.0
 40
1.0
 40
1.0
 40
1.0
 10
551.3584189468
 20
641.2119039033
 30
0.0
 10
551.3594837387
 20
641.2111769094
 30
0.0
 10
551.3610689329
 20
641.2044902089
 30
0.0
 10
551.3527470592
 20
641.2069240689
 30
0.0
 10
551.3492716557
 20
641.2069237048
 30
0.0
  0
SPLINE
  5
754
100
AcDbEntity
  8
11_COMPONENT
100
AcDbSpline
 62
9
  6
CONTINUOUS
 70
0
 71
3
 72
8
 73
4
 74
0
 42
0.0000001
 43
0.0000001
 44
0.0000000001
 40
0.0
 40
0.0
 40
0.0
 40
0.0
 40
1.0
 40
1.0
 40
1.0
 40
1.0
 10
579.0701421695
 20
467.2392301242
 30
0.0
 10
578.9879034139
 20
467.1429763521
 30
0.0
 10
578.8840884103
 20
467.0620471917
 30
0.0
 10
578.7708962538
 20
467.0053414843
 30
0.0
  0
SPLINE
  5
755
100
AcDbEntity
  8
11_COMPONENT
100
AcDbSpline
 62
9
  6
CONTINUOUS
 70
0
 71
3
 72
9
 73
5
 74
0
 42
0.0000001
 43
0.0000001
 44
0.0000000001
 40
0.0
 40
0.0
 40
0.0
 40
0.0
 40
0.7456241714
 40
1.0
 40
1.0
 40
1.0
 40
1.0
 10
579.2300782192
 20
467.9481770163
 30
0.0
 10
579.2467845325
 20
467.9496777591
 30
0.0
 10
579.2615191265
 20
467.9460074701
 30
0.0
 10
579.2969772115
 20
467.955734059
 30
0.0
 10
579.2973688299
 20
467.9500250285
 30
0.0
  0
SPLINE
  5
756
100
AcDbEntity
  8
11_COMPONENT
100
AcDbSpline
 62
9
  6
CONTINUOUS
 70
0
 71
3
 72
9
 73
5
 74
0
 42
0.0000001
 43
0.0000001
 44
0.0000000001
 40
0.0
 40
0.0
 40
0.0
 40
0.0
 40
0.2259783564
 40
1.0
 40
1.0
 40
1.0
 40
1.0
 10
523.6494792048
 20
640.4853883677
 30
0.0
 10
523.6122357403
 20
640.4847901843
 30
0.0
 10
523.4474627219
 20
640.4799196047
 30
0.0
 10
523.282957235
 20
640.467961058
 30
0.0
 10
523.1559133066
 20
640.4562466577
 30
0.0
  0
SPLINE
  5
757
100
AcDbEntity
  8
11_COMPONENT
100
AcDbSpline
 62
9
  6
CONTINUOUS
 70
0
 71
3
 72
9
 73
5
 74
0
 42
0.0000001
 43
0.0000001
 44
0.0000000001
 40
0.0
 40
0.0
 40
0.0
 40
0.0
 40
0.269379589
 40
1.0
 40
1.0
 40
1.0
 40
1.0
 10
539.9475326772
 20
467.9456110037
 30
0.0
 10
539.9916618908
 20
467.9473784942
 30
0.0
 10
540.1555242333
 20
467.9525166617
 30
0.0
 10
540.3196122413
 20
467.9527107537
 30
0.0
 10
540.4393111162
 20
467.9481769577
 30
0.0
  0
SPLINE
  5
758
100
AcDbEntity
  8
11_COMPONENT
100
AcDbSpline
 62
9
  6
CONTINUOUS
 70
0
 71
3
 72
9
 73
5
 74
0
 42
0.0000001
 43
0.0000001
 44
0.0000000001
 40
0.0
 40
0.0
 40
0.0
 40
0.0
 40
0.2812698893
 40
1.0
 40
1.0
 40
1.0
 40
1.0
 10
387.2932858206
 20
640.4562511846
 30
0.0
 10
387.2519396292
 20
640.460312777
 30
0.0
 10
387.1048615589
 20
640.4737702499
 30
0.0
 10
386.957324086
 20
640.4833789946
 30
0.0
 10
386.8511824688
 20
640.4853883279
 30
0.0
  0
SPLINE
  5
759
100
AcDbEntity
  8
11_COMPONENT
100
AcDbSpline
 62
9
  6
CONTINUOUS
 70
0
 71
3
 72
9
 73
5
 74
0
 42
0.0000001
 43
0.0000001
 44
0.0000000001
 40
0.0
 40
0.0
 40
0.0
 40
0.0
 40
0.2170325229
 40
1.0
 40
1.0
 40
1.0
 40
1.0
 10
366.3570067631
 20
467.948177022
 30
0.0
 10
366.3889852307
 20
467.949622943
 30
0.0
 10
366.5364375774
 20
467.9538616478
 30
0.0
 10
366.6840244133
 20
467.9505466541
 30
0.0
 10
366.7994024878
 20
467.9456125713
 30
0.0
  0
SPLINE
  5
75A
100
AcDbEntity
  8
11_COMPONENT
100
AcDbSpline
 62
9
  6
CONTINUOUS
 70
0
 71
3
 72
9
 73
5
 74
0
 42
0.0000001
 43
0.0000001
 44
0.0000000001
 40
0.0
 40
0.0
 40
0.0
 40
0.0
 40
0.6859221417
 40
1.0
 40
1.0
 40
1.0
 40
1.0
 10
365.9169807126
 20
640.4853883678
 30
0.0
 10
365.9122064823
 20
640.485063424
 30
0.0
 10
365.9060267184
 20
640.4845340646
 30
0.0
 10
365.8978128686
 20
640.4818848594
 30
0.0
 10
365.8972548109
 20
640.4797659796
 30
0.0
  0
SPLINE
  5
75B
100
AcDbEntity
  8
11_COMPONENT
100
AcDbSpline
 62
9
  6
CONTINUOUS
 70
0
 71
3
 72
9
 73
5
 74
0
 42
0.0000001
 43
0.0000001
 44
0.0000000001
 40
0.0
 40
0.0
 40
0.0
 40
0.0
 40
0.4699827779
 40
1.0
 40
1.0
 40
1.0
 40
1.0
 10
523.1600759956
 20
641.2069236912
 30
0.0
 10
523.1468557477
 20
641.206923834
 30
0.0
 10
523.1187284044
 20
641.2080144616
 30
0.0
 10
523.0906898962
 20
641.2103587804
 30
0.0
 10
523.0758612067
 20
641.211903885
 30
0.0
  0
SPLINE
  5
75C
100
AcDbEntity
  8
11_COMPONENT
100
AcDbSpline
 62
9
  6
CONTINUOUS
 70
0
 71
3
 72
9
 73
5
 74
0
 42
0.0000001
 43
0.0000001
 44
0.0000000001
 40
0.0
 40
0.0
 40
0.0
 40
0.0
 40
0.2664923494
 40
1.0
 40
1.0
 40
1.0
 40
1.0
 10
523.0758612067
 20
641.211903885
 30
0.0
 10
522.5517873214
 20
641.2665195492
 30
0.0
 10
520.5834053338
 20
641.4513969289
 30
0.0
 10
518.6058918198
 20
641.5566147697
 30
0.0
 10
517.1555911994
 20
641.5566098133
 30
0.0
  0
SPLINE
  5
75D
100
AcDbEntity
  8
11_COMPONENT
100
AcDbSpline
 62
9
  6
CONTINUOUS
 70
0
 71
3
 72
8
 73
4
 74
0
 42
0.0000001
 43
0.0000001
 44
0.0000000001
 40
0.0
 40
0.0
 40
0.0
 40
0.0
 40
1.0
 40
1.0
 40
1.0
 40
1.0
 10
552.5059524059
 20
640.8358917163
 30
0.0
 10
552.476045692
 20
640.9528841963
 30
0.0
 10
552.4244660993
 20
641.0662940558
 30
0.0
 10
552.3555770446
 20
641.1654704142
 30
0.0
  0
SPLINE
  5
75E
100
AcDbEntity
  8
11_COMPONENT
100
AcDbSpline
 62
9
  6
CONTINUOUS
 70
0
 71
3
 72
8
 73
4
 74
0
 42
0.0000001
 43
0.0000001
 44
0.0000000001
 40
0.0
 40
0.0
 40
0.0
 40
0.0
 40
1.0
 40
1.0
 40
1.0
 40
1.0
 10
552.3555770446
 20
641.1654704142
 30
0.0
 10
552.2876394949
 20
641.2632769351
 30
0.0
 10
552.2003840424
 20
641.3501529119
 30
0.0
 10
552.101741517
 20
641.4168708134
 30
0.0
  0
SPLINE
  5
75F
100
AcDbEntity
  8
11_COMPONENT
100
AcDbSpline
 62
9
  6
CONTINUOUS
 70
0
 71
3
 72
8
 73
4
 74
0
 42
0.0000001
 43
0.0000001
 44
0.0000000001
 40
0.0
 40
0.0
 40
0.0
 40
0.0
 40
1.0
 40
1.0
 40
1.0
 40
1.0
 10
552.0613247654
 20
640.4853883851
 30
0.0
 10
552.0322099366
 20
640.6022164464
 30
0.0
 10
551.9819431818
 20
640.7157048445
 30
0.0
 10
551.9143306686
 20
640.8153292252
 30
0.0
  0
SPLINE
  5
760
100
AcDbEntity
  8
11_COMPONENT
100
AcDbSpline
 62
9
  6
CONTINUOUS
 70
0
 71
3
 72
8
 73
4
 74
0
 42
0.0000001
 43
0.0000001
 44
0.0000000001
 40
0.0
 40
0.0
 40
0.0
 40
0.0
 40
1.0
 40
1.0
 40
1.0
 40
1.0
 10
551.9143306686
 20
640.8153292252
 30
0.0
 10
551.8481357842
 20
640.9128647856
 30
0.0
 10
551.7628738596
 20
640.999965816
 30
0.0
 10
551.6659353981
 20
641.0670320741
 30
0.0
  0
SPLINE
  5
761
100
AcDbEntity
  8
11_COMPONENT
100
AcDbSpline
 62
9
  6
CONTINUOUS
 70
0
 71
3
 72
8
 73
4
 74
0
 42
0.0000001
 43
0.0000001
 44
0.0000000001
 40
0.0
 40
0.0
 40
0.0
 40
0.0
 40
1.0
 40
1.0
 40
1.0
 40
1.0
 10
551.6659353981
 20
641.0670320741
 30
0.0
 10
551.5710373158
 20
641.132686709
 30
0.0
 10
551.4618177592
 20
641.1814374007
 30
0.0
 10
551.3492716557
 20
641.2069237048
 30
0.0
  0
SPLINE
  5
762
100
AcDbEntity
  8
11_COMPONENT
100
AcDbSpline
 62
9
  6
CONTINUOUS
 70
0
 71
3
 72
9
 73
5
 74
0
 42
0.0000001
 43
0.0000001
 44
0.0000000001
 40
0.0
 40
0.0
 40
0.0
 40
0.0
 40
0.2939180171
 40
1.0
 40
1.0
 40
1.0
 40
1.0
 10
523.6494792227
 20
640.4853883757
 30
0.0
 10
523.634726332
 20
640.571519018
 30
0.0
 10
523.5624400363
 20
640.8550698847
 30
0.0
 10
523.3594586801
 20
641.1412322248
 30
0.0
 10
523.1600759956
 20
641.2069236912
 30
0.0
  0
SPLINE
  5
763
100
AcDbEntity
  8
11_COMPONENT
100
AcDbSpline
 62
9
  6
CONTINUOUS
 70
0
 71
3
 72
9
 73
5
 74
0
 42
0.0000001
 43
0.0000001
 44
0.0000000001
 40
0.0
 40
0.0
 40
0.0
 40
0.0
 40
0.6471095509
 40
1.0
 40
1.0
 40
1.0
 40
1.0
 10
523.1559131676
 20
640.4562466314
 30
0.0
 10
523.1649813861
 20
640.6212417117
 30
0.0
 10
523.1565870074
 20
640.8631759072
 30
0.0
 10
523.1384861177
 20
641.147108086
 30
0.0
 10
523.075861206
 20
641.2119038799
 30
0.0
  0
SPLINE
  5
764
100
AcDbEntity
  8
11_COMPONENT
100
AcDbSpline
 62
9
  6
CONTINUOUS
 70
0
 71
3
 72
9
 73
5
 74
0
 42
0.0000001
 43
0.0000001
 44
0.0000000001
 40
0.0
 40
0.0
 40
0.0
 40
0.0
 40
0.3003163531
 40
1.0
 40
1.0
 40
1.0
 40
1.0
 10
517.6051423215
 20
640.8358917161
 30
0.0
 10
517.591597055
 20
640.9216647538
 30
0.0
 10
517.5265335849
 20
641.1974191454
 30
0.0
 10
517.3460304597
 20
641.4883222585
 30
0.0
 10
517.1555911989
 20
641.5566098135
 30
0.0
  0
SPLINE
  5
765
100
AcDbEntity
  8
11_COMPONENT
100
AcDbSpline
 62
9
  6
CONTINUOUS
 70
0
 71
3
 72
9
 73
5
 74
0
 42
0.0000001
 43
0.0000001
 44
0.0000000001
 40
0.0
 40
0.0
 40
0.0
 40
0.0
 40
0.2844887986
 40
1.0
 40
1.0
 40
1.0
 40
1.0
 10
392.3395094717
 20
640.8358917152
 30
0.0
 10
392.3561811324
 20
640.9223726919
 30
0.0
 10
392.440712976
 20
641.2171498902
 30
0.0
 10
392.6757600056
 20
641.4941805755
 30
0.0
 10
392.8882917697
 20
641.5566098131
 30
0.0
  0
SPLINE
  5
766
100
AcDbEntity
  8
11_COMPONENT
100
AcDbSpline
 62
9
  6
CONTINUOUS
 70
0
 71
3
 72
9
 73
5
 74
0
 42
0.0000001
 43
0.0000001
 44
0.0000000001
 40
0.0
 40
0.0
 40
0.0
 40
0.0
 40
0.6200493886
 40
1.0
 40
1.0
 40
1.0
 40
1.0
 10
387.2933307339
 20
640.4562458326
 30
0.0
 10
387.2914410145
 20
640.6225046142
 30
0.0
 10
387.3087797139
 20
640.8798229263
 30
0.0
 10
387.4197842807
 20
641.1640325331
 30
0.0
 10
387.5097233768
 20
641.2119039028
 30
0.0
  0
SPLINE
  5
767
100
AcDbEntity
  8
11_COMPONENT
100
AcDbSpline
 62
9
  6
CONTINUOUS
 70
0
 71
3
 72
9
 73
5
 74
0
 42
0.0000001
 43
0.0000001
 44
0.0000000001
 40
0.0
 40
0.0
 40
0.0
 40
0.0
 40
0.2793269972
 40
1.0
 40
1.0
 40
1.0
 40
1.0
 10
386.8511823491
 20
640.4853883868
 30
0.0
 10
386.868888948
 20
640.5722236558
 30
0.0
 10
386.9607911505
 20
640.8738563274
 30
0.0
 10
387.2134366534
 20
641.1459355286
 30
0.0
 10
387.4338009342
 20
641.2069237051
 30
0.0
  0
SPLINE
  5
768
100
AcDbEntity
  8
11_COMPONENT
100
AcDbSpline
 62
9
  6
CONTINUOUS
 70
0
 71
3
 72
8
 73
4
 74
0
 42
0.0000001
 43
0.0000001
 44
0.0000000001
 40
0.0
 40
0.0
 40
0.0
 40
0.0
 40
1.0
 40
1.0
 40
1.0
 40
1.0
 10
365.9169806764
 20
640.4853883774
 30
0.0
 10
365.9771801966
 20
640.7157496574
 30
0.0
 10
366.132853113
 20
640.9359104724
 30
0.0
 10
366.3315925097
 20
641.0670323767
 30
0.0
  0
SPLINE
  5
769
100
AcDbEntity
  8
11_COMPONENT
100
AcDbSpline
 62
9
  6
CONTINUOUS
 70
0
 71
3
 72
8
 73
4
 74
0
 42
0.0000001
 43
0.0000001
 44
0.0000000001
 40
0.0
 40
0.0
 40
0.0
 40
0.0
 40
1.0
 40
1.0
 40
1.0
 40
1.0
 10
367.1059838094
 20
641.4548305231
 30
0.0
 10
367.1907237987
 20
641.50157012
 30
0.0
 10
367.283249513
 20
641.5363701752
 30
0.0
 10
367.377884669
 20
641.5566098133
 30
0.0
  0
SPLINE
  5
76A
100
AcDbEntity
  8
11_COMPONENT
100
AcDbSpline
 62
9
  6
CONTINUOUS
 70
0
 71
3
 72
8
 73
4
 74
0
 42
0.0000001
 43
0.0000001
 44
0.0000000001
 40
0.0
 40
0.0
 40
0.0
 40
0.0
 40
1.0
 40
1.0
 40
1.0
 40
1.0
 10
337.7754854815
 20
467.9481768607
 30
0.0
 10
337.7675762081
 20
467.8255537856
 30
0.0
 10
337.7826651281
 20
467.6994856117
 30
0.0
 10
337.8190932742
 20
467.5821315947
 30
0.0
  0
SPLINE
  5
76B
100
AcDbEntity
  8
11_COMPONENT
100
AcDbSpline
 62
9
  6
CONTINUOUS
 70
0
 71
3
 72
8
 73
4
 74
0
 42
0.0000001
 43
0.0000001
 44
0.0000000001
 40
0.0
 40
0.0
 40
0.0
 40
0.0
 40
1.0
 40
1.0
 40
1.0
 40
1.0
 10
337.8190932742
 20
467.5821315947
 30
0.0
 10
337.8717437931
 20
467.4125168721
 30
0.0
 10
337.9745234282
 20
467.2521901263
 30
0.0
 10
338.1068257854
 20
467.1337109402
 30
0.0
  0
SPLINE
  5
76C
100
AcDbEntity
  8
11_COMPONENT
100
AcDbSpline
 62
9
  6
CONTINUOUS
 70
0
 71
3
 72
9
 73
5
 74
0
 42
0.0000001
 43
0.0000001
 44
0.0000000001
 40
0.0
 40
0.0
 40
0.0
 40
0.0
 40
0.2699709028
 40
1.0
 40
1.0
 40
1.0
 40
1.0
 10
366.3570060095
 20
467.9481768588
 30
0.0
 10
366.3524394411
 20
467.8560439799
 30
0.0
 10
366.3694963668
 20
467.5160328275
 30
0.0
 10
366.5360738598
 20
467.168034839
 30
0.0
 10
366.7345388001
 20
467.0169279592
 30
0.0
  0
SPLINE
  5
76D
100
AcDbEntity
  8
11_COMPONENT
100
AcDbSpline
 62
9
  6
CONTINUOUS
 70
0
 71
3
 72
9
 73
5
 74
0
 42
0.0000001
 43
0.0000001
 44
0.0000000001
 40
0.0
 40
0.0
 40
0.0
 40
0.0
 40
0.5823016078
 40
1.0
 40
1.0
 40
1.0
 40
1.0
 10
366.7994241792
 20
467.9456158809
 30
0.0
 10
366.7531952419
 20
467.7663669527
 30
0.0
 10
366.7066038845
 20
467.4543004546
 30
0.0
 10
366.7399783206
 20
467.1192551614
 30
0.0
 10
366.8082273828
 20
467.0053500072
 30
0.0
  0
SPLINE
  5
76E
100
AcDbEntity
  8
11_COMPONENT
100
AcDbSpline
 62
9
  6
CONTINUOUS
 70
0
 71
3
 72
9
 73
5
 74
0
 42
0.0000001
 43
0.0000001
 44
0.0000000001
 40
0.0
 40
0.0
 40
0.0
 40
0.0
 40
0.2720567331
 40
1.0
 40
1.0
 40
1.0
 40
1.0
 10
371.7885371173
 20
467.110871892
 30
0.0
 10
371.7842401022
 20
467.01880938
 30
0.0
 10
371.8007637461
 20
466.6821218104
 30
0.0
 10
371.9559339655
 20
466.3342921185
 30
0.0
 10
372.1486582102
 20
466.1804447104
 30
0.0
  0
SPLINE
  5
76F
100
AcDbEntity
  8
11_COMPONENT
100
AcDbSpline
 62
9
  6
CONTINUOUS
 70
0
 71
3
 72
9
 73
5
 74
0
 42
0.0000001
 43
0.0000001
 44
0.0000000001
 40
0.0
 40
0.0
 40
0.0
 40
0.0
 40
0.2793857845
 40
1.0
 40
1.0
 40
1.0
 40
1.0
 10
534.4239773702
 20
467.1108718918
 30
0.0
 10
534.4274961897
 20
467.0188207888
 30
0.0
 10
534.4132112657
 20
466.692150381
 30
0.0
 10
534.2991850007
 20
466.3462862971
 30
0.0
 10
534.1290384446
 20
466.1804447096
 30
0.0
  0
SPLINE
  5
770
100
AcDbEntity
  8
11_COMPONENT
100
AcDbSpline
 62
9
  6
CONTINUOUS
 70
0
 71
3
 72
9
 73
5
 74
0
 42
0.0000001
 43
0.0000001
 44
0.0000000001
 40
0.0
 40
0.0
 40
0.0
 40
0.0
 40
0.5894567833
 40
1.0
 40
1.0
 40
1.0
 40
1.0
 10
539.9475227505
 20
467.9456104536
 30
0.0
 10
539.994286666
 20
467.7649672215
 30
0.0
 10
540.0512714475
 20
467.4556895388
 30
0.0
 10
540.0732755432
 20
467.1314255619
 30
0.0
 10
540.0417848303
 20
467.0053371958
 30
0.0
  0
SPLINE
  5
771
100
AcDbEntity
  8
11_COMPONENT
100
AcDbSpline
 62
9
  6
CONTINUOUS
 70
0
 71
3
 72
9
 73
5
 74
0
 42
0.0000001
 43
0.0000001
 44
0.0000000001
 40
0.0
 40
0.0
 40
0.0
 40
0.0
 40
0.2771557907
 40
1.0
 40
1.0
 40
1.0
 40
1.0
 10
540.4393114003
 20
467.9481768606
 30
0.0
 10
540.4431263753
 20
467.8560537781
 30
0.0
 10
540.4283272459
 20
467.5262100636
 30
0.0
 10
540.3016162008
 20
467.1788971563
 30
0.0
 10
540.1238750035
 20
467.0169280573
 30
0.0
  0
SPLINE
  5
772
100
AcDbEntity
  8
11_COMPONENT
100
AcDbSpline
 62
9
  6
CONTINUOUS
 70
0
 71
3
 72
8
 73
4
 74
0
 42
0.0000001
 43
0.0000001
 44
0.0000000001
 40
0.0
 40
0.0
 40
0.0
 40
0.0
 40
1.0
 40
1.0
 40
1.0
 40
1.0
 10
579.1883756982
 20
467.582131884
 30
0.0
 10
579.1538283506
 20
467.4657544175
 30
0.0
 10
579.0977029588
 20
467.3536923161
 30
0.0
 10
579.0243246763
 20
467.2569821223
 30
0.0
  0
SPLINE
  5
773
100
AcDbEntity
  8
11_COMPONENT
100
AcDbSpline
 62
9
  6
CONTINUOUS
 70
0
 71
3
 72
8
 73
4
 74
0
 42
0.0000001
 43
0.0000001
 44
0.0000000001
 40
0.0
 40
0.0
 40
0.0
 40
0.0
 40
1.0
 40
1.0
 40
1.0
 40
1.0
 10
579.0243246763
 20
467.2569821223
 30
0.0
 10
578.9524167312
 20
467.1622097854
 30
0.0
 10
578.8617081953
 20
467.079011487
 30
0.0
 10
578.7602282267
 20
467.0169279594
 30
0.0
  0
SPLINE
  5
774
100
AcDbEntity
  8
11_COMPONENT
100
AcDbSpline
 62
9
  6
CONTINUOUS
 70
0
 71
3
 72
9
 73
5
 74
0
 42
0.0000001
 43
0.0000001
 44
0.0000000001
 40
0.0
 40
0.0
 40
0.0
 40
0.0
 40
0.5044285372
 40
1.0
 40
1.0
 40
1.0
 40
1.0
 10
579.8374148696
 20
467.110871892
 30
0.0
 10
579.8487010657
 20
466.9286433355
 30
0.0
 10
579.7737864936
 20
466.5542503729
 30
0.0
 10
579.5132621793
 20
466.2729114082
 30
0.0
 10
579.3595605485
 20
466.1804447104
 30
0.0
  0
SPLINE
  5
775
100
AcDbEntity
  8
11_COMPONENT
100
AcDbSpline
 62
9
  6
CONTINUOUS
 70
0
 71
3
 72
9
 73
5
 74
0
 42
0.0000001
 43
0.0000001
 44
0.0000000001
 40
0.0
 40
0.0
 40
0.0
 40
0.0
 40
0.3014894089
 40
1.0
 40
1.0
 40
1.0
 40
1.0
 10
552.1369144372
 20
640.4683044618
 30
0.0
 10
552.1350427785
 20
640.4760047812
 30
0.0
 10
552.1020743503
 20
640.4832101001
 30
0.0
 10
552.0796736099
 20
640.4847508893
 30
0.0
 10
552.0613246258
 20
640.4853883281
 30
0.0
  0
SPLINE
  5
776
100
AcDbEntity
  8
11_COMPONENT
100
AcDbSpline
 62
9
  6
CONTINUOUS
 70
0
 71
3
 72
8
 73
4
 74
0
 42
0.0000001
 43
0.0000001
 44
0.0000000001
 40
0.0
 40
0.0
 40
0.0
 40
0.0
 40
1.0
 40
1.0
 40
1.0
 40
1.0
 10
338.3714841987
 20
466.74514221
 30
0.0
 10
338.4081435136
 20
466.6281049547
 30
0.0
 10
338.4676741249
 20
466.5160912487
 30
0.0
 10
338.5442612472
 20
466.4202996146
 30
0.0
  0
LINE
  5
777
100
AcDbEntity
  8
11_COMPONENT
100
AcDbLine
 62
9
  6
CONTINUOUS
 10
579.8373922862
 20
467.110871892
 11
579.8069619416
 21
467.5372586449
  0
LINE
  5
778
100
AcDbEntity
  8
11_COMPONENT
100
AcDbLine
 62
9
  6
CONTINUOUS
 10
579.8069619416
 20
467.5372586449
 11
579.7743255027
 21
467.9918142756
  0
LINE
  5
779
100
AcDbEntity
  8
11_COMPONENT
100
AcDbLine
 62
9
  6
CONTINUOUS
 10
552.5719063366
 20
640.5679603768
 11
552.5059303045
 21
640.8358917153
  0
SPLINE
  5
77A
100
AcDbEntity
  8
11_COMPONENT
100
AcDbSpline
 62
9
  6
CONTINUOUS
 70
0
 71
3
 72
9
 73
5
 74
0
 42
0.0000001
 43
0.0000001
 44
0.0000000001
 40
0.0
 40
0.0
 40
0.0
 40
0.0
 40
0.55683268
 40
1.0
 40
1.0
 40
1.0
 40
1.0
 10
578.7602282267
 20
467.0169279594
 30
0.0
 10
578.7638173222
 20
467.0169277888
 30
0.0
 10
578.772333669
 20
467.0164214437
 30
0.0
 10
578.7720107144
 20
467.0079682242
 30
0.0
 10
578.7708986218
 20
467.005337139
 30
0.0
  0
SPLINE
  5
77B
100
AcDbEntity
  8
11_COMPONENT
100
AcDbSpline
 62
9
  6
CONTINUOUS
 70
0
 71
3
 72
9
 73
5
 74
0
 42
0.0000001
 43
0.0000001
 44
0.0000000001
 40
0.0
 40
0.0
 40
0.0
 40
0.0
 40
0.4855328389
 40
1.0
 40
1.0
 40
1.0
 40
1.0
 10
578.7708986218
 20
467.005337139
 30
0.0
 10
578.6913141029
 20
466.8171535487
 30
0.0
 10
578.5872047971
 20
466.2683697142
 30
0.0
 10
579.1430642708
 20
466.1804373418
 30
0.0
 10
579.3595605485
 20
466.1804447104
 30
0.0
  0
SPLINE
  5
77C
100
AcDbEntity
  8
11_COMPONENT
100
AcDbSpline
 62
9
  6
CONTINUOUS
 70
0
 71
3
 72
9
 73
5
 74
0
 42
0.0000001
 43
0.0000001
 44
0.0000000001
 40
0.0
 40
0.0
 40
0.0
 40
0.0
 40
0.2208278481
 40
1.0
 40
1.0
 40
1.0
 40
1.0
 10
392.8882917718
 20
641.5566098139
 30
0.0
 10
392.4914522025
 20
641.5565821447
 30
0.0
 10
390.6944094738
 20
641.5187632195
 30
0.0
 10
388.9015880815
 20
641.3645902619
 30
0.0
 10
387.5097233767
 20
641.2119039033
 30
0.0
  0
SPLINE
  5
77D
100
AcDbEntity
  8
11_COMPONENT
100
AcDbSpline
 62
9
  6
CONTINUOUS
 70
0
 71
3
 72
9
 73
5
 74
0
 42
0.0000001
 43
0.0000001
 44
0.0000000001
 40
0.0
 40
0.0
 40
0.0
 40
0.0
 40
0.5448006969
 40
1.0
 40
1.0
 40
1.0
 40
1.0
 10
387.5097233767
 20
641.2119039033
 30
0.0
 10
387.4959841783
 20
641.2103963503
 30
0.0
 10
387.4707142115
 20
641.208098152
 30
0.0
 10
387.4453493948
 20
641.206924356
 30
0.0
 10
387.433800933
 20
641.2069237048
 30
0.0
  0
LINE
  5
77E
100
AcDbEntity
  8
11_COMPONENT
100
AcDbLine
 62
9
  6
CONTINUOUS
 10
365.9169806771
 20
640.4853883757
 11
365.5715349537
 21
639.1450114355
  0
SPLINE
  5
77F
100
AcDbEntity
  8
11_COMPONENT
100
AcDbSpline
 62
9
  6
CONTINUOUS
 70
0
 71
3
 72
9
 73
5
 74
0
 42
0.0000001
 43
0.0000001
 44
0.0000000001
 40
0.0
 40
0.0
 40
0.0
 40
0.0
 40
0.2034380088
 40
1.0
 40
1.0
 40
1.0
 40
1.0
 10
366.6636503799
 20
641.2069236912
 30
0.0
 10
366.6627957792
 20
641.2069237311
 30
0.0
 10
366.6580055644
 20
641.2104359
 30
0.0
 10
366.6675956892
 20
641.2108832936
 30
0.0
 10
366.6707824412
 20
641.211903885
 30
0.0
  0
SPLINE
  5
780
100
AcDbEntity
  8
11_COMPONENT
100
AcDbSpline
 62
7
  6
CONTINUOUS
 70
0
 71
3
 72
8
 73
4
 74
0
 42
0.0000001
 43
0.0000001
 44
0.0000000001
 40
0.0
 40
0.0
 40
0.0
 40
0.0
 40
1.0
 40
1.0
 40
1.0
 40
1.0
 10
442.5288773955
 20
666.4306281023
 30
0.0
 10
442.4018739476
 20
666.4306281023
 30
0.0
 10
442.2726698813
 20
666.4054475271
 30
0.0
 10
442.1548448022
 20
666.3580436614
 30
0.0
  0
SPLINE
  5
781
100
AcDbEntity
  8
11_COMPONENT
100
AcDbSpline
 62
7
  6
CONTINUOUS
 70
0
 71
3
 72
8
 73
4
 74
0
 42
0.0000001
 43
0.0000001
 44
0.0000000001
 40
0.0
 40
0.0
 40
0.0
 40
0.0
 40
1.0
 40
1.0
 40
1.0
 40
1.0
 10
442.1548448022
 20
666.3580436614
 30
0.0
 10
442.0350955181
 20
666.3098656416
 30
0.0
 10
441.9228899951
 20
666.2366127034
 30
0.0
 10
441.8305577751
 20
666.1464141792
 30
0.0
  0
SPLINE
  5
782
100
AcDbEntity
  8
11_COMPONENT
100
AcDbSpline
 62
7
  6
CONTINUOUS
 70
0
 71
3
 72
8
 73
4
 74
0
 42
0.0000001
 43
0.0000001
 44
0.0000000001
 40
0.0
 40
0.0
 40
0.0
 40
0.0
 40
1.0
 40
1.0
 40
1.0
 40
1.0
 10
441.8305577751
 20
666.1464141792
 30
0.0
 10
441.7487374747
 20
666.0664846558
 30
0.0
 10
441.6798983759
 20
665.9709638979
 30
0.0
 10
441.6297420685
 20
665.8681648945
 30
0.0
  0
SPLINE
  5
783
100
AcDbEntity
  8
11_COMPONENT
100
AcDbSpline
 62
7
  6
CONTINUOUS
 70
0
 71
3
 72
9
 73
5
 74
0
 42
0.0000001
 43
0.0000001
 44
0.0000000001
 40
0.0
 40
0.0
 40
0.0
 40
0.0
 40
0.4765896256
 40
1.0
 40
1.0
 40
1.0
 40
1.0
 10
517.3716761128
 20
465.4506281023
 30
0.0
 10
517.4848775434
 20
465.4506281023
 30
0.0
 10
517.7285486199
 20
465.5731636035
 30
0.0
 10
517.8002052945
 20
465.8263492217
 30
0.0
 10
517.796913138
 20
465.9506281023
 30
0.0
  0
SPLINE
  5
784
100
AcDbEntity
  8
11_COMPONENT
100
AcDbSpline
 62
7
  6
CONTINUOUS
 70
0
 71
3
 72
9
 73
5
 74
0
 42
0.0000001
 43
0.0000001
 44
0.0000000001
 40
0.0
 40
0.0
 40
0.0
 40
0.0
 40
0.5283061736
 40
1.0
 40
1.0
 40
1.0
 40
1.0
 10
522.9745932072
 20
465.9506281023
 30
0.0
 10
522.9779294491
 20
465.8246850016
 30
0.0
 10
523.0592261258
 20
465.5775309128
 30
0.0
 10
523.2998161511
 20
465.4506281023
 30
0.0
 10
523.4123028603
 20
465.4506281023
 30
0.0
  0
SPLINE
  5
785
100
AcDbEntity
  8
11_COMPONENT
100
AcDbSpline
 62
9
  6
CONTINUOUS
 70
0
 71
3
 72
9
 73
5
 74
0
 42
0.0000001
 43
0.0000001
 44
0.0000000001
 40
0.0
 40
0.0
 40
0.0
 40
0.0
 40
0.2214941709
 40
1.0
 40
1.0
 40
1.0
 40
1.0
 10
442.5288773955
 20
666.4306281023
 30
0.0
 10
442.4923783763
 20
666.4306281023
 30
0.0
 10
442.3265670152
 20
666.4018573078
 30
0.0
 10
442.2004130088
 20
666.2657923532
 30
0.0
 10
442.134053431
 20
666.1560024734
 30
0.0
  0
SPLINE
  5
786
100
AcDbEntity
  8
11_COMPONENT
100
AcDbSpline
 62
9
  6
CONTINUOUS
 70
0
 71
3
 72
9
 73
5
 74
0
 42
0.0000001
 43
0.0000001
 44
0.0000000001
 40
0.0
 40
0.0
 40
0.0
 40
0.0
 40
0.2279418834
 40
1.0
 40
1.0
 40
1.0
 40
1.0
 10
442.134053431
 20
666.1560024734
 30
0.0
 10
442.1065223043
 20
666.1104530712
 30
0.0
 10
442.0033979582
 20
665.900079542
 30
0.0
 10
441.9615035155
 20
665.6631541346
 30
0.0
 10
441.9560870257
 20
665.4829640586
 30
0.0
  0
SPLINE
  5
787
100
AcDbEntity
  8
11_COMPONENT
100
AcDbSpline
 62
7
  6
CONTINUOUS
 70
0
 71
3
 72
9
 73
5
 74
0
 42
0.0000001
 43
0.0000001
 44
0.0000000001
 40
0.0
 40
0.0
 40
0.0
 40
0.0
 40
0.1596602221
 40
1.0
 40
1.0
 40
1.0
 40
1.0
 10
444.5733424832
 20
666.4306281023
 30
0.0
 10
444.5861861032
 20
666.4306281023
 30
0.0
 10
444.6655370387
 20
666.4010046482
 30
0.0
 10
444.6960291037
 20
666.3121565742
 30
0.0
 10
444.7194203842
 20
666.2487327161
 30
0.0
  0
SPLINE
  5
788
100
AcDbEntity
  8
11_COMPONENT
100
AcDbSpline
 62
7
  6
CONTINUOUS
 70
0
 71
3
 72
9
 73
5
 74
0
 42
0.0000001
 43
0.0000001
 44
0.0000000001
 40
0.0
 40
0.0
 40
0.0
 40
0.0
 40
0.1789896012
 40
1.0
 40
1.0
 40
1.0
 40
1.0
 10
444.7194203842
 20
666.2487327161
 30
0.0
 10
444.7354342862
 20
666.2053121154
 30
0.0
 10
444.806927247
 20
665.9562780034
 30
0.0
 10
444.827943902
 20
665.6952235654
 30
0.0
 10
444.8309141507
 20
665.4829640586
 30
0.0
  0
SPLINE
  5
789
100
AcDbEntity
  8
11_COMPONENT
100
AcDbSpline
 62
9
  6
CONTINUOUS
 70
0
 71
3
 72
11
 73
7
 74
0
 42
0.0000001
 43
0.0000001
 44
0.0000000001
 40
0.0
 40
0.0
 40
0.0
 40
0.0
 40
0.4163808696
 40
0.733633003
 40
0.9316125409
 40
1.0
 40
1.0
 40
1.0
 40
1.0
 10
441.9560870257
 20
665.4829640586
 30
0.0
 10
441.8972032621
 20
665.4867282296
 30
0.0
 10
441.7962245338
 20
665.490054006
 30
0.0
 10
441.6554893144
 20
665.5073168234
 30
0.0
 10
441.5890253328
 20
665.4929721249
 30
0.0
 10
441.5340114921
 20
665.5128303757
 30
0.0
 10
441.5315751827
 20
665.5034506577
 30
0.0
  0
SPLINE
  5
78A
100
AcDbEntity
  8
11_COMPONENT
100
AcDbSpline
 62
9
  6
CONTINUOUS
 70
0
 71
3
 72
8
 73
4
 74
0
 42
0.0000001
 43
0.0000001
 44
0.0000000001
 40
0.0
 40
0.0
 40
0.0
 40
0.0
 40
1.0
 40
1.0
 40
1.0
 40
1.0
 10
442.2035289936
 20
665.4829640586
 30
0.0
 10
442.2072579915
 20
665.6070164334
 30
0.0
 10
442.2241471645
 20
665.7316265143
 30
0.0
 10
442.2560348793
 20
665.8515684618
 30
0.0
  0
SPLINE
  5
78B
100
AcDbEntity
  8
11_COMPONENT
100
AcDbSpline
 62
9
  6
CONTINUOUS
 70
0
 71
3
 72
9
 73
5
 74
0
 42
0.0000001
 43
0.0000001
 44
0.0000000001
 40
0.0
 40
0.0
 40
0.0
 40
0.0
 40
0.2875511202
 40
1.0
 40
1.0
 40
1.0
 40
1.0
 10
442.2560348793
 20
665.8515684618
 30
0.0
 10
442.2709324017
 20
665.9076037673
 30
0.0
 10
442.3339072179
 20
666.0976800474
 30
0.0
 10
442.4493697632
 20
666.2819575198
 30
0.0
 10
442.5682967396
 20
666.3625432518
 30
0.0
  0
SPLINE
  5
78C
100
AcDbEntity
  8
11_COMPONENT
100
AcDbSpline
 62
9
  6
CONTINUOUS
 70
0
 71
3
 72
8
 73
4
 74
0
 42
0.0000001
 43
0.0000001
 44
0.0000000001
 40
0.0
 40
0.0
 40
0.0
 40
0.0
 40
1.0
 40
1.0
 40
1.0
 40
1.0
 10
442.5682967396
 20
666.3625432518
 30
0.0
 10
442.6286967468
 20
666.4034707094
 30
0.0
 10
442.7033589792
 20
666.4306281023
 30
0.0
 10
442.7763193633
 20
666.4306281023
 30
0.0
  0
SPLINE
  5
78D
100
AcDbEntity
  8
11_COMPONENT
100
AcDbSpline
 62
9
  6
CONTINUOUS
 70
0
 71
3
 72
8
 73
4
 74
0
 42
0.0000001
 43
0.0000001
 44
0.0000000001
 40
0.0
 40
0.0
 40
0.0
 40
0.0
 40
1.0
 40
1.0
 40
1.0
 40
1.0
 10
442.7763193633
 20
666.4306281023
 30
0.0
 10
442.8802458124
 20
666.4306281023
 30
0.0
 10
442.9864029289
 20
666.4048916197
 30
0.0
 10
443.0798622458
 20
666.3594376552
 30
0.0
  0
SPLINE
  5
78E
100
AcDbEntity
  8
11_COMPONENT
100
AcDbSpline
 62
9
  6
CONTINUOUS
 70
0
 71
3
 72
8
 73
4
 74
0
 42
0.0000001
 43
0.0000001
 44
0.0000000001
 40
0.0
 40
0.0
 40
0.0
 40
0.0
 40
1.0
 40
1.0
 40
1.0
 40
1.0
 10
443.0798622458
 20
666.3594376552
 30
0.0
 10
443.1788989502
 20
666.3112711268
 30
0.0
 10
443.2682248002
 20
666.2393679841
 30
0.0
 10
443.3401864212
 20
666.1560024734
 30
0.0
  0
SPLINE
  5
78F
100
AcDbEntity
  8
11_COMPONENT
100
AcDbSpline
 62
9
  6
CONTINUOUS
 70
0
 71
3
 72
8
 73
4
 74
0
 42
0.0000001
 43
0.0000001
 44
0.0000000001
 40
0.0
 40
0.0
 40
0.0
 40
0.0
 40
1.0
 40
1.0
 40
1.0
 40
1.0
 10
443.3401864212
 20
666.1560024734
 30
0.0
 10
443.4968862174
 20
665.974470174
 30
0.0
 10
443.5840632361
 20
665.7225533097
 30
0.0
 10
443.5943487882
 20
665.4829640586
 30
0.0
  0
SPLINE
  5
790
100
AcDbEntity
  8
11_COMPONENT
100
AcDbSpline
 62
9
  6
CONTINUOUS
 70
0
 71
3
 72
9
 73
5
 74
0
 42
0.0000001
 43
0.0000001
 44
0.0000000001
 40
0.0
 40
0.0
 40
0.0
 40
0.0
 40
0.2027582074
 40
1.0
 40
1.0
 40
1.0
 40
1.0
 10
443.5943487882
 20
665.4829640586
 30
0.0
 10
443.5006953913
 20
665.4914644956
 30
0.0
 10
443.0371796807
 20
665.5126545732
 30
0.0
 10
442.5725388214
 20
665.5064628673
 30
0.0
 10
442.2035289936
 20
665.4829640586
 30
0.0
  0
SPLINE
  5
791
100
AcDbEntity
  8
11_COMPONENT
100
AcDbSpline
 62
9
  6
CONTINUOUS
 70
0
 71
3
 72
9
 73
5
 74
0
 42
0.0000001
 43
0.0000001
 44
0.0000000001
 40
0.0
 40
0.0
 40
0.0
 40
0.0
 40
0.4740520778
 40
1.0
 40
1.0
 40
1.0
 40
1.0
 10
522.6117209687
 20
465.4506281023
 30
0.0
 10
522.4989075285
 20
465.4506281023
 30
0.0
 10
522.2568305348
 20
465.5752956709
 30
0.0
 10
522.1802476291
 20
465.8254646503
 30
0.0
 10
522.1802476296
 20
465.9506281023
 30
0.0
  0
SPLINE
  5
792
100
AcDbEntity
  8
11_COMPONENT
100
AcDbSpline
 62
9
  6
CONTINUOUS
 70
0
 71
3
 72
8
 73
4
 74
0
 42
0.0000001
 43
0.0000001
 44
0.0000000001
 40
0.0
 40
0.0
 40
0.0
 40
0.0
 40
1.0
 40
1.0
 40
1.0
 40
1.0
 10
443.5943487882
 20
843.8435613178
 30
0.0
 10
443.5212375471
 20
843.7397539707
 30
0.0
 10
443.4262884354
 20
843.6486256904
 30
0.0
 10
443.3197013055
 20
843.5796300193
 30
0.0
  0
SPLINE
  5
793
100
AcDbEntity
  8
11_COMPONENT
100
AcDbSpline
 62
9
  6
CONTINUOUS
 70
0
 71
3
 72
8
 73
4
 74
0
 42
0.0000001
 43
0.0000001
 44
0.0000000001
 40
0.0
 40
0.0
 40
0.0
 40
0.0
 40
1.0
 40
1.0
 40
1.0
 40
1.0
 10
443.3197013055
 20
843.5796300193
 30
0.0
 10
443.2111179231
 20
843.5093421398
 30
0.0
 10
443.0863744364
 20
843.4597122732
 30
0.0
 10
442.9592187553
 20
843.4360021553
 30
0.0
  0
SPLINE
  5
794
100
AcDbEntity
  8
11_COMPONENT
100
AcDbSpline
 62
9
  6
CONTINUOUS
 70
0
 71
3
 72
8
 73
4
 74
0
 42
0.0000001
 43
0.0000001
 44
0.0000000001
 40
0.0
 40
0.0
 40
0.0
 40
0.0
 40
1.0
 40
1.0
 40
1.0
 40
1.0
 10
442.9592187553
 20
843.4360021553
 30
0.0
 10
442.7912084611
 20
843.4046740711
 30
0.0
 10
442.6093920502
 20
843.4181359836
 30
0.0
 10
442.4479202753
 20
843.4741339633
 30
0.0
  0
SPLINE
  5
795
100
AcDbEntity
  8
11_COMPONENT
100
AcDbSpline
 62
9
  6
CONTINUOUS
 70
0
 71
3
 72
8
 73
4
 74
0
 42
0.0000001
 43
0.0000001
 44
0.0000000001
 40
0.0
 40
0.0
 40
0.0
 40
0.0
 40
1.0
 40
1.0
 40
1.0
 40
1.0
 10
442.4479202753
 20
843.4741339633
 30
0.0
 10
442.3615863051
 20
843.5040743534
 30
0.0
 10
442.2785249385
 20
843.546115083
 30
0.0
 10
442.2035289936
 20
843.5983222627
 30
0.0
  0
SPLINE
  5
796
100
AcDbEntity
  8
11_COMPONENT
100
AcDbSpline
 62
9
  6
CONTINUOUS
 70
0
 71
3
 72
8
 73
4
 74
0
 42
0.0000001
 43
0.0000001
 44
0.0000000001
 40
0.0
 40
0.0
 40
0.0
 40
0.0
 40
1.0
 40
1.0
 40
1.0
 40
1.0
 10
441.9560870257
 20
843.7715829939
 30
0.0
 10
441.8522796786
 20
843.844694235
 30
0.0
 10
441.7611513983
 20
843.9396433467
 30
0.0
 10
441.6921557272
 20
844.0462304766
 30
0.0
  0
SPLINE
  5
797
100
AcDbEntity
  8
11_COMPONENT
100
AcDbSpline
 62
9
  6
CONTINUOUS
 70
0
 71
3
 72
8
 73
4
 74
0
 42
0.0000001
 43
0.0000001
 44
0.0000000001
 40
0.0
 40
0.0
 40
0.0
 40
0.0
 40
1.0
 40
1.0
 40
1.0
 40
1.0
 10
441.6921557272
 20
844.0462304766
 30
0.0
 10
441.6218678477
 20
844.1548138589
 30
0.0
 10
441.5722379811
 20
844.2795573457
 30
0.0
 10
441.5485278632
 20
844.4067130268
 30
0.0
  0
SPLINE
  5
798
100
AcDbEntity
  8
11_COMPONENT
100
AcDbSpline
 62
9
  6
CONTINUOUS
 70
0
 71
3
 72
8
 73
4
 74
0
 42
0.0000001
 43
0.0000001
 44
0.0000000001
 40
0.0
 40
0.0
 40
0.0
 40
0.0
 40
1.0
 40
1.0
 40
1.0
 40
1.0
 10
441.5485278632
 20
844.4067130268
 30
0.0
 10
441.517199779
 20
844.574723321
 30
0.0
 10
441.5306616914
 20
844.7565397319
 30
0.0
 10
441.5866596712
 20
844.9180115068
 30
0.0
  0
SPLINE
  5
799
100
AcDbEntity
  8
11_COMPONENT
100
AcDbSpline
 62
9
  6
CONTINUOUS
 70
0
 71
3
 72
8
 73
4
 74
0
 42
0.0000001
 43
0.0000001
 44
0.0000000001
 40
0.0
 40
0.0
 40
0.0
 40
0.0
 40
1.0
 40
1.0
 40
1.0
 40
1.0
 10
441.5866596712
 20
844.9180115068
 30
0.0
 10
441.6166000612
 20
845.004345477
 30
0.0
 10
441.6586407909
 20
845.0874068436
 30
0.0
 10
441.7108479706
 20
845.1624027885
 30
0.0
  0
SPLINE
  5
79A
100
AcDbEntity
  8
11_COMPONENT
100
AcDbSpline
 62
9
  6
CONTINUOUS
 70
0
 71
3
 72
8
 73
4
 74
0
 42
0.0000001
 43
0.0000001
 44
0.0000000001
 40
0.0
 40
0.0
 40
0.0
 40
0.0
 40
1.0
 40
1.0
 40
1.0
 40
1.0
 10
392.8882917718
 20
805.8335848586
 30
0.0
 10
391.4002924075
 20
807.3931619333
 30
0.0
 10
389.5166457299
 20
808.6371177151
 30
0.0
 10
387.5097233767
 20
809.4236833053
 30
0.0
  0
SPLINE
  5
79B
100
AcDbEntity
  8
11_COMPONENT
100
AcDbSpline
 62
9
  6
CONTINUOUS
 70
0
 71
3
 72
8
 73
4
 74
0
 42
0.0000001
 43
0.0000001
 44
0.0000000001
 40
0.0
 40
0.0
 40
0.0
 40
0.0
 40
1.0
 40
1.0
 40
1.0
 40
1.0
 10
387.5097233767
 20
809.4236833053
 30
0.0
 10
387.4807359937
 20
809.4350399061
 30
0.0
 10
387.4537433249
 20
809.4541725909
 30
0.0
 10
387.433800933
 20
809.4780795305
 30
0.0
  0
SPLINE
  5
79C
100
AcDbEntity
  8
11_COMPONENT
100
AcDbSpline
 62
9
  6
CONTINUOUS
 70
0
 71
3
 72
8
 73
4
 74
0
 42
0.0000001
 43
0.0000001
 44
0.0000000001
 40
0.0
 40
0.0
 40
0.0
 40
0.0
 40
1.0
 40
1.0
 40
1.0
 40
1.0
 10
366.6636503799
 20
854.0198109512
 30
0.0
 10
366.6581512969
 20
854.0504540642
 30
0.0
 10
366.6608533224
 20
854.083429288
 30
0.0
 10
366.6707824412
 20
854.1129361158
 30
0.0
  0
SPLINE
  5
79D
100
AcDbEntity
  8
11_COMPONENT
100
AcDbSpline
 62
9
  6
CONTINUOUS
 70
0
 71
3
 72
8
 73
4
 74
0
 42
0.0000001
 43
0.0000001
 44
0.0000000001
 40
0.0
 40
0.0
 40
0.0
 40
0.0
 40
1.0
 40
1.0
 40
1.0
 40
1.0
 10
366.6707824412
 20
854.1129361158
 30
0.0
 10
367.3582637573
 20
856.1559222428
 30
0.0
 10
367.6161230987
 20
858.398478998
 30
0.0
 10
367.377884669
 20
860.5408294188
 30
0.0
  0
SPLINE
  5
79E
100
AcDbEntity
  8
11_COMPONENT
100
AcDbSpline
 62
9
  6
CONTINUOUS
 70
0
 71
3
 72
8
 73
4
 74
0
 42
0.0000001
 43
0.0000001
 44
0.0000000001
 40
0.0
 40
0.0
 40
0.0
 40
0.0
 40
1.0
 40
1.0
 40
1.0
 40
1.0
 10
438.9269452019
 20
962.7234776145
 30
0.0
 10
441.0215782527
 20
963.2323343281
 30
0.0
 10
443.0406989021
 20
964.2416423128
 30
0.0
 10
444.7253458656
 20
965.5864052589
 30
0.0
  0
SPLINE
  5
79F
100
AcDbEntity
  8
11_COMPONENT
100
AcDbSpline
 62
9
  6
CONTINUOUS
 70
0
 71
3
 72
8
 73
4
 74
0
 42
0.0000001
 43
0.0000001
 44
0.0000000001
 40
0.0
 40
0.0
 40
0.0
 40
0.0
 40
1.0
 40
1.0
 40
1.0
 40
1.0
 10
444.7253458656
 20
965.5864052589
 30
0.0
 10
444.7496746619
 20
965.6058307685
 30
0.0
 10
444.7797403875
 20
965.6196407631
 30
0.0
 10
444.8104156005
 20
965.6249579113
 30
0.0
  0
SPLINE
  5
7A0
100
AcDbEntity
  8
11_COMPONENT
100
AcDbSpline
 62
9
  6
CONTINUOUS
 70
0
 71
3
 72
8
 73
4
 74
0
 42
0.0000001
 43
0.0000001
 44
0.0000000001
 40
0.0
 40
0.0
 40
0.0
 40
0.0
 40
1.0
 40
1.0
 40
1.0
 40
1.0
 10
493.7697618124
 20
961.3415702159
 30
0.0
 10
493.7990490682
 20
961.331011005
 30
0.0
 10
493.826255437
 20
961.3121833704
 30
0.0
 10
493.84684454
 20
961.2888310874
 30
0.0
  0
SPLINE
  5
7A1
100
AcDbEntity
  8
11_COMPONENT
100
AcDbSpline
 62
9
  6
CONTINUOUS
 70
0
 71
3
 72
8
 73
4
 74
0
 42
0.0000001
 43
0.0000001
 44
0.0000000001
 40
0.0
 40
0.0
 40
0.0
 40
0.0
 40
1.0
 40
1.0
 40
1.0
 40
1.0
 10
493.84684454
 20
961.2888310874
 30
0.0
 10
495.2723817665
 20
959.67196174
 30
0.0
 10
497.0855632143
 20
958.3273706224
 30
0.0
 10
499.0600123165
 20
957.4625159446
 30
0.0
  0
SPLINE
  5
7A2
100
AcDbEntity
  8
11_COMPONENT
100
AcDbSpline
 62
9
  6
CONTINUOUS
 70
0
 71
3
 72
8
 73
4
 74
0
 42
0.0000001
 43
0.0000001
 44
0.0000000001
 40
0.0
 40
0.0
 40
0.0
 40
0.0
 40
1.0
 40
1.0
 40
1.0
 40
1.0
 10
551.7782512093
 20
844.40788781
 30
0.0
 10
551.171274752
 20
842.3395545794
 30
0.0
 10
551.0359427314
 20
840.0861598757
 30
0.0
 10
551.3584189468
 20
837.9548617119
 30
0.0
  0
SPLINE
  5
7A3
100
AcDbEntity
  8
11_COMPONENT
100
AcDbSpline
 62
9
  6
CONTINUOUS
 70
0
 71
3
 72
8
 73
4
 74
0
 42
0.0000001
 43
0.0000001
 44
0.0000000001
 40
0.0
 40
0.0
 40
0.0
 40
0.0
 40
1.0
 40
1.0
 40
1.0
 40
1.0
 10
551.3584189468
 20
837.9548617119
 30
0.0
 10
551.3630775334
 20
837.9240796014
 30
0.0
 10
551.3600044768
 20
837.891136922
 30
0.0
 10
551.3492716557
 20
837.8619128342
 30
0.0
  0
SPLINE
  5
7A4
100
AcDbEntity
  8
11_COMPONENT
100
AcDbSpline
 62
9
  6
CONTINUOUS
 70
0
 71
3
 72
8
 73
4
 74
0
 42
0.0000001
 43
0.0000001
 44
0.0000000001
 40
0.0
 40
0.0
 40
0.0
 40
0.0
 40
1.0
 40
1.0
 40
1.0
 40
1.0
 10
523.1600759956
 20
797.6035691131
 30
0.0
 10
523.1362878228
 20
797.583485211
 30
0.0
 10
523.1063794285
 20
797.5693376218
 30
0.0
 10
523.0758612067
 20
797.563183077
 30
0.0
  0
SPLINE
  5
7A5
100
AcDbEntity
  8
11_COMPONENT
100
AcDbSpline
 62
9
  6
CONTINUOUS
 70
0
 71
3
 72
8
 73
4
 74
0
 42
0.0000001
 43
0.0000001
 44
0.0000000001
 40
0.0
 40
0.0
 40
0.0
 40
0.0
 40
1.0
 40
1.0
 40
1.0
 40
1.0
 10
523.0758612067
 20
797.563183077
 30
0.0
 10
520.9628024324
 20
797.137265841
 30
0.0
 10
518.8915981815
 20
796.2393774459
 30
0.0
 10
517.1555911994
 20
794.9616049179
 30
0.0
  0
SPLINE
  5
7A6
100
AcDbEntity
  8
11_COMPONENT
100
AcDbSpline
 62
9
  6
CONTINUOUS
 70
0
 71
3
 72
9
 73
5
 74
0
 42
0.0000001
 43
0.0000001
 44
0.0000000001
 40
0.0
 40
0.0
 40
0.0
 40
0.0
 40
0.7487073894
 40
1.0
 40
1.0
 40
1.0
 40
1.0
 10
494.4928221971
 20
961.7542775797
 30
0.0
 10
495.4919280851
 20
960.6108197765
 30
0.0
 10
497.0875361651
 20
959.2802860186
 30
0.0
 10
498.8982044097
 20
958.3616265898
 30
0.0
 10
499.3649230798
 20
958.1568972108
 30
0.0
  0
SPLINE
  5
7A7
100
AcDbEntity
  8
11_COMPONENT
100
AcDbSpline
 62
9
  6
CONTINUOUS
 70
0
 71
3
 72
12
 73
8
 74
0
 42
0.0000001
 43
0.0000001
 44
0.0000000001
 40
0.0
 40
0.0
 40
0.0
 40
0.0
 40
0.3572176311
 40
0.6418099215
 40
0.8547472315
 40
0.9353757599
 40
1.0
 40
1.0
 40
1.0
 40
1.0
 10
494.4928221971
 20
961.7542775797
 30
0.0
 10
495.4479012885
 20
965.0082318284
 30
0.0
 10
497.2638402458
 20
970.8284877154
 30
0.0
 10
500.1189825232
 20
978.4251616784
 30
0.0
 10
502.5003734705
 20
983.3945577587
 30
0.0
 10
504.3989356044
 20
986.2216130835
 30
0.0
 10
505.32757891
 20
987.2541396172
 30
0.0
 10
505.7917299528
 20
987.6553298718
 30
0.0
  0
LINE
  5
7A8
100
AcDbEntity
  8
11_COMPONENT
100
AcDbLine
 62
9
  6
CONTINUOUS
 10
505.7917299528
 20
987.6553298718
 11
505.8333707896
 21
987.6910328458
  0
SPLINE
  5
7A9
100
AcDbEntity
  8
11_COMPONENT
100
AcDbSpline
 62
9
  6
CONTINUOUS
 70
0
 71
3
 72
9
 73
5
 74
0
 42
0.0000001
 43
0.0000001
 44
0.0000000001
 40
0.0
 40
0.0
 40
0.0
 40
0.0
 40
0.251292601
 40
1.0
 40
1.0
 40
1.0
 40
1.0
 10
438.7472729117
 20
963.4602640137
 30
0.0
 10
439.2424496053
 20
963.5808382526
 30
0.0
 10
441.1851234934
 20
964.1711233064
 30
0.0
 10
442.9875258778
 20
965.2043657275
 30
0.0
 10
444.1700073443
 20
966.156954542
 30
0.0
  0
LINE
  5
7AA
100
AcDbEntity
  8
11_COMPONENT
100
AcDbLine
 62
9
  6
CONTINUOUS
 10
437.5056171856
 20
993.6689375531
 11
437.5342190138
 21
993.6341556836
  0
SPLINE
  5
7AB
100
AcDbEntity
  8
11_COMPONENT
100
AcDbSpline
 62
9
  6
CONTINUOUS
 70
0
 71
3
 72
12
 73
8
 74
0
 42
0.0000001
 43
0.0000001
 44
0.0000000001
 40
0.0
 40
0.0
 40
0.0
 40
0.0
 40
0.0645648714
 40
0.1451463962
 40
0.3580385731
 40
0.6426654549
 40
1.0
 40
1.0
 40
1.0
 40
1.0
 10
437.5342190138
 20
993.6341556836
 30
0.0
 10
437.9221043599
 20
993.1592860011
 30
0.0
 10
438.658187816
 20
991.9822760699
 30
0.0
 10
440.0385939691
 20
988.8694763311
 30
0.0
 10
441.522155172
 20
983.5609070566
 30
0.0
 10
443.0160541678
 20
975.5802599058
 30
0.0
 10
443.7942292616
 20
969.5295807514
 30
0.0
 10
444.1700073443
 20
966.156954542
 30
0.0
  0
SPLINE
  5
7AC
100
AcDbEntity
  8
11_COMPONENT
100
AcDbSpline
 62
9
  6
CONTINUOUS
 70
0
 71
3
 72
9
 73
5
 74
0
 42
0.0000001
 43
0.0000001
 44
0.0000000001
 40
0.0
 40
0.0
 40
0.0
 40
0.0
 40
0.7487074003
 40
1.0
 40
1.0
 40
1.0
 40
1.0
 10
365.9447046206
 20
854.4396444145
 30
0.0
 10
366.4354129452
 20
855.8766176119
 30
0.0
 10
366.7898848885
 20
857.9237110434
 30
0.0
 10
366.6801382633
 20
859.9511162132
 30
0.0
 10
366.6240805416
 20
860.4576687707
 30
0.0
  0
SPLINE
  5
7AD
100
AcDbEntity
  8
11_COMPONENT
100
AcDbSpline
 62
9
  6
CONTINUOUS
 70
0
 71
3
 72
12
 73
8
 74
0
 42
0.0000001
 43
0.0000001
 44
0.0000000001
 40
0.0
 40
0.0
 40
0.0
 40
0.0
 40
0.3572176357
 40
0.6418099375
 40
0.8547472412
 40
0.9353757676
 40
1.0
 40
1.0
 40
1.0
 40
1.0
 10
365.9447046206
 20
854.4396444145
 30
0.0
 10
362.6491578614
 20
853.639789975
 30
0.0
 10
356.7006981162
 20
852.3023131281
 30
0.0
 10
348.6942140601
 20
850.9766011554
 30
0.0
 10
343.1998949738
 20
850.5542488889
 30
0.0
 10
339.8023122833
 20
850.7849241629
 30
0.0
 10
338.4437962548
 20
851.0728888188
 30
0.0
 10
337.8642798475
 20
851.2742603309
 30
0.0
  0
LINE
  5
7AE
100
AcDbEntity
  8
11_COMPONENT
100
AcDbLine
 62
9
  6
CONTINUOUS
 10
337.8642798475
 20
851.2742603309
 11
337.8125415151
 21
851.2924702435
  0
SPLINE
  5
7AF
100
AcDbEntity
  8
11_COMPONENT
100
AcDbSpline
 62
9
  6
CONTINUOUS
 70
0
 71
3
 72
9
 73
5
 74
0
 42
0.0000001
 43
0.0000001
 44
0.0000000001
 40
0.0
 40
0.0
 40
0.0
 40
0.0
 40
0.251292612
 40
1.0
 40
1.0
 40
1.0
 40
1.0
 10
392.3400735938
 20
805.3095689057
 30
0.0
 10
391.9880635793
 20
805.6781194923
 30
0.0
 10
390.5055209659
 20
807.06539177
 30
0.0
 10
388.7094974277
 20
808.1097035852
 30
0.0
 10
387.2932839287
 20
808.6574708186
 30
0.0
  0
LINE
  5
7B0
100
AcDbEntity
  8
11_COMPONENT
100
AcDbLine
 62
9
  6
CONTINUOUS
 10
366.7994023973
 20
789.1299482568
 11
366.8152240433
 21
789.1721106386
  0
SPLINE
  5
7B1
100
AcDbEntity
  8
11_COMPONENT
100
AcDbSpline
 62
9
  6
CONTINUOUS
 70
0
 71
3
 72
12
 73
8
 74
0
 42
0.0000001
 43
0.0000001
 44
0.0000000001
 40
0.0
 40
0.0
 40
0.0
 40
0.0
 40
0.0645648784
 40
0.1451464038
 40
0.3580385853
 40
0.6426654551
 40
1.0
 40
1.0
 40
1.0
 40
1.0
 10
366.8152240433
 20
789.1721106386
 30
0.0
 10
367.0325306648
 20
789.7454640606
 30
0.0
 10
367.6838089821
 20
790.9714362266
 30
0.0
 10
369.6893692502
 20
793.7233032047
 30
0.0
 10
373.5449449484
 20
797.6623887282
 30
0.0
 10
379.7094376838
 20
802.9464673578
 30
0.0
 10
384.5603931644
 20
806.6457243119
 30
0.0
 10
387.2932839287
 20
808.6574708186
 30
0.0
  0
SPLINE
  5
7B2
100
AcDbEntity
  8
11_COMPONENT
100
AcDbSpline
 62
9
  6
CONTINUOUS
 70
0
 71
3
 72
9
 73
5
 74
0
 42
0.0000001
 43
0.0000001
 44
0.0000000001
 40
0.0
 40
0.0
 40
0.0
 40
0.0
 40
0.7486584113
 40
1.0
 40
1.0
 40
1.0
 40
1.0
 10
523.1559133087
 20
796.7710170346
 30
0.0
 10
521.6663941072
 20
796.4776293121
 30
0.0
 10
519.7165896389
 20
795.7612091172
 30
0.0
 10
518.0158422389
 20
794.6527163808
 30
0.0
 10
517.6051786592
 20
794.3508514968
 30
0.0
  0
SPLINE
  5
7B3
100
AcDbEntity
  8
11_COMPONENT
100
AcDbSpline
 62
9
  6
CONTINUOUS
 70
0
 71
3
 72
12
 73
8
 74
0
 42
0.0000001
 43
0.0000001
 44
0.0000000001
 40
0.0
 40
0.0
 40
0.0
 40
0.0
 40
0.3572181417
 40
0.6418102766
 40
0.8547475282
 40
0.9353758601
 40
1.0
 40
1.0
 40
1.0
 40
1.0
 10
523.1559133087
 20
796.7710170346
 30
0.0
 10
525.4963856239
 20
794.3169120253
 30
0.0
 10
529.628953006
 20
789.83416781
 30
0.0
 10
534.7802807711
 20
783.5631829445
 30
0.0
 10
537.893227935
 20
779.0161547424
 30
0.0
 10
539.3922326453
 20
775.9584130187
 30
0.0
 10
539.8220685853
 20
774.6379127208
 30
0.0
 10
539.9374330503
 20
774.0353513796
 30
0.0
  0
LINE
  5
7B4
100
AcDbEntity
  8
11_COMPONENT
100
AcDbLine
 62
9
  6
CONTINUOUS
 10
539.9374330503
 20
774.0353513796
 11
539.9475327329
 21
773.9814354151
  0
SPLINE
  5
7B5
100
AcDbEntity
  8
11_COMPONENT
100
AcDbSpline
 62
9
  6
CONTINUOUS
 70
0
 71
3
 72
9
 73
5
 74
0
 42
0.0000001
 43
0.0000001
 44
0.0000000001
 40
0.0
 40
0.0
 40
0.0
 40
0.0
 40
0.2513335653
 40
1.0
 40
1.0
 40
1.0
 40
1.0
 10
552.5059304168
 20
844.1942716757
 30
0.0
 10
552.3627297372
 20
843.7051488986
 30
0.0
 10
551.902788879
 20
841.7278511116
 30
0.0
 10
551.8964389317
 20
839.6506163077
 30
0.0
 10
552.1301910572
 20
838.1505737575
 30
0.0
  0
SPLINE
  5
7B6
100
AcDbEntity
  8
11_COMPONENT
100
AcDbSpline
 62
9
  6
CONTINUOUS
 70
0
 71
3
 72
12
 73
8
 74
0
 42
0.0000001
 43
0.0000001
 44
0.0000000001
 40
0.0
 40
0.0
 40
0.0
 40
0.0
 40
0.0642925766
 40
0.1446501627
 40
0.3573310404
 40
0.6421175258
 40
1.0
 40
1.0
 40
1.0
 40
1.0
 10
579.2884647298
 20
830.1661096931
 30
0.0
 10
578.6855384455
 20
830.0639075711
 30
0.0
 10
577.3006624025
 20
830.008889995
 30
0.0
 10
573.9151012745
 20
830.3614071598
 30
0.0
 10
568.5685358436
 20
831.7280230738
 30
0.0
 10
560.892851907
 20
834.4278983085
 30
0.0
 10
555.2485235177
 20
836.7854637526
 30
0.0
 10
552.1301910572
 20
838.1505737575
 30
0.0
  0
SPLINE
  5
7B7
100
AcDbEntity
  8
11_COMPONENT
100
AcDbSpline
 62
9
  6
CONTINUOUS
 70
0
 71
3
 72
12
 73
8
 74
0
 42
0.0000001
 43
0.0000001
 44
0.0000000001
 40
0.0
 40
0.0
 40
0.0
 40
0.0
 40
0.3605814256
 40
0.6461469276
 40
0.8578588899
 40
0.9371280403
 40
1.0
 40
1.0
 40
1.0
 40
1.0
 10
499.3649255201
 20
958.1569057887
 30
0.0
 10
500.3515658629
 20
961.4619215215
 30
0.0
 10
502.2142614537
 20
967.3595886014
 30
0.0
 10
505.1251790542
 20
975.0321251818
 30
0.0
 10
507.5327563209
 20
980.0196452385
 30
0.0
 10
509.4454637592
 20
982.8184604924
 30
0.0
 10
510.3779783231
 20
983.8229724495
 30
0.0
 10
510.8429343669
 20
984.2044173724
 30
0.0
  0
SPLINE
  5
7B8
100
AcDbEntity
  8
11_COMPONENT
100
AcDbSpline
 62
9
  6
CONTINUOUS
 70
0
 71
3
 72
12
 73
8
 74
0
 42
0.0000001
 43
0.0000001
 44
0.0000000001
 40
0.0
 40
0.0
 40
0.0
 40
0.0
 40
0.0643844963
 40
0.1448113343
 40
0.3575545921
 40
0.6422937831
 40
1.0
 40
1.0
 40
1.0
 40
1.0
 10
579.2300790717
 20
829.6215179986
 30
0.0
 10
578.6260682245
 20
829.519405511
 30
0.0
 10
577.2392903764
 20
829.4643599111
 30
0.0
 10
573.8505450542
 20
829.8165420653
 30
0.0
 10
568.5012300253
 20
831.1820803776
 30
0.0
 10
560.8239678693
 20
833.8801318376
 30
0.0
 10
555.1793556688
 20
836.2361539387
 30
0.0
 10
552.0613247726
 20
837.6002669125
 30
0.0
  0
SPLINE
  5
7B9
100
AcDbEntity
  8
11_COMPONENT
100
AcDbSpline
 62
9
  6
CONTINUOUS
 70
0
 71
3
 72
12
 73
8
 74
0
 42
0.0000001
 43
0.0000001
 44
0.0000000001
 40
0.0
 40
0.0
 40
0.0
 40
0.0
 40
0.3577079111
 40
0.6424472152
 40
0.8551898848
 40
0.9356152717
 40
1.0
 40
1.0
 40
1.0
 40
1.0
 10
523.6494792147
 20
797.0239462829
 30
0.0
 10
525.997766996
 20
794.5604980769
 30
0.0
 10
530.1422755152
 20
790.0620861032
 30
0.0
 10
535.3034421022
 20
783.7706196391
 30
0.0
 10
538.416106301
 20
779.2109203796
 30
0.0
 10
539.9061407781
 20
776.1470445719
 30
0.0
 10
540.3286803987
 20
774.8250718657
 30
0.0
 10
540.439311416
 20
774.2225607792
 30
0.0
  0
SPLINE
  5
7BA
100
AcDbEntity
  8
11_COMPONENT
100
AcDbSpline
 62
9
  6
CONTINUOUS
 70
0
 71
3
 72
12
 73
8
 74
0
 42
0.0000001
 43
0.0000001
 44
0.0000000001
 40
0.0
 40
0.0
 40
0.0
 40
0.0
 40
0.064384498
 40
0.1448113358
 40
0.3575545931
 40
0.6422937836
 40
1.0
 40
1.0
 40
1.0
 40
1.0
 10
366.357006106
 20
789.4527892787
 30
0.0
 10
366.5705794754
 20
790.0269342956
 30
0.0
 10
367.2162974196
 20
791.2554420157
 30
0.0
 10
369.2156687529
 20
794.0140905208
 30
0.0
 10
373.0729171573
 20
797.9639640509
 30
0.0
 10
379.2481292149
 20
803.2636425468
 30
0.0
 10
384.1108105198
 20
806.9740087885
 30
0.0
 10
386.8511823868
 20
808.9922463706
 30
0.0
  0
SPLINE
  5
7BB
100
AcDbEntity
  8
11_COMPONENT
100
AcDbSpline
 62
9
  6
CONTINUOUS
 70
0
 71
3
 72
12
 73
8
 74
0
 42
0.0000001
 43
0.0000001
 44
0.0000000001
 40
0.0
 40
0.0
 40
0.0
 40
0.0
 40
0.3577079094
 40
0.6424472122
 40
0.8551898804
 40
0.9356152693
 40
1.0
 40
1.0
 40
1.0
 40
1.0
 10
365.9169806771
 20
853.885786733
 30
0.0
 10
362.6094280595
 20
853.0838339651
 30
0.0
 10
356.6414347416
 20
851.7437903253
 30
0.0
 10
348.6122816753
 20
850.4198222488
 30
0.0
 10
343.1071341872
 20
850.0040252524
 30
0.0
 10
339.7087225984
 20
850.2455557809
 30
0.0
 10
338.3525908963
 20
850.540612421
 30
0.0
 10
337.7754854304
 20
850.7460586281
 30
0.0
  0
SPLINE
  5
7BC
100
AcDbEntity
  8
11_COMPONENT
100
AcDbSpline
 62
9
  6
CONTINUOUS
 70
0
 71
3
 72
12
 73
8
 74
0
 42
0.0000001
 43
0.0000001
 44
0.0000000001
 40
0.0
 40
0.0
 40
0.0
 40
0.0
 40
0.0643844997
 40
0.1448113399
 40
0.3575545961
 40
0.6422937854
 40
1.0
 40
1.0
 40
1.0
 40
1.0
 10
438.0064026063
 20
993.8906427254
 30
0.0
 10
438.3968400601
 20
993.4186102027
 30
0.0
 10
439.1379001722
 20
992.245148296
 30
0.0
 10
440.5272746192
 20
989.1343177902
 30
0.0
 10
442.0193408674
 20
983.8189057627
 30
0.0
 10
443.5213910251
 20
975.8211760425
 30
0.0
 10
444.3033221552
 20
969.7547874227
 30
0.0
 10
444.6809811138
 20
966.3724369701
 30
0.0
  0
SPLINE
  5
7BD
100
AcDbEntity
  8
11_COMPONENT
100
AcDbSpline
 62
9
  6
CONTINUOUS
 70
0
 71
3
 72
8
 73
4
 74
0
 42
0.0000001
 43
0.0000001
 44
0.0000000001
 40
0.0
 40
0.0
 40
0.0
 40
0.0
 40
1.0
 40
1.0
 40
1.0
 40
1.0
 10
552.130190972
 20
838.1505737582
 30
0.0
 10
552.1499804468
 20
837.9667696423
 30
0.0
 10
552.1256079207
 20
837.7735967652
 30
0.0
 10
552.0613246258
 20
837.6002669226
 30
0.0
  0
SPLINE
  5
7BE
100
AcDbEntity
  8
11_COMPONENT
100
AcDbSpline
 62
9
  6
CONTINUOUS
 70
0
 71
3
 72
8
 73
4
 74
0
 42
0.0000001
 43
0.0000001
 44
0.0000000001
 40
0.0
 40
0.0
 40
0.0
 40
0.0
 40
1.0
 40
1.0
 40
1.0
 40
1.0
 10
523.6494792048
 20
797.0239463181
 30
0.0
 10
523.5086109798
 20
796.9042310024
 30
0.0
 10
523.3354001304
 20
796.8152899714
 30
0.0
 10
523.1559133066
 20
796.7710170255
 30
0.0
  0
SPLINE
  5
7BF
100
AcDbEntity
  8
11_COMPONENT
100
AcDbSpline
 62
9
  6
CONTINUOUS
 70
0
 71
3
 72
8
 73
4
 74
0
 42
0.0000001
 43
0.0000001
 44
0.0000000001
 40
0.0
 40
0.0
 40
0.0
 40
0.0
 40
1.0
 40
1.0
 40
1.0
 40
1.0
 10
387.2932858206
 20
808.6574722532
 30
0.0
 10
387.1242273959
 20
808.7322329131
 30
0.0
 10
386.9691390883
 20
808.8499224148
 30
0.0
 10
386.8511824688
 20
808.9922464927
 30
0.0
  0
SPLINE
  5
7C0
100
AcDbEntity
  8
11_COMPONENT
100
AcDbSpline
 62
9
  6
CONTINUOUS
 70
0
 71
3
 72
8
 73
4
 74
0
 42
0.0000001
 43
0.0000001
 44
0.0000000001
 40
0.0
 40
0.0
 40
0.0
 40
0.0
 40
1.0
 40
1.0
 40
1.0
 40
1.0
 10
365.9169807126
 20
853.8857867239
 30
0.0
 10
365.8837411733
 20
854.067624232
 30
0.0
 10
365.8933126919
 20
854.2620826643
 30
0.0
 10
365.9447069391
 20
854.4396449848
 30
0.0
  0
SPLINE
  5
7C1
100
AcDbEntity
  8
11_COMPONENT
100
AcDbSpline
 62
9
  6
CONTINUOUS
 70
0
 71
3
 72
8
 73
4
 74
0
 42
0.0000001
 43
0.0000001
 44
0.0000000001
 40
0.0
 40
0.0
 40
0.0
 40
0.0
 40
1.0
 40
1.0
 40
1.0
 40
1.0
 10
444.1700076492
 20
966.1569521121
 30
0.0
 10
444.3192811789
 20
966.2659803116
 30
0.0
 10
444.4987470594
 20
966.3414455358
 30
0.0
 10
444.6809811786
 20
966.3724368379
 30
0.0
  0
SPLINE
  5
7C2
100
AcDbEntity
  8
11_COMPONENT
100
AcDbSpline
 62
9
  6
CONTINUOUS
 70
0
 71
3
 72
8
 73
4
 74
0
 42
0.0000001
 43
0.0000001
 44
0.0000000001
 40
0.0
 40
0.0
 40
0.0
 40
0.0
 40
1.0
 40
1.0
 40
1.0
 40
1.0
 10
494.0270282819
 20
962.055217222
 30
0.0
 10
494.201124422
 20
961.9930845843
 30
0.0
 10
494.3647449291
 20
961.8875656783
 30
0.0
 10
494.4928215534
 20
961.7542753598
 30
0.0
  0
SPLINE
  5
7C3
100
AcDbEntity
  8
11_COMPONENT
100
AcDbSpline
 62
9
  6
CONTINUOUS
 70
0
 71
3
 72
9
 73
5
 74
0
 42
0.0000001
 43
0.0000001
 44
0.0000000001
 40
0.0
 40
0.0
 40
0.0
 40
0.0
 40
0.3600070428
 40
1.0
 40
1.0
 40
1.0
 40
1.0
 10
444.169969996
 20
966.1569203689
 30
0.0
 10
444.2549366597
 20
966.112843239
 30
0.0
 10
444.4379383569
 20
965.9095397728
 30
0.0
 10
444.6165680486
 20
965.717258089
 30
0.0
 10
444.7253458656
 20
965.5864052588
 30
0.0
  0
SPLINE
  5
7C4
100
AcDbEntity
  8
11_COMPONENT
100
AcDbSpline
 62
9
  6
CONTINUOUS
 70
0
 71
3
 72
9
 73
5
 74
0
 42
0.0000001
 43
0.0000001
 44
0.0000000001
 40
0.0
 40
0.0
 40
0.0
 40
0.0
 40
0.360019341
 40
1.0
 40
1.0
 40
1.0
 40
1.0
 10
494.4929100695
 20
961.754292414
 30
0.0
 10
494.4015708884
 20
961.7256261726
 30
0.0
 10
494.1860275926
 20
961.5571750521
 30
0.0
 10
493.9767017606
 20
961.3988133121
 30
0.0
 10
493.8468436074
 20
961.2888285065
 30
0.0
  0
SPLINE
  5
7C5
100
AcDbEntity
  8
11_COMPONENT
100
AcDbSpline
 62
9
  6
CONTINUOUS
 70
0
 71
3
 72
9
 73
5
 74
0
 42
0.0000001
 43
0.0000001
 44
0.0000000001
 40
0.0
 40
0.0
 40
0.0
 40
0.0
 40
0.3600070425
 40
1.0
 40
1.0
 40
1.0
 40
1.0
 10
552.1301874601
 20
838.1505737686
 30
0.0
 10
552.0495322106
 20
838.0990290498
 30
0.0
 10
551.781965401
 20
838.0421966579
 30
0.0
 10
551.5261297303
 20
837.9836396497
 30
0.0
 10
551.3584189467
 20
837.954861712
 30
0.0
  0
SPLINE
  5
7C6
100
AcDbEntity
  8
11_COMPONENT
100
AcDbSpline
 62
9
  6
CONTINUOUS
 70
0
 71
3
 72
9
 73
5
 74
0
 42
0.0000001
 43
0.0000001
 44
0.0000000001
 40
0.0
 40
0.0
 40
0.0
 40
0.0
 40
0.3600076969
 40
1.0
 40
1.0
 40
1.0
 40
1.0
 10
523.1559131676
 20
796.771017025
 30
0.0
 10
523.1767610106
 20
796.8644386554
 30
0.0
 10
523.1386527488
 20
797.135306842
 30
0.0
 10
523.1061780151
 20
797.395743121
 30
0.0
 10
523.075861206
 20
797.5631830778
 30
0.0
  0
SPLINE
  5
7C7
100
AcDbEntity
  8
11_COMPONENT
100
AcDbSpline
 62
9
  6
CONTINUOUS
 70
0
 71
3
 72
9
 73
5
 74
0
 42
0.0000001
 43
0.0000001
 44
0.0000000001
 40
0.0
 40
0.0
 40
0.0
 40
0.0
 40
0.3600070439
 40
1.0
 40
1.0
 40
1.0
 40
1.0
 10
387.2933307339
 20
808.6574561392
 30
0.0
 10
387.2890193168
 20
808.7530779936
 30
0.0
 10
387.3735844336
 20
809.0132138451
 30
0.0
 10
387.4507904105
 20
809.2640525378
 30
0.0
 10
387.5097233768
 20
809.4236833053
 30
0.0
  0
SPLINE
  5
7C8
100
AcDbEntity
  8
11_COMPONENT
100
AcDbSpline
 62
9
  6
CONTINUOUS
 70
0
 71
3
 72
9
 73
5
 74
0
 42
0.0000001
 43
0.0000001
 44
0.0000000001
 40
0.0
 40
0.0
 40
0.0
 40
0.0
 40
0.3600193407
 40
1.0
 40
1.0
 40
1.0
 40
1.0
 10
365.9446483429
 20
854.4397146135
 30
0.0
 10
366.0151436267
 20
854.374945683
 30
0.0
 10
366.2687982244
 20
854.2725052736
 30
0.0
 10
366.5106064302
 20
854.1704046554
 30
0.0
 10
366.6707851426
 20
854.1129365986
 30
0.0
  0
SPLINE
  5
7C9
100
AcDbEntity
  8
11_COMPONENT
100
AcDbSpline
 62
9
  6
CONTINUOUS
 70
0
 71
3
 72
12
 73
8
 74
0
 42
0.0000001
 43
0.0000001
 44
0.0000000001
 40
0.0
 40
0.0
 40
0.0
 40
0.0
 40
0.3577079106
 40
0.6424472143
 40
0.8551898834
 40
0.9356152706
 40
1.0
 40
1.0
 40
1.0
 40
1.0
 10
494.0270283075
 20
962.0552172482
 30
0.0
 10
494.9862931722
 20
965.3206182185
 30
0.0
 10
496.8097779098
 20
971.1590738868
 30
0.0
 10
499.6777644284
 20
978.7745084871
 30
0.0
 10
502.070247653
 20
983.7500044222
 30
0.0
 10
503.9786247731
 20
986.572350021
 30
0.0
 10
504.9122170098
 20
987.5992663418
 30
0.0
 10
505.3786914153
 20
987.9963311657
 30
0.0
  0
SPLINE
  5
7CA
100
AcDbEntity
  8
11_COMPONENT
100
AcDbSpline
 62
9
  6
CONTINUOUS
 70
0
 71
3
 72
12
 73
8
 74
0
 42
0.0000001
 43
0.0000001
 44
0.0000000001
 40
0.0
 40
0.0
 40
0.0
 40
0.0
 40
0.0628664649
 40
0.1421329846
 40
0.3538480271
 40
0.6394173247
 40
1.0
 40
1.0
 40
1.0
 40
1.0
 10
579.8373922862
 20
836.2438783271
 30
0.0
 10
579.2463798417
 20
836.1329003704
 30
0.0
 10
577.8774972356
 20
836.0648736587
 30
0.0
 10
574.5042568548
 20
836.3994102429
 30
0.0
 10
569.1358565912
 20
837.7601268643
 30
0.0
 10
561.3876163662
 20
840.4630908413
 30
0.0
 10
555.6718943266
 20
842.8256827415
 30
0.0
 10
552.5059303045
 20
844.1942717545
 30
0.0
  0
SPLINE
  5
7CB
100
AcDbEntity
  8
11_COMPONENT
100
AcDbSpline
 62
9
  6
CONTINUOUS
 70
0
 71
3
 72
12
 73
8
 74
0
 42
0.0000001
 43
0.0000001
 44
0.0000000001
 40
0.0
 40
0.0
 40
0.0
 40
0.0
 40
0.3605827572
 40
0.6461520161
 40
0.857867031
 40
0.9371335431
 40
1.0
 40
1.0
 40
1.0
 40
1.0
 10
517.6051786689
 20
794.350851462
 30
0.0
 10
519.9740562746
 20
791.8439028652
 30
0.0
 10
524.1490991835
 20
787.2809699919
 30
0.0
 10
529.3390892444
 20
780.9244558127
 30
0.0
 10
532.453850767
 20
776.3452061673
 30
0.0
 10
533.9219277099
 20
773.2898148731
 30
0.0
 10
534.3261892451
 20
771.980219566
 30
0.0
 10
534.4240421554
 20
771.3868928258
 30
0.0
  0
SPLINE
  5
7CC
100
AcDbEntity
  8
11_COMPONENT
100
AcDbSpline
 62
9
  6
CONTINUOUS
 70
0
 71
3
 72
12
 73
8
 74
0
 42
0.0000001
 43
0.0000001
 44
0.0000000001
 40
0.0
 40
0.0
 40
0.0
 40
0.0
 40
0.0628719469
 40
0.1421410914
 40
0.3538530575
 40
0.6394185634
 40
1.0
 40
1.0
 40
1.0
 40
1.0
 10
371.7891196535
 20
785.614992427
 30
0.0
 10
371.9885362722
 20
786.1823699075
 30
0.0
 10
372.6135311539
 20
787.4022095421
 30
0.0
 10
374.5893736407
 20
790.1568167158
 30
0.0
 10
378.452668597
 20
794.125032342
 30
0.0
 10
384.6669019057
 20
799.4845627433
 30
0.0
 10
389.5718183263
 20
803.2520429681
 30
0.0
 10
392.3400663501
 20
805.309563665
 30
0.0
  0
SPLINE
  5
7CD
100
AcDbEntity
  8
11_COMPONENT
100
AcDbSpline
 62
9
  6
CONTINUOUS
 70
0
 71
3
 72
12
 73
8
 74
0
 42
0.0000001
 43
0.0000001
 44
0.0000000001
 40
0.0
 40
0.0
 40
0.0
 40
0.0
 40
0.3605814707
 40
0.6461470973
 40
0.8578591617
 40
0.9371282242
 40
1.0
 40
1.0
 40
1.0
 40
1.0
 10
366.6240722077
 20
860.4576666703
 30
0.0
 10
363.2685254033
 20
859.659615035
 30
0.0
 10
357.2296387037
 20
858.3239757563
 30
0.0
 10
349.1295745036
 20
857.0085985992
 30
0.0
 10
343.6064661422
 20
856.5998920288
 30
0.0
 10
340.2262711447
 20
856.8569128906
 30
0.0
 10
338.8900782251
 20
857.1622172173
 30
0.0
 10
338.3272610755
 20
857.3741577189
 30
0.0
  0
SPLINE
  5
7CE
100
AcDbEntity
  8
11_COMPONENT
100
AcDbSpline
 62
9
  6
CONTINUOUS
 70
0
 71
3
 72
12
 73
8
 74
0
 42
0.0000001
 43
0.0000001
 44
0.0000000001
 40
0.0
 40
0.0
 40
0.0
 40
0.0
 40
0.0628717635
 40
0.1421408199
 40
0.3538528878
 40
0.6394185182
 40
1.0
 40
1.0
 40
1.0
 40
1.0
 10
431.9667466421
 20
991.1052001978
 30
0.0
 10
432.3584002889
 20
990.6488130924
 30
0.0
 10
433.1022962336
 20
989.4976220834
 30
0.0
 10
434.4999101989
 20
986.409183831
 30
0.0
 10
436.0048670793
 20
981.0793742368
 30
0.0
 10
437.5392024323
 20
973.0179181003
 30
0.0
 10
438.3495306998
 20
966.8864049527
 30
0.0
 10
438.7472720321
 20
963.4602725848
 30
0.0
  0
ELLIPSE
  5
7CF
100
AcDbEntity
  8
11_COMPONENT
100
AcDbEllipse
 62
7
  6
CONTINUOUS
 10
442.8406697246
 20
844.0514026535
 30
0.0
 11
-0.1741244623
 21
0.9875088973
 31
0.0
 40
0.9972646886
 41
-3.9256212891
 42
-2.3575640181
  0
ELLIPSE
  5
7D0
100
AcDbEntity
  8
11_COMPONENT
100
AcDbEllipse
 62
7
  6
CONTINUOUS
 10
442.1639283614
 20
844.5252620574
 30
0.0
 11
0.9875088973
 21
0.1741244623
 31
0.0
 40
0.9972646886
 41
2.3575640181
 42
3.9256212891
  0
ENDSEC
  0
SECTION
  2
OBJECTS
  0
DICTIONARY
  5
7D1
100
AcDbDictionary
  3
ACAD_GROUP
350
7D2
  3
ACAD_MLINESTYLE
350
7D3
  0
DICTIONARY
  5
7D2
102
{ACAD_REACTORS
330
7D1
102
}
100
AcDbDictionary
  0
DICTIONARY
  5
7D3
102
{ACAD_REACTORS
330
7D1
102
}
100
AcDbDictionary
  3
STANDARD
350
7D4
  0
MLINESTYLE
  5
7D4
102
{ACAD_REACTORS
330
7D3
102
}
100
AcDbMlineStyle
  2
STANDARD
 70
0
  3

 62
256
 51
90.0
 52
90.0
 71
2
 49
0.5
 62
256
  6
BYLAYER
 49
-0.5
 62
256
  6
BYLAYER
  0
ENDSEC
  0
EOF
