  0
SECTION
  2
HEADER
  9
$ACADVER
  1
AC1014
  9
$ACADMAINTVER
 70
     9
  9
$DWGCODEPAGE
  3
ANSI_949
  9
$INSBASE
 10
0.0
 20
0.0
 30
0.0
  9
$EXTMIN
 10
-0.5
 20
-0.5
 30
-0.5
  9
$EXTMAX
 10
5.0
 20
5.0
 30
5.0
  9
$LIMMIN
 10
-0.5
 20
-0.5
  9
$LIMMAX
 10
5.0
 20
5.0
  9
$ORTHOMODE
 70
     0
  9
$REGENMODE
 70
     1
  9
$FILLMODE
 70
     1
  9
$QTEXTMODE
 70
     0
  9
$MIRRTEXT
 70
     1
  9
$DRAGMODE
 70
     2
  9
$LTSCALE
 40
1.0
  9
$OSMODE
 70
    37
  9
$ATTMODE
 70
     1
  9
$TEXTSIZE
 40
0.2
  9
$TRACEWID
 40
0.05
  9
$TEXTSTYLE
  7
STANDARD
  9
$CLAYER
  8
0
  9
$CELTYPE
  6
BYLAYER
  9
$CECOLOR
 62
   256
  9
$CELTSCALE
 40
1.0
  9
$DELOBJ
 70
     1
  9
$DISPSILH
 70
     0
  9
$DIMSCALE
 40
1.0
  9
$DIMASZ
 40
0.18
  9
$DIMEXO
 40
0.0625
  9
$DIMDLI
 40
0.38
  9
$DIMRND
 40
0.0
  9
$DIMDLE
 40
0.0
  9
$DIMEXE
 40
0.18
  9
$DIMTP
 40
0.0
  9
$DIMTM
 40
0.0
  9
$DIMTXT
 40
0.18
  9
$DIMCEN
 40
0.09
  9
$DIMTSZ
 40
0.0
  9
$DIMTOL
 70
     0
  9
$DIMLIM
 70
     0
  9
$DIMTIH
 70
     1
  9
$DIMTOH
 70
     1
  9
$DIMSE1
 70
     0
  9
$DIMSE2
 70
     0
  9
$DIMTAD
 70
     0
  9
$DIMZIN
 70
     0
  9
$DIMBLK
  1

  9
$DIMASO
 70
     1
  9
$DIMSHO
 70
     1
  9
$DIMPOST
  1

  9
$DIMAPOST
  1

  9
$DIMALT
 70
     0
  9
$DIMALTD
 70
     2
  9
$DIMALTF
 40
25.4
  9
$DIMLFAC
 40
1.0
  9
$DIMTOFL
 70
     0
  9
$DIMTVP
 40
0.0
  9
$DIMTIX
 70
     0
  9
$DIMSOXD
 70
     0
  9
$DIMSAH
 70
     0
  9
$DIMBLK1
  1

  9
$DIMBLK2
  1

  9
$DIMSTYLE
  2
STANDARD
  9
$DIMCLRD
 70
     0
  9
$DIMCLRE
 70
     0
  9
$DIMCLRT
 70
     0
  9
$DIMTFAC
 40
1.0
  9
$DIMGAP
 40
0.09
  9
$DIMJUST
 70
     0
  9
$DIMSD1
 70
     0
  9
$DIMSD2
 70
     0
  9
$DIMTOLJ
 70
     1
  9
$DIMTZIN
 70
     0
  9
$DIMALTZ
 70
     0
  9
$DIMALTTZ
 70
     0
  9
$DIMFIT
 70
     3
  9
$DIMUPT
 70
     0
  9
$DIMUNIT
 70
     2
  9
$DIMDEC
 70
     4
  9
$DIMTDEC
 70
     4
  9
$DIMALTU
 70
     2
  9
$DIMALTTD
 70
     2
  9
$DIMTXSTY
  7
STANDARD
  9
$DIMAUNIT
 70
     0
  9
$LUNITS
 70
     2
  9
$LUPREC
 70
     4
  9
$SKETCHINC
 40
0.1
  9
$FILLETRAD
 40
0.5
  9
$AUNITS
 70
     0
  9
$AUPREC
 70
     0
  9
$MENU
  1
.
  9
$ELEVATION
 40
0.0
  9
$PELEVATION
 40
0.0
  9
$THICKNESS
 40
0.0
  9
$LIMCHECK
 70
     0
  9
$CHAMFERA
 40
0.5
  9
$CHAMFERB
 40
0.5
  9
$CHAMFERC
 40
1.0
  9
$CHAMFERD
 40
0.0
  9
$SKPOLY
 70
     0
  9
$TDCREATE
 40
2455698.679337743
  9
$TDUPDATE
 40
2455698.679337755
  9
$TDINDWG
 40
0.0000000116
  9
$TDUSRTIMER
 40
0.0000000116
  9
$USRTIMER
 70
     1
  9
$ANGBASE
 50
0.0
  9
$ANGDIR
 70
     0
  9
$PDMODE
 70
     0
  9
$PDSIZE
 40
0.0
  9
$PLINEWID
 40
0.0
  9
$COORDS
 70
     1
  9
$SPLFRAME
 70
     0
  9
$SPLINETYPE
 70
     6
  9
$SPLINESEGS
 70
     8
  9
$ATTDIA
 70
     0
  9
$ATTREQ
 70
     1
  9
$HANDLING
 70
     1
  9
$HANDSEED
  5
231
  9
$SURFTAB1
 70
     6
  9
$SURFTAB2
 70
     6
  9
$SURFTYPE
 70
     6
  9
$SURFU
 70
     6
  9
$SURFV
 70
     6
  9
$UCSNAME
  2

  9
$UCSORG
 10
0.0
 20
0.0
 30
0.0
  9
$UCSXDIR
 10
1.0
 20
0.0
 30
0.0
  9
$UCSYDIR
 10
0.0
 20
1.0
 30
0.0
  9
$PUCSNAME
  2

  9
$PUCSORG
 10
0.0
 20
0.0
 30
0.0
  9
$PUCSXDIR
 10
1.0
 20
0.0
 30
0.0
  9
$PUCSYDIR
 10
0.0
 20
1.0
 30
0.0
  9
$USERI1
 70
     0
  9
$USERI2
 70
     0
  9
$USERI3
 70
     0
  9
$USERI4
 70
     0
  9
$USERI5
 70
     0
  9
$USERR1
 40
0.0
  9
$USERR2
 40
0.0
  9
$USERR3
 40
0.0
  9
$USERR4
 40
0.0
  9
$USERR5
 40
0.0
  9
$WORLDVIEW
 70
     1
  9
$SHADEDGE
 70
     3
  9
$SHADEDIF
 70
    70
  9
$TILEMODE
 70
     1
  9
$MAXACTVP
 70
    64
  9
$PINSBASE
 10
0.0
 20
0.0
 30
0.0
  9
$PLIMCHECK
 70
     0
  9
$PEXTMIN
 10
-0.5
 20
-0.5
 30
-0.5
  9
$PEXTMAX
 10
5.0
 20
5.0
 30
5.0
  9
$PLIMMIN
 10
-0.5
 20
-0.5
  9
$PLIMMAX
 10
5.0
 20
5.0
  9
$UNITMODE
 70
     0
  9
$VISRETAIN
 70
     1
  9
$PLINEGEN
 70
     0
  9
$PSLTSCALE
 70
     1
  9
$TREEDEPTH
 70
  3020
  9
$PICKSTYLE
 70
     1
  9
$CMLSTYLE
  2
STANDARD
  9
$CMLJUST
 70
     0
  9
$CMLSCALE
 40
1.0
  9
$PROXYGRAPHICS
 70
     1
  9
$MEASUREMENT
 70
     1
  0
ENDSEC
  0
SECTION
  2
CLASSES
  0
CLASS
  1
ACDBDICTIONARYWDFLT
  2
AcDbDictionaryWithDefault
  3
ObjectDBX Classes
 90
        0
280
     0
281
     0
  0
CLASS
  1
VISUALSTYLE
  2
AcDbVisualStyle
  3
ObjectDBX Classes
 90
     4095
280
     0
281
     0
  0
CLASS
  1
XRECORD
  2
AcDbXrecord
  3
AutoCAD 2000
 90
        0
280
     0
281
     0
  0
CLASS
  1
LWPOLYLINE
  2
AcDbPolyline
  3
AutoCAD 2000
 90
        0
280
     0
281
     1
  0
CLASS
  1
HATCH
  2
AcDbHatch
  3
AutoCAD 2000
 90
        0
280
     0
281
     1
  0
CLASS
  1
ACDBPLACEHOLDER
  2
AcDbPlaceHolder
  3
ObjectDBX Classes
 90
        0
280
     0
281
     0
  0
CLASS
  1
LAYOUT
  2
AcDbLayout
  3
ObjectDBX Classes
 90
        0
280
     0
281
     0
  0
ENDSEC
  0
SECTION
  2
TABLES
  0
TABLE
  2
VPORT
  5
8
330
0
100
AcDbSymbolTable
 70
    17
  0
VPORT
  5
29
330
8
100
AcDbSymbolTableRecord
100
AcDbViewportTableRecord
  2
DUMMY
 70
     0
 10
0.0
 20
0.0
 11
1.0
 21
1.0
 12
10.429907
 22
4.5
 13
0.0
 23
0.0
 14
0.5
 24
0.5
 15
0.5
 25
0.5
 16
0.0
 26
0.0
 36
1.0
 17
0.0
 27
0.0
 37
0.0
 40
9.0
 41
1.972973
 42
50.0
 43
0.0
 44
0.0
 50
0.0
 51
0.0
 71
     0
 72
   100
 73
     1
 74
     3
 75
     0
 76
     0
 77
     0
 78
     0
  0
VPORT
  5
1FF
330
8
100
AcDbSymbolTableRecord
100
AcDbViewportTableRecord
  2
*ACTIVE
 70
     0
 10
0.0
 20
0.0
 11
1.0
 21
1.0
 12
420.500061
 22
299.0
 13
0.0
 23
0.0
 14
0.5
 24
0.5
 15
0.5
 25
0.5
 16
0.0
 26
0.0
 36
1.0
 17
0.0
 27
0.0
 37
0.0
 40
254.0
 41
0.069908
 42
50.0
 43
1617.513779
 44
-1617.513779
 50
0.0
 51
0.0
 71
     0
 72
   100
 73
     1
 74
     3
 75
     0
 76
     0
 77
     0
 78
     0
  0
VPORT
  5
200
330
8
100
AcDbSymbolTableRecord
100
AcDbViewportTableRecord
  2
L1
 70
     0
 10
0.0
 20
0.0
 11
1.0
 21
1.0
 12
420.500061
 22
299.0
 13
0.0
 23
0.0
 14
0.5
 24
0.5
 15
0.5
 25
0.5
 16
0.0
 26
0.0
 36
1.0
 17
0.0
 27
0.0
 37
0.0
 40
254.0
 41
0.069908
 42
50.0
 43
1617.513779
 44
-1617.513779
 50
0.0
 51
0.0
 71
     0
 72
   100
 73
     1
 74
     3
 75
     0
 76
     0
 77
     0
 78
     0
  0
VPORT
  5
201
330
8
100
AcDbSymbolTableRecord
100
AcDbViewportTableRecord
  2
L2
 70
     0
 10
0.0
 20
0.0
 11
0.5
 21
1.0
 12
0.0
 22
0.0
 13
0.0
 23
0.0
 14
0.5
 24
0.5
 15
0.5
 25
0.5
 16
0.0
 26
-1.0
 36
0.0
 17
0.0
 27
0.0
 37
0.0
 40
1319.822715
 41
0.013454
 42
50.0
 43
672.020833
 44
-672.020833
 50
0.0
 51
0.0
 71
     0
 72
   100
 73
     1
 74
     3
 75
     0
 76
     0
 77
     0
 78
     0
  0
VPORT
  5
202
330
8
100
AcDbSymbolTableRecord
100
AcDbViewportTableRecord
  2
L2
 70
     0
 10
0.5
 20
0.0
 11
1.0
 21
1.0
 12
0.0
 22
0.0
 13
0.0
 23
0.0
 14
0.5
 24
0.5
 15
0.5
 25
0.5
 16
1.0
 26
0.0
 36
0.0
 17
0.0
 27
0.0
 37
0.0
 40
1319.822715
 41
0.013454
 42
50.0
 43
672.020833
 44
-672.020833
 50
0.0
 51
0.0
 71
     0
 72
   100
 73
     1
 74
     3
 75
     0
 76
     0
 77
     0
 78
     0
  0
VPORT
  5
203
330
8
100
AcDbSymbolTableRecord
100
AcDbViewportTableRecord
  2
L3
 70
     0
 10
0.0
 20
0.5
 11
1.0
 21
1.0
 12
420.500061
 22
299.0
 13
0.0
 23
0.0
 14
0.5
 24
0.5
 15
0.5
 25
0.5
 16
0.0
 26
0.0
 36
1.0
 17
0.0
 27
0.0
 37
0.0
 40
254.0
 41
0.069908
 42
50.0
 43
1617.513779
 44
-1617.513779
 50
0.0
 51
0.0
 71
     0
 72
   100
 73
     1
 74
     3
 75
     0
 76
     0
 77
     0
 78
     0
  0
VPORT
  5
204
330
8
100
AcDbSymbolTableRecord
100
AcDbViewportTableRecord
  2
L3
 70
     0
 10
0.0
 20
0.0
 11
1.0
 21
0.5
 12
0.0
 22
0.0
 13
0.0
 23
0.0
 14
0.5
 24
0.5
 15
0.5
 25
0.5
 16
0.0
 26
-1.0
 36
0.0
 17
0.0
 27
0.0
 37
0.0
 40
1319.822715
 41
0.013454
 42
50.0
 43
672.020833
 44
-672.020833
 50
0.0
 51
0.0
 71
     0
 72
   100
 73
     1
 74
     3
 75
     0
 76
     0
 77
     0
 78
     0
  0
VPORT
  5
205
330
8
100
AcDbSymbolTableRecord
100
AcDbViewportTableRecord
  2
L4
 70
     0
 10
0.0
 20
0.5
 11
0.5
 21
1.0
 12
420.500061
 22
299.0
 13
0.0
 23
0.0
 14
0.5
 24
0.5
 15
0.5
 25
0.5
 16
0.0
 26
0.0
 36
1.0
 17
0.0
 27
0.0
 37
0.0
 40
254.0
 41
0.069908
 42
50.0
 43
1617.513779
 44
-1617.513779
 50
0.0
 51
0.0
 71
     0
 72
   100
 73
     1
 74
     3
 75
     0
 76
     0
 77
     0
 78
     0
  0
VPORT
  5
206
330
8
100
AcDbSymbolTableRecord
100
AcDbViewportTableRecord
  2
L4
 70
     0
 10
0.0
 20
0.0
 11
0.5
 21
0.5
 12
0.0
 22
0.0
 13
0.0
 23
0.0
 14
0.5
 24
0.5
 15
0.5
 25
0.5
 16
0.0
 26
-1.0
 36
0.0
 17
0.0
 27
0.0
 37
0.0
 40
1319.822715
 41
0.013454
 42
50.0
 43
672.020833
 44
-672.020833
 50
0.0
 51
0.0
 71
     0
 72
   100
 73
     1
 74
     3
 75
     0
 76
     0
 77
     0
 78
     0
  0
VPORT
  5
207
330
8
100
AcDbSymbolTableRecord
100
AcDbViewportTableRecord
  2
L4
 70
     0
 10
0.5
 20
0.0
 11
1.0
 21
0.5
 12
0.0
 22
0.0
 13
0.0
 23
0.0
 14
0.5
 24
0.5
 15
0.5
 25
0.5
 16
1.0
 26
0.0
 36
0.0
 17
0.0
 27
0.0
 37
0.0
 40
1319.822715
 41
0.013454
 42
50.0
 43
672.020833
 44
-672.020833
 50
0.0
 51
0.0
 71
     0
 72
   100
 73
     1
 74
     3
 75
     0
 76
     0
 77
     0
 78
     0
  0
VPORT
  5
208
330
8
100
AcDbSymbolTableRecord
100
AcDbViewportTableRecord
  2
L4
 70
     0
 10
0.5
 20
0.5
 11
1.0
 21
1.0
 12
0.0
 22
0.0
 13
0.0
 23
0.0
 14
0.5
 24
0.5
 15
0.5
 25
0.5
 16
0.5773502691896258
 26
-0.5773502691896258
 36
0.5773502691896258
 17
0.0
 27
0.0
 37
0.0
 40
1285.020866
 41
0.013818
 42
50.0
 43
667.141407
 44
-667.141407
 50
0.0
 51
0.0
 71
     0
 72
   100
 73
     1
 74
     3
 75
     0
 76
     0
 77
     0
 78
     0
  0
VPORT
  5
209
330
8
100
AcDbSymbolTableRecord
100
AcDbViewportTableRecord
  2
L6
 70
     0
 10
0.0
 20
0.5
 11
0.333333
 21
1.0
 12
0.0
 22
0.0
 13
0.0
 23
0.0
 14
0.5
 24
0.5
 15
0.5
 25
0.5
 16
0.7188730927569434
 26
-0.5850486126764431
 36
0.3754192287502549
 17
0.0
 27
0.0
 37
0.0
 40
1357.434192
 41
0.013081
 42
50.0
 43
701.839477
 44
-701.839477
 50
0.0
 51
0.0
 71
     0
 72
   100
 73
     1
 74
     3
 75
     0
 76
     0
 77
     0
 78
     0
  0
VPORT
  5
20A
330
8
100
AcDbSymbolTableRecord
100
AcDbViewportTableRecord
  2
L6
 70
     0
 10
0.0
 20
0.0
 11
0.333333
 21
0.5
 12
0.0
 22
0.0
 13
0.0
 23
0.0
 14
0.5
 24
0.5
 15
0.5
 25
0.5
 16
-1.0
 26
0.0
 36
0.0
 17
0.0
 27
0.0
 37
0.0
 40
1319.822715
 41
0.013454
 42
50.0
 43
672.020833
 44
-672.020833
 50
0.0
 51
0.0
 71
     0
 72
   100
 73
     1
 74
     3
 75
     0
 76
     0
 77
     0
 78
     0
  0
VPORT
  5
20B
330
8
100
AcDbSymbolTableRecord
100
AcDbViewportTableRecord
  2
L6
 70
     0
 10
0.333333
 20
0.5
 11
0.666667
 21
1.0
 12
420.500061
 22
299.0
 13
0.0
 23
0.0
 14
0.5
 24
0.5
 15
0.5
 25
0.5
 16
0.0
 26
0.0
 36
1.0
 17
0.0
 27
0.0
 37
0.0
 40
254.0
 41
0.069908
 42
50.0
 43
1617.513779
 44
-1617.513779
 50
0.0
 51
0.0
 71
     0
 72
   100
 73
     1
 74
     3
 75
     0
 76
     0
 77
     0
 78
     0
  0
VPORT
  5
20C
330
8
100
AcDbSymbolTableRecord
100
AcDbViewportTableRecord
  2
L6
 70
     0
 10
0.333333
 20
0.0
 11
0.666667
 21
0.5
 12
0.0
 22
0.0
 13
0.0
 23
0.0
 14
0.5
 24
0.5
 15
0.5
 25
0.5
 16
0.0
 26
-1.0
 36
0.0
 17
0.0
 27
0.0
 37
0.0
 40
1319.822715
 41
0.013454
 42
50.0
 43
672.020833
 44
-672.020833
 50
0.0
 51
0.0
 71
     0
 72
   100
 73
     1
 74
     3
 75
     0
 76
     0
 77
     0
 78
     0
  0
VPORT
  5
20D
330
8
100
AcDbSymbolTableRecord
100
AcDbViewportTableRecord
  2
L6
 70
     0
 10
0.666667
 20
0.5
 11
1.0
 21
1.0
 12
0.0
 22
0.0
 13
0.0
 23
0.0
 14
0.5
 24
0.5
 15
0.5
 25
0.5
 16
0.5773502691896258
 26
-0.5773502691896258
 36
0.5773502691896258
 17
0.0
 27
0.0
 37
0.0
 40
1285.020866
 41
0.013818
 42
50.0
 43
667.141407
 44
-667.141407
 50
0.0
 51
0.0
 71
     0
 72
   100
 73
     1
 74
     3
 75
     0
 76
     0
 77
     0
 78
     0
  0
VPORT
  5
20E
330
8
100
AcDbSymbolTableRecord
100
AcDbViewportTableRecord
  2
L6
 70
     0
 10
0.666667
 20
0.0
 11
1.0
 21
0.5
 12
0.0
 22
0.0
 13
0.0
 23
0.0
 14
0.5
 24
0.5
 15
0.5
 25
0.5
 16
1.0
 26
0.0
 36
0.0
 17
0.0
 27
0.0
 37
0.0
 40
1319.822715
 41
0.013454
 42
50.0
 43
672.020833
 44
-672.020833
 50
0.0
 51
0.0
 71
     0
 72
   100
 73
     1
 74
     3
 75
     0
 76
     0
 77
     0
 78
     0
  0
ENDTAB
  0
TABLE
  2
LTYPE
  5
5
330
0
100
AcDbSymbolTable
 70
     7
  0
LTYPE
  5
14
330
5
100
AcDbSymbolTableRecord
100
AcDbLinetypeTableRecord
  2
BYBLOCK
 70
     0
  3

 72
    65
 73
     0
 40
0.0
  0
LTYPE
  5
15
330
5
100
AcDbSymbolTableRecord
100
AcDbLinetypeTableRecord
  2
BYLAYER
 70
     0
  3

 72
    65
 73
     0
 40
0.0
  0
LTYPE
  5
16
330
5
100
AcDbSymbolTableRecord
100
AcDbLinetypeTableRecord
  2
CONTINUOUS
 70
     0
  3
Solid line
 72
    65
 73
     0
 40
0.0
  0
LTYPE
  5
3B
330
5
100
AcDbSymbolTableRecord
100
AcDbLinetypeTableRecord
  2
DASHED
 70
     0
  3
__ __ __ __ __ __ __ __ __
 72
    65
 73
     2
 40
25.72
 49
12.86
 74
     4
 75
     0
340
0
 46
0.0
 50
0.0
 44
0.0
 45
0.0
 49
-12.86
 74
     4
 75
     0
340
0
 46
0.0
 50
0.0
 44
0.0
 45
0.0
  0
LTYPE
  5
3C
330
5
100
AcDbSymbolTableRecord
100
AcDbLinetypeTableRecord
  2
HIDDEN
 70
     0
  3
_ _ _ _ _ _ _ _ _ _ _ _ _ _ _
 72
    65
 73
     2
 40
0.5
 49
0.25
 74
     4
 75
     0
340
0
 46
0.0
 50
0.0
 44
0.0
 45
0.0
 49
-0.25
 74
     4
 75
     0
340
0
 46
0.0
 50
0.0
 44
0.0
 45
0.0
  0
LTYPE
  5
3D
330
5
100
AcDbSymbolTableRecord
100
AcDbLinetypeTableRecord
  2
PHANTOM
 70
     0
  3
____ _ _ ____ _ _ _____ _ _ ____
 72
    65
 73
     6
 40
50.5
 49
18.0
 74
     4
 75
     0
340
0
 46
0.0
 50
0.0
 44
0.0
 45
0.0
 49
-6.5
 74
     4
 75
     0
340
0
 46
0.0
 50
0.0
 44
0.0
 45
0.0
 49
6.5
 74
     4
 75
     0
340
0
 46
0.0
 50
0.0
 44
0.0
 45
0.0
 49
-6.5
 74
     4
 75
     0
340
0
 46
0.0
 50
0.0
 44
0.0
 45
0.0
 49
6.5
 74
     4
 75
     0
340
0
 46
0.0
 50
0.0
 44
0.0
 45
0.0
 49
-6.5
 74
     4
 75
     0
340
0
 46
0.0
 50
0.0
 44
0.0
 45
0.0
  0
LTYPE
  5
3E
330
5
100
AcDbSymbolTableRecord
100
AcDbLinetypeTableRecord
  2
CENTER
 70
     0
  3
____ _ ____ _ ____ _ ____
 72
    65
 73
     4
 40
47.4
 49
22.0
 74
     4
 75
     0
340
0
 46
0.0
 50
0.0
 44
0.0
 45
0.0
 49
-8.5
 74
     4
 75
     0
340
0
 46
0.0
 50
0.0
 44
0.0
 45
0.0
 49
8.5
 74
     4
 75
     0
340
0
 46
0.0
 50
0.0
 44
0.0
 45
0.0
 49
-8.5
 74
     4
 75
     0
340
0
 46
0.0
 50
0.0
 44
0.0
 45
0.0
  0
LTYPE
  5
3F
330
5
100
AcDbSymbolTableRecord
100
AcDbLinetypeTableRecord
  2
DOT
 70
     0
  3
.........................
 72
    65
 73
     2
 40
10.0
 49
0.0
 74
     4
 75
     0
340
0
 46
0.0
 50
0.0
 44
0.0
 45
0.0
 49
-10.0
 74
     4
 75
     0
340
0
 46
0.0
 50
0.0
 44
0.0
 45
0.0
  0
LTYPE
  5
40
330
5
100
AcDbSymbolTableRecord
100
AcDbLinetypeTableRecord
  2
DASHDOT
 70
     0
  3
_._._._._._._._._._._._._._._._.
 72
    65
 73
     4
 40
70.0
 49
31.0
 74
     4
 75
     0
340
0
 46
0.0
 50
0.0
 44
0.0
 45
0.0
 49
-13.0
 74
     4
 75
     0
340
0
 46
0.0
 50
0.0
 44
0.0
 45
0.0
 49
13.0
 74
     4
 75
     0
340
0
 46
0.0
 50
0.0
 44
0.0
 45
0.0
 49
-13.0
 74
     4
 75
     0
340
0
 46
0.0
 50
0.0
 44
0.0
 45
0.0
  0
ENDTAB
  0
TABLE
  2
LAYER
  5
2
330
0
100
AcDbSymbolTable
 70
     4
  0
LAYER
  5
10
330
2
100
AcDbSymbolTableRecord
100
AcDbLayerTableRecord
  2
0
 70
     0
 62
     7
  6
CONTINUOUS
  0
LAYER
  5
42
330
2
100
AcDbSymbolTableRecord
100
AcDbLayerTableRecord
  2
1
 70
     0
 62
     7
  6
CONTINUOUS
  0
LAYER
  5
B4
330
2
100
AcDbSymbolTableRecord
100
AcDbLayerTableRecord
  2
201
 70
     0
 62
     7
  6
CONTINUOUS
  0
LAYER
  5
132
330
2
100
AcDbSymbolTableRecord
100
AcDbLayerTableRecord
  2
TOP
 70
     0
 62
     7
  6
CONTINUOUS
  0
ENDTAB
  0
TABLE
  2
STYLE
  5
3
330
0
100
AcDbSymbolTable
 70
     3
  0
STYLE
  5
11
330
3
100
AcDbSymbolTableRecord
100
AcDbTextStyleTableRecord
  2
STANDARD
 70
     0
 40
0.0
 41
1.0
 50
0.0
 71
     0
 42
0.2
  3
txt
  4

  0
STYLE
  5
130
330
3
100
AcDbSymbolTableRecord
100
AcDbTextStyleTableRecord
  2
DEFAULT
 70
     0
 40
0.0
 41
1.0
 50
0.0
 71
     0
 42
0.2
  3
simplex.shx
  4

  0
STYLE
  5
131
330
3
100
AcDbSymbolTableRecord
100
AcDbTextStyleTableRecord
  2
DWGDIRECTTEXTSTYLE
 70
     0
 40
0.0
 41
1.0
 50
0.0
 71
     0
 42
0.2
  3
SIMPLEX
  4
bigfont
  0
ENDTAB
  0
TABLE
  2
VIEW
  5
6
330
0
100
AcDbSymbolTable
 70
     0
  0
ENDTAB
  0
TABLE
  2
UCS
  5
7
330
0
100
AcDbSymbolTable
 70
     0
  0
ENDTAB
  0
TABLE
  2
APPID
  5
9
330
0
100
AcDbSymbolTable
 70
     1
  0
APPID
  5
12
330
9
100
AcDbSymbolTableRecord
100
AcDbRegAppTableRecord
  2
ACAD
 70
     0
  0
ENDTAB
  0
TABLE
  2
DIMSTYLE
  5
A
330
0
100
AcDbSymbolTable
 70
     1
  0
DIMSTYLE
105
27
102
{ACAD_REACTORS
330
193
330
19B
330
1A4
330
1AC
330
1B6
330
1C0
330
1CA
330
1D4
330
1DE
330
1E8
330
1F2
330
1FC
102
}
330
A
100
AcDbSymbolTableRecord
100
AcDbDimStyleTableRecord
  2
STANDARD
 70
     0
  3

  4

  5

  6

  7

 40
1.0
 41
0.18
 42
0.0625
 43
0.38
 44
0.18
 45
0.0
 46
0.0
 47
0.0
 48
0.0
140
0.18
141
0.09
142
0.0
143
25.4
144
1.0
145
0.0
146
1.0
147
0.09
 71
     0
 72
     0
 73
     1
 74
     1
 75
     0
 76
     0
 77
     0
 78
     0
170
     0
171
     2
172
     0
173
     0
174
     0
175
     0
176
     0
177
     0
178
     0
270
     2
271
     4
272
     4
273
     2
274
     2
340
11
275
     0
280
     0
281
     0
282
     0
283
     1
284
     0
285
     0
286
     0
287
     3
288
     0
  0
ENDTAB
  0
TABLE
  2
BLOCK_RECORD
  5
1
330
0
100
AcDbSymbolTable
 70
    14
  0
BLOCK_RECORD
  5
1F
330
1
100
AcDbSymbolTableRecord
100
AcDbBlockTableRecord
  2
*MODEL_SPACE
  0
BLOCK_RECORD
  5
1B
330
1
100
AcDbSymbolTableRecord
100
AcDbBlockTableRecord
  2
*PAPER_SPACE
  0
BLOCK_RECORD
  5
179
330
1
100
AcDbSymbolTableRecord
100
AcDbBlockTableRecord
  2
LABLE3D_1
  0
BLOCK_RECORD
  5
18A
330
1
100
AcDbSymbolTableRecord
100
AcDbBlockTableRecord
  2
DIMNDRAFT3D1
  0
BLOCK_RECORD
  5
194
330
1
100
AcDbSymbolTableRecord
100
AcDbBlockTableRecord
  2
DIMNDRAFT3D2
  0
BLOCK_RECORD
  5
19C
330
1
100
AcDbSymbolTableRecord
100
AcDbBlockTableRecord
  2
DIMNDRAFT3D3
  0
BLOCK_RECORD
  5
1A5
330
1
100
AcDbSymbolTableRecord
100
AcDbBlockTableRecord
  2
DIMNDRAFT3D4
  0
BLOCK_RECORD
  5
1AD
330
1
100
AcDbSymbolTableRecord
100
AcDbBlockTableRecord
  2
DIMNDRAFT3D5
  0
BLOCK_RECORD
  5
1B7
330
1
100
AcDbSymbolTableRecord
100
AcDbBlockTableRecord
  2
DIMNDRAFT3D6
  0
BLOCK_RECORD
  5
1C1
330
1
100
AcDbSymbolTableRecord
100
AcDbBlockTableRecord
  2
DIMNDRAFT3D7
  0
BLOCK_RECORD
  5
1CB
330
1
100
AcDbSymbolTableRecord
100
AcDbBlockTableRecord
  2
DIMNDRAFT3D8
  0
BLOCK_RECORD
  5
1D5
330
1
100
AcDbSymbolTableRecord
100
AcDbBlockTableRecord
  2
DIMNDRAFT3D9
  0
BLOCK_RECORD
  5
1DF
330
1
100
AcDbSymbolTableRecord
100
AcDbBlockTableRecord
  2
DIMNDRAFT3D10
  0
BLOCK_RECORD
  5
1E9
330
1
100
AcDbSymbolTableRecord
100
AcDbBlockTableRecord
  2
DIMNDRAFT3D11
  0
BLOCK_RECORD
  5
1F3
330
1
100
AcDbSymbolTableRecord
100
AcDbBlockTableRecord
  2
DIMNDRAFT3D12
  0
ENDTAB
  0
ENDSEC
  0
SECTION
  2
BLOCKS
  0
BLOCK
  5
20
330
1F
100
AcDbEntity
  8
0
100
AcDbBlockBegin
  2
*MODEL_SPACE
 70
     0
 10
0.0
 20
0.0
 30
0.0
  3
*MODEL_SPACE
  1

  0
ENDBLK
  5
21
330
1F
100
AcDbEntity
  8
0
100
AcDbBlockEnd
  0
BLOCK
  5
1C
330
1B
100
AcDbEntity
 67
     1
  8
0
100
AcDbBlockBegin
  2
*PAPER_SPACE
 70
     0
 10
0.0
 20
0.0
 30
0.0
  3
*PAPER_SPACE
  1

  0
ENDBLK
  5
1D
330
1B
100
AcDbEntity
 67
     1
  8
0
100
AcDbBlockEnd
  0
BLOCK
  5
17F
330
179
100
AcDbEntity
  8
0
100
AcDbBlockBegin
  2
LABLE3D_1
 70
     0
 10
0.0
 20
0.0
 30
0.0
  3
LABLE3D_1
  1

  0
MTEXT
  5
17A
330
179
100
AcDbEntity
  8
TOP
  6
CONTINUOUS
 62
     1
100
AcDbMText
 10
456.447506
 20
469.703693
 30
0.0
 40
6.0
 41
0.0
 71
     7
 72
     5
  1
\W00.982;\fsimplex.shx,bigfont.shx;4-M10x1.5 NUT\PWELDING\P
  7
DEFAULT
1001
ACAD
1000
MTEXTBEGIN
1070
    44
1040
0.903614
1000
MTEXTEND
  0
LINE
  5
17B
330
179
100
AcDbEntity
  8
TOP
  6
CONTINUOUS
 62
     1
100
AcDbLine
 10
527.082006
 20
469.103693
 30
0.0
 11
453.947506
 21
469.103693
 31
0.0
  0
LINE
  5
17C
330
179
100
AcDbEntity
  8
TOP
  6
CONTINUOUS
 62
     1
100
AcDbLine
 10
413.593665
 20
427.848649
 30
0.0
 11
453.947506
 21
469.103693
 31
0.0
  0
SOLID
  5
17D
330
179
100
AcDbEntity
  8
TOP
  6
CONTINUOUS
 62
     1
100
AcDbTrace
 10
413.593665
 20
427.848649
 30
0.0
 11
415.370634
 21
431.006475
 31
0.0
 12
416.711484
 22
429.694926
 32
0.0
 13
413.593665
 23
427.848649
 33
0.0
  0
ENDBLK
  5
180
330
179
100
AcDbEntity
  8
0
100
AcDbBlockEnd
  0
BLOCK
  5
191
330
18A
100
AcDbEntity
  8
0
100
AcDbBlockBegin
  2
DIMNDRAFT3D1
 70
     0
 10
0.0
 20
0.0
 30
0.0
  3
DIMNDRAFT3D1
  1

  0
MTEXT
  5
18B
330
18A
100
AcDbEntity
  8
TOP
  6
CONTINUOUS
 62
     1
100
AcDbMText
 10
367.023131
 20
129.035579
 30
0.0
 40
6.0
 41
15.262
 71
     7
 72
     5
  1
\W01.000;\fsimplex.shx,bigfont.shx;166\P
  7
DEFAULT
1001
ACAD
1000
MTEXTBEGIN
1070
    44
1040
0.903614
1000
MTEXTEND
  0
LINE
  5
18C
330
18A
100
AcDbEntity
  8
TOP
  6
CONTINUOUS
 62
     1
100
AcDbLine
 10
290.154131
 20
181.547932
 30
0.0
 11
290.154131
 21
125.973079
 31
0.0
  0
LINE
  5
18D
330
18A
100
AcDbEntity
  8
TOP
  6
CONTINUOUS
 62
     1
100
AcDbLine
 10
456.154131
 20
181.547932
 30
0.0
 11
456.154131
 21
125.973079
 31
0.0
  0
LINE
  5
18E
330
18A
100
AcDbEntity
  8
TOP
  6
CONTINUOUS
 62
     1
100
AcDbLine
 10
290.154131
 20
127.973079
 30
0.0
 11
456.154131
 21
127.973079
 31
0.0
  0
SOLID
  5
18F
330
18A
100
AcDbEntity
  8
TOP
  6
CONTINUOUS
 62
     1
100
AcDbTrace
 10
290.154131
 20
127.973079
 30
0.0
 11
293.654127
 21
128.910901
 31
0.0
 12
293.654134
 22
127.035257
 32
0.0
 13
290.154131
 23
127.973079
 33
0.0
  0
SOLID
  5
190
330
18A
100
AcDbEntity
  8
TOP
  6
CONTINUOUS
 62
     1
100
AcDbTrace
 10
456.154131
 20
127.973079
 30
0.0
 11
452.654134
 21
127.035257
 31
0.0
 12
452.654127
 22
128.910901
 32
0.0
 13
456.154131
 23
127.973079
 33
0.0
  0
ENDBLK
  5
192
330
18A
100
AcDbEntity
  8
0
100
AcDbBlockEnd
  0
BLOCK
  5
199
330
194
100
AcDbEntity
  8
0
100
AcDbBlockBegin
  2
DIMNDRAFT3D2
 70
     0
 10
0.0
 20
0.0
 30
0.0
  3
DIMNDRAFT3D2
  1

  0
MTEXT
  5
195
330
194
100
AcDbEntity
  8
TOP
  6
CONTINUOUS
 62
     1
100
AcDbMText
 10
308.357011
 20
438.436951
 30
0.0
 40
6.0
 41
14.887
 71
     7
 72
     5
  1
\W01.000;\fsimplex.shx,bigfont.shx;45%%d\P
  7
DEFAULT
 11
0.3826834323650892
 21
-0.9238795325112871
 31
0.0
1001
ACAD
1000
MTEXTBEGIN
1070
    44
1040
0.903614
1000
MTEXTEND
  0
ARC
  5
196
330
194
100
AcDbEntity
  8
TOP
  6
CONTINUOUS
 62
     1
100
AcDbCircle
 10
279.011995
 20
419.848649
 30
0.0
 40
33.16219495494931
100
AcDbArc
 50
0.0
 51
45.0
  0
SOLID
  5
197
330
194
100
AcDbEntity
  8
TOP
  6
CONTINUOUS
 62
     1
100
AcDbTrace
 10
312.17419
 20
419.848649
 30
0.0
 11
311.144441
 21
423.322711
 31
0.0
 12
313.019434
 22
423.372156
 32
0.0
 13
312.17419
 23
419.848649
 33
0.0
  0
SOLID
  5
198
330
194
100
AcDbEntity
  8
TOP
  6
CONTINUOUS
 62
     1
100
AcDbTrace
 10
302.461208
 20
443.297862
 30
0.0
 11
305.550376
 21
441.404049
 31
0.0
 12
304.189603
 22
440.113182
 32
0.0
 13
302.461208
 23
443.297862
 33
0.0
  0
ENDBLK
  5
19A
330
194
100
AcDbEntity
  8
0
100
AcDbBlockEnd
  0
BLOCK
  5
1A2
330
19C
100
AcDbEntity
  8
0
100
AcDbBlockBegin
  2
DIMNDRAFT3D3
 70
     0
 10
0.0
 20
0.0
 30
0.0
  3
DIMNDRAFT3D3
  1

  0
MTEXT
  5
19D
330
19C
100
AcDbEntity
  8
TOP
  6
CONTINUOUS
 62
     1
100
AcDbMText
 10
468.267118
 20
390.212833
 30
0.0
 40
6.0
 41
6.756
 71
     7
 72
     5
  1
\W01.000;\fsimplex.shx,bigfont.shx;11\P
  7
DEFAULT
 11
0.8181580334911595
 21
0.5749934192961509
 31
0.0
1001
ACAD
1000
MTEXTBEGIN
1070
    44
1040
0.903614
1000
MTEXTEND
  0
MTEXT
  5
19E
330
19C
100
AcDbEntity
  8
TOP
  6
CONTINUOUS
 62
     1
100
AcDbMText
 10
443.266644
 20
373.629464
 30
0.0
 40
3.5
 41
13.864667
 71
     7
 72
     5
  1
\W01.000;\fsimplex.shx,bigfont.shx;\H12.00;4-\H6.00;\P
  7
DEFAULT
 11
0.8181580334911595
 21
0.5749934192961509
 31
0.0
1001
ACAD
1000
MTEXTBEGIN
1070
    44
1040
0.903614
1000
MTEXTEND
  0
MTEXT
  5
19F
330
19C
100
AcDbEntity
  8
TOP
  6
CONTINUOUS
 62
     1
100
AcDbMText
 10
458.449222
 20
383.312912
 30
0.0
 40
6.0
 41
12.0
 71
     7
 72
     5
  1
\W01.000;\fsimplex.shx,bigfont.shx;%%c\P
  7
DEFAULT
 11
0.8181580334911595
 21
0.5749934192961509
 31
0.0
1001
ACAD
1000
MTEXTBEGIN
1070
    44
1040
0.903614
1000
MTEXTEND
  0
LINE
  5
1A0
330
19C
100
AcDbEntity
  8
TOP
  6
CONTINUOUS
 62
     1
100
AcDbLine
 10
417.654
 20
351.510396
 30
0.0
 11
474.040777
 21
391.138469
 31
0.0
  0
SOLID
  5
1A1
330
19C
100
AcDbEntity
  8
TOP
  6
CONTINUOUS
 62
     1
100
AcDbTrace
 10
417.654
 20
351.510396
 30
0.0
 11
419.978309
 21
354.290158
 31
0.0
 12
421.056798
 22
352.755588
 32
0.0
 13
417.654
 23
351.510396
 33
0.0
  0
ENDBLK
  5
1A3
330
19C
100
AcDbEntity
  8
0
100
AcDbBlockEnd
  0
BLOCK
  5
1AA
330
1A5
100
AcDbEntity
  8
0
100
AcDbBlockBegin
  2
DIMNDRAFT3D4
 70
     0
 10
0.0
 20
0.0
 30
0.0
  3
DIMNDRAFT3D4
  1

  0
MTEXT
  5
1A6
330
1A5
100
AcDbEntity
  8
TOP
  6
CONTINUOUS
 62
     1
100
AcDbMText
 10
410.514711
 20
299.341626
 30
0.0
 40
6.0
 41
11.881
 71
     7
 72
     5
  1
\W01.000;\fsimplex.shx,bigfont.shx;45\P
  7
DEFAULT
 11
0.8517198838232455
 21
0.5239973659286055
 31
0.0
1001
ACAD
1000
MTEXTBEGIN
1070
    44
1040
0.903614
1000
MTEXTEND
  0
MTEXT
  5
1A7
330
1A5
100
AcDbEntity
  8
TOP
  6
CONTINUOUS
 62
     1
100
AcDbMText
 10
400.294072
 20
293.053657
 30
0.0
 40
6.0
 41
12.0
 71
     7
 72
     5
  1
\W01.000;\fsimplex.shx,bigfont.shx;%%c\P
  7
DEFAULT
 11
0.8517198838232455
 21
0.5239973659286055
 31
0.0
1001
ACAD
1000
MTEXTBEGIN
1070
    44
1040
0.903614
1000
MTEXTEND
  0
LINE
  5
1A8
330
1A5
100
AcDbEntity
  8
TOP
  6
CONTINUOUS
 62
     1
100
AcDbLine
 10
392.317828
 20
285.137873
 30
0.0
 11
420.699158
 21
302.59871
 31
0.0
  0
SOLID
  5
1A9
330
1A5
100
AcDbEntity
  8
TOP
  6
CONTINUOUS
 62
     1
100
AcDbTrace
 10
392.317828
 20
285.137873
 30
0.0
 11
394.807429
 21
287.770624
 31
0.0
 12
395.790267
 22
286.173104
 32
0.0
 13
392.317828
 23
285.137873
 33
0.0
  0
ENDBLK
  5
1AB
330
1A5
100
AcDbEntity
  8
0
100
AcDbBlockEnd
  0
BLOCK
  5
1B4
330
1AD
100
AcDbEntity
  8
0
100
AcDbBlockBegin
  2
DIMNDRAFT3D5
 70
     0
 10
0.0
 20
0.0
 30
0.0
  3
DIMNDRAFT3D5
  1

  0
MTEXT
  5
1AE
330
1AD
100
AcDbEntity
  8
TOP
  6
CONTINUOUS
 62
     1
100
AcDbMText
 10
368.713631
 20
154.661602
 30
0.0
 40
6.0
 41
11.881
 71
     7
 72
     5
  1
\W01.000;\fsimplex.shx,bigfont.shx;80\P
  7
DEFAULT
1001
ACAD
1000
MTEXTBEGIN
1070
    44
1040
0.903614
1000
MTEXTEND
  0
LINE
  5
1AF
330
1AD
100
AcDbEntity
  8
TOP
  6
CONTINUOUS
 62
     1
100
AcDbLine
 10
333.154131
 20
198.047932
 30
0.0
 11
333.154131
 21
151.599102
 31
0.0
  0
LINE
  5
1B0
330
1AD
100
AcDbEntity
  8
TOP
  6
CONTINUOUS
 62
     1
100
AcDbLine
 10
413.154131
 20
198.047932
 30
0.0
 11
413.154131
 21
151.599102
 31
0.0
  0
LINE
  5
1B1
330
1AD
100
AcDbEntity
  8
TOP
  6
CONTINUOUS
 62
     1
100
AcDbLine
 10
333.154131
 20
153.599102
 30
0.0
 11
413.154131
 21
153.599102
 31
0.0
  0
SOLID
  5
1B2
330
1AD
100
AcDbEntity
  8
TOP
  6
CONTINUOUS
 62
     1
100
AcDbTrace
 10
333.154131
 20
153.599102
 30
0.0
 11
336.654127
 21
154.536924
 31
0.0
 12
336.654134
 22
152.66128
 32
0.0
 13
333.154131
 23
153.599102
 33
0.0
  0
SOLID
  5
1B3
330
1AD
100
AcDbEntity
  8
TOP
  6
CONTINUOUS
 62
     1
100
AcDbTrace
 10
413.154131
 20
153.599102
 30
0.0
 11
409.654134
 21
152.66128
 31
0.0
 12
409.654127
 22
154.536924
 32
0.0
 13
413.154131
 23
153.599102
 33
0.0
  0
ENDBLK
  5
1B5
330
1AD
100
AcDbEntity
  8
0
100
AcDbBlockEnd
  0
BLOCK
  5
1BE
330
1B7
100
AcDbEntity
  8
0
100
AcDbBlockBegin
  2
DIMNDRAFT3D6
 70
     0
 10
0.0
 20
0.0
 30
0.0
  3
DIMNDRAFT3D6
  1

  0
MTEXT
  5
1B8
330
1B7
100
AcDbEntity
  8
TOP
  6
CONTINUOUS
 62
     1
100
AcDbMText
 10
640.136204
 20
385.295813
 30
0.0
 40
6.0
 41
9.3185
 71
     7
 72
     5
  1
\W01.000;\fsimplex.shx,bigfont.shx;10\P
  7
DEFAULT
1001
ACAD
1000
MTEXTBEGIN
1070
    44
1040
0.903614
1000
MTEXTEND
  0
LINE
  5
1B9
330
1B7
100
AcDbEntity
  8
TOP
  6
CONTINUOUS
 62
     1
100
AcDbLine
 10
638.295454
 20
355.147932
 30
0.0
 11
638.295454
 21
386.233313
 31
0.0
  0
LINE
  5
1BA
330
1B7
100
AcDbEntity
  8
TOP
  6
CONTINUOUS
 62
     1
100
AcDbLine
 10
648.295454
 20
360.147932
 30
0.0
 11
648.295454
 21
386.233313
 31
0.0
  0
LINE
  5
1BB
330
1B7
100
AcDbEntity
  8
TOP
  6
CONTINUOUS
 62
     1
100
AcDbLine
 10
638.295454
 20
384.233313
 30
0.0
 11
648.295454
 21
384.233313
 31
0.0
  0
SOLID
  5
1BC
330
1B7
100
AcDbEntity
  8
TOP
  6
CONTINUOUS
 62
     1
100
AcDbTrace
 10
638.295454
 20
384.233313
 30
0.0
 11
641.79545
 21
385.171136
 31
0.0
 12
641.795457
 22
383.295491
 32
0.0
 13
638.295454
 23
384.233313
 33
0.0
  0
SOLID
  5
1BD
330
1B7
100
AcDbEntity
  8
TOP
  6
CONTINUOUS
 62
     1
100
AcDbTrace
 10
648.295454
 20
384.233313
 30
0.0
 11
644.795457
 21
383.295491
 31
0.0
 12
644.79545
 22
385.171136
 32
0.0
 13
648.295454
 23
384.233313
 33
0.0
  0
ENDBLK
  5
1BF
330
1B7
100
AcDbEntity
  8
0
100
AcDbBlockEnd
  0
BLOCK
  5
1C8
330
1C1
100
AcDbEntity
  8
0
100
AcDbBlockBegin
  2
DIMNDRAFT3D7
 70
     0
 10
0.0
 20
0.0
 30
0.0
  3
DIMNDRAFT3D7
  1

  0
MTEXT
  5
1C2
330
1C1
100
AcDbEntity
  8
TOP
  6
CONTINUOUS
 62
     1
100
AcDbMText
 10
625.450856
 20
384.983301
 30
0.0
 40
6.0
 41
9.3185
 71
     7
 72
     5
  1
\W01.000;\fsimplex.shx,bigfont.shx;15\P
  7
DEFAULT
1001
ACAD
1000
MTEXTBEGIN
1070
    44
1040
0.903614
1000
MTEXTEND
  0
LINE
  5
1C3
330
1C1
100
AcDbEntity
  8
TOP
  6
CONTINUOUS
 62
     1
100
AcDbLine
 10
623.295454
 20
355.147932
 30
0.0
 11
623.295454
 21
385.920801
 31
0.0
  0
LINE
  5
1C4
330
1C1
100
AcDbEntity
  8
TOP
  6
CONTINUOUS
 62
     1
100
AcDbLine
 10
638.295454
 20
355.147932
 30
0.0
 11
638.295454
 21
385.920801
 31
0.0
  0
LINE
  5
1C5
330
1C1
100
AcDbEntity
  8
TOP
  6
CONTINUOUS
 62
     1
100
AcDbLine
 10
623.295454
 20
383.920801
 30
0.0
 11
638.295454
 21
383.920801
 31
0.0
  0
SOLID
  5
1C6
330
1C1
100
AcDbEntity
  8
TOP
  6
CONTINUOUS
 62
     1
100
AcDbTrace
 10
623.295454
 20
383.920801
 30
0.0
 11
626.79545
 21
384.858623
 31
0.0
 12
626.795457
 22
382.982979
 32
0.0
 13
623.295454
 23
383.920801
 33
0.0
  0
SOLID
  5
1C7
330
1C1
100
AcDbEntity
  8
TOP
  6
CONTINUOUS
 62
     1
100
AcDbTrace
 10
638.295454
 20
383.920801
 30
0.0
 11
634.795457
 21
382.982979
 31
0.0
 12
634.79545
 22
384.858623
 32
0.0
 13
638.295454
 23
383.920801
 33
0.0
  0
ENDBLK
  5
1C9
330
1C1
100
AcDbEntity
  8
0
100
AcDbBlockEnd
  0
BLOCK
  5
1D2
330
1CB
100
AcDbEntity
  8
0
100
AcDbBlockBegin
  2
DIMNDRAFT3D8
 70
     0
 10
0.0
 20
0.0
 30
0.0
  3
DIMNDRAFT3D8
  1

  0
MTEXT
  5
1CC
330
1CB
100
AcDbEntity
  8
TOP
  6
CONTINUOUS
 62
     1
100
AcDbMText
 10
497.165136
 20
267.216932
 30
0.0
 40
6.0
 41
15.262
 71
     7
 72
     5
  1
\W01.000;\fsimplex.shx,bigfont.shx;183\P
  7
DEFAULT
 11
6.123031769111886E-17
 21
1.0
 31
0.0
1001
ACAD
1000
MTEXTBEGIN
1070
    44
1040
0.903614
1000
MTEXTEND
  0
LINE
  5
1CD
330
1CB
100
AcDbEntity
  8
TOP
  6
CONTINUOUS
 62
     1
100
AcDbLine
 10
456.454131
 20
181.847932
 30
0.0
 11
500.227636
 21
181.847932
 31
0.0
  0
LINE
  5
1CE
330
1CB
100
AcDbEntity
  8
TOP
  6
CONTINUOUS
 62
     1
100
AcDbLine
 10
456.454131
 20
364.847932
 30
0.0
 11
500.227636
 21
364.847932
 31
0.0
  0
LINE
  5
1CF
330
1CB
100
AcDbEntity
  8
TOP
  6
CONTINUOUS
 62
     1
100
AcDbLine
 10
498.227636
 20
181.847932
 30
0.0
 11
498.227636
 21
364.847932
 31
0.0
  0
SOLID
  5
1D0
330
1CB
100
AcDbEntity
  8
TOP
  6
CONTINUOUS
 62
     1
100
AcDbTrace
 10
498.227636
 20
181.847932
 30
0.0
 11
497.289814
 21
185.347929
 31
0.0
 12
499.165459
 22
185.347936
 32
0.0
 13
498.227636
 23
181.847932
 33
0.0
  0
SOLID
  5
1D1
330
1CB
100
AcDbEntity
  8
TOP
  6
CONTINUOUS
 62
     1
100
AcDbTrace
 10
498.227636
 20
364.847932
 30
0.0
 11
499.165459
 21
361.347936
 31
0.0
 12
497.289814
 22
361.347929
 32
0.0
 13
498.227636
 23
364.847932
 33
0.0
  0
ENDBLK
  5
1D3
330
1CB
100
AcDbEntity
  8
0
100
AcDbBlockEnd
  0
BLOCK
  5
1DC
330
1D5
100
AcDbEntity
  8
0
100
AcDbBlockBegin
  2
DIMNDRAFT3D9
 70
     0
 10
0.0
 20
0.0
 30
0.0
  3
DIMNDRAFT3D9
  1

  0
MTEXT
  5
1D6
330
1D5
100
AcDbEntity
  8
TOP
  6
CONTINUOUS
 62
     1
100
AcDbMText
 10
478.414388
 20
267.216932
 30
0.0
 40
6.0
 41
15.262
 71
     7
 72
     5
  1
\W01.000;\fsimplex.shx,bigfont.shx;150\P
  7
DEFAULT
 11
6.123031769111886E-17
 21
1.0
 31
0.0
1001
ACAD
1000
MTEXTBEGIN
1070
    44
1040
0.903614
1000
MTEXTEND
  0
LINE
  5
1D7
330
1D5
100
AcDbEntity
  8
TOP
  6
CONTINUOUS
 62
     1
100
AcDbLine
 10
423.954131
 20
348.347932
 30
0.0
 11
481.476888
 21
348.347932
 31
0.0
  0
LINE
  5
1D8
330
1D5
100
AcDbEntity
  8
TOP
  6
CONTINUOUS
 62
     1
100
AcDbLine
 10
423.954131
 20
198.347932
 30
0.0
 11
481.476888
 21
198.347932
 31
0.0
  0
LINE
  5
1D9
330
1D5
100
AcDbEntity
  8
TOP
  6
CONTINUOUS
 62
     1
100
AcDbLine
 10
479.476888
 20
348.347932
 30
0.0
 11
479.476888
 21
198.347932
 31
0.0
  0
SOLID
  5
1DA
330
1D5
100
AcDbEntity
  8
TOP
  6
CONTINUOUS
 62
     1
100
AcDbTrace
 10
479.476888
 20
348.347932
 30
0.0
 11
480.41471
 21
344.847936
 31
0.0
 12
478.539065
 22
344.847929
 32
0.0
 13
479.476888
 23
348.347932
 33
0.0
  0
SOLID
  5
1DB
330
1D5
100
AcDbEntity
  8
TOP
  6
CONTINUOUS
 62
     1
100
AcDbTrace
 10
479.476888
 20
198.347932
 30
0.0
 11
478.539065
 21
201.847929
 31
0.0
 12
480.41471
 22
201.847936
 32
0.0
 13
479.476888
 23
198.347932
 33
0.0
  0
ENDBLK
  5
1DD
330
1D5
100
AcDbEntity
  8
0
100
AcDbBlockEnd
  0
BLOCK
  5
1E6
330
1DF
100
AcDbEntity
  8
0
100
AcDbBlockBegin
  2
DIMNDRAFT3D10
 70
     0
 10
0.0
 20
0.0
 30
0.0
  3
DIMNDRAFT3D10
  1

  0
MTEXT
  5
1E0
330
1DF
100
AcDbEntity
  8
TOP
  6
CONTINUOUS
 62
     1
100
AcDbMText
 10
669.486541
 20
335.407432
 30
0.0
 40
6.0
 41
11.881
 71
     7
 72
     5
  1
\W01.000;\fsimplex.shx,bigfont.shx;30\P
  7
DEFAULT
 11
6.123031769111886E-17
 21
1.0
 31
0.0
1001
ACAD
1000
MTEXTBEGIN
1070
    44
1040
0.903614
1000
MTEXTEND
  0
LINE
  5
1E1
330
1DF
100
AcDbEntity
  8
TOP
  6
CONTINUOUS
 62
     1
100
AcDbLine
 10
638.595454
 20
354.847932
 30
0.0
 11
672.549041
 21
354.847932
 31
0.0
  0
LINE
  5
1E2
330
1DF
100
AcDbEntity
  8
TOP
  6
CONTINUOUS
 62
     1
100
AcDbLine
 10
638.595454
 20
324.847932
 30
0.0
 11
672.549041
 21
324.847932
 31
0.0
  0
LINE
  5
1E3
330
1DF
100
AcDbEntity
  8
TOP
  6
CONTINUOUS
 62
     1
100
AcDbLine
 10
670.549041
 20
354.847932
 30
0.0
 11
670.549041
 21
324.847932
 31
0.0
  0
SOLID
  5
1E4
330
1DF
100
AcDbEntity
  8
TOP
  6
CONTINUOUS
 62
     1
100
AcDbTrace
 10
670.549041
 20
354.847932
 30
0.0
 11
671.486863
 21
351.347936
 31
0.0
 12
669.611219
 22
351.347929
 32
0.0
 13
670.549041
 23
354.847932
 33
0.0
  0
SOLID
  5
1E5
330
1DF
100
AcDbEntity
  8
TOP
  6
CONTINUOUS
 62
     1
100
AcDbTrace
 10
670.549041
 20
324.847932
 30
0.0
 11
669.611219
 21
328.347929
 31
0.0
 12
671.486863
 22
328.347936
 32
0.0
 13
670.549041
 23
324.847932
 33
0.0
  0
ENDBLK
  5
1E7
330
1DF
100
AcDbEntity
  8
0
100
AcDbBlockEnd
  0
BLOCK
  5
1F0
330
1E9
100
AcDbEntity
  8
0
100
AcDbBlockBegin
  2
DIMNDRAFT3D11
 70
     0
 10
0.0
 20
0.0
 30
0.0
  3
DIMNDRAFT3D11
  1

  0
MTEXT
  5
1EA
330
1E9
100
AcDbEntity
  8
TOP
  6
CONTINUOUS
 62
     1
100
AcDbMText
 10
669.174029
 20
356.688682
 30
0.0
 40
6.0
 41
9.3185
 71
     7
 72
     5
  1
\W01.000;\fsimplex.shx,bigfont.shx;10\P
  7
DEFAULT
 11
6.123031769111886E-17
 21
1.0
 31
0.0
1001
ACAD
1000
MTEXTBEGIN
1070
    44
1040
0.903614
1000
MTEXTEND
  0
LINE
  5
1EB
330
1E9
100
AcDbEntity
  8
TOP
  6
CONTINUOUS
 62
     1
100
AcDbLine
 10
631.096454
 20
354.847932
 30
0.0
 11
672.236529
 21
354.847932
 31
0.0
  0
LINE
  5
1EC
330
1E9
100
AcDbEntity
  8
TOP
  6
CONTINUOUS
 62
     1
100
AcDbLine
 10
643.595454
 20
364.847932
 30
0.0
 11
672.236529
 21
364.847932
 31
0.0
  0
LINE
  5
1ED
330
1E9
100
AcDbEntity
  8
TOP
  6
CONTINUOUS
 62
     1
100
AcDbLine
 10
670.236529
 20
354.847932
 30
0.0
 11
670.236529
 21
364.847932
 31
0.0
  0
SOLID
  5
1EE
330
1E9
100
AcDbEntity
  8
TOP
  6
CONTINUOUS
 62
     1
100
AcDbTrace
 10
670.236529
 20
364.847932
 30
0.0
 11
671.174351
 21
361.347936
 31
0.0
 12
669.298706
 22
361.347929
 32
0.0
 13
670.236529
 23
364.847932
 33
0.0
  0
SOLID
  5
1EF
330
1E9
100
AcDbEntity
  8
TOP
  6
CONTINUOUS
 62
     1
100
AcDbTrace
 10
670.236529
 20
354.847932
 30
0.0
 11
669.298706
 21
358.347929
 31
0.0
 12
671.174351
 22
358.347936
 32
0.0
 13
670.236529
 23
354.847932
 33
0.0
  0
ENDBLK
  5
1F1
330
1E9
100
AcDbEntity
  8
0
100
AcDbBlockEnd
  0
BLOCK
  5
1FA
330
1F3
100
AcDbEntity
  8
0
100
AcDbBlockBegin
  2
DIMNDRAFT3D12
 70
     0
 10
0.0
 20
0.0
 30
0.0
  3
DIMNDRAFT3D12
  1

  0
MTEXT
  5
1F4
330
1F3
100
AcDbEntity
  8
TOP
  6
CONTINUOUS
 62
     1
100
AcDbMText
 10
471.4042
 20
422.379899
 30
0.0
 40
6.0
 41
5.9375
 71
     7
 72
     5
  1
\W01.000;\fsimplex.shx,bigfont.shx;8\P
  7
DEFAULT
 11
6.123031769111886E-17
 21
1.0
 31
0.0
1001
ACAD
1000
MTEXTBEGIN
1070
    44
1040
0.903614
1000
MTEXTEND
  0
LINE
  5
1F5
330
1F3
100
AcDbEntity
  8
TOP
  6
CONTINUOUS
 62
     1
100
AcDbLine
 10
413.455131
 20
427.848649
 30
0.0
 11
474.4667
 21
427.848649
 31
0.0
  0
LINE
  5
1F6
330
1F3
100
AcDbEntity
  8
TOP
  6
CONTINUOUS
 62
     1
100
AcDbLine
 10
443.454131
 20
419.848649
 30
0.0
 11
474.4667
 21
419.848649
 31
0.0
  0
LINE
  5
1F7
330
1F3
100
AcDbEntity
  8
TOP
  6
CONTINUOUS
 62
     1
100
AcDbLine
 10
472.4667
 20
427.848649
 30
0.0
 11
472.4667
 21
419.848649
 31
0.0
  0
SOLID
  5
1F8
330
1F3
100
AcDbEntity
  8
TOP
  6
CONTINUOUS
 62
     1
100
AcDbTrace
 10
472.4667
 20
419.848649
 30
0.0
 11
471.528878
 21
423.348646
 31
0.0
 12
473.404523
 22
423.348653
 32
0.0
 13
472.4667
 23
419.848649
 33
0.0
  0
SOLID
  5
1F9
330
1F3
100
AcDbEntity
  8
TOP
  6
CONTINUOUS
 62
     1
100
AcDbTrace
 10
472.4667
 20
427.848649
 30
0.0
 11
473.404523
 21
424.348653
 31
0.0
 12
471.528878
 22
424.348646
 32
0.0
 13
472.4667
 23
427.848649
 33
0.0
  0
ENDBLK
  5
1FB
330
1F3
100
AcDbEntity
  8
0
100
AcDbBlockEnd
  0
ENDSEC
  0
SECTION
  2
ENTITIES
  0
LINE
  5
41
330
1F
100
AcDbEntity
  8
1
  6
CONTINUOUS
 62
   251
100
AcDbLine
 10
283.804131
 20
175.497932
 30
0.0
 11
283.804131
 21
371.197932
 31
0.0
  0
LINE
  5
43
330
1F
100
AcDbEntity
  8
1
  6
CONTINUOUS
 62
   251
100
AcDbLine
 10
462.504131
 20
371.197932
 30
0.0
 11
283.804131
 21
371.197932
 31
0.0
  0
LINE
  5
44
330
1F
100
AcDbEntity
  8
1
  6
CONTINUOUS
 62
   251
100
AcDbLine
 10
462.504131
 20
371.197932
 30
0.0
 11
462.504131
 21
175.497932
 31
0.0
  0
LINE
  5
45
330
1F
100
AcDbEntity
  8
1
  6
CONTINUOUS
 62
   251
100
AcDbLine
 10
283.804131
 20
175.497932
 30
0.0
 11
462.504131
 21
175.497932
 31
0.0
  0
LINE
  5
46
330
1F
100
AcDbEntity
  8
1
  6
CONTINUOUS
 62
   251
100
AcDbLine
 10
283.804131
 20
410.498649
 30
0.0
 11
283.804131
 21
488.31997
 31
0.0
  0
LINE
  5
47
330
1F
100
AcDbEntity
  8
1
  6
CONTINUOUS
 62
   251
100
AcDbLine
 10
462.504131
 20
488.31997
 30
0.0
 11
283.804131
 21
488.31997
 31
0.0
  0
LINE
  5
48
330
1F
100
AcDbEntity
  8
1
  6
CONTINUOUS
 62
   251
100
AcDbLine
 10
462.504131
 20
488.31997
 30
0.0
 11
462.504131
 21
410.498649
 31
0.0
  0
LINE
  5
49
330
1F
100
AcDbEntity
  8
1
  6
CONTINUOUS
 62
   251
100
AcDbLine
 10
283.804131
 20
410.498649
 30
0.0
 11
462.504131
 21
410.498649
 31
0.0
  0
LINE
  5
4A
330
1F
100
AcDbEntity
  8
1
  6
CONTINUOUS
 62
   251
100
AcDbLine
 10
625.907135
 20
410.498649
 30
0.0
 11
625.907135
 21
530.118661
 31
0.0
  0
LINE
  5
4B
330
1F
100
AcDbEntity
  8
1
  6
CONTINUOUS
 62
   251
100
AcDbLine
 10
711.63164
 20
530.118661
 30
0.0
 11
625.907135
 21
530.118661
 31
0.0
  0
LINE
  5
4C
330
1F
100
AcDbEntity
  8
1
  6
CONTINUOUS
 62
   251
100
AcDbLine
 10
711.63164
 20
530.118661
 30
0.0
 11
711.63164
 21
410.498649
 31
0.0
  0
LINE
  5
4D
330
1F
100
AcDbEntity
  8
1
  6
CONTINUOUS
 62
   251
100
AcDbLine
 10
625.907135
 20
410.498649
 30
0.0
 11
711.63164
 21
410.498649
 31
0.0
  0
LINE
  5
4E
330
1F
100
AcDbEntity
  8
1
  6
CONTINUOUS
 62
   251
100
AcDbLine
 10
648.295454
 20
359.847932
 30
0.0
 11
648.295454
 21
166.00426
 31
0.0
  0
LINE
  5
4F
330
1F
100
AcDbEntity
  8
1
  6
CONTINUOUS
 62
   251
100
AcDbLine
 10
648.295454
 20
166.00426
 30
0.0
 11
552.785518
 21
166.00426
 31
0.0
  0
LINE
  5
50
330
1F
100
AcDbEntity
  8
1
  6
CONTINUOUS
 62
   251
100
AcDbLine
 10
552.785518
 20
166.00426
 30
0.0
 11
552.785518
 21
381.629323
 31
0.0
  0
LINE
  5
51
330
1F
100
AcDbEntity
  8
1
  6
CONTINUOUS
 62
   251
100
AcDbLine
 10
552.785518
 20
381.629323
 30
0.0
 11
649.315342
 21
381.629323
 31
0.0
  0
LINE
  5
52
330
1F
100
AcDbEntity
  8
1
  6
CONTINUOUS
 62
   251
100
AcDbLine
 10
649.315342
 20
381.629323
 30
0.0
 11
648.295454
 21
359.847932
 31
0.0
  0
LINE
  5
53
330
1F
100
AcDbEntity
  8
1
  6
CONTINUOUS
 62
   251
 60
     1
100
AcDbLine
 10
0.0
 20
0.0
 30
0.0
 11
0.0
 21
594.0
 31
0.0
  0
LINE
  5
54
330
1F
100
AcDbEntity
  8
1
  6
CONTINUOUS
 62
   251
 60
     1
100
AcDbLine
 10
841.0
 20
594.0
 30
0.0
 11
0.0
 21
594.0
 31
0.0
  0
LINE
  5
55
330
1F
100
AcDbEntity
  8
1
  6
CONTINUOUS
 62
   251
 60
     1
100
AcDbLine
 10
841.0
 20
594.0
 30
0.0
 11
841.0
 21
0.0
 31
0.0
  0
LINE
  5
56
330
1F
100
AcDbEntity
  8
1
  6
CONTINUOUS
 62
   251
 60
     1
100
AcDbLine
 10
0.0
 20
0.0
 30
0.0
 11
841.0
 21
0.0
 31
0.0
  0
LINE
  5
57
330
1F
100
AcDbEntity
  8
1
  6
CONTINUOUS
 62
   252
100
AcDbLine
 10
290.154131
 20
364.847932
 30
0.0
 11
290.154131
 21
181.847932
 31
0.0
  0
LINE
  5
58
330
1F
100
AcDbEntity
  8
1
  6
CONTINUOUS
 62
   252
100
AcDbLine
 10
456.154131
 20
181.847932
 30
0.0
 11
456.154131
 21
364.847932
 31
0.0
  0
LINE
  5
59
330
1F
100
AcDbEntity
  8
1
  6
CONTINUOUS
 62
   252
100
AcDbLine
 10
443.154131
 20
364.847932
 30
0.0
 11
443.154131
 21
181.847932
 31
0.0
  0
LINE
  5
5A
330
1F
100
AcDbEntity
  8
1
  6
CONTINUOUS
 62
   252
100
AcDbLine
 10
303.154131
 20
181.847932
 30
0.0
 11
303.154131
 21
364.847932
 31
0.0
  0
LINE
  5
5B
330
1F
100
AcDbEntity
  8
1
  6
CONTINUOUS
 62
   252
100
AcDbLine
 10
303.154131
 20
181.847932
 30
0.0
 11
290.154131
 21
181.847932
 31
0.0
  0
LINE
  5
5C
330
1F
100
AcDbEntity
  8
1
  6
CONTINUOUS
 62
   252
100
AcDbLine
 10
290.154131
 20
364.847932
 30
0.0
 11
303.154131
 21
364.847932
 31
0.0
  0
LINE
  5
5D
330
1F
100
AcDbEntity
  8
1
  6
CONTINUOUS
 62
   252
100
AcDbLine
 10
456.154131
 20
181.847932
 30
0.0
 11
443.154131
 21
181.847932
 31
0.0
  0
LINE
  5
5E
330
1F
100
AcDbEntity
  8
1
  6
CONTINUOUS
 62
   252
100
AcDbLine
 10
443.154131
 20
364.847932
 30
0.0
 11
456.154131
 21
364.847932
 31
0.0
  0
LINE
  5
5F
330
1F
100
AcDbEntity
  8
1
  6
CONTINUOUS
 62
   252
100
AcDbLine
 10
331.940927
 20
342.983401
 30
0.0
 11
331.940927
 21
353.712151
 31
0.0
  0
LINE
  5
60
330
1F
100
AcDbEntity
  8
1
  6
CONTINUOUS
 62
   252
100
AcDbLine
 10
331.940927
 20
192.983714
 30
0.0
 11
331.940927
 21
203.712464
 31
0.0
  0
LINE
  5
61
330
1F
100
AcDbEntity
  8
1
  6
CONTINUOUS
 62
   252
100
AcDbLine
 10
414.367334
 20
192.983714
 30
0.0
 11
414.367334
 21
203.712464
 31
0.0
  0
LINE
  5
62
330
1F
100
AcDbEntity
  8
1
  6
CONTINUOUS
 62
   252
100
AcDbLine
 10
414.367334
 20
342.983401
 30
0.0
 11
414.367334
 21
353.712151
 31
0.0
  0
LINE
  5
63
330
1F
100
AcDbEntity
  8
1
  6
CONTINUOUS
 62
   252
100
AcDbLine
 10
329.819607
 20
343.97387
 30
0.0
 11
329.819607
 21
352.721682
 31
0.0
  0
LINE
  5
64
330
1F
100
AcDbEntity
  8
1
  6
CONTINUOUS
 62
   252
100
AcDbLine
 10
416.488655
 20
202.721995
 30
0.0
 11
416.488655
 21
193.974182
 31
0.0
  0
LINE
  5
65
330
1F
100
AcDbEntity
  8
1
  6
CONTINUOUS
 62
   252
100
AcDbLine
 10
329.819607
 20
193.974182
 30
0.0
 11
329.819607
 21
202.721995
 31
0.0
  0
LINE
  5
66
330
1F
100
AcDbEntity
  8
1
  6
CONTINUOUS
 62
   252
100
AcDbLine
 10
416.488655
 20
352.721682
 30
0.0
 11
416.488655
 21
343.97387
 31
0.0
  0
LINE
  5
67
330
1F
100
AcDbEntity
  8
1
  6
CONTINUOUS
 62
   252
100
AcDbLine
 10
443.154131
 20
181.847932
 30
0.0
 11
303.154131
 21
181.847932
 31
0.0
  0
LINE
  5
68
330
1F
100
AcDbEntity
  8
1
  6
CONTINUOUS
 62
   252
100
AcDbLine
 10
303.154131
 20
364.847932
 30
0.0
 11
443.154131
 21
364.847932
 31
0.0
  0
LINE
  5
69
330
1F
100
AcDbEntity
  8
1
  6
CONTINUOUS
 62
   252
100
AcDbLine
 10
420.154131
 20
419.848649
 30
0.0
 11
420.154131
 21
427.848649
 31
0.0
  0
LINE
  5
6A
330
1F
100
AcDbEntity
  8
1
  6
CONTINUOUS
 62
   252
100
AcDbLine
 10
406.154131
 20
427.848649
 30
0.0
 11
406.154131
 21
419.848649
 31
0.0
  0
LINE
  5
6B
330
1F
100
AcDbEntity
  8
1
  6
CONTINUOUS
 62
   252
100
AcDbLine
 10
340.154131
 20
419.848649
 30
0.0
 11
340.154131
 21
427.848649
 31
0.0
  0
LINE
  5
6C
330
1F
100
AcDbEntity
  8
1
  6
CONTINUOUS
 62
   252
100
AcDbLine
 10
326.154131
 20
427.848649
 30
0.0
 11
326.154131
 21
419.848649
 31
0.0
  0
LINE
  5
6D
330
1F
100
AcDbEntity
  8
1
  6
CONTINUOUS
 62
   252
100
AcDbLine
 10
303.154131
 20
419.848649
 30
0.0
 11
443.154131
 21
419.848649
 31
0.0
  0
LINE
  5
6E
330
1F
100
AcDbEntity
  8
1
  6
CONTINUOUS
 62
   252
100
AcDbLine
 10
296.083063
 20
436.919717
 30
0.0
 11
335.476461
 21
476.313116
 31
0.0
  0
LINE
  5
6F
330
1F
100
AcDbEntity
  8
1
  6
CONTINUOUS
 62
   252
100
AcDbLine
 10
406.154131
 20
427.848649
 30
0.0
 11
420.154131
 21
427.848649
 31
0.0
  0
LINE
  5
70
330
1F
100
AcDbEntity
  8
1
  6
CONTINUOUS
 62
   252
100
AcDbLine
 10
326.154131
 20
427.848649
 30
0.0
 11
340.154131
 21
427.848649
 31
0.0
  0
LINE
  5
71
330
1F
100
AcDbEntity
  8
1
  6
CONTINUOUS
 62
   252
100
AcDbLine
 10
339.011995
 20
479.848649
 30
0.0
 11
335.476461
 21
476.313116
 31
0.0
  0
LINE
  5
72
330
1F
100
AcDbEntity
  8
1
  6
CONTINUOUS
 62
   252
100
AcDbLine
 10
407.296267
 20
479.848649
 30
0.0
 11
410.8318
 21
476.313116
 31
0.0
  0
LINE
  5
73
330
1F
100
AcDbEntity
  8
1
  6
CONTINUOUS
 62
   252
100
AcDbLine
 10
450.225199
 20
436.919717
 30
0.0
 11
410.8318
 21
476.313116
 31
0.0
  0
LINE
  5
74
330
1F
100
AcDbEntity
  8
1
  6
CONTINUOUS
 62
   252
100
AcDbLine
 10
293.961743
 20
439.041038
 30
0.0
 11
333.355141
 21
478.434436
 31
0.0
  0
LINE
  5
75
330
1F
100
AcDbEntity
  8
1
  6
CONTINUOUS
 62
   252
100
AcDbLine
 10
452.346519
 20
439.041038
 30
0.0
 11
412.953121
 21
478.434436
 31
0.0
  0
LINE
  5
76
330
1F
100
AcDbEntity
  8
1
  6
CONTINUOUS
 62
   252
100
AcDbLine
 10
336.890675
 20
481.96997
 30
0.0
 11
339.011995
 21
479.848649
 31
0.0
  0
LINE
  5
77
330
1F
100
AcDbEntity
  8
1
  6
CONTINUOUS
 62
   252
100
AcDbLine
 10
336.890675
 20
481.96997
 30
0.0
 11
333.355141
 21
478.434436
 31
0.0
  0
LINE
  5
78
330
1F
100
AcDbEntity
  8
1
  6
CONTINUOUS
 62
   252
100
AcDbLine
 10
335.476461
 20
476.313116
 30
0.0
 11
333.355141
 21
478.434436
 31
0.0
  0
LINE
  5
79
330
1F
100
AcDbEntity
  8
1
  6
CONTINUOUS
 62
   252
100
AcDbLine
 10
407.296267
 20
479.848649
 30
0.0
 11
409.417587
 21
481.96997
 31
0.0
  0
LINE
  5
7A
330
1F
100
AcDbEntity
  8
1
  6
CONTINUOUS
 62
   252
100
AcDbLine
 10
409.417587
 20
481.96997
 30
0.0
 11
412.953121
 21
478.434436
 31
0.0
  0
LINE
  5
7B
330
1F
100
AcDbEntity
  8
1
  6
CONTINUOUS
 62
   252
100
AcDbLine
 10
412.953121
 20
478.434436
 30
0.0
 11
410.8318
 21
476.313116
 31
0.0
  0
LINE
  5
7C
330
1F
100
AcDbEntity
  8
1
  6
CONTINUOUS
 62
   252
100
AcDbLine
 10
303.154131
 20
416.848649
 30
0.0
 11
443.154131
 21
416.848649
 31
0.0
  0
LINE
  5
7D
330
1F
100
AcDbEntity
  8
1
  6
CONTINUOUS
 62
   252
100
AcDbLine
 10
705.28164
 20
420.525605
 30
0.0
 11
705.28164
 21
495.978438
 31
0.0
  0
LINE
  5
7E
330
1F
100
AcDbEntity
  8
1
  6
CONTINUOUS
 62
   252
100
AcDbLine
 10
697.981584
 20
512.57093
 30
0.0
 11
696.526371
 21
512.365132
 31
0.0
  0
LINE
  5
7F
330
1F
100
AcDbEntity
  8
1
  6
CONTINUOUS
 62
   252
100
AcDbLine
 10
632.257135
 20
516.35143
 30
0.0
 11
632.257135
 21
440.898597
 31
0.0
  0
LINE
  5
80
330
1F
100
AcDbEntity
  8
1
  6
CONTINUOUS
 62
   252
100
AcDbLine
 10
666.854753
 20
521.866141
 30
0.0
 11
666.49095
 21
522.689334
 31
0.0
  0
LINE
  5
81
330
1F
100
AcDbEntity
  8
1
  6
CONTINUOUS
 62
   252
100
AcDbLine
 10
697.48278
 20
494.086905
 30
0.0
 11
698.937993
 21
494.292703
 31
0.0
  0
LINE
  5
82
330
1F
100
AcDbEntity
  8
1
  6
CONTINUOUS
 62
   252
100
AcDbLine
 10
636.184657
 20
513.926074
 30
0.0
 11
696.209161
 21
493.553081
 31
0.0
  0
LINE
  5
83
330
1F
100
AcDbEntity
  8
1
  6
CONTINUOUS
 62
   252
100
AcDbLine
 10
635.412913
 20
437.745634
 30
0.0
 11
635.412913
 21
513.198467
 31
0.0
  0
LINE
  5
84
330
1F
100
AcDbEntity
  8
1
  6
CONTINUOUS
 62
   252
100
AcDbLine
 10
695.437418
 20
492.825475
 30
0.0
 11
695.437418
 21
417.372642
 31
0.0
  0
LINE
  5
85
330
1F
100
AcDbEntity
  8
1
  6
CONTINUOUS
 62
   252
100
AcDbLine
 10
697.48278
 20
506.456222
 30
0.0
 11
697.48278
 21
494.086905
 31
0.0
  0
LINE
  5
86
330
1F
100
AcDbEntity
  8
1
  6
CONTINUOUS
 62
   252
100
AcDbLine
 10
662.142749
 20
518.451026
 30
0.0
 11
662.142749
 21
506.081709
 31
0.0
  0
LINE
  5
87
330
1F
100
AcDbEntity
  8
1
  6
CONTINUOUS
 62
   252
100
AcDbLine
 10
662.142749
 20
463.613721
 30
0.0
 11
662.142749
 21
458.971168
 31
0.0
  0
LINE
  5
88
330
1F
100
AcDbEntity
  8
1
  6
CONTINUOUS
 62
   252
100
AcDbLine
 10
661.778946
 20
506.904902
 30
0.0
 11
661.778946
 21
518.399476
 31
0.0
  0
LINE
  5
89
330
1F
100
AcDbEntity
  8
1
  6
CONTINUOUS
 62
   252
100
AcDbLine
 10
698.937993
 20
503.163436
 30
0.0
 11
698.937993
 21
494.292703
 31
0.0
  0
LINE
  5
8A
330
1F
100
AcDbEntity
  8
1
  6
CONTINUOUS
 62
   252
100
AcDbLine
 10
661.778946
 20
459.265573
 30
0.0
 11
661.778946
 21
463.562171
 31
0.0
  0
LINE
  5
8B
330
1F
100
AcDbEntity
  8
1
  6
CONTINUOUS
 62
   252
100
AcDbLine
 10
703.632353
 20
496.664432
 30
0.0
 11
703.632353
 21
495.292134
 31
0.0
  0
LINE
  5
8C
330
1F
100
AcDbEntity
  8
1
  6
CONTINUOUS
 62
   252
100
AcDbLine
 10
637.544457
 20
513.463561
 30
0.0
 11
637.544457
 21
519.095408
 31
0.0
  0
LINE
  5
8D
330
1F
100
AcDbEntity
  8
1
  6
CONTINUOUS
 62
   252
100
AcDbLine
 10
696.270102
 20
511.261752
 30
0.0
 11
696.270102
 21
493.531856
 31
0.0
  0
LINE
  5
8E
330
1F
100
AcDbEntity
  8
1
  6
CONTINUOUS
 62
   252
100
AcDbLine
 10
699.301797
 20
493.165508
 30
0.0
 11
699.301797
 21
502.340256
 31
0.0
  0
LINE
  5
8F
330
1F
100
AcDbEntity
  8
1
  6
CONTINUOUS
 62
   252
100
AcDbLine
 10
699.301797
 20
502.340256
 30
0.0
 11
697.48278
 21
506.456222
 31
0.0
  0
LINE
  5
90
330
1F
100
AcDbEntity
  8
1
  6
CONTINUOUS
 62
   252
100
AcDbLine
 10
697.48278
 20
494.086905
 30
0.0
 11
697.876171
 21
493.196763
 31
0.0
  0
LINE
  5
91
330
1F
100
AcDbEntity
  8
1
  6
CONTINUOUS
 62
   252
100
AcDbLine
 10
696.876441
 20
511.951316
 30
0.0
 11
703.632353
 21
496.664432
 31
0.0
  0
LINE
  5
92
330
1F
100
AcDbEntity
  8
1
  6
CONTINUOUS
 62
   252
100
AcDbLine
 10
654.866681
 20
517.422034
 30
0.0
 11
662.142749
 21
518.451026
 31
0.0
  0
LINE
  5
93
330
1F
100
AcDbEntity
  8
1
  6
CONTINUOUS
 62
   252
100
AcDbLine
 10
654.866681
 20
507.585335
 30
0.0
 11
654.866681
 21
517.422034
 31
0.0
  0
LINE
  5
94
330
1F
100
AcDbEntity
  8
1
  6
CONTINUOUS
 62
   252
100
AcDbLine
 10
662.142749
 20
506.081709
 30
0.0
 11
660.133417
 21
505.797546
 31
0.0
  0
LINE
  5
95
330
1F
100
AcDbEntity
  8
1
  6
CONTINUOUS
 62
   252
100
AcDbLine
 10
666.993462
 20
456.498052
 30
0.0
 11
666.993462
 21
473.906964
 31
0.0
  0
LINE
  5
96
330
1F
100
AcDbEntity
  8
1
  6
CONTINUOUS
 62
   252
100
AcDbLine
 10
666.993462
 20
503.468678
 30
0.0
 11
666.993462
 21
521.198573
 31
0.0
  0
LINE
  5
97
330
1F
100
AcDbEntity
  8
1
  6
CONTINUOUS
 62
   252
100
AcDbLine
 10
658.462991
 20
463.093325
 30
0.0
 11
662.142749
 21
463.613721
 31
0.0
  0
LINE
  5
98
330
1F
100
AcDbEntity
  8
1
  6
CONTINUOUS
 62
   252
100
AcDbLine
 10
664.568106
 20
522.917129
 30
0.0
 11
637.544457
 21
519.095408
 31
0.0
  0
LINE
  5
99
330
1F
100
AcDbEntity
  8
1
  6
CONTINUOUS
 62
   252
100
AcDbLine
 10
698.331654
 20
512.157114
 30
0.0
 11
705.087566
 21
496.87023
 31
0.0
  0
LINE
  5
9A
330
1F
100
AcDbEntity
  8
1
  6
CONTINUOUS
 62
   252
100
AcDbLine
 10
664.204302
 20
523.740322
 30
0.0
 11
637.180654
 21
519.918601
 31
0.0
  0
LINE
  5
9B
330
1F
100
AcDbEntity
  8
1
  6
CONTINUOUS
 62
   252
100
AcDbLine
 10
698.937993
 20
494.292703
 30
0.0
 11
699.301797
 21
493.46951
 31
0.0
  0
LINE
  5
9C
330
1F
100
AcDbEntity
  8
1
  6
CONTINUOUS
 62
   252
100
AcDbLine
 10
658.3144
 20
506.414941
 30
0.0
 11
661.778946
 21
506.904902
 31
0.0
  0
LINE
  5
9D
330
1F
100
AcDbEntity
  8
1
  6
CONTINUOUS
 62
   252
100
AcDbLine
 10
662.142749
 20
506.081709
 30
0.0
 11
661.778946
 21
506.904902
 31
0.0
  0
LINE
  5
9E
330
1F
100
AcDbEntity
  8
1
  6
CONTINUOUS
 62
   252
100
AcDbLine
 10
698.331654
 20
512.157114
 30
0.0
 11
696.876441
 21
511.951316
 31
0.0
  0
LINE
  5
9F
330
1F
100
AcDbEntity
  8
1
  6
CONTINUOUS
 62
   252
100
AcDbLine
 10
664.568106
 20
522.917129
 30
0.0
 11
664.204302
 21
523.740322
 31
0.0
  0
LINE
  5
A0
330
1F
100
AcDbEntity
  8
1
  6
CONTINUOUS
 62
   252
100
AcDbLine
 10
635.412913
 20
513.198467
 30
0.0
 11
695.437418
 21
492.825475
 31
0.0
  0
LINE
  5
A1
330
1F
100
AcDbEntity
  8
1
  6
CONTINUOUS
 62
   252
100
AcDbLine
 10
695.437418
 20
417.372642
 30
0.0
 11
635.412913
 21
437.745634
 31
0.0
  0
LINE
  5
A2
330
1F
100
AcDbEntity
  8
1
  6
CONTINUOUS
 62
   252
100
AcDbLine
 10
574.584776
 20
364.847932
 30
0.0
 11
574.584776
 21
181.847932
 31
0.0
  0
LINE
  5
A3
330
1F
100
AcDbEntity
  8
1
  6
CONTINUOUS
 62
   252
100
AcDbLine
 10
643.295067
 20
181.847932
 30
0.0
 11
648.295454
 21
181.847932
 31
0.0
  0
LINE
  5
A4
330
1F
100
AcDbEntity
  8
1
  6
CONTINUOUS
 62
   252
100
AcDbLine
 10
648.295454
 20
186.847932
 30
0.0
 11
648.295454
 21
359.847932
 31
0.0
  0
LINE
  5
A5
330
1F
100
AcDbEntity
  8
1
  6
CONTINUOUS
 62
   252
100
AcDbLine
 10
648.529573
 20
364.847932
 30
0.0
 11
643.295067
 21
364.847932
 31
0.0
  0
LINE
  5
A6
330
1F
100
AcDbEntity
  8
1
  6
CONTINUOUS
 62
   252
100
AcDbLine
 10
587.584776
 20
181.847932
 30
0.0
 11
574.584776
 21
181.847932
 31
0.0
  0
LINE
  5
A7
330
1F
100
AcDbEntity
  8
1
  6
CONTINUOUS
 62
   252
100
AcDbLine
 10
574.584776
 20
364.847932
 30
0.0
 11
587.584776
 21
364.847932
 31
0.0
  0
LINE
  5
A8
330
1F
100
AcDbEntity
  8
1
  6
CONTINUOUS
 62
   252
100
AcDbLine
 10
638.295454
 20
221.847932
 30
0.0
 11
638.295454
 21
191.847932
 31
0.0
  0
LINE
  5
A9
330
1F
100
AcDbEntity
  8
1
  6
CONTINUOUS
 62
   252
100
AcDbLine
 10
638.295454
 20
354.847932
 30
0.0
 11
638.295454
 21
324.847932
 31
0.0
  0
LINE
  5
AA
330
1F
100
AcDbEntity
  8
1
  6
CONTINUOUS
 62
   252
100
AcDbLine
 10
587.584776
 20
364.847932
 30
0.0
 11
587.584776
 21
181.847932
 31
0.0
  0
LINE
  5
AB
330
1F
100
AcDbEntity
  8
1
  6
CONTINUOUS
 62
   252
100
AcDbLine
 10
643.295454
 20
181.847932
 30
0.0
 11
587.584776
 21
181.847932
 31
0.0
  0
LINE
  5
AC
330
1F
100
AcDbEntity
  8
1
  6
CONTINUOUS
 62
   252
100
AcDbLine
 10
587.584776
 20
364.847932
 30
0.0
 11
643.295454
 21
364.847932
 31
0.0
  0
LINE
  5
AD
330
1F
100
AcDbEntity
  8
1
  6
CONTINUOUS
 62
   252
100
AcDbLine
 10
623.295454
 20
191.847932
 30
0.0
 11
623.295454
 21
221.847932
 31
0.0
  0
LINE
  5
AE
330
1F
100
AcDbEntity
  8
1
  6
CONTINUOUS
 62
   252
100
AcDbLine
 10
638.295454
 20
191.847932
 30
0.0
 11
623.295454
 21
191.847932
 31
0.0
  0
LINE
  5
AF
330
1F
100
AcDbEntity
  8
1
  6
CONTINUOUS
 62
   252
100
AcDbLine
 10
623.295454
 20
221.847932
 30
0.0
 11
638.295454
 21
221.847932
 31
0.0
  0
LINE
  5
B0
330
1F
100
AcDbEntity
  8
1
  6
CONTINUOUS
 62
   252
100
AcDbLine
 10
638.295454
 20
324.847932
 30
0.0
 11
623.295454
 21
324.847932
 31
0.0
  0
LINE
  5
B1
330
1F
100
AcDbEntity
  8
1
  6
CONTINUOUS
 62
   252
100
AcDbLine
 10
623.295454
 20
324.847932
 30
0.0
 11
623.295454
 21
354.847932
 31
0.0
  0
LINE
  5
B2
330
1F
100
AcDbEntity
  8
1
  6
CONTINUOUS
 62
   252
100
AcDbLine
 10
623.295454
 20
354.847932
 30
0.0
 11
638.295454
 21
354.847932
 31
0.0
  0
LINE
  5
B3
102
{ACAD_REACTORS
330
1FE
102
}
330
1F
100
AcDbEntity
  8
201
  6
CONTINUOUS
 62
    80
100
AcDbLine
 10
18.0
 20
51.0
 30
0.0
 11
18.0
 21
10.0
 31
0.0
  0
LINE
  5
B5
102
{ACAD_REACTORS
330
1FE
102
}
330
1F
100
AcDbEntity
  8
201
  6
CONTINUOUS
 62
    80
100
AcDbLine
 10
326.66675
 20
586.0
 30
0.0
 11
326.66675
 21
584.0
 31
0.0
  0
LINE
  5
B6
102
{ACAD_REACTORS
330
1FE
102
}
330
1F
100
AcDbEntity
  8
201
  6
CONTINUOUS
 62
    80
100
AcDbLine
 10
263.33325
 20
586.0
 30
0.0
 11
263.33325
 21
584.0
 31
0.0
  0
LINE
  5
B7
102
{ACAD_REACTORS
330
1FE
102
}
330
1F
100
AcDbEntity
  8
201
  6
CONTINUOUS
 62
    80
100
AcDbLine
 10
73.333252
 20
586.0
 30
0.0
 11
73.333252
 21
584.0
 31
0.0
  0
LINE
  5
B8
102
{ACAD_REACTORS
330
1FE
102
}
330
1F
100
AcDbEntity
  8
201
  6
CONTINUOUS
 62
    80
100
AcDbLine
 10
6.0
 20
79.25
 30
0.0
 11
10.0
 21
79.25
 31
0.0
  0
LINE
  5
B9
102
{ACAD_REACTORS
330
1FE
102
}
330
1F
100
AcDbEntity
  8
201
  6
CONTINUOUS
 62
    80
100
AcDbLine
 10
8.0
 20
148.5
 30
0.0
 11
10.0
 21
148.5
 31
0.0
  0
LINE
  5
BA
102
{ACAD_REACTORS
330
1FE
102
}
330
1F
100
AcDbEntity
  8
201
  6
CONTINUOUS
 62
    80
100
AcDbLine
 10
8.0
 20
217.75
 30
0.0
 11
10.0
 21
217.75
 31
0.0
  0
LINE
  5
BB
102
{ACAD_REACTORS
330
1FE
102
}
330
1F
100
AcDbEntity
  8
201
  6
CONTINUOUS
 62
    80
100
AcDbLine
 10
8.0
 20
356.25
 30
0.0
 11
10.0
 21
356.25
 31
0.0
  0
LINE
  5
BC
102
{ACAD_REACTORS
330
1FE
102
}
330
1F
100
AcDbEntity
  8
201
  6
CONTINUOUS
 62
    80
100
AcDbLine
 10
8.0
 20
425.5
 30
0.0
 11
10.0
 21
425.5
 31
0.0
  0
LINE
  5
BD
102
{ACAD_REACTORS
330
1FE
102
}
330
1F
100
AcDbEntity
  8
201
  6
CONTINUOUS
 62
    80
100
AcDbLine
 10
6.0
 20
564.0
 30
0.0
 11
10.0
 21
564.0
 31
0.0
  0
LINE
  5
BE
102
{ACAD_REACTORS
330
1FE
102
}
330
1F
100
AcDbEntity
  8
201
  6
CONTINUOUS
 62
    80
100
AcDbLine
 10
706.66675
 20
10.0
 30
0.0
 11
706.66675
 21
8.0
 31
0.0
  0
LINE
  5
BF
102
{ACAD_REACTORS
330
1FE
102
}
330
1F
100
AcDbEntity
  8
201
  6
CONTINUOUS
 62
    80
100
AcDbLine
 10
643.33333
 20
10.0
 30
0.0
 11
643.33333
 21
8.0
 31
0.0
  0
LINE
  5
C0
102
{ACAD_REACTORS
330
1FE
102
}
330
1F
100
AcDbEntity
  8
201
  6
CONTINUOUS
 62
    80
100
AcDbLine
 10
516.66675
 20
10.0
 30
0.0
 11
516.66675
 21
8.0
 31
0.0
  0
LINE
  5
C1
102
{ACAD_REACTORS
330
1FE
102
}
330
1F
100
AcDbEntity
  8
201
  6
CONTINUOUS
 62
    80
100
AcDbLine
 10
453.33325
 20
10.0
 30
0.0
 11
453.33325
 21
8.0
 31
0.0
  0
LINE
  5
C2
102
{ACAD_REACTORS
330
1FE
102
}
330
1F
100
AcDbEntity
  8
201
  6
CONTINUOUS
 62
    80
100
AcDbLine
 10
326.66675
 20
10.0
 30
0.0
 11
326.66675
 21
8.0
 31
0.0
  0
LINE
  5
C3
102
{ACAD_REACTORS
330
1FE
102
}
330
1F
100
AcDbEntity
  8
201
  6
CONTINUOUS
 62
    80
100
AcDbLine
 10
263.33325
 20
10.0
 30
0.0
 11
263.33325
 21
8.0
 31
0.0
  0
LINE
  5
C4
102
{ACAD_REACTORS
330
1FE
102
}
330
1F
100
AcDbEntity
  8
201
  6
CONTINUOUS
 62
    80
100
AcDbLine
 10
73.333252
 20
10.0
 30
0.0
 11
73.333252
 21
8.0
 31
0.0
  0
LINE
  5
C5
102
{ACAD_REACTORS
330
1FE
102
}
330
1F
100
AcDbEntity
  8
201
  6
CONTINUOUS
 62
    80
100
AcDbLine
 10
770.0
 20
6.0
 30
0.0
 11
770.0
 21
10.0
 31
0.0
  0
LINE
  5
C6
102
{ACAD_REACTORS
330
1FE
102
}
330
1F
100
AcDbEntity
  8
201
  6
CONTINUOUS
 62
    80
100
AcDbLine
 10
516.66675
 20
586.0
 30
0.0
 11
516.66675
 21
584.0
 31
0.0
  0
LINE
  5
C7
102
{ACAD_REACTORS
330
1FE
102
}
330
1F
100
AcDbEntity
  8
201
  6
CONTINUOUS
 62
    80
100
AcDbLine
 10
453.33325
 20
586.0
 30
0.0
 11
453.33325
 21
584.0
 31
0.0
  0
LINE
  5
C8
102
{ACAD_REACTORS
330
1FE
102
}
330
1F
100
AcDbEntity
  8
201
  6
CONTINUOUS
 62
    80
100
AcDbLine
 10
679.71997
 20
46.0
 30
0.0
 11
750.65283
 21
46.0
 31
0.0
  0
LINE
  5
C9
102
{ACAD_REACTORS
330
1FE
102
}
330
1F
100
AcDbEntity
  8
201
  6
CONTINUOUS
 62
    80
100
AcDbLine
 10
764.09326
 20
51.0
 30
0.0
 11
764.09326
 21
10.0
 31
0.0
  0
LINE
  5
CA
102
{ACAD_REACTORS
330
1FE
102
}
330
1F
100
AcDbEntity
  8
201
  6
CONTINUOUS
 62
    80
100
AcDbLine
 10
679.71997
 20
37.333496
 30
0.0
 11
750.65283
 21
37.333496
 31
0.0
  0
LINE
  5
CB
102
{ACAD_REACTORS
330
1FE
102
}
330
1F
100
AcDbEntity
  8
201
  6
CONTINUOUS
 62
    80
100
AcDbLine
 10
667.77222
 20
51.0
 30
0.0
 11
667.77222
 21
32.0
 31
0.0
  0
LINE
  5
CC
102
{ACAD_REACTORS
330
1FE
102
}
330
1F
100
AcDbEntity
  8
201
  6
CONTINUOUS
 62
    80
100
AcDbLine
 10
656.0
 20
32.0
 30
0.0
 11
750.65283
 21
32.0
 31
0.0
  0
LINE
  5
CD
102
{ACAD_REACTORS
330
1FE
102
}
330
1F
100
AcDbEntity
  8
201
  6
CONTINUOUS
 62
    80
100
AcDbLine
 10
656.0
 20
41.445801
 30
0.0
 11
679.71997
 21
41.445801
 31
0.0
  0
LINE
  5
CE
102
{ACAD_REACTORS
330
1FE
102
}
330
1F
100
AcDbEntity
  8
201
  6
CONTINUOUS
 62
    80
100
AcDbLine
 10
656.0
 20
21.0
 30
0.0
 11
831.0
 21
21.0
 31
0.0
  0
LINE
  5
CF
102
{ACAD_REACTORS
330
1FE
102
}
330
1F
100
AcDbEntity
  8
201
  6
CONTINUOUS
 62
    80
100
AcDbLine
 10
656.0
 20
26.624268
 30
0.0
 11
750.65283
 21
26.624268
 31
0.0
  0
LINE
  5
D0
102
{ACAD_REACTORS
330
1FE
102
}
330
1F
100
AcDbEntity
  8
201
  6
CONTINUOUS
 62
    80
100
AcDbLine
 10
679.71997
 20
51.0
 30
0.0
 11
679.71997
 21
32.0
 31
0.0
  0
LINE
  5
D1
102
{ACAD_REACTORS
330
1FE
102
}
330
1F
100
AcDbEntity
  8
201
  6
CONTINUOUS
 62
    80
100
AcDbLine
 10
750.65283
 20
51.0
 30
0.0
 11
750.65283
 21
10.0
 31
0.0
  0
LINE
  5
D2
102
{ACAD_REACTORS
330
1FE
102
}
330
1F
100
AcDbEntity
  8
201
  6
CONTINUOUS
 62
    80
100
AcDbLine
 10
706.66675
 20
586.0
 30
0.0
 11
706.66675
 21
584.0
 31
0.0
  0
LINE
  5
D3
102
{ACAD_REACTORS
330
1FE
102
}
330
1F
100
AcDbEntity
  8
201
  6
CONTINUOUS
 62
    80
100
AcDbLine
 10
643.33333
 20
586.0
 30
0.0
 11
643.33333
 21
584.0
 31
0.0
  0
LINE
  5
D4
102
{ACAD_REACTORS
330
1FE
102
}
330
1F
100
AcDbEntity
  8
201
  6
CONTINUOUS
 62
    80
100
AcDbLine
 10
580.0
 20
6.0
 30
0.0
 11
580.0
 21
10.0
 31
0.0
  0
LINE
  5
D5
102
{ACAD_REACTORS
330
1FE
102
}
330
1F
100
AcDbEntity
  8
201
  6
CONTINUOUS
 62
    80
100
AcDbLine
 10
10.0
 20
51.0
 30
0.0
 11
90.734131
 21
51.0
 31
0.0
  0
LINE
  5
D6
102
{ACAD_REACTORS
330
1FE
102
}
330
1F
100
AcDbEntity
  8
201
  6
CONTINUOUS
 62
    80
100
AcDbLine
 10
770.0
 20
586.0
 30
0.0
 11
770.0
 21
584.0
 31
0.0
  0
LINE
  5
D7
102
{ACAD_REACTORS
330
1FE
102
}
330
1F
100
AcDbEntity
  8
201
  6
CONTINUOUS
 62
    80
100
AcDbLine
 10
90.734131
 20
51.0
 30
0.0
 11
656.0
 21
51.0
 31
0.0
  0
LINE
  5
D8
102
{ACAD_REACTORS
330
1FE
102
}
330
1F
100
AcDbEntity
  8
201
  6
CONTINUOUS
 62
    80
100
AcDbLine
 10
769.09326
 20
36.0
 30
0.0
 11
826.0
 21
36.0
 31
0.0
  0
LINE
  5
D9
102
{ACAD_REACTORS
330
1FE
102
}
330
1F
100
AcDbEntity
  8
201
  6
CONTINUOUS
 62
    80
100
AcDbLine
 10
656.0
 20
51.0
 30
0.0
 11
656.0
 21
10.0
 31
0.0
  0
LINE
  5
DA
102
{ACAD_REACTORS
330
1FE
102
}
330
1F
100
AcDbEntity
  8
201
  6
CONTINUOUS
 62
    80
100
AcDbLine
 10
648.5
 20
584.0
 30
0.0
 11
648.5
 21
574.0
 31
0.0
  0
LINE
  5
DB
102
{ACAD_REACTORS
330
1FE
102
}
330
1F
100
AcDbEntity
  8
201
  6
CONTINUOUS
 62
    80
100
AcDbLine
 10
746.0
 20
584.0
 30
0.0
 11
746.0
 21
574.0
 31
0.0
  0
LINE
  5
DC
102
{ACAD_REACTORS
330
1FE
102
}
330
1F
100
AcDbEntity
  8
201
  6
CONTINUOUS
 62
    80
100
AcDbLine
 10
596.0
 20
584.0
 30
0.0
 11
596.0
 21
574.0
 31
0.0
  0
LINE
  5
DD
102
{ACAD_REACTORS
330
1FE
102
}
330
1F
100
AcDbEntity
  8
201
  6
CONTINUOUS
 62
    80
100
AcDbLine
 10
605.0
 20
584.0
 30
0.0
 11
605.0
 21
574.0
 31
0.0
  0
LINE
  5
DE
102
{ACAD_REACTORS
330
1FE
102
}
330
1F
100
AcDbEntity
  8
201
  6
CONTINUOUS
 62
    80
100
AcDbLine
 10
688.0
 20
584.0
 30
0.0
 11
688.0
 21
574.0
 31
0.0
  0
LINE
  5
DF
102
{ACAD_REACTORS
330
1FE
102
}
330
1F
100
AcDbEntity
  8
201
  6
CONTINUOUS
 62
    80
100
AcDbLine
 10
734.0
 20
584.0
 30
0.0
 11
734.0
 21
574.0
 31
0.0
  0
LINE
  5
E0
102
{ACAD_REACTORS
330
1FE
102
}
330
1F
100
AcDbEntity
  8
201
  6
CONTINUOUS
 62
    80
100
AcDbLine
 10
651.0
 20
574.0
 30
0.0
 11
831.0
 21
574.0
 31
0.0
  0
LINE
  5
E1
102
{ACAD_REACTORS
330
1FE
102
}
330
1F
100
AcDbEntity
  8
201
  6
CONTINUOUS
 62
    80
100
AcDbLine
 10
651.0
 20
579.0
 30
0.0
 11
831.0
 21
579.0
 31
0.0
  0
LINE
  5
E2
102
{ACAD_REACTORS
330
1FE
102
}
330
1F
100
AcDbEntity
  8
201
  6
CONTINUOUS
 62
    80
100
AcDbLine
 10
656.0
 20
51.0
 30
0.0
 11
831.0
 21
51.0
 31
0.0
  0
LINE
  5
E3
102
{ACAD_REACTORS
330
1FE
102
}
330
1F
100
AcDbEntity
  8
201
  6
CONTINUOUS
 62
    80
100
AcDbLine
 10
390.0
 20
6.0
 30
0.0
 11
390.0
 21
10.0
 31
0.0
  0
LINE
  5
E4
102
{ACAD_REACTORS
330
1FE
102
}
330
1F
100
AcDbEntity
  8
201
  6
CONTINUOUS
 62
    80
100
AcDbLine
 10
136.66675
 20
10.0
 30
0.0
 11
136.66675
 21
8.0
 31
0.0
  0
LINE
  5
E5
102
{ACAD_REACTORS
330
1FE
102
}
330
1F
100
AcDbEntity
  8
201
  6
CONTINUOUS
 62
    80
100
AcDbLine
 10
831.0
 20
494.75
 30
0.0
 11
833.0
 21
494.75
 31
0.0
  0
LINE
  5
E6
102
{ACAD_REACTORS
330
1FE
102
}
330
1F
100
AcDbEntity
  8
201
  6
CONTINUOUS
 62
    80
100
AcDbLine
 10
831.0
 20
425.5
 30
0.0
 11
833.0
 21
425.5
 31
0.0
  0
LINE
  5
E7
102
{ACAD_REACTORS
330
1FE
102
}
330
1F
100
AcDbEntity
  8
201
  6
CONTINUOUS
 62
    80
100
AcDbLine
 10
835.0
 20
564.0
 30
0.0
 11
831.0
 21
564.0
 31
0.0
  0
LINE
  5
E8
102
{ACAD_REACTORS
330
1FE
102
}
330
1F
100
AcDbEntity
  8
201
  6
CONTINUOUS
 62
    80
100
AcDbLine
 10
831.0
 20
148.5
 30
0.0
 11
833.0
 21
148.5
 31
0.0
  0
LINE
  5
E9
102
{ACAD_REACTORS
330
1FE
102
}
330
1F
100
AcDbEntity
  8
201
  6
CONTINUOUS
 62
    80
100
AcDbLine
 10
8.0
 20
494.75
 30
0.0
 11
10.0
 21
494.75
 31
0.0
  0
LINE
  5
EA
102
{ACAD_REACTORS
330
1FE
102
}
330
1F
100
AcDbEntity
  8
201
  6
CONTINUOUS
 62
    80
100
AcDbLine
 10
831.0
 20
356.25
 30
0.0
 11
833.0
 21
356.25
 31
0.0
  0
LINE
  5
EB
102
{ACAD_REACTORS
330
1FE
102
}
330
1F
100
AcDbEntity
  8
201
  6
CONTINUOUS
 62
    80
100
AcDbLine
 10
831.0
 20
79.25
 30
0.0
 11
833.0
 21
79.25
 31
0.0
  0
LINE
  5
EC
102
{ACAD_REACTORS
330
1FE
102
}
330
1F
100
AcDbEntity
  8
201
  6
CONTINUOUS
 62
    80
100
AcDbLine
 10
6.0
 20
287.0
 30
0.0
 11
10.0
 21
287.0
 31
0.0
  0
LINE
  5
ED
102
{ACAD_REACTORS
330
1FE
102
}
330
1F
100
AcDbEntity
  8
201
  6
CONTINUOUS
 62
    80
100
AcDbLine
 10
200.0
 20
6.0
 30
0.0
 11
200.0
 21
10.0
 31
0.0
  0
LINE
  5
EE
102
{ACAD_REACTORS
330
1FE
102
}
330
1F
100
AcDbEntity
  8
201
  6
CONTINUOUS
 62
    80
100
AcDbLine
 10
835.0
 20
287.0
 30
0.0
 11
831.0
 21
287.0
 31
0.0
  0
LINE
  5
EF
102
{ACAD_REACTORS
330
1FE
102
}
330
1F
100
AcDbEntity
  8
201
  6
CONTINUOUS
 62
    80
100
AcDbLine
 10
200.0
 20
586.0
 30
0.0
 11
200.0
 21
584.0
 31
0.0
  0
LINE
  5
F0
102
{ACAD_REACTORS
330
1FE
102
}
330
1F
100
AcDbEntity
  8
201
  6
CONTINUOUS
 62
    80
100
AcDbLine
 10
390.0
 20
586.0
 30
0.0
 11
390.0
 21
584.0
 31
0.0
  0
LINE
  5
F1
102
{ACAD_REACTORS
330
1FE
102
}
330
1F
100
AcDbEntity
  8
201
  6
CONTINUOUS
 62
    80
100
AcDbLine
 10
136.66675
 20
586.0
 30
0.0
 11
136.66675
 21
584.0
 31
0.0
  0
LINE
  5
F2
102
{ACAD_REACTORS
330
1FE
102
}
330
1F
100
AcDbEntity
  8
201
  6
CONTINUOUS
 62
    80
100
AcDbLine
 10
580.0
 20
586.0
 30
0.0
 11
580.0
 21
584.0
 31
0.0
  0
LINE
  5
F3
102
{ACAD_REACTORS
330
1FE
102
}
330
1F
100
AcDbEntity
  8
201
  6
CONTINUOUS
 62
    80
100
AcDbLine
 10
831.0
 20
217.75
 30
0.0
 11
833.0
 21
217.75
 31
0.0
  0
LINE
  5
F4
102
{ACAD_REACTORS
330
1FE
102
}
330
1F
100
AcDbEntity
  8
201
  6
CONTINUOUS
 62
    80
100
AcDbLine
 10
831.0
 20
584.0
 30
0.0
 11
831.0
 21
10.0
 31
0.0
  0
LINE
  5
F5
102
{ACAD_REACTORS
330
1FE
102
}
330
1F
100
AcDbEntity
  8
201
  6
CONTINUOUS
 62
    80
100
AcDbLine
 10
10.0
 20
584.0
 30
0.0
 11
10.0
 21
10.0
 31
0.0
  0
LINE
  5
F6
102
{ACAD_REACTORS
330
1FE
102
}
330
1F
100
AcDbEntity
  8
201
  6
CONTINUOUS
 62
    80
100
AcDbLine
 10
10.0
 20
584.0
 30
0.0
 11
831.0
 21
584.0
 31
0.0
  0
LINE
  5
F7
102
{ACAD_REACTORS
330
1FE
102
}
330
1F
100
AcDbEntity
  8
201
  6
CONTINUOUS
 62
    80
100
AcDbLine
 10
10.0
 20
10.0
 30
0.0
 11
831.0
 21
10.0
 31
0.0
  0
LINE
  5
F8
102
{ACAD_REACTORS
330
1FE
102
}
330
1F
100
AcDbEntity
  8
201
  6
CONTINUOUS
 62
    80
100
AcDbLine
 10
670.2207
 20
32.0
 30
0.0
 11
670.2207
 21
21.0
 31
0.0
  0
LINE
  5
F9
102
{ACAD_REACTORS
330
1FE
102
}
330
1F
100
AcDbEntity
  8
201
  6
CONTINUOUS
 62
    80
100
AcDbLine
 10
703.41997
 20
51.0
 30
0.0
 11
703.41997
 21
32.0
 31
0.0
  0
LINE
  5
FA
102
{ACAD_REACTORS
330
1FE
102
}
330
1F
100
AcDbEntity
  8
201
  6
CONTINUOUS
 62
    80
100
AcDbLine
 10
727.11997
 20
51.0
 30
0.0
 11
727.11997
 21
32.0
 31
0.0
  0
LINE
  5
FB
102
{ACAD_REACTORS
330
1FE
102
}
330
1F
100
AcDbEntity
  8
201
  6
CONTINUOUS
 62
    80
100
AcDbLine
 10
690.04622
 20
32.0
 30
0.0
 11
690.04622
 21
21.0
 31
0.0
  0
LINE
  5
FC
330
1F
100
AcDbEntity
  8
201
  6
CONTINUOUS
 62
    80
100
AcDbLine
 10
651.0
 20
569.0
 30
0.0
 11
831.0
 21
569.0
 31
0.0
  0
LINE
  5
FD
330
1F
100
AcDbEntity
  8
201
  6
CONTINUOUS
 62
    80
100
AcDbLine
 10
746.0
 20
579.0
 30
0.0
 11
746.0
 21
569.0
 31
0.0
  0
LINE
  5
FE
330
1F
100
AcDbEntity
  8
201
  6
CONTINUOUS
 62
    80
100
AcDbLine
 10
791.0
 20
579.0
 30
0.0
 11
791.0
 21
569.0
 31
0.0
  0
LINE
  5
FF
330
1F
100
AcDbEntity
  8
201
  6
CONTINUOUS
 62
    80
100
AcDbLine
 10
734.0
 20
579.0
 30
0.0
 11
734.0
 21
569.0
 31
0.0
  0
LINE
  5
100
330
1F
100
AcDbEntity
  8
201
  6
CONTINUOUS
 62
    80
100
AcDbLine
 10
688.0
 20
579.0
 30
0.0
 11
688.0
 21
569.0
 31
0.0
  0
LINE
  5
101
330
1F
100
AcDbEntity
  8
201
  6
CONTINUOUS
 62
    80
100
AcDbLine
 10
596.0
 20
579.0
 30
0.0
 11
776.0
 21
579.0
 31
0.0
  0
LINE
  5
102
330
1F
100
AcDbEntity
  8
201
  6
CONTINUOUS
 62
    80
100
AcDbLine
 10
596.0
 20
574.0
 30
0.0
 11
776.0
 21
574.0
 31
0.0
  0
LINE
  5
103
330
1F
100
AcDbEntity
  8
201
  6
CONTINUOUS
 62
    80
100
AcDbLine
 10
791.0
 20
584.0
 30
0.0
 11
791.0
 21
574.0
 31
0.0
  0
LINE
  5
104
330
1F
100
AcDbEntity
  8
201
  6
CONTINUOUS
 62
    80
100
AcDbLine
 10
596.0
 20
579.0
 30
0.0
 11
596.0
 21
569.0
 31
0.0
  0
LINE
  5
105
330
1F
100
AcDbEntity
  8
201
  6
CONTINUOUS
 62
    80
100
AcDbLine
 10
605.0
 20
579.0
 30
0.0
 11
605.0
 21
569.0
 31
0.0
  0
LINE
  5
106
330
1F
100
AcDbEntity
  8
201
  6
CONTINUOUS
 62
    80
100
AcDbLine
 10
596.0
 20
569.0
 30
0.0
 11
776.0
 21
569.0
 31
0.0
  0
LINE
  5
107
330
1F
100
AcDbEntity
  8
201
  6
CONTINUOUS
 62
    80
100
AcDbLine
 10
648.5
 20
579.0
 30
0.0
 11
648.5
 21
569.0
 31
0.0
  0
LINE
  5
108
102
{ACAD_REACTORS
330
1FD
102
}
330
1F
100
AcDbEntity
  8
1
  6
CONTINUOUS
 62
     1
100
AcDbLine
 10
360.108839
 20
479.848649
 30
0.0
 11
360.108839
 21
419.848649
 31
0.0
  0
LINE
  5
109
102
{ACAD_REACTORS
330
1FD
102
}
330
1F
100
AcDbEntity
  8
1
  6
CONTINUOUS
 62
     1
100
AcDbLine
 10
339.311995
 20
479.848649
 30
0.0
 11
362.108839
 21
479.848649
 31
0.0
  0
LINE
  5
10A
330
1F
100
AcDbEntity
  8
1
  6
CONTINUOUS
 62
   172
 60
     1
100
AcDbLine
 10
360.108839
 20
419.848649
 30
0.0
 11
359.171017
 21
423.348646
 31
0.0
  0
LINE
  5
10B
330
1F
100
AcDbEntity
  8
1
  6
CONTINUOUS
 62
   172
 60
     1
100
AcDbLine
 10
359.171017
 20
423.348646
 30
0.0
 11
361.046661
 21
423.348653
 31
0.0
  0
LINE
  5
10C
330
1F
100
AcDbEntity
  8
1
  6
CONTINUOUS
 62
   172
 60
     1
100
AcDbLine
 10
361.046661
 20
423.348653
 30
0.0
 11
360.108839
 21
419.848649
 31
0.0
  0
LINE
  5
10D
330
1F
100
AcDbEntity
  8
1
  6
CONTINUOUS
 62
   172
 60
     1
100
AcDbLine
 10
360.108839
 20
479.848649
 30
0.0
 11
361.046661
 21
476.348653
 31
0.0
  0
LINE
  5
10E
330
1F
100
AcDbEntity
  8
1
  6
CONTINUOUS
 62
   172
 60
     1
100
AcDbLine
 10
361.046661
 20
476.348653
 30
0.0
 11
359.171017
 21
476.348646
 31
0.0
  0
LINE
  5
10F
330
1F
100
AcDbEntity
  8
1
  6
CONTINUOUS
 62
   172
 60
     1
100
AcDbLine
 10
359.171017
 20
476.348646
 30
0.0
 11
360.108839
 21
479.848649
 31
0.0
  0
LINE
  5
110
330
1F
100
AcDbEntity
  8
1
  6
CONTINUOUS
 62
   172
 60
     1
100
AcDbLine
 10
630.795454
 20
354.847932
 30
0.0
 11
630.796454
 21
354.847932
 31
0.0
  0
LINE
  5
111
330
1F
100
AcDbEntity
  8
1
  6
CONTINUOUS
 62
   172
 60
     1
100
AcDbLine
 10
413.154131
 20
427.848649
 30
0.0
 11
413.155131
 21
427.848649
 31
0.0
  0
CIRCLE
  5
112
330
1F
100
AcDbEntity
  8
1
  6
CONTINUOUS
 62
   252
100
AcDbCircle
 10
-333.154131
 20
348.347932
 30
0.0
 40
5.5
210
0.0
220
0.0
230
-1.0
  0
CIRCLE
  5
113
330
1F
100
AcDbEntity
  8
1
  6
CONTINUOUS
 62
   252
100
AcDbCircle
 10
-413.154131
 20
348.347932
 30
0.0
 40
5.5
210
0.0
220
0.0
230
-1.0
  0
CIRCLE
  5
114
330
1F
100
AcDbEntity
  8
1
  6
CONTINUOUS
 62
   252
100
AcDbCircle
 10
-373.154131
 20
273.347932
 30
0.0
 40
22.5
210
0.0
220
0.0
230
-1.0
  0
CIRCLE
  5
115
330
1F
100
AcDbEntity
  8
1
  6
CONTINUOUS
 62
   252
100
AcDbCircle
 10
-413.154131
 20
198.347932
 30
0.0
 40
5.5
210
0.0
220
0.0
230
-1.0
  0
CIRCLE
  5
116
330
1F
100
AcDbEntity
  8
1
  6
CONTINUOUS
 62
   252
100
AcDbCircle
 10
-333.154131
 20
198.347932
 30
0.0
 40
5.5
210
0.0
220
0.0
230
-1.0
  0
ARC
  5
117
330
1F
100
AcDbEntity
  8
1
  6
CONTINUOUS
 62
   252
100
AcDbCircle
 10
303.154131
 20
429.848649
 30
0.0
 40
13.0
100
AcDbArc
 50
135.0
 51
270.0
  0
ARC
  5
118
330
1F
100
AcDbEntity
  8
1
  6
CONTINUOUS
 62
   252
100
AcDbCircle
 10
443.154131
 20
429.848649
 30
0.0
 40
13.0
100
AcDbArc
 50
270.0
 51
45.0
  0
ARC
  5
119
330
1F
100
AcDbEntity
  8
1
  6
CONTINUOUS
 62
   252
100
AcDbCircle
 10
303.154131
 20
429.848649
 30
0.0
 40
10.0
100
AcDbArc
 50
135.0
 51
270.0
  0
ARC
  5
11A
330
1F
100
AcDbEntity
  8
1
  6
CONTINUOUS
 62
   252
100
AcDbCircle
 10
443.154131
 20
429.848649
 30
0.0
 40
10.0
100
AcDbArc
 50
270.0
 51
45.0
  0
ARC
  5
11B
330
1F
100
AcDbEntity
  8
1
  6
CONTINUOUS
 62
   252
100
AcDbCircle
 10
643.295454
 20
359.847932
 30
0.0
 40
5.0
100
AcDbArc
 50
0.0
 51
90.0
  0
ARC
  5
11C
330
1F
100
AcDbEntity
  8
1
  6
CONTINUOUS
 62
   252
100
AcDbCircle
 10
643.295454
 20
359.847932
 30
0.0
 40
5.0
100
AcDbArc
 50
0.0
 51
270.000001
  0
ARC
  5
11D
330
1F
100
AcDbEntity
  8
1
  6
CONTINUOUS
 62
   252
100
AcDbCircle
 10
643.295454
 20
186.847932
 30
0.0
 40
5.0
100
AcDbArc
 50
270.0
 51
0.0
  0
ELLIPSE
  5
11E
330
1F
100
AcDbEntity
  8
1
  6
CONTINUOUS
 62
   252
100
AcDbEllipse
 10
666.196909
 20
466.013161
 30
0.0
 11
-7.717436331412898
 21
8.185577344976238
 31
0.0
210
0.0
220
0.0
230
1.0
 40
0.707107
 41
0.0667242807710708
 42
3.074799257714772
  0
ELLIPSE
  5
11F
330
1F
100
AcDbEntity
  8
1
  6
CONTINUOUS
 62
   252
100
AcDbEllipse
 10
698.78164
 20
495.978438
 30
0.0
 11
-6.500000000000001
 21
0.0
 31
0.0
210
0.0
220
0.0
230
1.0
 40
0.565685
 41
1.03037682652432
 42
3.386571316716648
  0
ELLIPSE
  5
120
330
1F
100
AcDbEntity
  8
1
  6
CONTINUOUS
 62
   252
100
AcDbEllipse
 10
698.78164
 20
420.525605
 30
0.0
 11
6.500000000000001
 21
0.0
 31
0.0
210
0.0
220
0.0
230
1.0
 40
0.565685
 41
4.171969480114118
 42
6.283156602382441
  0
ELLIPSE
  5
121
330
1F
100
AcDbEntity
  8
1
  6
CONTINUOUS
 62
   252
100
AcDbEllipse
 10
638.757135
 20
516.35143
 30
0.0
 11
-6.500000000000001
 21
0.0
 31
0.0
210
0.0
220
0.0
230
1.0
 40
0.565685
 41
4.957367643511556
 42
7.313562133703895
  0
ELLIPSE
  5
122
330
1F
100
AcDbEntity
  8
1
  6
CONTINUOUS
 62
   252
100
AcDbEllipse
 10
638.757135
 20
440.898597
 30
0.0
 11
6.500000000000001
 21
0.0
 31
0.0
210
0.0
220
0.0
230
1.0
 40
0.565685
 41
3.141576242521777
 42
4.171969480114107
  0
ELLIPSE
  5
123
330
1F
100
AcDbEntity
  8
1
  6
CONTINUOUS
 62
   252
100
AcDbEllipse
 10
698.78164
 20
495.978438
 30
0.0
 11
-5.000000000000001
 21
0.0
 31
0.0
210
0.0
220
0.0
230
1.0
 40
0.565685
 41
1.030376826524322
 42
3.386571316716642
  0
ELLIPSE
  5
124
330
1F
100
AcDbEntity
  8
1
  6
CONTINUOUS
 62
   252
100
AcDbEllipse
 10
638.757135
 20
516.35143
 30
0.0
 11
-5.000000000000001
 21
0.0
 31
0.0
210
0.0
220
0.0
230
1.0
 40
0.565685
 41
4.957367643511552
 42
7.313562133703899
  0
ELLIPSE
  5
125
330
1F
100
AcDbEntity
  8
1
  6
CONTINUOUS
 62
   252
100
AcDbEllipse
 10
696.876441
 20
509.889763
 30
0.0
 11
0.3500700210070026
 21
-2.475368857441686
 31
0.0
210
0.0
220
0.0
230
1.0
 40
0.2
 41
2.526112944919408
 42
4.096909271714298
  0
ELLIPSE
  5
126
330
1F
100
AcDbEntity
  8
1
  6
CONTINUOUS
 62
   252
100
AcDbEllipse
 10
664.568106
 20
520.855576
 30
0.0
 11
2.286647801900118
 21
1.010565104318054
 31
0.0
210
0.0
220
0.0
230
1.0
 40
0.8
 41
5.943348397725466
 42
7.514144724520358
  0
ELLIPSE
  5
127
330
1F
100
AcDbEntity
  8
1
  6
CONTINUOUS
 62
   252
100
AcDbEllipse
 10
698.331654
 20
510.095561
 30
0.0
 11
-0.3500700210070026
 21
2.475368857441686
 31
0.0
210
0.0
220
0.0
230
1.0
 40
0.2
 41
5.667705598509203
 42
6.28318707649731
  0
ELLIPSE
  5
128
330
1F
100
AcDbEntity
  8
1
  6
CONTINUOUS
 62
   252
100
AcDbEllipse
 10
664.204302
 20
521.678769
 30
0.0
 11
-2.286647801900118
 21
-1.010565104318054
 31
0.0
210
0.0
220
0.0
230
1.0
 40
0.8
 41
3.141612201652026
 42
4.372552070930568
  0
ELLIPSE
  5
129
330
1F
100
AcDbEntity
  8
1
  6
CONTINUOUS
 62
   252
100
AcDbEllipse
 10
682.575024
 20
428.541407
 30
0.0
 11
-1.886484436567597
 21
2.000918906549747
 31
0.0
210
0.0
220
0.0
230
1.0
 40
0.707107
 41
0.0
 42
6.283185307179586
  0
ELLIPSE
  5
12A
330
1F
100
AcDbEntity
  8
1
  6
CONTINUOUS
 62
   252
100
AcDbEllipse
 10
648.275307
 20
440.183117
 30
0.0
 11
-1.886484436567597
 21
2.000918906549747
 31
0.0
210
0.0
220
0.0
230
1.0
 40
0.707107
 41
0.0
 42
6.283185307179586
  0
ELLIPSE
  5
12B
330
1F
100
AcDbEntity
  8
1
  6
CONTINUOUS
 62
   252
100
AcDbEllipse
 10
665.425165
 20
465.285554
 30
0.0
 11
-7.717436331412898
 21
8.185577344976238
 31
0.0
210
0.0
220
0.0
230
1.0
 40
0.707107
 41
0.0
 42
6.283185307179586
  0
ELLIPSE
  5
12C
330
1F
100
AcDbEntity
  8
1
  6
CONTINUOUS
 62
   252
100
AcDbEllipse
 10
648.275307
 20
502.029702
 30
0.0
 11
-1.886484436567597
 21
2.000918906549747
 31
0.0
210
0.0
220
0.0
230
1.0
 40
0.707107
 41
0.0
 42
6.283185307179586
  0
ELLIPSE
  5
12D
330
1F
100
AcDbEntity
  8
1
  6
CONTINUOUS
 62
   252
100
AcDbEllipse
 10
682.575024
 20
490.387992
 30
0.0
 11
-1.886484436567597
 21
2.000918906549747
 31
0.0
210
0.0
220
0.0
230
1.0
 40
0.707107
 41
0.0
 42
6.283185307179586
  0
SPLINE
  5
12E
330
1F
100
AcDbEntity
  8
1
  6
CONTINUOUS
 62
    81
 60
     1
100
AcDbSpline
210
0.0
220
0.0
230
1.0
 70
    11
 71
     3
 72
    20
 73
    16
 74
     0
 42
0.000000001
 43
0.0000000001
 40
-0.154865546453537
 40
0.0
 40
0.0
 40
0.0
 40
0.0349827914827517
 40
0.0349827914827517
 40
0.0349827914827517
 40
0.345971714908072
 40
0.345971714908072
 40
0.345971714908072
 40
0.4992010251047961
 40
0.4992010251047961
 40
0.4992010251047961
 40
0.845134453546463
 40
0.845134453546463
 40
0.845134453546463
 40
1.0
 40
1.0
 40
1.0
 40
1.034982791482752
 10
649.315342473442
 20
381.6293228070176
 30
0.0000000000000009
 10
648.9753796208726
 20
374.3688593149541
 30
-0.0000000000000006
 10
648.6354167683031
 20
367.1083958228905
 30
-0.0000000000000012
 10
648.2954539157337
 20
359.8479323308269
 30
-0.0000000000000018
 10
648.2954539157337
 20
295.2333749373432
 30
-0.0000000000000012
 10
648.2954539157337
 20
230.6188175438595
 30
-0.0000000000000006
 10
648.2954539157337
 20
166.0042601503758
 30
0.0
 10
616.4588085811686
 20
166.0042601503758
 30
0.0
 10
584.6221632466033
 20
166.0042601503758
 30
0.0
 10
552.7855179120381
 20
166.0042601503758
 30
0.0
 10
552.7855179120381
 20
237.8792810359231
 30
-0.0000000000000024
 10
552.7855179120382
 20
309.7543019214704
 30
-0.0000000000000047
 10
552.7855179120382
 20
381.6293228070176
 30
-0.0000000000000071
 10
584.9621260991728
 20
381.6293228070176
 30
-0.0000000000000041
 10
617.1387342863073
 20
381.6293228070176
 30
-0.0000000000000012
 10
649.315342473442
 20
381.6293228070176
 30
0.0000000000000009
  0
MTEXT
  5
12F
330
1F
100
AcDbEntity
  8
TOP
  6
CONTINUOUS
 62
    53
100
AcDbMText
 10
668.861277
 20
33.760014
 30
0.0
 40
3.5
 41
0.0
 71
     7
 72
     5
  1
\W01.268;\fsimplex.shx;1/1\fsimplex.shx,bigfont.shx;\P
  7
DEFAULT
1001
ACAD
1000
MTEXTBEGIN
1070
    73
1070
     2
1070
    44
1040
1.204819
1000
MTEXTEND
  0
MTEXT
  5
133
330
1F
100
AcDbEntity
  8
TOP
  6
CONTINUOUS
 62
     2
100
AcDbMText
 10
796.603934
 20
40.767669
 30
0.0
 40
3.5
 41
0.0
 71
     8
 72
     5
  1
\W01.116;\fsimplex.shx,bigfont.shx;POLE MOUNT\P
  7
DEFAULT
1001
ACAD
1000
MTEXTBEGIN
1070
    73
1070
     2
1070
    44
1040
1.204819
1000
MTEXTEND
  0
MTEXT
  5
134
102
{ACAD_REACTORS
330
1FE
102
}
330
1F
100
AcDbEntity
  8
TOP
  6
CONTINUOUS
 62
    80
100
AcDbMText
 10
701.428738
 20
578.91968
 30
0.0
 40
3.0
 41
0.0
 71
     7
 72
     5
  1
\W00.942;\fsimplex.shx,bigfont.shx;COLOR\P
  7
DEFAULT
1001
ACAD
1000
MTEXTBEGIN
1070
    73
1070
     2
1070
    44
1040
1.204819
1000
MTEXTEND
  0
MTEXT
  5
135
102
{ACAD_REACTORS
330
1FE
102
}
330
1F
100
AcDbEntity
  8
TOP
  6
CONTINUOUS
 62
    80
100
AcDbMText
 10
613.072376
 20
578.73657
 30
0.0
 40
3.0
 41
0.0
 71
     7
 72
     5
  1
\W01.040;\fsimplex.shx,bigfont.shx;PART NAME\P
  7
DEFAULT
1001
ACAD
1000
MTEXTBEGIN
1070
    73
1070
     2
1070
    44
1040
1.204819
1000
MTEXTEND
  0
MTEXT
  5
136
102
{ACAD_REACTORS
330
1FE
102
}
330
1F
100
AcDbEntity
  8
TOP
  6
CONTINUOUS
 62
    80
100
AcDbMText
 10
729.863021
 20
46.312162
 30
0.0
 40
2.5
 41
0.0
 71
     7
 72
     5
  1
\W01.050;\fsimplex.shx,bigfont.shx;APPROVAL\P
  7
DEFAULT
1001
ACAD
1000
MTEXTBEGIN
1070
    73
1070
     2
1070
    44
1040
1.204819
1000
MTEXTEND
  0
MTEXT
  5
137
102
{ACAD_REACTORS
330
1FE
102
}
330
1F
100
AcDbEntity
  8
TOP
  6
CONTINUOUS
 62
    80
100
AcDbMText
 10
17.521957
 20
18.5332
 30
0.0
 40
4.167172
 41
0.0
 71
     7
 72
     5
  1
\W01.000;\fsimplex.shx,bigfont.shx;CHANGE\P
  7
DEFAULT
 11
1.186823893889355E-6
 21
0.9999999999992957
 31
0.0
1001
ACAD
1000
MTEXTBEGIN
1070
    73
1070
     2
1070
    44
1040
1.204819
1000
MTEXTEND
  0
MTEXT
  5
138
102
{ACAD_REACTORS
330
1FE
102
}
330
1F
100
AcDbEntity
  8
TOP
  6
CONTINUOUS
 62
    80
100
AcDbMText
 10
598.702835
 20
578.82129
 30
0.0
 40
3.0
 41
0.0
 71
     7
 72
     5
  1
\W00.808;\fsimplex.shx,bigfont.shx;NO\P
  7
DEFAULT
1001
ACAD
1000
MTEXTBEGIN
1070
    73
1070
     2
1070
    44
1040
1.204819
1000
MTEXTEND
  0
MTEXT
  5
139
102
{ACAD_REACTORS
330
1FE
102
}
330
1F
100
AcDbEntity
  8
TOP
  6
CONTINUOUS
 62
    80
100
AcDbMText
 10
658.273588
 20
578.91968
 30
0.0
 40
3.0
 41
0.0
 71
     7
 72
     5
  1
\W01.036;\fsimplex.shx,bigfont.shx;CODE NO.\P
  7
DEFAULT
1001
ACAD
1000
MTEXTBEGIN
1070
    73
1070
     2
1070
    44
1040
1.204819
1000
MTEXTEND
  0
MTEXT
  5
13A
102
{ACAD_REACTORS
330
1FE
102
}
330
1F
100
AcDbEntity
  8
TOP
  6
CONTINUOUS
 62
    80
100
AcDbMText
 10
735.143272
 20
579.040297
 30
0.0
 40
2.799999
 41
0.0
 71
     7
 72
     5
  1
\W00.949;\fsimplex.shx,bigfont.shx;Q'TY\P
  7
DEFAULT
1001
ACAD
1000
MTEXTBEGIN
1070
    73
1070
     2
1070
    44
1040
1.204819
1000
MTEXTEND
  0
MTEXT
  5
13B
102
{ACAD_REACTORS
330
1FE
102
}
330
1F
100
AcDbEntity
  8
TOP
  6
CONTINUOUS
 62
    80
100
AcDbMText
 10
0.917068
 20
560.666667
 30
0.0
 40
4.0
 41
0.0
 71
     7
 72
     5
  1
\W00.429;\fsimplex.shx,bigfont.shx;*\P
  7
DEFAULT
1001
ACAD
1000
MTEXTBEGIN
1070
    73
1070
     2
1070
    44
1040
1.204819
1000
MTEXTEND
  0
MTEXT
  5
13C
102
{ACAD_REACTORS
330
1FE
102
}
330
1F
100
AcDbEntity
  8
TOP
  6
CONTINUOUS
 62
    80
100
AcDbMText
 10
0.917068
 20
283.666667
 30
0.0
 40
4.0
 41
0.0
 71
     7
 72
     5
  1
\W00.429;\fsimplex.shx,bigfont.shx;*\P
  7
DEFAULT
1001
ACAD
1000
MTEXTBEGIN
1070
    73
1070
     2
1070
    44
1040
1.204819
1000
MTEXTEND
  0
MTEXT
  5
13D
102
{ACAD_REACTORS
330
1FE
102
}
330
1F
100
AcDbEntity
  8
TOP
  6
CONTINUOUS
 62
    80
100
AcDbMText
 10
198.917065
 20
2.666667
 30
0.0
 40
4.0
 41
0.0
 71
     7
 72
     5
  1
\W00.429;\fsimplex.shx,bigfont.shx;*\P
  7
DEFAULT
1001
ACAD
1000
MTEXTBEGIN
1070
    73
1070
     2
1070
    44
1040
1.204819
1000
MTEXTEND
  0
MTEXT
  5
13E
102
{ACAD_REACTORS
330
1FE
102
}
330
1F
100
AcDbEntity
  8
TOP
  6
CONTINUOUS
 62
    80
100
AcDbMText
 10
388.917065
 20
2.666667
 30
0.0
 40
4.0
 41
0.0
 71
     7
 72
     5
  1
\W00.429;\fsimplex.shx,bigfont.shx;*\P
  7
DEFAULT
1001
ACAD
1000
MTEXTBEGIN
1070
    73
1070
     2
1070
    44
1040
1.204819
1000
MTEXTEND
  0
MTEXT
  5
13F
102
{ACAD_REACTORS
330
1FE
102
}
330
1F
100
AcDbEntity
  8
TOP
  6
CONTINUOUS
 62
    80
100
AcDbMText
 10
578.917065
 20
2.666667
 30
0.0
 40
4.0
 41
0.0
 71
     7
 72
     5
  1
\W00.429;\fsimplex.shx,bigfont.shx;*\P
  7
DEFAULT
1001
ACAD
1000
MTEXTBEGIN
1070
    73
1070
     2
1070
    44
1040
1.204819
1000
MTEXTEND
  0
MTEXT
  5
140
102
{ACAD_REACTORS
330
1FE
102
}
330
1F
100
AcDbEntity
  8
TOP
  6
CONTINUOUS
 62
    80
100
AcDbMText
 10
768.916975
 20
2.666667
 30
0.0
 40
4.0
 41
0.0
 71
     7
 72
     5
  1
\W00.429;\fsimplex.shx,bigfont.shx;*\P
  7
DEFAULT
1001
ACAD
1000
MTEXTBEGIN
1070
    73
1070
     2
1070
    44
1040
1.204819
1000
MTEXTEND
  0
MTEXT
  5
141
102
{ACAD_REACTORS
330
1FE
102
}
330
1F
100
AcDbEntity
  8
TOP
  6
CONTINUOUS
 62
    80
100
AcDbMText
 10
838.285716
 20
560.666667
 30
0.0
 40
4.0
 41
0.0
 71
     7
 72
     5
  1
\W01.000;\fsimplex.shx,bigfont.shx; \P
  7
DEFAULT
1001
ACAD
1000
MTEXTBEGIN
1070
    73
1070
     2
1070
    44
1040
1.204819
1000
MTEXTEND
  0
MTEXT
  5
142
102
{ACAD_REACTORS
330
1FE
102
}
330
1F
100
AcDbEntity
  8
TOP
  6
CONTINUOUS
 62
    80
100
AcDbMText
 10
833.916965
 20
283.666667
 30
0.0
 40
4.0
 41
0.0
 71
     7
 72
     5
  1
\W00.429;\fsimplex.shx,bigfont.shx;*\P
  7
DEFAULT
1001
ACAD
1000
MTEXTBEGIN
1070
    73
1070
     2
1070
    44
1040
1.204819
1000
MTEXTEND
  0
MTEXT
  5
143
102
{ACAD_REACTORS
330
1FE
102
}
330
1F
100
AcDbEntity
  8
TOP
  6
CONTINUOUS
 62
    80
100
AcDbMText
 10
833.916965
 20
560.666667
 30
0.0
 40
4.0
 41
0.0
 71
     7
 72
     5
  1
\W00.429;\fsimplex.shx,bigfont.shx;*\P
  7
DEFAULT
1001
ACAD
1000
MTEXTBEGIN
1070
    73
1070
     2
1070
    44
1040
1.204819
1000
MTEXTEND
  0
MTEXT
  5
144
102
{ACAD_REACTORS
330
1FE
102
}
330
1F
100
AcDbEntity
  8
TOP
  6
CONTINUOUS
 62
    80
100
AcDbMText
 10
199.285816
 20
588.666667
 30
0.0
 40
4.0
 41
0.0
 71
     7
 72
     5
  1
\W01.000;\fsimplex.shx,bigfont.shx; \P
  7
DEFAULT
1001
ACAD
1000
MTEXTBEGIN
1070
    73
1070
     2
1070
    44
1040
1.204819
1000
MTEXTEND
  0
MTEXT
  5
145
102
{ACAD_REACTORS
330
1FE
102
}
330
1F
100
AcDbEntity
  8
TOP
  6
CONTINUOUS
 62
    80
100
AcDbMText
 10
198.917065
 20
582.666667
 30
0.0
 40
4.0
 41
0.0
 71
     7
 72
     5
  1
\W00.429;\fsimplex.shx,bigfont.shx;*\P
  7
DEFAULT
1001
ACAD
1000
MTEXTBEGIN
1070
    73
1070
     2
1070
    44
1040
1.204819
1000
MTEXTEND
  0
MTEXT
  5
146
102
{ACAD_REACTORS
330
1FE
102
}
330
1F
100
AcDbEntity
  8
TOP
  6
CONTINUOUS
 62
    80
100
AcDbMText
 10
388.917065
 20
582.666667
 30
0.0
 40
4.0
 41
0.0
 71
     7
 72
     5
  1
\W00.429;\fsimplex.shx,bigfont.shx;*\P
  7
DEFAULT
1001
ACAD
1000
MTEXTBEGIN
1070
    73
1070
     2
1070
    44
1040
1.204819
1000
MTEXTEND
  0
MTEXT
  5
147
102
{ACAD_REACTORS
330
1FE
102
}
330
1F
100
AcDbEntity
  8
TOP
  6
CONTINUOUS
 62
    80
100
AcDbMText
 10
578.917065
 20
582.666667
 30
0.0
 40
4.0
 41
0.0
 71
     7
 72
     5
  1
\W00.429;\fsimplex.shx,bigfont.shx;*\P
  7
DEFAULT
1001
ACAD
1000
MTEXTBEGIN
1070
    73
1070
     2
1070
    44
1040
1.204819
1000
MTEXTEND
  0
MTEXT
  5
148
102
{ACAD_REACTORS
330
1FE
102
}
330
1F
100
AcDbEntity
  8
TOP
  6
CONTINUOUS
 62
    80
100
AcDbMText
 10
768.916975
 20
582.666667
 30
0.0
 40
4.0
 41
0.0
 71
     7
 72
     5
  1
\W00.429;\fsimplex.shx,bigfont.shx;*\P
  7
DEFAULT
1001
ACAD
1000
MTEXTBEGIN
1070
    73
1070
     2
1070
    44
1040
1.204819
1000
MTEXTEND
  0
MTEXT
  5
149
102
{ACAD_REACTORS
330
1FE
102
}
330
1F
100
AcDbEntity
  8
TOP
  6
CONTINUOUS
 62
    80
100
AcDbMText
 10
230.984186
 20
4.5
 30
0.0
 40
3.0
 41
0.0
 71
     7
 72
     5
  1
\W00.547;\fsimplex.shx,bigfont.shx;4\P
  7
DEFAULT
1001
ACAD
1000
MTEXTBEGIN
1070
    73
1070
     2
1070
    44
1040
1.204819
1000
MTEXTEND
  0
MTEXT
  5
14A
102
{ACAD_REACTORS
330
1FE
102
}
330
1F
100
AcDbEntity
  8
TOP
  6
CONTINUOUS
 62
    80
100
AcDbMText
 10
294.291521
 20
4.5
 30
0.0
 40
3.0
 41
0.0
 71
     7
 72
     5
  1
\W00.521;\fsimplex.shx,bigfont.shx;5\P
  7
DEFAULT
1001
ACAD
1000
MTEXTBEGIN
1070
    73
1070
     2
1070
    44
1040
1.204819
1000
MTEXTEND
  0
MTEXT
  5
14B
102
{ACAD_REACTORS
330
1FE
102
}
330
1F
100
AcDbEntity
  8
TOP
  6
CONTINUOUS
 62
    80
100
AcDbMText
 10
357.598856
 20
4.5
 30
0.0
 40
3.0
 41
0.0
 71
     7
 72
     5
  1
\W00.483;\fsimplex.shx,bigfont.shx;6\P
  7
DEFAULT
1001
ACAD
1000
MTEXTBEGIN
1070
    73
1070
     2
1070
    44
1040
1.204819
1000
MTEXTEND
  0
MTEXT
  5
14C
102
{ACAD_REACTORS
330
1FE
102
}
330
1F
100
AcDbEntity
  8
TOP
  6
CONTINUOUS
 62
    80
100
AcDbMText
 10
420.958271
 20
4.5
 30
0.0
 40
3.0
 41
0.0
 71
     7
 72
     5
  1
\W00.521;\fsimplex.shx,bigfont.shx;7\P
  7
DEFAULT
1001
ACAD
1000
MTEXTBEGIN
1070
    73
1070
     2
1070
    44
1040
1.204819
1000
MTEXTEND
  0
MTEXT
  5
14D
102
{ACAD_REACTORS
330
1FE
102
}
330
1F
100
AcDbEntity
  8
TOP
  6
CONTINUOUS
 62
    80
100
AcDbMText
 10
484.291521
 20
4.5
 30
0.0
 40
3.0
 41
0.0
 71
     7
 72
     5
  1
\W00.521;\fsimplex.shx,bigfont.shx;8\P
  7
DEFAULT
1001
ACAD
1000
MTEXTBEGIN
1070
    73
1070
     2
1070
    44
1040
1.204819
1000
MTEXTEND
  0
MTEXT
  5
14E
102
{ACAD_REACTORS
330
1FE
102
}
330
1F
100
AcDbEntity
  8
TOP
  6
CONTINUOUS
 62
    80
100
AcDbMText
 10
547.598856
 20
4.5
 30
0.0
 40
3.0
 41
0.0
 71
     7
 72
     5
  1
\W00.513;\fsimplex.shx,bigfont.shx;9\P
  7
DEFAULT
1001
ACAD
1000
MTEXTBEGIN
1070
    73
1070
     2
1070
    44
1040
1.204819
1000
MTEXTEND
  0
MTEXT
  5
14F
102
{ACAD_REACTORS
330
1FE
102
}
330
1F
100
AcDbEntity
  8
TOP
  6
CONTINUOUS
 62
    80
100
AcDbMText
 10
611.2077
 20
4.5
 30
0.0
 40
3.0
 41
0.0
 71
     7
 72
     5
  1
\W00.958;\fsimplex.shx,bigfont.shx;10\P
  7
DEFAULT
1001
ACAD
1000
MTEXTBEGIN
1070
    73
1070
     2
1070
    44
1040
1.204819
1000
MTEXTEND
  0
MTEXT
  5
150
102
{ACAD_REACTORS
330
1FE
102
}
330
1F
100
AcDbEntity
  8
TOP
  6
CONTINUOUS
 62
    80
100
AcDbMText
 10
674.616857
 20
4.5
 30
0.0
 40
3.0
 41
0.0
 71
     7
 72
     5
  1
\W01.291;\fsimplex.shx,bigfont.shx;11\P
  7
DEFAULT
1001
ACAD
1000
MTEXTBEGIN
1070
    73
1070
     2
1070
    44
1040
1.204819
1000
MTEXTEND
  0
MTEXT
  5
151
102
{ACAD_REACTORS
330
1FE
102
}
330
1F
100
AcDbEntity
  8
TOP
  6
CONTINUOUS
 62
    80
100
AcDbMText
 10
737.87452
 20
4.5
 30
0.0
 40
3.0
 41
0.0
 71
     7
 72
     5
  1
\W00.958;\fsimplex.shx,bigfont.shx;12\P
  7
DEFAULT
1001
ACAD
1000
MTEXTBEGIN
1070
    73
1070
     2
1070
    44
1040
1.204819
1000
MTEXTEND
  0
MTEXT
  5
152
102
{ACAD_REACTORS
330
1FE
102
}
330
1F
100
AcDbEntity
  8
TOP
  6
CONTINUOUS
 62
    80
100
AcDbMText
 10
800.04102
 20
4.5
 30
0.0
 40
3.0
 41
0.0
 71
     7
 72
     5
  1
\W00.958;\fsimplex.shx,bigfont.shx;13\P
  7
DEFAULT
1001
ACAD
1000
MTEXTBEGIN
1070
    73
1070
     2
1070
    44
1040
1.204819
1000
MTEXTEND
  0
MTEXT
  5
153
102
{ACAD_REACTORS
330
1FE
102
}
330
1F
100
AcDbEntity
  8
TOP
  6
CONTINUOUS
 62
    80
100
AcDbMText
 10
8.333332
 20
43.910815
 30
0.0
 40
4.0
 41
0.0
 71
     7
 72
     5
  1
\W00.869;\fsimplex.shx,bigfont.shx;A\P
  7
DEFAULT
 11
1.186823894333445E-6
 21
0.9999999999992957
 31
0.0
1001
ACAD
1000
MTEXTBEGIN
1070
    73
1070
     2
1070
    44
1040
1.204819
1000
MTEXTEND
  0
MTEXT
  5
154
102
{ACAD_REACTORS
330
1FE
102
}
330
1F
100
AcDbEntity
  8
TOP
  6
CONTINUOUS
 62
    80
100
AcDbMText
 10
8.333332
 20
113.160814
 30
0.0
 40
4.0
 41
0.0
 71
     7
 72
     5
  1
\W00.820;\fsimplex.shx,bigfont.shx;B\P
  7
DEFAULT
 11
1.186823894333445E-6
 21
0.9999999999992957
 31
0.0
1001
ACAD
1000
MTEXTBEGIN
1070
    73
1070
     2
1070
    44
1040
1.204819
1000
MTEXTEND
  0
MTEXT
  5
155
102
{ACAD_REACTORS
330
1FE
102
}
330
1F
100
AcDbEntity
  8
TOP
  6
CONTINUOUS
 62
    80
100
AcDbMText
 10
8.333332
 20
182.410814
 30
0.0
 40
4.0
 41
0.0
 71
     7
 72
     5
  1
\W00.820;\fsimplex.shx,bigfont.shx;C\P
  7
DEFAULT
 11
1.186823894333445E-6
 21
0.9999999999992957
 31
0.0
1001
ACAD
1000
MTEXTBEGIN
1070
    73
1070
     2
1070
    44
1040
1.204819
1000
MTEXTEND
  0
MTEXT
  5
156
102
{ACAD_REACTORS
330
1FE
102
}
330
1F
100
AcDbEntity
  8
TOP
  6
CONTINUOUS
 62
    80
100
AcDbMText
 10
8.333332
 20
251.660814
 30
0.0
 40
4.0
 41
0.0
 71
     7
 72
     5
  1
\W00.820;\fsimplex.shx,bigfont.shx;D\P
  7
DEFAULT
 11
1.186823894333445E-6
 21
0.9999999999992957
 31
0.0
1001
ACAD
1000
MTEXTBEGIN
1070
    73
1070
     2
1070
    44
1040
1.204819
1000
MTEXTEND
  0
MTEXT
  5
157
102
{ACAD_REACTORS
330
1FE
102
}
330
1F
100
AcDbEntity
  8
TOP
  6
CONTINUOUS
 62
    80
100
AcDbMText
 10
8.333332
 20
320.910814
 30
0.0
 40
4.0
 41
0.0
 71
     7
 72
     5
  1
\W00.869;\fsimplex.shx,bigfont.shx;E\P
  7
DEFAULT
 11
1.186823894333445E-6
 21
0.9999999999992957
 31
0.0
1001
ACAD
1000
MTEXTBEGIN
1070
    73
1070
     2
1070
    44
1040
1.204819
1000
MTEXTEND
  0
MTEXT
  5
158
102
{ACAD_REACTORS
330
1FE
102
}
330
1F
100
AcDbEntity
  8
TOP
  6
CONTINUOUS
 62
    80
100
AcDbMText
 10
8.333332
 20
390.160814
 30
0.0
 40
4.0
 41
0.0
 71
     7
 72
     5
  1
\W00.869;\fsimplex.shx,bigfont.shx;F\P
  7
DEFAULT
 11
1.186823894333445E-6
 21
0.9999999999992957
 31
0.0
1001
ACAD
1000
MTEXTBEGIN
1070
    73
1070
     2
1070
    44
1040
1.204819
1000
MTEXTEND
  0
MTEXT
  5
159
102
{ACAD_REACTORS
330
1FE
102
}
330
1F
100
AcDbEntity
  8
TOP
  6
CONTINUOUS
 62
    80
100
AcDbMText
 10
8.333332
 20
459.410814
 30
0.0
 40
4.0
 41
0.0
 71
     7
 72
     5
  1
\W00.820;\fsimplex.shx,bigfont.shx;G\P
  7
DEFAULT
 11
1.186823894333445E-6
 21
0.9999999999992957
 31
0.0
1001
ACAD
1000
MTEXTBEGIN
1070
    73
1070
     2
1070
    44
1040
1.204819
1000
MTEXTEND
  0
MTEXT
  5
15A
102
{ACAD_REACTORS
330
1FE
102
}
330
1F
100
AcDbEntity
  8
TOP
  6
CONTINUOUS
 62
    80
100
AcDbMText
 10
8.333332
 20
528.660814
 30
0.0
 40
4.0
 41
0.0
 71
     7
 72
     5
  1
\W00.820;\fsimplex.shx,bigfont.shx;H\P
  7
DEFAULT
 11
1.186823894333445E-6
 21
0.9999999999992957
 31
0.0
1001
ACAD
1000
MTEXTBEGIN
1070
    73
1070
     2
1070
    44
1040
1.204819
1000
MTEXTEND
  0
MTEXT
  5
15B
102
{ACAD_REACTORS
330
1FE
102
}
330
1F
100
AcDbEntity
  8
TOP
  6
CONTINUOUS
 62
    80
100
AcDbMText
 10
8.333332
 20
573.285814
 30
0.0
 40
4.0
 41
0.0
 71
     7
 72
     5
  1
\W03.691;\fsimplex.shx,bigfont.shx;I\P
  7
DEFAULT
 11
1.186823894333445E-6
 21
0.9999999999992957
 31
0.0
1001
ACAD
1000
MTEXTBEGIN
1070
    73
1070
     2
1070
    44
1040
1.204819
1000
MTEXTEND
  0
MTEXT
  5
15C
102
{ACAD_REACTORS
330
1FE
102
}
330
1F
100
AcDbEntity
  8
TOP
  6
CONTINUOUS
 62
    80
100
AcDbMText
 10
657.936053
 20
43.99522
 30
0.0
 40
2.4
 41
0.0
 71
     7
 72
     5
  1
\W01.053;\fsimplex.shx,bigfont.shx;UNIT\P
  7
DEFAULT
1001
ACAD
1000
MTEXTBEGIN
1070
    73
1070
     2
1070
    44
1040
1.204819
1000
MTEXTEND
  0
MTEXT
  5
15D
102
{ACAD_REACTORS
330
1FE
102
}
330
1F
100
AcDbEntity
  8
TOP
  6
CONTINUOUS
 62
    80
100
AcDbMText
 10
656.683572
 20
34.594121
 30
0.0
 40
2.4
 41
0.0
 71
     7
 72
     5
  1
\W00.991;\fsimplex.shx,bigfont.shx;SCALE\P
  7
DEFAULT
1001
ACAD
1000
MTEXTBEGIN
1070
    73
1070
     2
1070
    44
1040
1.204819
1000
MTEXTEND
  0
MTEXT
  5
15E
102
{ACAD_REACTORS
330
1FE
102
}
330
1F
100
AcDbEntity
  8
TOP
  6
CONTINUOUS
 62
    80
100
AcDbMText
 10
685.179624
 20
46.312162
 30
0.0
 40
2.5
 41
0.0
 71
     7
 72
     5
  1
\W01.076;\fsimplex.shx,bigfont.shx;DESIGN\P
  7
DEFAULT
1001
ACAD
1000
MTEXTBEGIN
1070
    73
1070
     2
1070
    44
1040
1.204819
1000
MTEXTEND
  0
MTEXT
  5
15F
102
{ACAD_REACTORS
330
1FE
102
}
330
1F
100
AcDbEntity
  8
TOP
  6
CONTINUOUS
 62
    80
100
AcDbMText
 10
709.852995
 20
46.312162
 30
0.0
 40
2.5
 41
0.0
 71
     7
 72
     5
  1
\W00.997;\fsimplex.shx,bigfont.shx;CHECK\P
  7
DEFAULT
1001
ACAD
1000
MTEXTBEGIN
1070
    73
1070
     2
1070
    44
1040
1.204819
1000
MTEXTEND
  0
MTEXT
  5
160
102
{ACAD_REACTORS
330
1FE
102
}
330
1F
100
AcDbEntity
  8
TOP
  6
CONTINUOUS
 62
    80
100
AcDbMText
 10
752.91909
 20
35.921769
 30
0.0
 40
2.8
 41
0.0
 71
     7
 72
     5
  1
\W00.949;\fsimplex.shx,bigfont.shx;PART\P
  7
DEFAULT
1001
ACAD
1000
MTEXTBEGIN
1070
    73
1070
     2
1070
    44
1040
1.204819
1000
MTEXTEND
  0
MTEXT
  5
161
102
{ACAD_REACTORS
330
1FE
102
}
330
1F
100
AcDbEntity
  8
TOP
  6
CONTINUOUS
 62
    80
100
AcDbMText
 10
752.966055
 20
31.411782
 30
0.0
 40
2.8
 41
0.0
 71
     7
 72
     5
  1
\W00.956;\fsimplex.shx,bigfont.shx;NAME\P
  7
DEFAULT
1001
ACAD
1000
MTEXTBEGIN
1070
    73
1070
     2
1070
    44
1040
1.204819
1000
MTEXTEND
  0
MTEXT
  5
162
102
{ACAD_REACTORS
330
1FE
102
}
330
1F
100
AcDbEntity
  8
TOP
  6
CONTINUOUS
 62
    80
100
AcDbMText
 10
752.783322
 20
14.959857
 30
0.0
 40
2.8
 41
0.0
 71
     7
 72
     5
  1
\W00.968;\fsimplex.shx,bigfont.shx;CODE\P
  7
DEFAULT
1001
ACAD
1000
MTEXTBEGIN
1070
    73
1070
     2
1070
    44
1040
1.204819
1000
MTEXTEND
  0
MTEXT
  5
163
102
{ACAD_REACTORS
330
1FE
102
}
330
1F
100
AcDbEntity
  8
TOP
  6
CONTINUOUS
 62
    80
100
AcDbMText
 10
752.802525
 20
10.894517
 30
0.0
 40
2.8
 41
0.0
 71
     7
 72
     5
  1
\W00.561;\fsimplex.shx,bigfont.shx; NO\P
  7
DEFAULT
1001
ACAD
1000
MTEXTBEGIN
1070
    73
1070
     2
1070
    44
1040
1.204819
1000
MTEXTEND
  0
MTEXT
  5
164
102
{ACAD_REACTORS
330
1FE
102
}
330
1F
100
AcDbEntity
  8
TOP
  6
CONTINUOUS
 62
    80
100
AcDbMText
 10
663.623264
 20
11.208505
 30
0.0
 40
4.5
 41
0.0
 71
     7
 72
     5
  1
\W00.886;\fsimplex.shx,bigfont.shx;SAMSUNG TECHWIN CO.\P
  7
DEFAULT
1001
ACAD
1000
MTEXTBEGIN
1070
    73
1070
     2
1070
    44
1040
1.204819
1000
MTEXTEND
  0
MTEXT
  5
165
102
{ACAD_REACTORS
330
1FE
102
}
330
1F
100
AcDbEntity
  8
TOP
  6
CONTINUOUS
 62
    80
100
AcDbMText
 10
671.572526
 20
43.401512
 30
0.0
 40
3.8
 41
0.0
 71
     7
 72
     5
  1
\W00.850;\fsimplex.shx,bigfont.shx;mm\P
  7
DEFAULT
1001
ACAD
1000
MTEXTBEGIN
1070
    73
1070
     2
1070
    44
1040
1.204819
1000
MTEXTEND
  0
MTEXT
  5
166
102
{ACAD_REACTORS
330
1FE
102
}
330
1F
100
AcDbEntity
  8
TOP
  6
CONTINUOUS
 62
    80
100
AcDbMText
 10
659.201526
 20
27.163736
 30
0.0
 40
2.5
 41
0.0
 71
     7
 72
     5
  1
\W00.880;\fsimplex.shx,bigfont.shx;NODE\P
  7
DEFAULT
1001
ACAD
1000
MTEXTBEGIN
1070
    73
1070
     2
1070
    44
1040
1.204819
1000
MTEXTEND
  0
MTEXT
  5
167
102
{ACAD_REACTORS
330
1FE
102
}
330
1F
100
AcDbEntity
  8
TOP
  6
CONTINUOUS
 62
    80
100
AcDbMText
 10
671.513217
 20
27.116896
 30
0.0
 40
2.4
 41
0.0
 71
     7
 72
     5
  1
\W00.963;\fsimplex.shx,bigfont.shx;DIRECTORY\P
  7
DEFAULT
1001
ACAD
1000
MTEXTBEGIN
1070
    73
1070
     2
1070
    44
1040
1.204819
1000
MTEXTEND
  0
MTEXT
  5
168
102
{ACAD_REACTORS
330
1FE
102
}
330
1F
100
AcDbEntity
  8
TOP
  6
CONTINUOUS
 62
    80
100
AcDbMText
 10
709.67818
 20
27.163427
 30
0.0
 40
2.5
 41
0.0
 71
     7
 72
     5
  1
\W00.962;\fsimplex.shx,bigfont.shx;FILE NAME\P
  7
DEFAULT
1001
ACAD
1000
MTEXTBEGIN
1070
    73
1070
     2
1070
    44
1040
1.204819
1000
MTEXTEND
  0
MTEXT
  5
169
102
{ACAD_REACTORS
330
1FE
102
}
330
1F
100
AcDbEntity
  8
TOP
  6
CONTINUOUS
 62
    80
100
AcDbMText
 10
11.572013
 20
53.179704
 30
0.0
 40
2.5
 41
0.0
 71
     7
 72
     5
  1
\W00.889;\fsimplex.shx,bigfont.shx;This parts should not contain any substances which are specified in OQA-2049\P
  7
DEFAULT
1001
ACAD
1000
MTEXTBEGIN
1070
    73
1070
     2
1070
    44
1040
1.204819
1000
MTEXTEND
  0
MTEXT
  5
16A
330
1F
100
AcDbEntity
  8
TOP
  6
CONTINUOUS
 62
    53
100
AcDbMText
 10
782.240867
 20
25.0684
 30
0.0
 40
3.5
 41
0.0
 71
     7
 72
     5
  1
\W00.990;\fsimplex.shx,bigfont.shx;SBP-300PM\P
  7
DEFAULT
1001
ACAD
1000
MTEXTBEGIN
1070
    44
1040
0.903614
1000
MTEXTEND
  0
MTEXT
  5
16B
330
1F
100
AcDbEntity
  8
TOP
  6
CONTINUOUS
 62
    80
100
AcDbMText
 10
762.133487
 20
579.24077
 30
0.0
 40
3.0
 41
0.0
 71
     7
 72
     5
  1
\W01.003;\fsimplex.shx,bigfont.shx;REMARK\P
  7
DEFAULT
1001
ACAD
1000
MTEXTBEGIN
1070
    73
1070
     2
1070
    44
1040
1.204819
1000
MTEXTEND
  0
LINE
  5
16C
330
1F
100
AcDbEntity
  8
TOP
  6
CENTER
 62
     1
100
AcDbLine
 10
322.654131
 20
198.347932
 30
0.0
 11
343.654131
 21
198.347932
 31
0.0
  0
LINE
  5
16D
330
1F
100
AcDbEntity
  8
TOP
  6
CENTER
 62
     1
100
AcDbLine
 10
333.154131
 20
187.847932
 30
0.0
 11
333.154131
 21
208.847932
 31
0.0
  0
LINE
  5
16E
330
1F
100
AcDbEntity
  8
TOP
  6
CENTER
 62
     1
100
AcDbLine
 10
402.654131
 20
198.347932
 30
0.0
 11
423.654131
 21
198.347932
 31
0.0
  0
LINE
  5
16F
330
1F
100
AcDbEntity
  8
TOP
  6
CENTER
 62
     1
100
AcDbLine
 10
413.154131
 20
187.847932
 30
0.0
 11
413.154131
 21
208.847932
 31
0.0
  0
LINE
  5
170
330
1F
100
AcDbEntity
  8
TOP
  6
CENTER
 62
     1
100
AcDbLine
 10
322.654131
 20
348.347932
 30
0.0
 11
343.654131
 21
348.347932
 31
0.0
  0
LINE
  5
171
330
1F
100
AcDbEntity
  8
TOP
  6
CENTER
 62
     1
100
AcDbLine
 10
333.154131
 20
337.847932
 30
0.0
 11
333.154131
 21
358.847932
 31
0.0
  0
LINE
  5
172
330
1F
100
AcDbEntity
  8
TOP
  6
CENTER
 62
     1
100
AcDbLine
 10
402.654131
 20
348.347932
 30
0.0
 11
423.654131
 21
348.347932
 31
0.0
  0
LINE
  5
173
330
1F
100
AcDbEntity
  8
TOP
  6
CENTER
 62
     1
100
AcDbLine
 10
413.154131
 20
337.847932
 30
0.0
 11
413.154131
 21
358.847932
 31
0.0
  0
LINE
  5
174
330
1F
100
AcDbEntity
  8
TOP
  6
CENTER
 62
     1
100
AcDbLine
 10
345.654131
 20
273.347932
 30
0.0
 11
400.654131
 21
273.347932
 31
0.0
  0
LINE
  5
175
330
1F
100
AcDbEntity
  8
TOP
  6
CENTER
 62
     1
100
AcDbLine
 10
373.154131
 20
245.847932
 30
0.0
 11
373.154131
 21
300.847932
 31
0.0
  0
LINE
  5
176
330
1F
100
AcDbEntity
  8
TOP
  6
CONTINUOUS
 62
     1
100
AcDbLine
 10
413.154131
 20
404.848649
 30
0.0
 11
413.154131
 21
442.848649
 31
0.0
  0
LINE
  5
177
330
1F
100
AcDbEntity
  8
TOP
  6
CONTINUOUS
 62
     1
100
AcDbLine
 10
333.154131
 20
404.848649
 30
0.0
 11
333.154131
 21
442.848649
 31
0.0
  0
LINE
  5
178
330
1F
100
AcDbEntity
  8
TOP
  6
CONTINUOUS
 62
     1
100
AcDbLine
 10
567.584776
 20
273.347932
 30
0.0
 11
663.295454
 21
273.347932
 31
0.0
  0
INSERT
  5
17E
330
1F
100
AcDbEntity
  8
TOP
  6
CONTINUOUS
 62
     1
100
AcDbBlockReference
  2
LABLE3D_1
 10
0.0
 20
0.0
 30
0.0
  0
MTEXT
  5
181
102
{ACAD_REACTORS
330
1FD
102
}
330
1F
100
AcDbEntity
  8
TOP
  6
CONTINUOUS
 62
     1
100
AcDbMText
 10
359.046339
 20
445.408149
 30
0.0
 40
6.0
 41
0.0
 71
     7
 72
     5
  1
\W01.117;\fsimplex.shx,bigfont.shx;60\P
  7
DEFAULT
 11
1.615542552166338E-15
 21
1.0
 31
0.0
1001
ACAD
1000
MTEXTBEGIN
1070
    44
1040
0.903614
1000
MTEXTEND
  0
LINE
  5
182
102
{ACAD_REACTORS
330
185
102
}
330
1F
100
AcDbEntity
  8
1
  6
CONTINUOUS
 62
     7
 60
     1
100
AcDbLine
 10
360.108839
 20
419.848649
 30
0.0
 11
359.171017
 21
423.348646
 31
0.0
  0
LINE
  5
183
102
{ACAD_REACTORS
330
185
102
}
330
1F
100
AcDbEntity
  8
1
  6
CONTINUOUS
 62
     7
 60
     1
100
AcDbLine
 10
359.171017
 20
423.348646
 30
0.0
 11
361.046661
 21
423.348653
 31
0.0
  0
LINE
  5
184
102
{ACAD_REACTORS
330
185
102
}
330
1F
100
AcDbEntity
  8
1
  6
CONTINUOUS
 62
     7
 60
     1
100
AcDbLine
 10
361.046661
 20
423.348653
 30
0.0
 11
360.108839
 21
419.848649
 31
0.0
  0
HATCH
  5
185
102
{ACAD_REACTORS
330
1FD
102
}
330
1F
100
AcDbEntity
  8
TOP
  6
CONTINUOUS
 62
     7
100
AcDbHatch
 10
0.0
 20
0.0
 30
0.0
210
0.0
220
0.0
230
1.0
  2
ANSI31
 70
     0
 71
     1
 91
        1
 92
        0
 93
        3
 72
     1
 10
360.1088390186379
 20
419.8486494462651
 11
359.1710168451353
 21
423.3486460014519
 72
     1
 10
359.1710168451353
 20
423.3486460014519
 11
361.0466611921404
 21
423.3486528910784
 72
     1
 10
361.0466611921404
 20
423.3486528910784
 11
360.1088390186379
 21
419.8486494462651
 97
        3
330
182
330
183
330
184
 75
     0
 76
     0
 52
45.0
 41
0.001
 77
     0
 78
     1
 53
44.99999999999994
 43
0.0
 44
0.0
 45
-0.0007071067811865
 46
0.0007071067811865
 79
     0
 98
        0
  0
LINE
  5
186
102
{ACAD_REACTORS
330
189
102
}
330
1F
100
AcDbEntity
  8
1
  6
CONTINUOUS
 62
     7
 60
     1
100
AcDbLine
 10
360.108839
 20
479.848649
 30
0.0
 11
361.046661
 21
476.348653
 31
0.0
  0
LINE
  5
187
102
{ACAD_REACTORS
330
189
102
}
330
1F
100
AcDbEntity
  8
1
  6
CONTINUOUS
 62
     7
 60
     1
100
AcDbLine
 10
361.046661
 20
476.348653
 30
0.0
 11
359.171017
 21
476.348646
 31
0.0
  0
LINE
  5
188
102
{ACAD_REACTORS
330
189
102
}
330
1F
100
AcDbEntity
  8
1
  6
CONTINUOUS
 62
     7
 60
     1
100
AcDbLine
 10
359.171017
 20
476.348646
 30
0.0
 11
360.108839
 21
479.848649
 31
0.0
  0
HATCH
  5
189
102
{ACAD_REACTORS
330
1FD
102
}
330
1F
100
AcDbEntity
  8
TOP
  6
CONTINUOUS
 62
     7
100
AcDbHatch
 10
0.0
 20
0.0
 30
0.0
210
0.0
220
0.0
230
1.0
  2
ANSI31
 70
     0
 71
     1
 91
        1
 92
        0
 93
        3
 72
     1
 10
360.1088390186379
 20
479.8486494462651
 11
361.0466611921404
 21
476.3486528910784
 72
     1
 10
361.0466611921404
 20
476.3486528910784
 11
359.1710168451353
 21
476.3486460014519
 72
     1
 10
359.1710168451353
 20
476.3486460014519
 11
360.1088390186379
 21
479.8486494462651
 97
        3
330
186
330
187
330
188
 75
     0
 76
     0
 52
45.0
 41
0.001
 77
     0
 78
     1
 53
44.99999999999992
 43
0.0
 44
0.0
 45
-0.0007071067811865
 46
0.0007071067811865
 79
     0
 98
        0
  0
DIMENSION
  5
193
330
1F
100
AcDbEntity
  8
TOP
  6
CONTINUOUS
 62
     1
100
AcDbDimension
  2
DIMNDRAFT3D1
 10
456.154131
 20
125.973079
 30
0.0
 11
365.523131
 21
130.973079
 31
0.0
 70
    32
  1
\C1 <> 
  3
STANDARD
100
AcDbAlignedDimension
 13
290.154131
 23
181.547932
 33
0.0
 14
456.154131
 24
181.547932
 34
0.0
100
AcDbRotatedDimension
1001
ACAD
1000
DSTYLE
1002
{
1070
   271
1070
     2
1070
   272
1070
     2
1070
    77
1070
     1
1070
    73
1070
     0
1070
   171
1070
     3
1070
   274
1070
     4
1070
   177
1070
     1
1070
   176
1070
     1
1070
   178
1070
     1
1070
    78
1070
     8
1070
    48
1040
-0.005
1070
    41
1041
3.5
1070
   147
1041
1.5
1070
    42
1041
0.3
1070
    44
1041
2.0
1070
   140
1041
6.0
1070
     6
1000
_CLOSEDFILLED_TYPE
1070
     7
1000
_CLOSEDFILLED_TYPE
1002
}
  0
DIMENSION
  5
19B
330
1F
100
AcDbEntity
  8
TOP
  6
CONTINUOUS
 62
     1
100
AcDbDimension
  2
DIMNDRAFT3D2
 10
335.476461
 20
476.313116
 30
0.0
 11
309.573003
 21
440.56422
 31
0.0
 70
    34
  1
\C1 <> 
 53
292.5
  3
STANDARD
100
AcDb2LineAngularDimension
 13
303.154131
 23
419.848649
 33
0.0
 14
443.154131
 24
419.848649
 34
0.0
 15
296.083063
 25
436.919717
 35
0.0
 16
315.193146
 26
434.835373
 36
0.0
1001
ACAD
1000
DSTYLE
1002
{
1070
   271
1070
     2
1070
   272
1070
     2
1070
    77
1070
     1
1070
    73
1070
     0
1070
   171
1070
     3
1070
   274
1070
     4
1070
   177
1070
     1
1070
   176
1070
     1
1070
   178
1070
     1
1070
    78
1070
     8
1070
    48
1040
-0.005
1070
    41
1041
3.5
1070
   147
1041
1.5
1070
    42
1041
0.3
1070
    44
1041
2.0
1070
   140
1041
6.0
1070
     6
1000
_CLOSEDFILLED_TYPE
1070
     7
1000
_CLOSEDFILLED_TYPE
1002
}
  0
DIMENSION
  5
1A4
330
1F
100
AcDbEntity
  8
TOP
  6
CONTINUOUS
 62
     1
100
AcDbDimension
  2
DIMNDRAFT3D3
 10
417.654
 20
351.510396
 30
0.0
 11
465.925831
 21
390.935524
 31
0.0
 70
    35
 53
35.099171
  3
STANDARD
100
AcDbDiametricDimension
 15
-1114.349865
 25
-1177.818658
 35
0.0
 40
0.0
1001
ACAD
1000
DSTYLE
1002
{
1070
    75
1070
     1
1070
    76
1070
     1
1070
   271
1070
     2
1070
   272
1070
     2
1070
    77
1070
     1
1070
    73
1070
     0
1070
   171
1070
     3
1070
   274
1070
     4
1070
   177
1070
     1
1070
   176
1070
     1
1070
   178
1070
     1
1070
    78
1070
     8
1070
    48
1040
-0.005
1070
    41
1041
3.5
1070
   147
1041
1.5
1070
    42
1041
0.3
1070
    44
1041
2.0
1070
   140
1041
6.0
1070
     6
1000
_CLOSEDFILLED_TYPE
1070
     7
1000
_CLOSEDFILLED_TYPE
1002
}
  0
DIMENSION
  5
1AC
330
1F
100
AcDbEntity
  8
TOP
  6
CONTINUOUS
 62
     1
100
AcDbDimension
  2
DIMNDRAFT3D4
 10
392.317828
 20
285.137873
 30
0.0
 11
408.221886
 21
300.205837
 31
0.0
 70
    35
 53
31.600771
  3
STANDARD
100
AcDbDiametricDimension
 15
-939.013693
 25
-1031.446135
 35
0.0
 40
0.0
1001
ACAD
1000
DSTYLE
1002
{
1070
    75
1070
     1
1070
    76
1070
     1
1070
   271
1070
     2
1070
   272
1070
     2
1070
    77
1070
     1
1070
    73
1070
     0
1070
   171
1070
     3
1070
   274
1070
     4
1070
   177
1070
     1
1070
   176
1070
     1
1070
   178
1070
     1
1070
    78
1070
     8
1070
    48
1040
-0.005
1070
    41
1041
3.5
1070
   147
1041
1.5
1070
    42
1041
0.3
1070
    44
1041
2.0
1070
   140
1041
6.0
1070
     6
1000
_CLOSEDFILLED_TYPE
1070
     7
1000
_CLOSEDFILLED_TYPE
1002
}
  0
DIMENSION
  5
1B6
330
1F
100
AcDbEntity
  8
TOP
  6
CONTINUOUS
 62
     1
100
AcDbDimension
  2
DIMNDRAFT3D5
 10
413.154131
 20
151.599102
 30
0.0
 11
367.213631
 21
156.599102
 31
0.0
 70
    32
  1
\C1 <> 
  3
STANDARD
100
AcDbAlignedDimension
 13
333.154131
 23
198.047932
 33
0.0
 14
413.154131
 24
198.047932
 34
0.0
100
AcDbRotatedDimension
1001
ACAD
1000
DSTYLE
1002
{
1070
   271
1070
     2
1070
   272
1070
     2
1070
    77
1070
     1
1070
    73
1070
     0
1070
   171
1070
     3
1070
   274
1070
     4
1070
   177
1070
     1
1070
   176
1070
     1
1070
   178
1070
     1
1070
    78
1070
     8
1070
    48
1040
-0.005
1070
    41
1041
3.5
1070
   147
1041
1.5
1070
    42
1041
0.3
1070
    44
1041
2.0
1070
   140
1041
6.0
1070
     6
1000
_CLOSEDFILLED_TYPE
1070
     7
1000
_CLOSEDFILLED_TYPE
1002
}
  0
DIMENSION
  5
1C0
330
1F
100
AcDbEntity
  8
TOP
  6
CONTINUOUS
 62
     1
100
AcDbDimension
  2
DIMNDRAFT3D6
 10
648.295454
 20
386.233313
 30
0.0
 11
638.636204
 21
387.233313
 31
0.0
 70
    32
  1
\C1 <> 
  3
STANDARD
100
AcDbAlignedDimension
 13
638.295454
 23
355.147932
 33
0.0
 14
648.295454
 24
360.147932
 34
0.0
100
AcDbRotatedDimension
1001
ACAD
1000
DSTYLE
1002
{
1070
   271
1070
     2
1070
   272
1070
     2
1070
    77
1070
     1
1070
    73
1070
     0
1070
   171
1070
     3
1070
   274
1070
     4
1070
   177
1070
     1
1070
   176
1070
     1
1070
   178
1070
     1
1070
    78
1070
     8
1070
    48
1040
-0.005
1070
    41
1041
3.5
1070
   147
1041
1.5
1070
    42
1041
0.3
1070
    44
1041
2.0
1070
   140
1041
6.0
1070
     6
1000
_CLOSEDFILLED_TYPE
1070
     7
1000
_CLOSEDFILLED_TYPE
1002
}
  0
DIMENSION
  5
1CA
330
1F
100
AcDbEntity
  8
TOP
  6
CONTINUOUS
 62
     1
100
AcDbDimension
  2
DIMNDRAFT3D7
 10
638.295454
 20
385.920801
 30
0.0
 11
623.950856
 21
386.920801
 31
0.0
 70
    32
  1
\C1 <> 
  3
STANDARD
100
AcDbAlignedDimension
 13
623.295454
 23
355.147932
 33
0.0
 14
638.295454
 24
355.147932
 34
0.0
100
AcDbRotatedDimension
1001
ACAD
1000
DSTYLE
1002
{
1070
   271
1070
     2
1070
   272
1070
     2
1070
    77
1070
     1
1070
    73
1070
     0
1070
   171
1070
     3
1070
   274
1070
     4
1070
   177
1070
     1
1070
   176
1070
     1
1070
   178
1070
     1
1070
    78
1070
     8
1070
    48
1040
-0.005
1070
    41
1041
3.5
1070
   147
1041
1.5
1070
    42
1041
0.3
1070
    44
1041
2.0
1070
   140
1041
6.0
1070
     6
1000
_CLOSEDFILLED_TYPE
1070
     7
1000
_CLOSEDFILLED_TYPE
1002
}
  0
DIMENSION
  5
1D4
330
1F
100
AcDbEntity
  8
TOP
  6
CONTINUOUS
 62
     1
100
AcDbDimension
  2
DIMNDRAFT3D8
 10
500.227636
 20
364.847932
 30
0.0
 11
495.227636
 21
265.716932
 31
0.0
 70
    32
  1
\C1 <> 
 53
90.0
  3
STANDARD
100
AcDbAlignedDimension
 13
456.454131
 23
181.847932
 33
0.0
 14
456.454131
 24
364.847932
 34
0.0
 50
90.0
100
AcDbRotatedDimension
1001
ACAD
1000
DSTYLE
1002
{
1070
   271
1070
     2
1070
   272
1070
     2
1070
    77
1070
     1
1070
    73
1070
     0
1070
   171
1070
     3
1070
   274
1070
     4
1070
   177
1070
     1
1070
   176
1070
     1
1070
   178
1070
     1
1070
    78
1070
     8
1070
    48
1040
-0.005
1070
    41
1041
3.5
1070
   147
1041
1.5
1070
    42
1041
0.3
1070
    44
1041
2.0
1070
   140
1041
6.0
1070
     6
1000
_CLOSEDFILLED_TYPE
1070
     7
1000
_CLOSEDFILLED_TYPE
1002
}
  0
DIMENSION
  5
1DE
330
1F
100
AcDbEntity
  8
TOP
  6
CONTINUOUS
 62
     1
100
AcDbDimension
  2
DIMNDRAFT3D9
 10
481.476888
 20
198.347932
 30
0.0
 11
476.476888
 21
265.716932
 31
0.0
 70
    32
  1
\C1 <> 
 53
90.0
  3
STANDARD
100
AcDbAlignedDimension
 13
423.954131
 23
348.347932
 33
0.0
 14
423.954131
 24
198.347932
 34
0.0
 50
90.0
100
AcDbRotatedDimension
1001
ACAD
1000
DSTYLE
1002
{
1070
   271
1070
     2
1070
   272
1070
     2
1070
    77
1070
     1
1070
    73
1070
     0
1070
   171
1070
     3
1070
   274
1070
     4
1070
   177
1070
     1
1070
   176
1070
     1
1070
   178
1070
     1
1070
    78
1070
     8
1070
    48
1040
-0.005
1070
    41
1041
3.5
1070
   147
1041
1.5
1070
    42
1041
0.3
1070
    44
1041
2.0
1070
   140
1041
6.0
1070
     6
1000
_CLOSEDFILLED_TYPE
1070
     7
1000
_CLOSEDFILLED_TYPE
1002
}
  0
DIMENSION
  5
1E8
330
1F
100
AcDbEntity
  8
TOP
  6
CONTINUOUS
 62
     1
100
AcDbDimension
  2
DIMNDRAFT3D10
 10
672.549041
 20
324.847932
 30
0.0
 11
667.549041
 21
333.907432
 31
0.0
 70
    32
  1
\C1 <> 
 53
90.0
  3
STANDARD
100
AcDbAlignedDimension
 13
638.595454
 23
354.847932
 33
0.0
 14
638.595454
 24
324.847932
 34
0.0
 50
90.0
100
AcDbRotatedDimension
1001
ACAD
1000
DSTYLE
1002
{
1070
   271
1070
     2
1070
   272
1070
     2
1070
    77
1070
     1
1070
    73
1070
     0
1070
   171
1070
     3
1070
   274
1070
     4
1070
   177
1070
     1
1070
   176
1070
     1
1070
   178
1070
     1
1070
    78
1070
     8
1070
    48
1040
-0.005
1070
    41
1041
3.5
1070
   147
1041
1.5
1070
    42
1041
0.3
1070
    44
1041
2.0
1070
   140
1041
6.0
1070
     6
1000
_CLOSEDFILLED_TYPE
1070
     7
1000
_CLOSEDFILLED_TYPE
1002
}
  0
DIMENSION
  5
1F2
330
1F
100
AcDbEntity
  8
TOP
  6
CONTINUOUS
 62
     1
100
AcDbDimension
  2
DIMNDRAFT3D11
 10
672.236529
 20
364.847932
 30
0.0
 11
667.236529
 21
355.188682
 31
0.0
 70
    33
  1
\C1 <> 
 53
90.0
  3
STANDARD
100
AcDbAlignedDimension
 13
631.096454
 23
354.847932
 33
0.0
 14
643.595454
 24
364.847932
 34
0.0
1001
ACAD
1000
DSTYLE
1002
{
1070
   271
1070
     2
1070
   272
1070
     2
1070
    77
1070
     1
1070
    73
1070
     0
1070
   171
1070
     3
1070
   274
1070
     4
1070
   177
1070
     1
1070
   176
1070
     1
1070
   178
1070
     1
1070
    78
1070
     8
1070
    48
1040
-0.005
1070
    41
1041
3.5
1070
   147
1041
1.5
1070
    42
1041
0.3
1070
    44
1041
2.0
1070
   140
1041
6.0
1070
     6
1000
_CLOSEDFILLED_TYPE
1070
     7
1000
_CLOSEDFILLED_TYPE
1002
}
  0
DIMENSION
  5
1FC
330
1F
100
AcDbEntity
  8
TOP
  6
CONTINUOUS
 62
     1
100
AcDbDimension
  2
DIMNDRAFT3D12
 10
474.4667
 20
419.848649
 30
0.0
 11
469.4667
 21
420.879899
 31
0.0
 70
    33
  1
\C1 <> 
 53
90.0
  3
STANDARD
100
AcDbAlignedDimension
 13
413.455131
 23
427.848649
 33
0.0
 14
443.454131
 24
419.848649
 34
0.0
1001
ACAD
1000
DSTYLE
1002
{
1070
   271
1070
     2
1070
   272
1070
     2
1070
    77
1070
     1
1070
    73
1070
     0
1070
   171
1070
     3
1070
   274
1070
     4
1070
   177
1070
     1
1070
   176
1070
     1
1070
   178
1070
     1
1070
    78
1070
     8
1070
    48
1040
-0.005
1070
    41
1041
3.5
1070
   147
1041
1.5
1070
    42
1041
0.3
1070
    44
1041
2.0
1070
   140
1041
6.0
1070
     6
1000
_CLOSEDFILLED_TYPE
1070
     7
1000
_CLOSEDFILLED_TYPE
1002
}
  0
ENDSEC
  0
SECTION
  2
OBJECTS
  0
DICTIONARY
  5
C
330
0
100
AcDbDictionary
  3
ACAD_GROUP
350
D
  3
ACAD_LAYOUT
350
1A
  3
ACAD_MLEADERSTYLE
350
230
  3
ACAD_MLINESTYLE
350
17
  3
ACAD_PLOTSETTINGS
350
19
  3
ACAD_TABLESTYLE
350
22F
  3
ACAD_VISUALSTYLE
350
2A
  3
ACDBHEADERROUNDTRIPXREC
350
20F
  0
DICTIONARY
  5
D
102
{ACAD_REACTORS
330
C
102
}
330
C
100
AcDbDictionary
  3
A1
350
1FE
  3
DIMENSION
350
1FD
  0
DICTIONARY
  5
1A
102
{ACAD_REACTORS
330
C
102
}
330
C
100
AcDbDictionary
  0
DICTIONARY
  5
230
102
{ACAD_REACTORS
330
C
102
}
330
C
100
AcDbDictionary
  0
DICTIONARY
  5
17
102
{ACAD_REACTORS
330
C
102
}
330
C
100
AcDbDictionary
  3
STANDARD
350
18
  0
DICTIONARY
  5
19
102
{ACAD_REACTORS
330
C
102
}
330
C
100
AcDbDictionary
  0
DICTIONARY
  5
22F
102
{ACAD_REACTORS
330
C
102
}
330
C
100
AcDbDictionary
  0
DICTIONARY
  5
2A
102
{ACAD_REACTORS
330
C
102
}
330
C
100
AcDbDictionary
  3
2DWIREFRAME
350
2F
  3
3D_HIDDEN
350
31
  3
3DWIREFRAME
350
30
  3
BASIC
350
32
  3
BRIGHTEN
350
36
  3
COLORCHANGE
350
3A
  3
CONCEPTUAL
350
34
  3
DIM
350
35
  3
FACEPATTERN
350
39
  3
FLAT
350
2B
  3
FLATWITHEDGES
350
2C
  3
GOURAUD
350
2D
  3
GOURAUDWITHEDGES
350
2E
  3
LINEPATTERN
350
38
  3
REALISTIC
350
33
  3
THICKEN
350
37
  0
DICTIONARY
  5
20F
102
{ACAD_REACTORS
330
C
102
}
330
C
100
AcDbDictionary
  3
CEPSNTYPE
350
218
  3
DIMSTYLEDATA
350
22E
  3
FINGERPRINTGUID
350
219
  3
HYPERLINKBASE
350
212
  3
INSUNITS
350
217
  3
LAYOUTDICT
350
214
  3
LWETCUNION
350
216
  3
PLOTSETDICT
350
215
  3
PSVPSCALE
350
21B
  3
PUCSBASE
350
21E
  3
PUCSORGBACK
350
224
  3
PUCSORGBOTTOM
350
220
  3
PUCSORGFRONT
350
223
  3
PUCSORGLEFT
350
221
  3
PUCSORGRIGHT
350
222
  3
PUCSORGTOP
350
21F
  3
PUCSORTHOREF
350
21C
  3
PUCSORTHOVIEW
350
21D
  3
STYLESHEET
350
213
  3
TSTACKALIGN
350
210
  3
TSTACKSIZE
350
211
  3
UCSBASE
350
227
  3
UCSORGBACK
350
22D
  3
UCSORGBOTTOM
350
229
  3
UCSORGFRONT
350
22C
  3
UCSORGLEFT
350
22A
  3
UCSORGRIGHT
350
22B
  3
UCSORGTOP
350
228
  3
UCSORTHOREF
350
225
  3
UCSORTHOVIEW
350
226
  3
VERSIONGUID
350
21A
  0
GROUP
  5
1FE
102
{ACAD_REACTORS
330
D
102
}
330
D
100
AcDbGroup
300

 70
     0
 71
     1
340
B3
340
B5
340
B6
340
B7
340
B8
340
B9
340
BA
340
BB
340
BC
340
BD
340
BE
340
BF
340
C0
340
C1
340
C2
340
C3
340
C4
340
C5
340
C6
340
C7
340
C8
340
C9
340
CA
340
CB
340
CC
340
CD
340
CE
340
CF
340
D0
340
D1
340
D2
340
D3
340
D4
340
D5
340
D6
340
D7
340
D8
340
D9
340
DA
340
DB
340
DC
340
DD
340
DE
340
DF
340
E0
340
E1
340
E2
340
E3
340
E4
340
E5
340
E6
340
E7
340
E8
340
E9
340
EA
340
EB
340
EC
340
ED
340
EE
340
EF
340
F0
340
F1
340
F2
340
F3
340
F4
340
F5
340
F6
340
F7
340
F8
340
F9
340
FA
340
FB
340
137
340
138
340
135
340
139
340
134
340
13A
340
13B
340
13C
340
13D
340
13E
340
13F
340
140
340
141
340
142
340
143
340
144
340
145
340
146
340
147
340
148
340
149
340
14A
340
14B
340
14C
340
14D
340
14E
340
14F
340
150
340
151
340
152
340
153
340
154
340
155
340
156
340
157
340
158
340
159
340
15A
340
15B
340
15C
340
15D
340
15E
340
15F
340
160
340
161
340
162
340
163
340
136
340
164
340
165
340
166
340
167
340
168
340
169
  0
GROUP
  5
1FD
102
{ACAD_REACTORS
330
D
102
}
330
D
100
AcDbGroup
300

 70
     0
 71
     1
340
108
340
109
340
181
340
185
340
189
  0
MLINESTYLE
  5
18
102
{ACAD_REACTORS
330
17
102
}
330
17
100
AcDbMlineStyle
  2
Standard
 70
     0
  3

 62
   256
 51
90.0
 52
90.0
 71
     2
 49
0.5
 62
   256
  6
BYLAYER
 49
-0.5
 62
   256
  6
BYLAYER
  0
VISUALSTYLE
  5
2F
102
{ACAD_REACTORS
330
2A
102
}
330
2A
100
AcDbVisualStyle
  2
2dWireframe
 70
     4
 71
     0
 72
     2
 73
     0
 90
        0
 40
-0.6
 41
-30.0
 62
     5
 63
     7
 74
     1
 91
        4
 64
     7
 65
   257
 75
     1
175
     1
 42
1.0
 92
        0
 66
   257
 43
1.0
 76
     1
 77
     6
 78
     2
 67
     7
 79
     5
170
     0
171
     0
290
     0
174
     0
 93
        1
 44
0.0
173
     0
291
     0
 45
0.0
1001
ACAD
1000
AcDbSavedByObjectVersion
1070
     0
  0
VISUALSTYLE
  5
31
102
{ACAD_REACTORS
330
2A
102
}
330
2A
100
AcDbVisualStyle
  2
3D Hidden
 70
     6
 71
     1
 72
     2
 73
     2
 90
        0
 40
-0.6
 41
-30.0
 62
     5
 63
     7
 74
     2
 91
        2
 64
     7
 65
   257
 75
     2
175
     1
 42
40.0
 92
        0
 66
   257
 43
1.0
 76
     1
 77
     6
 78
     2
 67
     7
 79
     3
170
     0
171
     0
290
     0
174
     0
 93
        1
 44
0.0
173
     0
291
     0
 45
0.0
1001
ACAD
1000
AcDbSavedByObjectVersion
1070
     0
  0
VISUALSTYLE
  5
30
102
{ACAD_REACTORS
330
2A
102
}
330
2A
100
AcDbVisualStyle
  2
3dWireframe
 70
     5
 71
     0
 72
     2
 73
     0
 90
        0
 40
-0.6
 41
-30.0
 62
     5
 63
     7
 74
     1
 91
        4
 64
     7
 65
   257
 75
     1
175
     1
 42
1.0
 92
        0
 66
   257
 43
1.0
 76
     1
 77
     6
 78
     2
 67
     7
 79
     5
170
     0
171
     0
290
     0
174
     0
 93
        1
 44
0.0
173
     0
291
     0
 45
0.0
1001
ACAD
1000
AcDbSavedByObjectVersion
1070
     0
  0
VISUALSTYLE
  5
32
102
{ACAD_REACTORS
330
2A
102
}
330
2A
100
AcDbVisualStyle
  2
Basic
 70
     7
 71
     1
 72
     0
 73
     1
 90
        0
 40
-0.6
 41
-30.0
 62
     5
 63
     7
 74
     0
 91
        4
 64
     7
 65
   257
 75
     1
175
     1
 42
1.0
 92
        8
 66
     7
 43
1.0
 76
     1
 77
     6
 78
     2
 67
     7
 79
     5
170
     0
171
     0
290
     0
174
     0
 93
        1
 44
0.0
173
     0
291
     1
 45
0.0
1001
ACAD
1000
AcDbSavedByObjectVersion
1070
     0
  0
VISUALSTYLE
  5
36
102
{ACAD_REACTORS
330
2A
102
}
330
2A
100
AcDbVisualStyle
  2
Brighten
 70
    12
 71
     2
 72
     2
 73
     0
 90
        0
 40
-0.6
 41
-30.0
 62
     5
 63
     7
 74
     1
 91
        4
 64
     7
 65
   257
 75
     1
175
     1
 42
1.0
 92
        8
 66
     7
 43
1.0
 76
     1
 77
     6
 78
     2
 67
     7
 79
     5
170
     0
171
     0
290
     0
174
     0
 93
        1
 44
50.0
173
     0
291
     1
 45
0.0
1001
ACAD
1000
AcDbSavedByObjectVersion
1070
     0
  0
VISUALSTYLE
  5
3A
102
{ACAD_REACTORS
330
2A
102
}
330
2A
100
AcDbVisualStyle
  2
ColorChange
 70
    16
 71
     2
 72
     2
 73
     3
 90
        0
 40
-0.6
 41
-30.0
 62
     5
 63
     8
 74
     1
 91
        4
 64
     7
 65
   257
 75
     1
175
     1
 42
1.0
 92
        8
 66
     8
 43
1.0
 76
     1
 77
     6
 78
     2
 67
     7
 79
     5
170
     0
171
     0
290
     0
174
     0
 93
        1
 44
0.0
173
     0
291
     1
 45
0.0
1001
ACAD
1000
AcDbSavedByObjectVersion
1070
     0
  0
VISUALSTYLE
  5
34
102
{ACAD_REACTORS
330
2A
102
}
330
2A
100
AcDbVisualStyle
  2
Conceptual
 70
     9
 71
     3
 72
     2
 73
     0
 90
        0
 40
-0.6
 41
-30.0
 62
     5
 63
     7
 74
     2
 91
        2
 64
     7
 65
   257
 75
     1
175
     1
 42
40.0
 92
        8
 66
     7
 43
1.0
 76
     1
 77
     6
 78
     2
 67
     7
 79
     3
170
     0
171
     0
290
     0
174
     0
 93
        1
 44
0.0
173
     0
291
     0
 45
0.0
1001
ACAD
1000
AcDbSavedByObjectVersion
1070
     0
  0
VISUALSTYLE
  5
35
102
{ACAD_REACTORS
330
2A
102
}
330
2A
100
AcDbVisualStyle
  2
Dim
 70
    11
 71
     2
 72
     2
 73
     0
 90
        0
 40
-0.6
 41
-30.0
 62
     5
 63
     7
 74
     1
 91
        4
 64
     7
 65
   257
 75
     1
175
     1
 42
1.0
 92
        8
 66
     7
 43
1.0
 76
     1
 77
     6
 78
     2
 67
     7
 79
     5
170
     0
171
     0
290
     0
174
     0
 93
        1
 44
-50.0
173
     0
291
     1
 45
0.0
1001
ACAD
1000
AcDbSavedByObjectVersion
1070
     0
  0
VISUALSTYLE
  5
39
102
{ACAD_REACTORS
330
2A
102
}
330
2A
100
AcDbVisualStyle
  2
Facepattern
 70
    15
 71
     2
 72
     2
 73
     0
 90
        0
 40
-0.6
 41
-30.0
 62
     5
 63
     7
 74
     1
 91
        4
 64
     7
 65
   257
 75
     1
175
     1
 42
1.0
 92
        8
 66
     7
 43
1.0
 76
     1
 77
     6
 78
     2
 67
     7
 79
     5
170
     0
171
     0
290
     0
174
     0
 93
        1
 44
0.0
173
     0
291
     1
 45
0.0
1001
ACAD
1000
AcDbSavedByObjectVersion
1070
     0
  0
VISUALSTYLE
  5
2B
102
{ACAD_REACTORS
330
2A
102
}
330
2A
100
AcDbVisualStyle
  2
Flat
 70
     0
 71
     2
 72
     1
 73
     1
 90
        2
 40
-0.6
 41
30.0
 62
     5
 63
     7
 74
     0
 91
        4
 64
     7
 65
   257
 75
     1
175
     1
 42
1.0
 92
        8
 66
     7
 43
1.0
 76
     1
 77
     6
 78
     2
 67
     7
 79
     5
170
     0
171
     0
290
     0
174
     0
 93
       13
 44
0.0
173
     0
291
     1
 45
0.0
1001
ACAD
1000
AcDbSavedByObjectVersion
1070
     0
  0
VISUALSTYLE
  5
2C
102
{ACAD_REACTORS
330
2A
102
}
330
2A
100
AcDbVisualStyle
  2
FlatWithEdges
 70
     1
 71
     2
 72
     1
 73
     1
 90
        2
 40
-0.6
 41
30.0
 62
     5
 63
     7
 74
     1
 91
        4
 64
     7
 65
   257
 75
     1
175
     1
 42
1.0
 92
        0
 66
   257
 43
1.0
 76
     1
 77
     6
 78
     2
 67
     7
 79
     5
170
     0
171
     0
290
     0
174
     0
 93
       13
 44
0.0
173
     0
291
     1
 45
0.0
1001
ACAD
1000
AcDbSavedByObjectVersion
1070
     0
  0
VISUALSTYLE
  5
2D
102
{ACAD_REACTORS
330
2A
102
}
330
2A
100
AcDbVisualStyle
  2
Gouraud
 70
     2
 71
     2
 72
     2
 73
     1
 90
        2
 40
-0.6
 41
30.0
 62
     5
 63
     7
 74
     0
 91
        4
 64
     7
 65
   257
 75
     1
175
     1
 42
1.0
 92
        0
 66
     7
 43
1.0
 76
     1
 77
     6
 78
     2
 67
     7
 79
     5
170
     0
171
     0
290
     0
174
     0
 93
       13
 44
0.0
173
     0
291
     1
 45
0.0
1001
ACAD
1000
AcDbSavedByObjectVersion
1070
     0
  0
VISUALSTYLE
  5
2E
102
{ACAD_REACTORS
330
2A
102
}
330
2A
100
AcDbVisualStyle
  2
GouraudWithEdges
 70
     3
 71
     2
 72
     2
 73
     1
 90
        2
 40
-0.6
 41
30.0
 62
     5
 63
     7
 74
     1
 91
        4
 64
     7
 65
   257
 75
     1
175
     1
 42
1.0
 92
        0
 66
   257
 43
1.0
 76
     1
 77
     6
 78
     2
 67
     7
 79
     5
170
     0
171
     0
290
     0
174
     0
 93
       13
 44
0.0
173
     0
291
     1
 45
0.0
1001
ACAD
1000
AcDbSavedByObjectVersion
1070
     0
  0
VISUALSTYLE
  5
38
102
{ACAD_REACTORS
330
2A
102
}
330
2A
100
AcDbVisualStyle
  2
Linepattern
 70
    14
 71
     2
 72
     2
 73
     0
 90
        0
 40
-0.6
 41
-30.0
 62
     5
 63
     7
 74
     1
 91
        4
 64
     7
 65
   257
 75
     7
175
     7
 42
1.0
 92
        8
 66
     7
 43
1.0
 76
     1
 77
     6
 78
     2
 67
     7
 79
     5
170
     0
171
     0
290
     0
174
     0
 93
        1
 44
0.0
173
     0
291
     1
 45
0.0
1001
ACAD
1000
AcDbSavedByObjectVersion
1070
     0
  0
VISUALSTYLE
  5
33
102
{ACAD_REACTORS
330
2A
102
}
330
2A
100
AcDbVisualStyle
  2
Realistic
 70
     8
 71
     2
 72
     2
 73
     0
 90
        0
 40
-0.6
 41
-30.0
 62
     5
 63
     7
 74
     1
 91
        0
 64
     7
 65
   257
 75
     1
175
     1
 42
1.0
 92
        8
 66
     8
 43
1.0
 76
     1
 77
     6
 78
     2
 67
     7
 79
     5
170
     0
171
     0
290
     0
174
     0
 93
       13
 44
0.0
173
     0
291
     0
 45
0.0
1001
ACAD
1000
AcDbSavedByObjectVersion
1070
     0
  0
VISUALSTYLE
  5
37
102
{ACAD_REACTORS
330
2A
102
}
330
2A
100
AcDbVisualStyle
  2
Thicken
 70
    13
 71
     2
 72
     2
 73
     0
 90
        0
 40
-0.6
 41
-30.0
 62
     5
 63
     7
 74
     1
 91
        4
 64
     7
 65
   257
 75
     1
175
     1
 42
1.0
 92
       12
 66
     7
 43
1.0
 76
     1
 77
     6
 78
     2
 67
     7
 79
     5
170
     0
171
     0
290
     0
174
     0
 93
        1
 44
0.0
173
     0
291
     1
 45
0.0
1001
ACAD
1000
AcDbSavedByObjectVersion
1070
     0
  0
XRECORD
  5
218
102
{ACAD_REACTORS
330
20F
102
}
330
20F
100
AcDbXrecord
 90
        0
  0
XRECORD
  5
22E
102
{ACAD_REACTORS
330
20F
102
}
330
20F
100
AcDbXrecord
1000
DSTYLE
1002
{
1070
   171
 70
     2
1070
   143
 40
25.4
1070
   274
 70
     2
1070
    41
 40
0.18
1070
   141
 40
0.09
1070
   271
 70
     4
1070
    43
 40
0.38
1070
   278
 70
    46
1070
    44
 40
0.18
1070
    42
 40
0.0625
1070
   147
 40
0.09
1070
    77
 70
     0
1070
   272
 70
     4
1070
    73
 70
     1
1070
   172
 70
     0
1070
    74
 70
     1
1070
   283
 70
     1
1070
   340
340
11
1070
   140
 40
0.18
1070
   284
 70
     0
1070
    78
 70
     0
1002
}
  0
XRECORD
  5
219
102
{ACAD_REACTORS
330
20F
102
}
330
20F
100
AcDbXrecord
  1
{F6F8761C-3146-4550-83A8-7686BF2BD4B3}
  0
XRECORD
  5
212
102
{ACAD_REACTORS
330
20F
102
}
330
20F
100
AcDbXrecord
  1

  0
XRECORD
  5
217
102
{ACAD_REACTORS
330
20F
102
}
330
20F
100
AcDbXrecord
 90
        4
  0
XRECORD
  5
214
102
{ACAD_REACTORS
330
20F
102
}
330
20F
100
AcDbXrecord
340
1A
  0
XRECORD
  5
216
102
{ACAD_REACTORS
330
20F
102
}
330
20F
100
AcDbXrecord
 90
    10781
  0
XRECORD
  5
215
102
{ACAD_REACTORS
330
20F
102
}
330
20F
100
AcDbXrecord
340
19
  0
XRECORD
  5
21B
102
{ACAD_REACTORS
330
20F
102
}
330
20F
100
AcDbXrecord
 40
0.0
  0
XRECORD
  5
21E
102
{ACAD_REACTORS
330
20F
102
}
330
20F
100
AcDbXrecord
340
0
  0
XRECORD
  5
224
102
{ACAD_REACTORS
330
20F
102
}
330
20F
100
AcDbXrecord
 10
0.0
 20
0.0
 30
0.0
  0
XRECORD
  5
220
102
{ACAD_REACTORS
330
20F
102
}
330
20F
100
AcDbXrecord
 10
0.0
 20
0.0
 30
0.0
  0
XRECORD
  5
223
102
{ACAD_REACTORS
330
20F
102
}
330
20F
100
AcDbXrecord
 10
0.0
 20
0.0
 30
0.0
  0
XRECORD
  5
221
102
{ACAD_REACTORS
330
20F
102
}
330
20F
100
AcDbXrecord
 10
0.0
 20
0.0
 30
0.0
  0
XRECORD
  5
222
102
{ACAD_REACTORS
330
20F
102
}
330
20F
100
AcDbXrecord
 10
0.0
 20
0.0
 30
0.0
  0
XRECORD
  5
21F
102
{ACAD_REACTORS
330
20F
102
}
330
20F
100
AcDbXrecord
 10
0.0
 20
0.0
 30
0.0
  0
XRECORD
  5
21C
102
{ACAD_REACTORS
330
20F
102
}
330
20F
100
AcDbXrecord
340
0
  0
XRECORD
  5
21D
102
{ACAD_REACTORS
330
20F
102
}
330
20F
100
AcDbXrecord
 70
     0
  0
XRECORD
  5
213
102
{ACAD_REACTORS
330
20F
102
}
330
20F
100
AcDbXrecord
  1

  0
XRECORD
  5
210
102
{ACAD_REACTORS
330
20F
102
}
330
20F
100
AcDbXrecord
 90
        1
  0
XRECORD
  5
211
102
{ACAD_REACTORS
330
20F
102
}
330
20F
100
AcDbXrecord
 90
       70
  0
XRECORD
  5
227
102
{ACAD_REACTORS
330
20F
102
}
330
20F
100
AcDbXrecord
340
0
  0
XRECORD
  5
22D
102
{ACAD_REACTORS
330
20F
102
}
330
20F
100
AcDbXrecord
 10
0.0
 20
0.0
 30
0.0
  0
XRECORD
  5
229
102
{ACAD_REACTORS
330
20F
102
}
330
20F
100
AcDbXrecord
 10
0.0
 20
0.0
 30
0.0
  0
XRECORD
  5
22C
102
{ACAD_REACTORS
330
20F
102
}
330
20F
100
AcDbXrecord
 10
0.0
 20
0.0
 30
0.0
  0
XRECORD
  5
22A
102
{ACAD_REACTORS
330
20F
102
}
330
20F
100
AcDbXrecord
 10
0.0
 20
0.0
 30
0.0
  0
XRECORD
  5
22B
102
{ACAD_REACTORS
330
20F
102
}
330
20F
100
AcDbXrecord
 10
0.0
 20
0.0
 30
0.0
  0
XRECORD
  5
228
102
{ACAD_REACTORS
330
20F
102
}
330
20F
100
AcDbXrecord
 10
0.0
 20
0.0
 30
0.0
  0
XRECORD
  5
225
102
{ACAD_REACTORS
330
20F
102
}
330
20F
100
AcDbXrecord
340
0
  0
XRECORD
  5
226
102
{ACAD_REACTORS
330
20F
102
}
330
20F
100
AcDbXrecord
 70
     0
  0
XRECORD
  5
21A
102
{ACAD_REACTORS
330
20F
102
}
330
20F
100
AcDbXrecord
  1
{FAEB1C32-E019-11D5-929B-00C0DF256EC4}
  0
ENDSEC
  0
EOF
