  0
SECTION
  2
HEADER
  9
$ACADVER
  1
AC1014
  9
$ACADMAINTVER
 70
     9
  9
$DWGCODEPAGE
  3
ANSI_949
  9
$INSBASE
 10
0.0
 20
0.0
 30
0.0
  9
$EXTMIN
 10
-0.5
 20
-0.5
 30
-0.5
  9
$EXTMAX
 10
5.0
 20
5.0
 30
5.0
  9
$LIMMIN
 10
-0.5
 20
-0.5
  9
$LIMMAX
 10
5.0
 20
5.0
  9
$ORTHOMODE
 70
     0
  9
$REGENMODE
 70
     1
  9
$FILLMODE
 70
     1
  9
$QTEXTMODE
 70
     0
  9
$MIRRTEXT
 70
     1
  9
$DRAGMODE
 70
     2
  9
$LTSCALE
 40
1.0
  9
$OSMODE
 70
    37
  9
$ATTMODE
 70
     1
  9
$TEXTSIZE
 40
0.2
  9
$TRACEWID
 40
0.05
  9
$TEXTSTYLE
  7
STANDARD
  9
$CLAYER
  8
0
  9
$CELTYPE
  6
BYLAYER
  9
$CECOLOR
 62
   256
  9
$CELTSCALE
 40
1.0
  9
$DELOBJ
 70
     1
  9
$DISPSILH
 70
     0
  9
$DIMSCALE
 40
1.0
  9
$DIMASZ
 40
0.18
  9
$DIMEXO
 40
0.0625
  9
$DIMDLI
 40
0.38
  9
$DIMRND
 40
0.0
  9
$DIMDLE
 40
0.0
  9
$DIMEXE
 40
0.18
  9
$DIMTP
 40
0.0
  9
$DIMTM
 40
0.0
  9
$DIMTXT
 40
0.18
  9
$DIMCEN
 40
0.09
  9
$DIMTSZ
 40
0.0
  9
$DIMTOL
 70
     0
  9
$DIMLIM
 70
     0
  9
$DIMTIH
 70
     1
  9
$DIMTOH
 70
     1
  9
$DIMSE1
 70
     0
  9
$DIMSE2
 70
     0
  9
$DIMTAD
 70
     0
  9
$DIMZIN
 70
     0
  9
$DIMBLK
  1

  9
$DIMASO
 70
     1
  9
$DIMSHO
 70
     1
  9
$DIMPOST
  1

  9
$DIMAPOST
  1

  9
$DIMALT
 70
     0
  9
$DIMALTD
 70
     2
  9
$DIMALTF
 40
25.4
  9
$DIMLFAC
 40
1.0
  9
$DIMTOFL
 70
     0
  9
$DIMTVP
 40
0.0
  9
$DIMTIX
 70
     0
  9
$DIMSOXD
 70
     0
  9
$DIMSAH
 70
     0
  9
$DIMBLK1
  1

  9
$DIMBLK2
  1

  9
$DIMSTYLE
  2
STANDARD
  9
$DIMCLRD
 70
     0
  9
$DIMCLRE
 70
     0
  9
$DIMCLRT
 70
     0
  9
$DIMTFAC
 40
1.0
  9
$DIMGAP
 40
0.09
  9
$DIMJUST
 70
     0
  9
$DIMSD1
 70
     0
  9
$DIMSD2
 70
     0
  9
$DIMTOLJ
 70
     1
  9
$DIMTZIN
 70
     0
  9
$DIMALTZ
 70
     0
  9
$DIMALTTZ
 70
     0
  9
$DIMFIT
 70
     3
  9
$DIMUPT
 70
     0
  9
$DIMUNIT
 70
     2
  9
$DIMDEC
 70
     4
  9
$DIMTDEC
 70
     4
  9
$DIMALTU
 70
     2
  9
$DIMALTTD
 70
     2
  9
$DIMTXSTY
  7
STANDARD
  9
$DIMAUNIT
 70
     0
  9
$LUNITS
 70
     2
  9
$LUPREC
 70
     4
  9
$SKETCHINC
 40
0.1
  9
$FILLETRAD
 40
0.5
  9
$AUNITS
 70
     0
  9
$AUPREC
 70
     0
  9
$MENU
  1
.
  9
$ELEVATION
 40
0.0
  9
$PELEVATION
 40
0.0
  9
$THICKNESS
 40
0.0
  9
$LIMCHECK
 70
     0
  9
$CHAMFERA
 40
0.5
  9
$CHAMFERB
 40
0.5
  9
$CHAMFERC
 40
1.0
  9
$CHAMFERD
 40
0.0
  9
$SKPOLY
 70
     0
  9
$TDCREATE
 40
2455698.664943912
  9
$TDUPDATE
 40
2455698.664943924
  9
$TDINDWG
 40
0.0000000116
  9
$TDUSRTIMER
 40
0.0000000116
  9
$USRTIMER
 70
     1
  9
$ANGBASE
 50
0.0
  9
$ANGDIR
 70
     0
  9
$PDMODE
 70
     0
  9
$PDSIZE
 40
0.0
  9
$PLINEWID
 40
0.0
  9
$COORDS
 70
     1
  9
$SPLFRAME
 70
     0
  9
$SPLINETYPE
 70
     6
  9
$SPLINESEGS
 70
     8
  9
$ATTDIA
 70
     0
  9
$ATTREQ
 70
     1
  9
$HANDLING
 70
     1
  9
$HANDSEED
  5
283
  9
$SURFTAB1
 70
     6
  9
$SURFTAB2
 70
     6
  9
$SURFTYPE
 70
     6
  9
$SURFU
 70
     6
  9
$SURFV
 70
     6
  9
$UCSNAME
  2

  9
$UCSORG
 10
0.0
 20
0.0
 30
0.0
  9
$UCSXDIR
 10
1.0
 20
0.0
 30
0.0
  9
$UCSYDIR
 10
0.0
 20
1.0
 30
0.0
  9
$PUCSNAME
  2

  9
$PUCSORG
 10
0.0
 20
0.0
 30
0.0
  9
$PUCSXDIR
 10
1.0
 20
0.0
 30
0.0
  9
$PUCSYDIR
 10
0.0
 20
1.0
 30
0.0
  9
$USERI1
 70
     0
  9
$USERI2
 70
     0
  9
$USERI3
 70
     0
  9
$USERI4
 70
     0
  9
$USERI5
 70
     0
  9
$USERR1
 40
0.0
  9
$USERR2
 40
0.0
  9
$USERR3
 40
0.0
  9
$USERR4
 40
0.0
  9
$USERR5
 40
0.0
  9
$WORLDVIEW
 70
     1
  9
$SHADEDGE
 70
     3
  9
$SHADEDIF
 70
    70
  9
$TILEMODE
 70
     1
  9
$MAXACTVP
 70
    64
  9
$PINSBASE
 10
0.0
 20
0.0
 30
0.0
  9
$PLIMCHECK
 70
     0
  9
$PEXTMIN
 10
-0.5
 20
-0.5
 30
-0.5
  9
$PEXTMAX
 10
5.0
 20
5.0
 30
5.0
  9
$PLIMMIN
 10
-0.5
 20
-0.5
  9
$PLIMMAX
 10
5.0
 20
5.0
  9
$UNITMODE
 70
     0
  9
$VISRETAIN
 70
     1
  9
$PLINEGEN
 70
     0
  9
$PSLTSCALE
 70
     1
  9
$TREEDEPTH
 70
  3020
  9
$PICKSTYLE
 70
     1
  9
$CMLSTYLE
  2
STANDARD
  9
$CMLJUST
 70
     0
  9
$CMLSCALE
 40
1.0
  9
$PROXYGRAPHICS
 70
     1
  9
$MEASUREMENT
 70
     1
  0
ENDSEC
  0
SECTION
  2
CLASSES
  0
CLASS
  1
ACDBDICTIONARYWDFLT
  2
AcDbDictionaryWithDefault
  3
ObjectDBX Classes
 90
        0
280
     0
281
     0
  0
CLASS
  1
VISUALSTYLE
  2
AcDbVisualStyle
  3
ObjectDBX Classes
 90
     4095
280
     0
281
     0
  0
CLASS
  1
XRECORD
  2
AcDbXrecord
  3
AutoCAD 2000
 90
        0
280
     0
281
     0
  0
CLASS
  1
LWPOLYLINE
  2
AcDbPolyline
  3
AutoCAD 2000
 90
        0
280
     0
281
     1
  0
CLASS
  1
HATCH
  2
AcDbHatch
  3
AutoCAD 2000
 90
        0
280
     0
281
     1
  0
CLASS
  1
ACDBPLACEHOLDER
  2
AcDbPlaceHolder
  3
ObjectDBX Classes
 90
        0
280
     0
281
     0
  0
CLASS
  1
LAYOUT
  2
AcDbLayout
  3
ObjectDBX Classes
 90
        0
280
     0
281
     0
  0
ENDSEC
  0
SECTION
  2
TABLES
  0
TABLE
  2
VPORT
  5
8
330
0
100
AcDbSymbolTable
 70
    17
  0
VPORT
  5
29
330
8
100
AcDbSymbolTableRecord
100
AcDbViewportTableRecord
  2
DUMMY
 70
     0
 10
0.0
 20
0.0
 11
1.0
 21
1.0
 12
10.429907
 22
4.5
 13
0.0
 23
0.0
 14
0.5
 24
0.5
 15
0.5
 25
0.5
 16
0.0
 26
0.0
 36
1.0
 17
0.0
 27
0.0
 37
0.0
 40
9.0
 41
1.972973
 42
50.0
 43
0.0
 44
0.0
 50
0.0
 51
0.0
 71
     0
 72
   100
 73
     1
 74
     3
 75
     0
 76
     0
 77
     0
 78
     0
  0
VPORT
  5
251
330
8
100
AcDbSymbolTableRecord
100
AcDbViewportTableRecord
  2
*ACTIVE
 70
     0
 10
0.0
 20
0.0
 11
1.0
 21
1.0
 12
420.500061
 22
299.0
 13
0.0
 23
0.0
 14
0.5
 24
0.5
 15
0.5
 25
0.5
 16
0.0
 26
0.0
 36
1.0
 17
0.0
 27
0.0
 37
0.0
 40
254.0
 41
0.069908
 42
50.0
 43
1617.513779
 44
-1617.513779
 50
0.0
 51
0.0
 71
     0
 72
   100
 73
     1
 74
     3
 75
     0
 76
     0
 77
     0
 78
     0
  0
VPORT
  5
252
330
8
100
AcDbSymbolTableRecord
100
AcDbViewportTableRecord
  2
L1
 70
     0
 10
0.0
 20
0.0
 11
1.0
 21
1.0
 12
420.500061
 22
299.0
 13
0.0
 23
0.0
 14
0.5
 24
0.5
 15
0.5
 25
0.5
 16
0.0
 26
0.0
 36
1.0
 17
0.0
 27
0.0
 37
0.0
 40
254.0
 41
0.069908
 42
50.0
 43
1617.513779
 44
-1617.513779
 50
0.0
 51
0.0
 71
     0
 72
   100
 73
     1
 74
     3
 75
     0
 76
     0
 77
     0
 78
     0
  0
VPORT
  5
253
330
8
100
AcDbSymbolTableRecord
100
AcDbViewportTableRecord
  2
L2
 70
     0
 10
0.0
 20
0.0
 11
0.5
 21
1.0
 12
0.0
 22
0.0
 13
0.0
 23
0.0
 14
0.5
 24
0.5
 15
0.5
 25
0.5
 16
0.0
 26
-1.0
 36
0.0
 17
0.0
 27
0.0
 37
0.0
 40
1319.822715
 41
0.013454
 42
50.0
 43
672.020833
 44
-672.020833
 50
0.0
 51
0.0
 71
     0
 72
   100
 73
     1
 74
     3
 75
     0
 76
     0
 77
     0
 78
     0
  0
VPORT
  5
254
330
8
100
AcDbSymbolTableRecord
100
AcDbViewportTableRecord
  2
L2
 70
     0
 10
0.5
 20
0.0
 11
1.0
 21
1.0
 12
0.0
 22
0.0
 13
0.0
 23
0.0
 14
0.5
 24
0.5
 15
0.5
 25
0.5
 16
1.0
 26
0.0
 36
0.0
 17
0.0
 27
0.0
 37
0.0
 40
1319.822715
 41
0.013454
 42
50.0
 43
672.020833
 44
-672.020833
 50
0.0
 51
0.0
 71
     0
 72
   100
 73
     1
 74
     3
 75
     0
 76
     0
 77
     0
 78
     0
  0
VPORT
  5
255
330
8
100
AcDbSymbolTableRecord
100
AcDbViewportTableRecord
  2
L3
 70
     0
 10
0.0
 20
0.5
 11
1.0
 21
1.0
 12
420.500061
 22
299.0
 13
0.0
 23
0.0
 14
0.5
 24
0.5
 15
0.5
 25
0.5
 16
0.0
 26
0.0
 36
1.0
 17
0.0
 27
0.0
 37
0.0
 40
254.0
 41
0.069908
 42
50.0
 43
1617.513779
 44
-1617.513779
 50
0.0
 51
0.0
 71
     0
 72
   100
 73
     1
 74
     3
 75
     0
 76
     0
 77
     0
 78
     0
  0
VPORT
  5
256
330
8
100
AcDbSymbolTableRecord
100
AcDbViewportTableRecord
  2
L3
 70
     0
 10
0.0
 20
0.0
 11
1.0
 21
0.5
 12
0.0
 22
0.0
 13
0.0
 23
0.0
 14
0.5
 24
0.5
 15
0.5
 25
0.5
 16
0.0
 26
-1.0
 36
0.0
 17
0.0
 27
0.0
 37
0.0
 40
1319.822715
 41
0.013454
 42
50.0
 43
672.020833
 44
-672.020833
 50
0.0
 51
0.0
 71
     0
 72
   100
 73
     1
 74
     3
 75
     0
 76
     0
 77
     0
 78
     0
  0
VPORT
  5
257
330
8
100
AcDbSymbolTableRecord
100
AcDbViewportTableRecord
  2
L4
 70
     0
 10
0.0
 20
0.5
 11
0.5
 21
1.0
 12
420.500061
 22
299.0
 13
0.0
 23
0.0
 14
0.5
 24
0.5
 15
0.5
 25
0.5
 16
0.0
 26
0.0
 36
1.0
 17
0.0
 27
0.0
 37
0.0
 40
254.0
 41
0.069908
 42
50.0
 43
1617.513779
 44
-1617.513779
 50
0.0
 51
0.0
 71
     0
 72
   100
 73
     1
 74
     3
 75
     0
 76
     0
 77
     0
 78
     0
  0
VPORT
  5
258
330
8
100
AcDbSymbolTableRecord
100
AcDbViewportTableRecord
  2
L4
 70
     0
 10
0.0
 20
0.0
 11
0.5
 21
0.5
 12
0.0
 22
0.0
 13
0.0
 23
0.0
 14
0.5
 24
0.5
 15
0.5
 25
0.5
 16
0.0
 26
-1.0
 36
0.0
 17
0.0
 27
0.0
 37
0.0
 40
1319.822715
 41
0.013454
 42
50.0
 43
672.020833
 44
-672.020833
 50
0.0
 51
0.0
 71
     0
 72
   100
 73
     1
 74
     3
 75
     0
 76
     0
 77
     0
 78
     0
  0
VPORT
  5
259
330
8
100
AcDbSymbolTableRecord
100
AcDbViewportTableRecord
  2
L4
 70
     0
 10
0.5
 20
0.0
 11
1.0
 21
0.5
 12
0.0
 22
0.0
 13
0.0
 23
0.0
 14
0.5
 24
0.5
 15
0.5
 25
0.5
 16
1.0
 26
0.0
 36
0.0
 17
0.0
 27
0.0
 37
0.0
 40
1319.822715
 41
0.013454
 42
50.0
 43
672.020833
 44
-672.020833
 50
0.0
 51
0.0
 71
     0
 72
   100
 73
     1
 74
     3
 75
     0
 76
     0
 77
     0
 78
     0
  0
VPORT
  5
25A
330
8
100
AcDbSymbolTableRecord
100
AcDbViewportTableRecord
  2
L4
 70
     0
 10
0.5
 20
0.5
 11
1.0
 21
1.0
 12
0.0
 22
0.0
 13
0.0
 23
0.0
 14
0.5
 24
0.5
 15
0.5
 25
0.5
 16
0.5773502691896258
 26
-0.5773502691896258
 36
0.5773502691896258
 17
0.0
 27
0.0
 37
0.0
 40
1285.020866
 41
0.013818
 42
50.0
 43
667.141407
 44
-667.141407
 50
0.0
 51
0.0
 71
     0
 72
   100
 73
     1
 74
     3
 75
     0
 76
     0
 77
     0
 78
     0
  0
VPORT
  5
25B
330
8
100
AcDbSymbolTableRecord
100
AcDbViewportTableRecord
  2
L6
 70
     0
 10
0.0
 20
0.5
 11
0.333333
 21
1.0
 12
0.0
 22
0.0
 13
0.0
 23
0.0
 14
0.5
 24
0.5
 15
0.5
 25
0.5
 16
0.7188730927569434
 26
-0.5850486126764431
 36
0.3754192287502549
 17
0.0
 27
0.0
 37
0.0
 40
1357.434192
 41
0.013081
 42
50.0
 43
701.839477
 44
-701.839477
 50
0.0
 51
0.0
 71
     0
 72
   100
 73
     1
 74
     3
 75
     0
 76
     0
 77
     0
 78
     0
  0
VPORT
  5
25C
330
8
100
AcDbSymbolTableRecord
100
AcDbViewportTableRecord
  2
L6
 70
     0
 10
0.0
 20
0.0
 11
0.333333
 21
0.5
 12
0.0
 22
0.0
 13
0.0
 23
0.0
 14
0.5
 24
0.5
 15
0.5
 25
0.5
 16
-1.0
 26
0.0
 36
0.0
 17
0.0
 27
0.0
 37
0.0
 40
1319.822715
 41
0.013454
 42
50.0
 43
672.020833
 44
-672.020833
 50
0.0
 51
0.0
 71
     0
 72
   100
 73
     1
 74
     3
 75
     0
 76
     0
 77
     0
 78
     0
  0
VPORT
  5
25D
330
8
100
AcDbSymbolTableRecord
100
AcDbViewportTableRecord
  2
L6
 70
     0
 10
0.333333
 20
0.5
 11
0.666667
 21
1.0
 12
420.500061
 22
299.0
 13
0.0
 23
0.0
 14
0.5
 24
0.5
 15
0.5
 25
0.5
 16
0.0
 26
0.0
 36
1.0
 17
0.0
 27
0.0
 37
0.0
 40
254.0
 41
0.069908
 42
50.0
 43
1617.513779
 44
-1617.513779
 50
0.0
 51
0.0
 71
     0
 72
   100
 73
     1
 74
     3
 75
     0
 76
     0
 77
     0
 78
     0
  0
VPORT
  5
25E
330
8
100
AcDbSymbolTableRecord
100
AcDbViewportTableRecord
  2
L6
 70
     0
 10
0.333333
 20
0.0
 11
0.666667
 21
0.5
 12
0.0
 22
0.0
 13
0.0
 23
0.0
 14
0.5
 24
0.5
 15
0.5
 25
0.5
 16
0.0
 26
-1.0
 36
0.0
 17
0.0
 27
0.0
 37
0.0
 40
1319.822715
 41
0.013454
 42
50.0
 43
672.020833
 44
-672.020833
 50
0.0
 51
0.0
 71
     0
 72
   100
 73
     1
 74
     3
 75
     0
 76
     0
 77
     0
 78
     0
  0
VPORT
  5
25F
330
8
100
AcDbSymbolTableRecord
100
AcDbViewportTableRecord
  2
L6
 70
     0
 10
0.666667
 20
0.5
 11
1.0
 21
1.0
 12
0.0
 22
0.0
 13
0.0
 23
0.0
 14
0.5
 24
0.5
 15
0.5
 25
0.5
 16
0.5773502691896258
 26
-0.5773502691896258
 36
0.5773502691896258
 17
0.0
 27
0.0
 37
0.0
 40
1285.020866
 41
0.013818
 42
50.0
 43
667.141407
 44
-667.141407
 50
0.0
 51
0.0
 71
     0
 72
   100
 73
     1
 74
     3
 75
     0
 76
     0
 77
     0
 78
     0
  0
VPORT
  5
260
330
8
100
AcDbSymbolTableRecord
100
AcDbViewportTableRecord
  2
L6
 70
     0
 10
0.666667
 20
0.0
 11
1.0
 21
0.5
 12
0.0
 22
0.0
 13
0.0
 23
0.0
 14
0.5
 24
0.5
 15
0.5
 25
0.5
 16
1.0
 26
0.0
 36
0.0
 17
0.0
 27
0.0
 37
0.0
 40
1319.822715
 41
0.013454
 42
50.0
 43
672.020833
 44
-672.020833
 50
0.0
 51
0.0
 71
     0
 72
   100
 73
     1
 74
     3
 75
     0
 76
     0
 77
     0
 78
     0
  0
ENDTAB
  0
TABLE
  2
LTYPE
  5
5
330
0
100
AcDbSymbolTable
 70
     7
  0
LTYPE
  5
14
330
5
100
AcDbSymbolTableRecord
100
AcDbLinetypeTableRecord
  2
BYBLOCK
 70
     0
  3

 72
    65
 73
     0
 40
0.0
  0
LTYPE
  5
15
330
5
100
AcDbSymbolTableRecord
100
AcDbLinetypeTableRecord
  2
BYLAYER
 70
     0
  3

 72
    65
 73
     0
 40
0.0
  0
LTYPE
  5
16
330
5
100
AcDbSymbolTableRecord
100
AcDbLinetypeTableRecord
  2
CONTINUOUS
 70
     0
  3
Solid line
 72
    65
 73
     0
 40
0.0
  0
LTYPE
  5
3B
330
5
100
AcDbSymbolTableRecord
100
AcDbLinetypeTableRecord
  2
DASHED
 70
     0
  3
__ __ __ __ __ __ __ __ __
 72
    65
 73
     2
 40
25.72
 49
12.86
 74
     4
 75
     0
340
0
 46
0.0
 50
0.0
 44
0.0
 45
0.0
 49
-12.86
 74
     4
 75
     0
340
0
 46
0.0
 50
0.0
 44
0.0
 45
0.0
  0
LTYPE
  5
3C
330
5
100
AcDbSymbolTableRecord
100
AcDbLinetypeTableRecord
  2
HIDDEN
 70
     0
  3
_ _ _ _ _ _ _ _ _ _ _ _ _ _ _
 72
    65
 73
     2
 40
0.5
 49
0.25
 74
     4
 75
     0
340
0
 46
0.0
 50
0.0
 44
0.0
 45
0.0
 49
-0.25
 74
     4
 75
     0
340
0
 46
0.0
 50
0.0
 44
0.0
 45
0.0
  0
LTYPE
  5
3D
330
5
100
AcDbSymbolTableRecord
100
AcDbLinetypeTableRecord
  2
PHANTOM
 70
     0
  3
____ _ _ ____ _ _ _____ _ _ ____
 72
    65
 73
     6
 40
50.5
 49
18.0
 74
     4
 75
     0
340
0
 46
0.0
 50
0.0
 44
0.0
 45
0.0
 49
-6.5
 74
     4
 75
     0
340
0
 46
0.0
 50
0.0
 44
0.0
 45
0.0
 49
6.5
 74
     4
 75
     0
340
0
 46
0.0
 50
0.0
 44
0.0
 45
0.0
 49
-6.5
 74
     4
 75
     0
340
0
 46
0.0
 50
0.0
 44
0.0
 45
0.0
 49
6.5
 74
     4
 75
     0
340
0
 46
0.0
 50
0.0
 44
0.0
 45
0.0
 49
-6.5
 74
     4
 75
     0
340
0
 46
0.0
 50
0.0
 44
0.0
 45
0.0
  0
LTYPE
  5
3E
330
5
100
AcDbSymbolTableRecord
100
AcDbLinetypeTableRecord
  2
CENTER
 70
     0
  3
____ _ ____ _ ____ _ ____
 72
    65
 73
     4
 40
47.4
 49
22.0
 74
     4
 75
     0
340
0
 46
0.0
 50
0.0
 44
0.0
 45
0.0
 49
-8.5
 74
     4
 75
     0
340
0
 46
0.0
 50
0.0
 44
0.0
 45
0.0
 49
8.5
 74
     4
 75
     0
340
0
 46
0.0
 50
0.0
 44
0.0
 45
0.0
 49
-8.5
 74
     4
 75
     0
340
0
 46
0.0
 50
0.0
 44
0.0
 45
0.0
  0
LTYPE
  5
3F
330
5
100
AcDbSymbolTableRecord
100
AcDbLinetypeTableRecord
  2
DOT
 70
     0
  3
.........................
 72
    65
 73
     2
 40
10.0
 49
0.0
 74
     4
 75
     0
340
0
 46
0.0
 50
0.0
 44
0.0
 45
0.0
 49
-10.0
 74
     4
 75
     0
340
0
 46
0.0
 50
0.0
 44
0.0
 45
0.0
  0
LTYPE
  5
40
330
5
100
AcDbSymbolTableRecord
100
AcDbLinetypeTableRecord
  2
DASHDOT
 70
     0
  3
_._._._._._._._._._._._._._._._.
 72
    65
 73
     4
 40
70.0
 49
31.0
 74
     4
 75
     0
340
0
 46
0.0
 50
0.0
 44
0.0
 45
0.0
 49
-13.0
 74
     4
 75
     0
340
0
 46
0.0
 50
0.0
 44
0.0
 45
0.0
 49
13.0
 74
     4
 75
     0
340
0
 46
0.0
 50
0.0
 44
0.0
 45
0.0
 49
-13.0
 74
     4
 75
     0
340
0
 46
0.0
 50
0.0
 44
0.0
 45
0.0
  0
ENDTAB
  0
TABLE
  2
LAYER
  5
2
330
0
100
AcDbSymbolTable
 70
     4
  0
LAYER
  5
10
330
2
100
AcDbSymbolTableRecord
100
AcDbLayerTableRecord
  2
0
 70
     0
 62
     7
  6
CONTINUOUS
  0
LAYER
  5
42
330
2
100
AcDbSymbolTableRecord
100
AcDbLayerTableRecord
  2
1
 70
     0
 62
     7
  6
CONTINUOUS
  0
LAYER
  5
AC
330
2
100
AcDbSymbolTableRecord
100
AcDbLayerTableRecord
  2
201
 70
     0
 62
     7
  6
CONTINUOUS
  0
LAYER
  5
15F
330
2
100
AcDbSymbolTableRecord
100
AcDbLayerTableRecord
  2
TOP
 70
     0
 62
     7
  6
CONTINUOUS
  0
ENDTAB
  0
TABLE
  2
STYLE
  5
3
330
0
100
AcDbSymbolTable
 70
     3
  0
STYLE
  5
11
330
3
100
AcDbSymbolTableRecord
100
AcDbTextStyleTableRecord
  2
STANDARD
 70
     0
 40
0.0
 41
1.0
 50
0.0
 71
     0
 42
0.2
  3
txt
  4

  0
STYLE
  5
15D
330
3
100
AcDbSymbolTableRecord
100
AcDbTextStyleTableRecord
  2
DEFAULT
 70
     0
 40
0.0
 41
1.0
 50
0.0
 71
     0
 42
0.2
  3
simplex.shx
  4

  0
STYLE
  5
15E
330
3
100
AcDbSymbolTableRecord
100
AcDbTextStyleTableRecord
  2
DWGDIRECTTEXTSTYLE
 70
     0
 40
0.0
 41
1.0
 50
0.0
 71
     0
 42
0.2
  3
SIMPLEX
  4
bigfont
  0
ENDTAB
  0
TABLE
  2
VIEW
  5
6
330
0
100
AcDbSymbolTable
 70
     0
  0
ENDTAB
  0
TABLE
  2
UCS
  5
7
330
0
100
AcDbSymbolTable
 70
     0
  0
ENDTAB
  0
TABLE
  2
APPID
  5
9
330
0
100
AcDbSymbolTable
 70
     1
  0
APPID
  5
12
330
9
100
AcDbSymbolTableRecord
100
AcDbRegAppTableRecord
  2
ACAD
 70
     0
  0
ENDTAB
  0
TABLE
  2
DIMSTYLE
  5
A
330
0
100
AcDbSymbolTable
 70
     1
  0
DIMSTYLE
105
27
102
{ACAD_REACTORS
330
1C6
330
1D0
330
1D8
330
1E0
330
1E9
330
1F2
330
1FD
330
208
330
212
330
21C
330
226
330
230
330
23A
330
244
330
24E
102
}
330
A
100
AcDbSymbolTableRecord
100
AcDbDimStyleTableRecord
  2
STANDARD
 70
     0
  3

  4

  5

  6

  7

 40
1.0
 41
0.18
 42
0.0625
 43
0.38
 44
0.18
 45
0.0
 46
0.0
 47
0.0
 48
0.0
140
0.18
141
0.09
142
0.0
143
25.4
144
1.0
145
0.0
146
1.0
147
0.09
 71
     0
 72
     0
 73
     1
 74
     1
 75
     0
 76
     0
 77
     0
 78
     0
170
     0
171
     2
172
     0
173
     0
174
     0
175
     0
176
     0
177
     0
178
     0
270
     2
271
     4
272
     4
273
     2
274
     2
340
11
275
     0
280
     0
281
     0
282
     0
283
     1
284
     0
285
     0
286
     0
287
     3
288
     0
  0
ENDTAB
  0
TABLE
  2
BLOCK_RECORD
  5
1
330
0
100
AcDbSymbolTable
 70
    17
  0
BLOCK_RECORD
  5
1F
330
1
100
AcDbSymbolTableRecord
100
AcDbBlockTableRecord
  2
*MODEL_SPACE
  0
BLOCK_RECORD
  5
1B
330
1
100
AcDbSymbolTableRecord
100
AcDbBlockTableRecord
  2
*PAPER_SPACE
  0
BLOCK_RECORD
  5
1AD
330
1
100
AcDbSymbolTableRecord
100
AcDbBlockTableRecord
  2
LABLE3D_1
  0
BLOCK_RECORD
  5
1BC
330
1
100
AcDbSymbolTableRecord
100
AcDbBlockTableRecord
  2
DIMNDRAFT3D1
  0
BLOCK_RECORD
  5
1C7
330
1
100
AcDbSymbolTableRecord
100
AcDbBlockTableRecord
  2
DIMNDRAFT3D2
  0
BLOCK_RECORD
  5
1D1
330
1
100
AcDbSymbolTableRecord
100
AcDbBlockTableRecord
  2
DIMNDRAFT3D3
  0
BLOCK_RECORD
  5
1D9
330
1
100
AcDbSymbolTableRecord
100
AcDbBlockTableRecord
  2
DIMNDRAFT3D4
  0
BLOCK_RECORD
  5
1E1
330
1
100
AcDbSymbolTableRecord
100
AcDbBlockTableRecord
  2
DIMNDRAFT3D5
  0
BLOCK_RECORD
  5
1EA
330
1
100
AcDbSymbolTableRecord
100
AcDbBlockTableRecord
  2
DIMNDRAFT3D6
  0
BLOCK_RECORD
  5
1F3
330
1
100
AcDbSymbolTableRecord
100
AcDbBlockTableRecord
  2
DIMNDRAFT3D7
  0
BLOCK_RECORD
  5
1FE
330
1
100
AcDbSymbolTableRecord
100
AcDbBlockTableRecord
  2
DIMNDRAFT3D8
  0
BLOCK_RECORD
  5
209
330
1
100
AcDbSymbolTableRecord
100
AcDbBlockTableRecord
  2
DIMNDRAFT3D9
  0
BLOCK_RECORD
  5
213
330
1
100
AcDbSymbolTableRecord
100
AcDbBlockTableRecord
  2
DIMNDRAFT3D10
  0
BLOCK_RECORD
  5
21D
330
1
100
AcDbSymbolTableRecord
100
AcDbBlockTableRecord
  2
DIMNDRAFT3D11
  0
BLOCK_RECORD
  5
227
330
1
100
AcDbSymbolTableRecord
100
AcDbBlockTableRecord
  2
DIMNDRAFT3D12
  0
BLOCK_RECORD
  5
231
330
1
100
AcDbSymbolTableRecord
100
AcDbBlockTableRecord
  2
DIMNDRAFT3D13
  0
BLOCK_RECORD
  5
23B
330
1
100
AcDbSymbolTableRecord
100
AcDbBlockTableRecord
  2
DIMNDRAFT3D14
  0
BLOCK_RECORD
  5
245
330
1
100
AcDbSymbolTableRecord
100
AcDbBlockTableRecord
  2
DIMNDRAFT3D15
  0
ENDTAB
  0
ENDSEC
  0
SECTION
  2
BLOCKS
  0
BLOCK
  5
20
330
1F
100
AcDbEntity
  8
0
100
AcDbBlockBegin
  2
*MODEL_SPACE
 70
     0
 10
0.0
 20
0.0
 30
0.0
  3
*MODEL_SPACE
  1

  0
ENDBLK
  5
21
330
1F
100
AcDbEntity
  8
0
100
AcDbBlockEnd
  0
BLOCK
  5
1C
330
1B
100
AcDbEntity
 67
     1
  8
0
100
AcDbBlockBegin
  2
*PAPER_SPACE
 70
     0
 10
0.0
 20
0.0
 30
0.0
  3
*PAPER_SPACE
  1

  0
ENDBLK
  5
1D
330
1B
100
AcDbEntity
 67
     1
  8
0
100
AcDbBlockEnd
  0
BLOCK
  5
1B3
330
1AD
100
AcDbEntity
  8
0
100
AcDbBlockBegin
  2
LABLE3D_1
 70
     0
 10
0.0
 20
0.0
 30
0.0
  3
LABLE3D_1
  1

  0
MTEXT
  5
1AE
330
1AD
100
AcDbEntity
  8
TOP
  6
CONTINUOUS
 62
     1
100
AcDbMText
 10
358.128615
 20
431.178419
 30
0.0
 40
3.5
 41
0.0
 71
     7
 72
     5
  1
\W00.982;\fsimplex.shx,bigfont.shx;4-M10x1.5 NUT\PWELDING\P
  7
DEFAULT
1001
ACAD
1000
MTEXTBEGIN
1070
    44
1040
0.903614
1000
MTEXTEND
  0
LINE
  5
1AF
330
1AD
100
AcDbEntity
  8
TOP
  6
CONTINUOUS
 62
     1
100
AcDbLine
 10
399.332073
 20
430.828419
 30
0.0
 11
356.253615
 21
430.828419
 31
0.0
  0
LINE
  5
1B0
330
1AD
100
AcDbEntity
  8
TOP
  6
CONTINUOUS
 62
     1
100
AcDbLine
 10
310.844667
 20
389.011693
 30
0.0
 11
356.253615
 21
430.828419
 31
0.0
  0
SOLID
  5
1B1
330
1AD
100
AcDbEntity
  8
TOP
  6
CONTINUOUS
 62
     1
100
AcDbTrace
 10
310.844667
 20
389.011693
 30
0.0
 11
312.783987
 21
392.072497
 31
0.0
 12
314.054575
 22
390.69277
 32
0.0
 13
310.844667
 23
389.011693
 33
0.0
  0
ENDBLK
  5
1B4
330
1AD
100
AcDbEntity
  8
0
100
AcDbBlockEnd
  0
BLOCK
  5
1C4
330
1BC
100
AcDbEntity
  8
0
100
AcDbBlockBegin
  2
DIMNDRAFT3D1
 70
     0
 10
0.0
 20
0.0
 30
0.0
  3
DIMNDRAFT3D1
  1

  0
MTEXT
  5
1BD
330
1BC
100
AcDbEntity
  8
TOP
  6
CONTINUOUS
 62
     1
100
AcDbMText
 10
260.740742
 20
125.664334
 30
0.0
 40
3.5
 41
6.930583
 71
     7
 72
     5
  1
\W01.000;\fsimplex.shx,bigfont.shx;80\P
  7
DEFAULT
1001
ACAD
1000
MTEXTBEGIN
1070
    44
1040
0.903614
1000
MTEXTEND
  0
MTEXT
  5
1BE
330
1BC
100
AcDbEntity
  8
TOP
  6
CONTINUOUS
 62
     1
100
AcDbMText
 10
271.171325
 20
125.664334
 30
0.0
 40
3.5
 41
12.406333
 71
     7
 72
     5
  1
\W01.000;\fsimplex.shx,bigfont.shx;%%p0.1\P
  7
DEFAULT
1001
ACAD
1000
MTEXTBEGIN
1070
    44
1040
0.61747
1000
MTEXTEND
  0
LINE
  5
1BF
330
1BC
100
AcDbEntity
  8
TOP
  6
CONTINUOUS
 62
     1
100
AcDbLine
 10
231.2842
 20
160.538048
 30
0.0
 11
231.2842
 21
123.044542
 31
0.0
  0
LINE
  5
1C0
330
1BC
100
AcDbEntity
  8
TOP
  6
CONTINUOUS
 62
     1
100
AcDbLine
 10
311.2842
 20
160.538048
 30
0.0
 11
311.2842
 21
123.044542
 31
0.0
  0
LINE
  5
1C1
330
1BC
100
AcDbEntity
  8
TOP
  6
CONTINUOUS
 62
     1
100
AcDbLine
 10
231.2842
 20
125.044542
 30
0.0
 11
311.2842
 21
125.044542
 31
0.0
  0
SOLID
  5
1C2
330
1BC
100
AcDbEntity
  8
TOP
  6
CONTINUOUS
 62
     1
100
AcDbTrace
 10
231.2842
 20
125.044542
 30
0.0
 11
234.784197
 21
125.982364
 31
0.0
 12
234.784204
 22
124.10672
 32
0.0
 13
231.2842
 23
125.044542
 33
0.0
  0
SOLID
  5
1C3
330
1BC
100
AcDbEntity
  8
TOP
  6
CONTINUOUS
 62
     1
100
AcDbTrace
 10
311.2842
 20
125.044542
 30
0.0
 11
307.784204
 21
124.10672
 31
0.0
 12
307.784197
 22
125.982364
 32
0.0
 13
311.2842
 23
125.044542
 33
0.0
  0
ENDBLK
  5
1C5
330
1BC
100
AcDbEntity
  8
0
100
AcDbBlockEnd
  0
BLOCK
  5
1CE
330
1C7
100
AcDbEntity
  8
0
100
AcDbBlockBegin
  2
DIMNDRAFT3D2
 70
     0
 10
0.0
 20
0.0
 30
0.0
  3
DIMNDRAFT3D2
  1

  0
MTEXT
  5
1C8
330
1C7
100
AcDbEntity
  8
TOP
  6
CONTINUOUS
 62
     1
100
AcDbMText
 10
268.455179
 20
111.991913
 30
0.0
 40
3.5
 41
7.408042
 71
     7
 72
     5
  1
\W01.000;\fsimplex.shx,bigfont.shx;115\P
  7
DEFAULT
1001
ACAD
1000
MTEXTBEGIN
1070
    44
1040
0.903614
1000
MTEXTEND
  0
LINE
  5
1C9
330
1C7
100
AcDbEntity
  8
TOP
  6
CONTINUOUS
 62
     1
100
AcDbLine
 10
213.7842
 20
144.038048
 30
0.0
 11
213.7842
 21
109.372121
 31
0.0
  0
LINE
  5
1CA
330
1C7
100
AcDbEntity
  8
TOP
  6
CONTINUOUS
 62
     1
100
AcDbLine
 10
328.784786
 20
144.038048
 30
0.0
 11
328.784786
 21
109.372121
 31
0.0
  0
LINE
  5
1CB
330
1C7
100
AcDbEntity
  8
TOP
  6
CONTINUOUS
 62
     1
100
AcDbLine
 10
213.7842
 20
111.372121
 30
0.0
 11
328.784786
 21
111.372121
 31
0.0
  0
SOLID
  5
1CC
330
1C7
100
AcDbEntity
  8
TOP
  6
CONTINUOUS
 62
     1
100
AcDbTrace
 10
328.784786
 20
111.372121
 30
0.0
 11
325.28479
 21
110.434299
 31
0.0
 12
325.284783
 22
112.309943
 32
0.0
 13
328.784786
 23
111.372121
 33
0.0
  0
SOLID
  5
1CD
330
1C7
100
AcDbEntity
  8
TOP
  6
CONTINUOUS
 62
     1
100
AcDbTrace
 10
213.7842
 20
111.372121
 30
0.0
 11
217.284197
 21
112.309943
 31
0.0
 12
217.284204
 22
110.434299
 32
0.0
 13
213.7842
 23
111.372121
 33
0.0
  0
ENDBLK
  5
1CF
330
1C7
100
AcDbEntity
  8
0
100
AcDbBlockEnd
  0
BLOCK
  5
1D6
330
1D1
100
AcDbEntity
  8
0
100
AcDbBlockBegin
  2
DIMNDRAFT3D3
 70
     0
 10
0.0
 20
0.0
 30
0.0
  3
DIMNDRAFT3D3
  1

  0
MTEXT
  5
1D2
330
1D1
100
AcDbEntity
  8
TOP
  6
CONTINUOUS
 62
     1
100
AcDbMText
 10
267.817159
 20
512.234484
 30
0.0
 40
3.5
 41
8.684083
 71
     7
 72
     5
  1
\W01.000;\fsimplex.shx,bigfont.shx;90%%d\P
  7
DEFAULT
1001
ACAD
1000
MTEXTBEGIN
1070
    44
1040
0.903614
1000
MTEXTEND
  0
ARC
  5
1D3
330
1D1
100
AcDbEntity
  8
TOP
  6
CONTINUOUS
 62
     1
100
AcDbCircle
 10
271.2842
 20
424.754334
 30
0.0
 40
86.86035908081374
100
AcDbArc
 50
45.0
 51
135.0
  0
SOLID
  5
1D4
330
1D1
100
AcDbEntity
  8
TOP
  6
CONTINUOUS
 62
     1
100
AcDbTrace
 10
332.703749
 20
486.173883
 30
0.0
 11
329.547649
 21
487.953915
 31
0.0
 12
330.860499
 22
489.293492
 32
0.0
 13
332.703749
 23
486.173883
 33
0.0
  0
SOLID
  5
1D5
330
1D1
100
AcDbEntity
  8
TOP
  6
CONTINUOUS
 62
     1
100
AcDbTrace
 10
209.864651
 20
486.173883
 30
0.0
 11
211.707897
 21
489.293487
 31
0.0
 12
213.020757
 22
487.95392
 32
0.0
 13
209.864651
 23
486.173883
 33
0.0
  0
ENDBLK
  5
1D7
330
1D1
100
AcDbEntity
  8
0
100
AcDbBlockEnd
  0
BLOCK
  5
1DE
330
1D9
100
AcDbEntity
  8
0
100
AcDbBlockBegin
  2
DIMNDRAFT3D4
 70
     0
 10
0.0
 20
0.0
 30
0.0
  3
DIMNDRAFT3D4
  1

  0
MTEXT
  5
1DA
330
1D9
100
AcDbEntity
  8
TOP
  6
CONTINUOUS
 62
     1
100
AcDbMText
 10
300.035914
 20
265.270606
 30
0.0
 40
3.5
 41
6.930583
 71
     7
 72
     5
  1
\W01.000;\fsimplex.shx,bigfont.shx;45\P
  7
DEFAULT
 11
0.72431114455004
 21
0.6894732524765635
 31
0.0
1001
ACAD
1000
MTEXTBEGIN
1070
    44
1040
0.903614
1000
MTEXTEND
  0
MTEXT
  5
1DB
330
1D9
100
AcDbEntity
  8
TOP
  6
CONTINUOUS
 62
     1
100
AcDbMText
 10
294.965736
 20
260.444293
 30
0.0
 40
3.5
 41
7.0
 71
     7
 72
     5
  1
\W01.000;\fsimplex.shx,bigfont.shx;%%c\P
  7
DEFAULT
 11
0.72431114455004
 21
0.6894732524765635
 31
0.0
1001
ACAD
1000
MTEXTBEGIN
1070
    44
1040
0.903614
1000
MTEXTEND
  0
LINE
  5
1DC
330
1D9
100
AcDbEntity
  8
TOP
  6
CONTINUOUS
 62
     1
100
AcDbLine
 10
287.581201
 20
251.351197
 30
0.0
 11
305.452659
 21
268.363074
 31
0.0
  0
SOLID
  5
1DD
330
1D9
100
AcDbEntity
  8
TOP
  6
CONTINUOUS
 62
     1
100
AcDbTrace
 10
287.581201
 20
251.351197
 30
0.0
 11
289.469684
 21
254.443626
 31
0.0
 12
290.762896
 22
253.08508
 32
0.0
 13
287.581201
 23
251.351197
 33
0.0
  0
ENDBLK
  5
1DF
330
1D9
100
AcDbEntity
  8
0
100
AcDbBlockEnd
  0
BLOCK
  5
1E7
330
1E1
100
AcDbEntity
  8
0
100
AcDbBlockBegin
  2
DIMNDRAFT3D5
 70
     0
 10
0.0
 20
0.0
 30
0.0
  3
DIMNDRAFT3D5
  1

  0
MTEXT
  5
1E2
330
1E1
100
AcDbEntity
  8
TOP
  6
CONTINUOUS
 62
     1
100
AcDbMText
 10
535.27083
 20
284.447443
 30
0.0
 40
3.5
 41
3.941
 71
     7
 72
     5
  1
\W01.000;\fsimplex.shx,bigfont.shx;11\P
  7
DEFAULT
 11
0.7111352805760988
 21
0.7030551989139641
 31
0.0
1001
ACAD
1000
MTEXTBEGIN
1070
    44
1040
0.903614
1000
MTEXTEND
  0
MTEXT
  5
1E3
330
1E1
100
AcDbEntity
  8
TOP
  6
CONTINUOUS
 62
     1
100
AcDbMText
 10
522.875327
 20
272.192781
 30
0.0
 40
3.5
 41
6.930583
 71
     7
 72
     5
  1
\W01.000;\fsimplex.shx,bigfont.shx;4-\P
  7
DEFAULT
 11
0.7111352805760988
 21
0.7030551989139641
 31
0.0
1001
ACAD
1000
MTEXTBEGIN
1070
    44
1040
0.903614
1000
MTEXTEND
  0
MTEXT
  5
1E4
330
1E1
100
AcDbEntity
  8
TOP
  6
CONTINUOUS
 62
     1
100
AcDbMText
 10
530.292883
 20
279.526057
 30
0.0
 40
3.5
 41
7.0
 71
     7
 72
     5
  1
\W01.000;\fsimplex.shx,bigfont.shx;%%c\P
  7
DEFAULT
 11
0.7111352805760988
 21
0.7030551989139641
 31
0.0
1001
ACAD
1000
MTEXTBEGIN
1070
    44
1040
0.903614
1000
MTEXTEND
  0
LINE
  5
1E5
330
1E1
100
AcDbEntity
  8
TOP
  6
CONTINUOUS
 62
     1
100
AcDbLine
 10
558.662391
 20
305.471245
 30
0.0
 11
523.304005
 21
270.514609
 31
0.0
  0
SOLID
  5
1E6
330
1E1
100
AcDbEntity
  8
TOP
  6
CONTINUOUS
 62
     1
100
AcDbTrace
 10
558.662391
 20
305.471245
 30
0.0
 11
556.832761
 21
302.343636
 31
0.0
 12
555.514074
 22
303.677468
 32
0.0
 13
558.662391
 23
305.471245
 33
0.0
  0
ENDBLK
  5
1E8
330
1E1
100
AcDbEntity
  8
0
100
AcDbBlockEnd
  0
BLOCK
  5
1F0
330
1EA
100
AcDbEntity
  8
0
100
AcDbBlockBegin
  2
DIMNDRAFT3D6
 70
     0
 10
0.0
 20
0.0
 30
0.0
  3
DIMNDRAFT3D6
  1

  0
MTEXT
  5
1EB
330
1EA
100
AcDbEntity
  8
TOP
  6
CONTINUOUS
 62
     1
100
AcDbMText
 10
257.300918
 20
276.278111
 30
0.0
 40
3.5
 41
12.369875
 71
     7
 72
     5
  1
\W01.000;\fsimplex.shx,bigfont.shx;91.5\P
  7
DEFAULT
 11
6.123031769111886E-17
 21
1.0
 31
0.0
1001
ACAD
1000
MTEXTBEGIN
1070
    44
1040
0.903614
1000
MTEXTEND
  0
LINE
  5
1EC
330
1EA
100
AcDbEntity
  8
TOP
  6
CONTINUOUS
 62
     1
100
AcDbLine
 10
270.9842
 20
327.338048
 30
0.0
 11
255.920709
 21
327.338048
 31
0.0
  0
LINE
  5
1ED
330
1EA
100
AcDbEntity
  8
TOP
  6
CONTINUOUS
 62
     1
100
AcDbLine
 10
257.920709
 20
235.838048
 30
0.0
 11
257.920709
 21
327.338048
 31
0.0
  0
SOLID
  5
1EE
330
1EA
100
AcDbEntity
  8
TOP
  6
CONTINUOUS
 62
     1
100
AcDbTrace
 10
257.920709
 20
235.838048
 30
0.0
 11
256.982887
 21
239.338045
 31
0.0
 12
258.858532
 22
239.338052
 32
0.0
 13
257.920709
 23
235.838048
 33
0.0
  0
SOLID
  5
1EF
330
1EA
100
AcDbEntity
  8
TOP
  6
CONTINUOUS
 62
     1
100
AcDbTrace
 10
257.920709
 20
327.338048
 30
0.0
 11
258.858532
 21
323.838052
 31
0.0
 12
256.982887
 22
323.838045
 32
0.0
 13
257.920709
 23
327.338048
 33
0.0
  0
ENDBLK
  5
1F1
330
1EA
100
AcDbEntity
  8
0
100
AcDbBlockEnd
  0
BLOCK
  5
1FB
330
1F3
100
AcDbEntity
  8
0
100
AcDbBlockBegin
  2
DIMNDRAFT3D7
 70
     0
 10
0.0
 20
0.0
 30
0.0
  3
DIMNDRAFT3D7
  1

  0
MTEXT
  5
1F4
330
1F3
100
AcDbEntity
  8
TOP
  6
CONTINUOUS
 62
     1
100
AcDbMText
 10
352.031264
 20
222.574944
 30
0.0
 40
3.5
 41
8.902833
 71
     7
 72
     5
  1
\W01.000;\fsimplex.shx,bigfont.shx;150\P
  7
DEFAULT
 11
6.123031769111886E-17
 21
1.0
 31
0.0
1001
ACAD
1000
MTEXTBEGIN
1070
    44
1040
0.903614
1000
MTEXTEND
  0
MTEXT
  5
1F5
330
1F3
100
AcDbEntity
  8
TOP
  6
CONTINUOUS
 62
     1
100
AcDbMText
 10
352.031264
 20
234.977777
 30
0.0
 40
3.5
 41
15.873375
 71
     7
 72
     5
  1
\W01.000;\fsimplex.shx,bigfont.shx;%%p0.15\P
  7
DEFAULT
 11
6.123031769111886E-17
 21
1.0
 31
0.0
1001
ACAD
1000
MTEXTBEGIN
1070
    44
1040
0.61747
1000
MTEXTEND
  0
LINE
  5
1F6
330
1F3
100
AcDbEntity
  8
TOP
  6
CONTINUOUS
 62
     1
100
AcDbLine
 10
320.8342
 20
160.838048
 30
0.0
 11
354.651055
 21
160.838048
 31
0.0
  0
LINE
  5
1F7
330
1F3
100
AcDbEntity
  8
TOP
  6
CONTINUOUS
 62
     1
100
AcDbLine
 10
320.8342
 20
310.838048
 30
0.0
 11
354.651055
 21
310.838048
 31
0.0
  0
LINE
  5
1F8
330
1F3
100
AcDbEntity
  8
TOP
  6
CONTINUOUS
 62
     1
100
AcDbLine
 10
352.651055
 20
160.838048
 30
0.0
 11
352.651055
 21
310.838048
 31
0.0
  0
SOLID
  5
1F9
330
1F3
100
AcDbEntity
  8
TOP
  6
CONTINUOUS
 62
     1
100
AcDbTrace
 10
352.651055
 20
160.838048
 30
0.0
 11
351.713233
 21
164.338045
 31
0.0
 12
353.588877
 22
164.338052
 32
0.0
 13
352.651055
 23
160.838048
 33
0.0
  0
SOLID
  5
1FA
330
1F3
100
AcDbEntity
  8
TOP
  6
CONTINUOUS
 62
     1
100
AcDbTrace
 10
352.651055
 20
310.838048
 30
0.0
 11
353.588877
 21
307.338052
 31
0.0
 12
351.713233
 22
307.338045
 32
0.0
 13
352.651055
 23
310.838048
 33
0.0
  0
ENDBLK
  5
1FC
330
1F3
100
AcDbEntity
  8
0
100
AcDbBlockEnd
  0
BLOCK
  5
206
330
1FE
100
AcDbEntity
  8
0
100
AcDbBlockBegin
  2
DIMNDRAFT3D8
 70
     0
 10
0.0
 20
0.0
 30
0.0
  3
DIMNDRAFT3D8
  1

  0
MTEXT
  5
1FF
330
1FE
100
AcDbEntity
  8
TOP
  6
CONTINUOUS
 62
     1
100
AcDbMText
 10
372.9696
 20
223.561069
 30
0.0
 40
3.5
 41
8.902833
 71
     7
 72
     5
  1
\W01.000;\fsimplex.shx,bigfont.shx;183\P
  7
DEFAULT
 11
6.123031769111886E-17
 21
1.0
 31
0.0
1001
ACAD
1000
MTEXTBEGIN
1070
    44
1040
0.903614
1000
MTEXTEND
  0
MTEXT
  5
200
330
1FE
100
AcDbEntity
  8
TOP
  6
CONTINUOUS
 62
     1
100
AcDbMText
 10
372.9696
 20
235.963902
 30
0.0
 40
3.5
 41
13.901125
 71
     7
 72
     5
  1
\W01.000;\fsimplex.shx,bigfont.shx;%%p0.5\P
  7
DEFAULT
 11
6.123031769111886E-17
 21
1.0
 31
0.0
1001
ACAD
1000
MTEXTBEGIN
1070
    44
1040
0.61747
1000
MTEXTEND
  0
LINE
  5
201
330
1FE
100
AcDbEntity
  8
TOP
  6
CONTINUOUS
 62
     1
100
AcDbLine
 10
360.905091
 20
327.338048
 30
0.0
 11
375.589392
 21
327.338048
 31
0.0
  0
LINE
  5
202
330
1FE
100
AcDbEntity
  8
TOP
  6
CONTINUOUS
 62
     1
100
AcDbLine
 10
360.904091
 20
144.338048
 30
0.0
 11
375.589392
 21
144.338048
 31
0.0
  0
LINE
  5
203
330
1FE
100
AcDbEntity
  8
TOP
  6
CONTINUOUS
 62
     1
100
AcDbLine
 10
373.589392
 20
327.338048
 30
0.0
 11
373.589392
 21
144.338048
 31
0.0
  0
SOLID
  5
204
330
1FE
100
AcDbEntity
  8
TOP
  6
CONTINUOUS
 62
     1
100
AcDbTrace
 10
373.589392
 20
327.338048
 30
0.0
 11
374.527214
 21
323.838052
 31
0.0
 12
372.651569
 22
323.838045
 32
0.0
 13
373.589392
 23
327.338048
 33
0.0
  0
SOLID
  5
205
330
1FE
100
AcDbEntity
  8
TOP
  6
CONTINUOUS
 62
     1
100
AcDbTrace
 10
373.589392
 20
144.338048
 30
0.0
 11
372.651569
 21
147.838045
 31
0.0
 12
374.527214
 22
147.838052
 32
0.0
 13
373.589392
 23
144.338048
 33
0.0
  0
ENDBLK
  5
207
330
1FE
100
AcDbEntity
  8
0
100
AcDbBlockEnd
  0
BLOCK
  5
210
330
209
100
AcDbEntity
  8
0
100
AcDbBlockBegin
  2
DIMNDRAFT3D9
 70
     0
 10
0.0
 20
0.0
 30
0.0
  3
DIMNDRAFT3D9
  1

  0
MTEXT
  5
20A
330
209
100
AcDbEntity
  8
TOP
  6
CONTINUOUS
 62
     1
100
AcDbMText
 10
459.610801
 20
230.761632
 30
0.0
 40
3.5
 41
8.902833
 71
     7
 72
     5
  1
\W01.000;\fsimplex.shx,bigfont.shx;150\P
  7
DEFAULT
 11
6.123031769111886E-17
 21
1.0
 31
0.0
1001
ACAD
1000
MTEXTBEGIN
1070
    44
1040
0.903614
1000
MTEXTEND
  0
LINE
  5
20B
330
209
100
AcDbEntity
  8
TOP
  6
CONTINUOUS
 62
     1
100
AcDbLine
 10
481.773635
 20
309.338048
 30
0.0
 11
458.230592
 21
309.338048
 31
0.0
  0
LINE
  5
20C
330
209
100
AcDbEntity
  8
TOP
  6
CONTINUOUS
 62
     1
100
AcDbLine
 10
481.773635
 20
159.338048
 30
0.0
 11
458.230592
 21
159.338048
 31
0.0
  0
LINE
  5
20D
330
209
100
AcDbEntity
  8
TOP
  6
CONTINUOUS
 62
     1
100
AcDbLine
 10
460.230592
 20
309.338048
 30
0.0
 11
460.230592
 21
159.338048
 31
0.0
  0
SOLID
  5
20E
330
209
100
AcDbEntity
  8
TOP
  6
CONTINUOUS
 62
     1
100
AcDbTrace
 10
460.230592
 20
309.338048
 30
0.0
 11
461.168414
 21
305.838052
 31
0.0
 12
459.29277
 22
305.838045
 32
0.0
 13
460.230592
 23
309.338048
 33
0.0
  0
SOLID
  5
20F
330
209
100
AcDbEntity
  8
TOP
  6
CONTINUOUS
 62
     1
100
AcDbTrace
 10
460.230592
 20
159.338048
 30
0.0
 11
459.29277
 21
162.838045
 31
0.0
 12
461.168414
 22
162.838052
 32
0.0
 13
460.230592
 23
159.338048
 33
0.0
  0
ENDBLK
  5
211
330
209
100
AcDbEntity
  8
0
100
AcDbBlockEnd
  0
BLOCK
  5
21A
330
213
100
AcDbEntity
  8
0
100
AcDbBlockBegin
  2
DIMNDRAFT3D10
 70
     0
 10
0.0
 20
0.0
 30
0.0
  3
DIMNDRAFT3D10
  1

  0
MTEXT
  5
214
330
213
100
AcDbEntity
  8
TOP
  6
CONTINUOUS
 62
     1
100
AcDbMText
 10
236.476574
 20
211.894145
 30
0.0
 40
3.5
 41
13.864667
 71
     7
 72
     5
  1
\W01.000;\fsimplex.shx,bigfont.shx;57.5\P
  7
DEFAULT
1001
ACAD
1000
MTEXTBEGIN
1070
    44
1040
0.903614
1000
MTEXTEND
  0
LINE
  5
215
330
213
100
AcDbEntity
  8
TOP
  6
CONTINUOUS
 62
     1
100
AcDbLine
 10
213.783615
 20
235.537048
 30
0.0
 11
213.783615
 21
209.274353
 31
0.0
  0
LINE
  5
216
330
213
100
AcDbEntity
  8
TOP
  6
CONTINUOUS
 62
     1
100
AcDbLine
 10
271.2842
 20
235.538048
 30
0.0
 11
271.2842
 21
209.274353
 31
0.0
  0
LINE
  5
217
330
213
100
AcDbEntity
  8
TOP
  6
CONTINUOUS
 62
     1
100
AcDbLine
 10
213.783615
 20
211.274353
 30
0.0
 11
271.2842
 21
211.274353
 31
0.0
  0
SOLID
  5
218
330
213
100
AcDbEntity
  8
TOP
  6
CONTINUOUS
 62
     1
100
AcDbTrace
 10
213.783615
 20
211.274353
 30
0.0
 11
217.283611
 21
212.212175
 31
0.0
 12
217.283618
 22
210.336531
 32
0.0
 13
213.783615
 23
211.274353
 33
0.0
  0
SOLID
  5
219
330
213
100
AcDbEntity
  8
TOP
  6
CONTINUOUS
 62
     1
100
AcDbTrace
 10
271.2842
 20
211.274353
 30
0.0
 11
267.784204
 21
210.336531
 31
0.0
 12
267.784197
 22
212.212175
 32
0.0
 13
271.2842
 23
211.274353
 33
0.0
  0
ENDBLK
  5
21B
330
213
100
AcDbEntity
  8
0
100
AcDbBlockEnd
  0
BLOCK
  5
224
330
21D
100
AcDbEntity
  8
0
100
AcDbBlockBegin
  2
DIMNDRAFT3D11
 70
     0
 10
0.0
 20
0.0
 30
0.0
  3
DIMNDRAFT3D11
  1

  0
MTEXT
  5
21E
330
21D
100
AcDbEntity
  8
TOP
  6
CONTINUOUS
 62
     1
100
AcDbMText
 10
528.997218
 20
372.402704
 30
0.0
 40
3.5
 41
8.902833
 71
     7
 72
     5
  1
\W01.000;\fsimplex.shx,bigfont.shx;100\P
  7
DEFAULT
1001
ACAD
1000
MTEXTBEGIN
1070
    44
1040
0.903614
1000
MTEXTEND
  0
LINE
  5
21F
330
21D
100
AcDbEntity
  8
TOP
  6
CONTINUOUS
 62
     1
100
AcDbLine
 10
482.573635
 20
327.638048
 30
0.0
 11
482.573635
 21
373.782912
 31
0.0
  0
LINE
  5
220
330
21D
100
AcDbEntity
  8
TOP
  6
CONTINUOUS
 62
     1
100
AcDbLine
 10
582.573635
 20
317.638048
 30
0.0
 11
582.573635
 21
373.782912
 31
0.0
  0
LINE
  5
221
330
21D
100
AcDbEntity
  8
TOP
  6
CONTINUOUS
 62
     1
100
AcDbLine
 10
482.573635
 20
371.782912
 30
0.0
 11
582.573635
 21
371.782912
 31
0.0
  0
SOLID
  5
222
330
21D
100
AcDbEntity
  8
TOP
  6
CONTINUOUS
 62
     1
100
AcDbTrace
 10
482.573635
 20
371.782912
 30
0.0
 11
486.073631
 21
372.720734
 31
0.0
 12
486.073638
 22
370.84509
 32
0.0
 13
482.573635
 23
371.782912
 33
0.0
  0
SOLID
  5
223
330
21D
100
AcDbEntity
  8
TOP
  6
CONTINUOUS
 62
     1
100
AcDbTrace
 10
582.573635
 20
371.782912
 30
0.0
 11
579.073638
 21
370.84509
 31
0.0
 12
579.073631
 22
372.720734
 32
0.0
 13
582.573635
 23
371.782912
 33
0.0
  0
ENDBLK
  5
225
330
21D
100
AcDbEntity
  8
0
100
AcDbBlockEnd
  0
BLOCK
  5
22E
330
227
100
AcDbEntity
  8
0
100
AcDbBlockBegin
  2
DIMNDRAFT3D12
 70
     0
 10
0.0
 20
0.0
 30
0.0
  3
DIMNDRAFT3D12
  1

  0
MTEXT
  5
228
330
227
100
AcDbEntity
  8
TOP
  6
CONTINUOUS
 62
     1
100
AcDbMText
 10
569.983343
 20
351.308111
 30
0.0
 40
3.5
 41
6.930583
 71
     7
 72
     5
  1
\W01.000;\fsimplex.shx,bigfont.shx;20\P
  7
DEFAULT
1001
ACAD
1000
MTEXTBEGIN
1070
    44
1040
0.903614
1000
MTEXTEND
  0
LINE
  5
229
330
227
100
AcDbEntity
  8
TOP
  6
CONTINUOUS
 62
     1
100
AcDbLine
 10
562.573635
 20
309.638048
 30
0.0
 11
562.573635
 21
352.688319
 31
0.0
  0
LINE
  5
22A
330
227
100
AcDbEntity
  8
TOP
  6
CONTINUOUS
 62
     1
100
AcDbLine
 10
582.573635
 20
317.638048
 30
0.0
 11
582.573635
 21
352.688319
 31
0.0
  0
LINE
  5
22B
330
227
100
AcDbEntity
  8
TOP
  6
CONTINUOUS
 62
     1
100
AcDbLine
 10
562.573635
 20
350.688319
 30
0.0
 11
582.573635
 21
350.688319
 31
0.0
  0
SOLID
  5
22C
330
227
100
AcDbEntity
  8
TOP
  6
CONTINUOUS
 62
     1
100
AcDbTrace
 10
562.573635
 20
350.688319
 30
0.0
 11
566.073631
 21
351.626142
 31
0.0
 12
566.073638
 22
349.750497
 32
0.0
 13
562.573635
 23
350.688319
 33
0.0
  0
SOLID
  5
22D
330
227
100
AcDbEntity
  8
TOP
  6
CONTINUOUS
 62
     1
100
AcDbTrace
 10
582.573635
 20
350.688319
 30
0.0
 11
579.073638
 21
349.750497
 31
0.0
 12
579.073631
 22
351.626142
 32
0.0
 13
582.573635
 23
350.688319
 33
0.0
  0
ENDBLK
  5
22F
330
227
100
AcDbEntity
  8
0
100
AcDbBlockEnd
  0
BLOCK
  5
238
330
231
100
AcDbEntity
  8
0
100
AcDbBlockBegin
  2
DIMNDRAFT3D13
 70
     0
 10
0.0
 20
0.0
 30
0.0
  3
DIMNDRAFT3D13
  1

  0
MTEXT
  5
232
330
231
100
AcDbEntity
  8
TOP
  6
CONTINUOUS
 62
     1
100
AcDbMText
 10
529.983343
 20
350.917471
 30
0.0
 40
3.5
 41
6.930583
 71
     7
 72
     5
  1
\W01.000;\fsimplex.shx,bigfont.shx;60\P
  7
DEFAULT
1001
ACAD
1000
MTEXTBEGIN
1070
    44
1040
0.903614
1000
MTEXTEND
  0
LINE
  5
233
330
231
100
AcDbEntity
  8
TOP
  6
CONTINUOUS
 62
     1
100
AcDbLine
 10
502.573635
 20
309.638048
 30
0.0
 11
502.573635
 21
352.297679
 31
0.0
  0
LINE
  5
234
330
231
100
AcDbEntity
  8
TOP
  6
CONTINUOUS
 62
     1
100
AcDbLine
 10
562.573635
 20
309.638048
 30
0.0
 11
562.573635
 21
352.297679
 31
0.0
  0
LINE
  5
235
330
231
100
AcDbEntity
  8
TOP
  6
CONTINUOUS
 62
     1
100
AcDbLine
 10
502.573635
 20
350.297679
 30
0.0
 11
562.573635
 21
350.297679
 31
0.0
  0
SOLID
  5
236
330
231
100
AcDbEntity
  8
TOP
  6
CONTINUOUS
 62
     1
100
AcDbTrace
 10
502.573635
 20
350.297679
 30
0.0
 11
506.073631
 21
351.235501
 31
0.0
 12
506.073638
 22
349.359857
 32
0.0
 13
502.573635
 23
350.297679
 33
0.0
  0
SOLID
  5
237
330
231
100
AcDbEntity
  8
TOP
  6
CONTINUOUS
 62
     1
100
AcDbTrace
 10
562.573635
 20
350.297679
 30
0.0
 11
559.073638
 21
349.359857
 31
0.0
 12
559.073631
 22
351.235501
 32
0.0
 13
562.573635
 23
350.297679
 33
0.0
  0
ENDBLK
  5
239
330
231
100
AcDbEntity
  8
0
100
AcDbBlockEnd
  0
BLOCK
  5
242
330
23B
100
AcDbEntity
  8
0
100
AcDbBlockBegin
  2
DIMNDRAFT3D14
 70
     0
 10
0.0
 20
0.0
 30
0.0
  3
DIMNDRAFT3D14
  1

  0
MTEXT
  5
23C
330
23B
100
AcDbEntity
  8
TOP
  6
CONTINUOUS
 62
     1
100
AcDbMText
 10
162.207862
 20
424.434862
 30
0.0
 40
3.5
 41
8.902833
 71
     7
 72
     5
  1
\W01.000;\fsimplex.shx,bigfont.shx;100\P
  7
DEFAULT
 11
6.123031769111886E-17
 21
1.0
 31
0.0
1001
ACAD
1000
MTEXTBEGIN
1070
    44
1040
0.903614
1000
MTEXTEND
  0
LINE
  5
23D
330
23B
100
AcDbEntity
  8
TOP
  6
CONTINUOUS
 62
     1
100
AcDbLine
 10
213.4842
 20
478.010864
 30
0.0
 11
160.827654
 21
478.010864
 31
0.0
  0
LINE
  5
23E
330
23B
100
AcDbEntity
  8
TOP
  6
CONTINUOUS
 62
     1
100
AcDbLine
 10
216.4862
 20
378.011693
 30
0.0
 11
160.827654
 21
378.011693
 31
0.0
  0
LINE
  5
23F
330
23B
100
AcDbEntity
  8
TOP
  6
CONTINUOUS
 62
     1
100
AcDbLine
 10
162.827654
 20
478.010864
 30
0.0
 11
162.827654
 21
378.011693
 31
0.0
  0
SOLID
  5
240
330
23B
100
AcDbEntity
  8
TOP
  6
CONTINUOUS
 62
     1
100
AcDbTrace
 10
162.827654
 20
378.011693
 30
0.0
 11
161.889832
 21
381.511689
 31
0.0
 12
163.765476
 22
381.511696
 32
0.0
 13
162.827654
 23
378.011693
 33
0.0
  0
SOLID
  5
241
330
23B
100
AcDbEntity
  8
TOP
  6
CONTINUOUS
 62
     1
100
AcDbTrace
 10
162.827654
 20
478.010864
 30
0.0
 11
163.765476
 21
474.510868
 31
0.0
 12
161.889832
 22
474.510861
 32
0.0
 13
162.827654
 23
478.010864
 33
0.0
  0
ENDBLK
  5
243
330
23B
100
AcDbEntity
  8
0
100
AcDbBlockEnd
  0
BLOCK
  5
24C
330
245
100
AcDbEntity
  8
0
100
AcDbBlockBegin
  2
DIMNDRAFT3D15
 70
     0
 10
0.0
 20
0.0
 30
0.0
  3
DIMNDRAFT3D15
  1

  0
MTEXT
  5
246
330
245
100
AcDbEntity
  8
TOP
  6
CONTINUOUS
 62
     1
100
AcDbMText
 10
353.764975
 20
384.154922
 30
0.0
 40
3.5
 41
3.463542
 71
     7
 72
     5
  1
\W01.000;\fsimplex.shx,bigfont.shx;8\P
  7
DEFAULT
 11
6.123031769111886E-17
 21
1.0
 31
0.0
1001
ACAD
1000
MTEXTBEGIN
1070
    44
1040
0.903614
1000
MTEXTEND
  0
LINE
  5
247
330
245
100
AcDbEntity
  8
TOP
  6
CONTINUOUS
 62
     1
100
AcDbLine
 10
311.5852
 20
389.011693
 30
0.0
 11
356.384767
 21
389.011693
 31
0.0
  0
LINE
  5
248
330
245
100
AcDbEntity
  8
TOP
  6
CONTINUOUS
 62
     1
100
AcDbLine
 10
326.0822
 20
381.011693
 30
0.0
 11
356.384767
 21
381.011693
 31
0.0
  0
LINE
  5
249
330
245
100
AcDbEntity
  8
TOP
  6
CONTINUOUS
 62
     1
100
AcDbLine
 10
354.384767
 20
389.011693
 30
0.0
 11
354.384767
 21
381.011693
 31
0.0
  0
SOLID
  5
24A
330
245
100
AcDbEntity
  8
TOP
  6
CONTINUOUS
 62
     1
100
AcDbTrace
 10
354.384767
 20
381.011693
 30
0.0
 11
353.446945
 21
384.511689
 31
0.0
 12
355.322589
 22
384.511696
 32
0.0
 13
354.384767
 23
381.011693
 33
0.0
  0
SOLID
  5
24B
330
245
100
AcDbEntity
  8
TOP
  6
CONTINUOUS
 62
     1
100
AcDbTrace
 10
354.384767
 20
389.011693
 30
0.0
 11
355.322589
 21
385.511696
 31
0.0
 12
353.446945
 22
385.511689
 32
0.0
 13
354.384767
 23
389.011693
 33
0.0
  0
ENDBLK
  5
24D
330
245
100
AcDbEntity
  8
0
100
AcDbBlockEnd
  0
ENDSEC
  0
SECTION
  2
ENTITIES
  0
LINE
  5
41
330
1F
100
AcDbEntity
  8
1
  6
CONTINUOUS
 62
   251
100
AcDbLine
 10
136.723936
 20
137.988048
 30
0.0
 11
136.723936
 21
333.688048
 31
0.0
  0
LINE
  5
43
330
1F
100
AcDbEntity
  8
1
  6
CONTINUOUS
 62
   251
100
AcDbLine
 10
405.844464
 20
333.688048
 30
0.0
 11
136.723936
 21
333.688048
 31
0.0
  0
LINE
  5
44
330
1F
100
AcDbEntity
  8
1
  6
CONTINUOUS
 62
   251
100
AcDbLine
 10
405.844464
 20
333.688048
 30
0.0
 11
405.844464
 21
137.988048
 31
0.0
  0
LINE
  5
45
330
1F
100
AcDbEntity
  8
1
  6
CONTINUOUS
 62
   251
100
AcDbLine
 10
136.723936
 20
137.988048
 30
0.0
 11
405.844464
 21
137.988048
 31
0.0
  0
LINE
  5
46
330
1F
100
AcDbEntity
  8
1
  6
CONTINUOUS
 62
   251
100
AcDbLine
 10
136.723936
 20
371.661693
 30
0.0
 11
136.723936
 21
557.193277
 31
0.0
  0
LINE
  5
47
330
1F
100
AcDbEntity
  8
1
  6
CONTINUOUS
 62
   251
100
AcDbLine
 10
405.844464
 20
557.193277
 30
0.0
 11
136.723936
 21
557.193277
 31
0.0
  0
LINE
  5
48
330
1F
100
AcDbEntity
  8
1
  6
CONTINUOUS
 62
   251
100
AcDbLine
 10
405.844464
 20
557.193277
 30
0.0
 11
405.844464
 21
371.661693
 31
0.0
  0
LINE
  5
49
330
1F
100
AcDbEntity
  8
1
  6
CONTINUOUS
 62
   251
100
AcDbLine
 10
136.723936
 20
371.661693
 30
0.0
 11
405.844464
 21
371.661693
 31
0.0
  0
LINE
  5
4A
330
1F
100
AcDbEntity
  8
1
  6
CONTINUOUS
 62
   251
100
AcDbLine
 10
524.529589
 20
394.069237
 30
0.0
 11
524.529589
 21
548.625784
 31
0.0
  0
LINE
  5
4B
330
1F
100
AcDbEntity
  8
1
  6
CONTINUOUS
 62
   251
100
AcDbLine
 10
660.208706
 20
548.625784
 30
0.0
 11
524.529589
 21
548.625784
 31
0.0
  0
LINE
  5
4C
330
1F
100
AcDbEntity
  8
1
  6
CONTINUOUS
 62
   251
100
AcDbLine
 10
660.208706
 20
548.625784
 30
0.0
 11
660.208706
 21
394.069237
 31
0.0
  0
LINE
  5
4D
330
1F
100
AcDbEntity
  8
1
  6
CONTINUOUS
 62
   251
100
AcDbLine
 10
524.529589
 20
394.069237
 30
0.0
 11
660.208706
 21
394.069237
 31
0.0
  0
LINE
  5
4E
330
1F
100
AcDbEntity
  8
1
  6
CONTINUOUS
 62
   251
100
AcDbLine
 10
482.573635
 20
144.338048
 30
0.0
 11
489.25907
 21
134.681225
 31
0.0
  0
LINE
  5
4F
330
1F
100
AcDbEntity
  8
1
  6
CONTINUOUS
 62
   251
100
AcDbLine
 10
489.25907
 20
134.681225
 30
0.0
 11
590.801988
 21
134.681225
 31
0.0
  0
LINE
  5
50
330
1F
100
AcDbEntity
  8
1
  6
CONTINUOUS
 62
   251
100
AcDbLine
 10
590.801988
 20
134.681225
 30
0.0
 11
590.801988
 21
340.08363
 31
0.0
  0
LINE
  5
51
330
1F
100
AcDbEntity
  8
1
  6
CONTINUOUS
 62
   251
100
AcDbLine
 10
590.801988
 20
340.08363
 30
0.0
 11
476.131849
 21
340.08363
 31
0.0
  0
LINE
  5
52
330
1F
100
AcDbEntity
  8
1
  6
CONTINUOUS
 62
   251
100
AcDbLine
 10
476.131849
 20
340.08363
 30
0.0
 11
482.573635
 21
144.338048
 31
0.0
  0
LINE
  5
53
330
1F
100
AcDbEntity
  8
1
  6
CONTINUOUS
 62
   251
 60
     1
100
AcDbLine
 10
0.0
 20
0.0
 30
0.0
 11
0.0
 21
594.0
 31
0.0
  0
LINE
  5
54
330
1F
100
AcDbEntity
  8
1
  6
CONTINUOUS
 62
   251
 60
     1
100
AcDbLine
 10
841.0
 20
594.0
 30
0.0
 11
0.0
 21
594.0
 31
0.0
  0
LINE
  5
55
330
1F
100
AcDbEntity
  8
1
  6
CONTINUOUS
 62
   251
 60
     1
100
AcDbLine
 10
841.0
 20
594.0
 30
0.0
 11
841.0
 21
0.0
 31
0.0
  0
LINE
  5
56
330
1F
100
AcDbEntity
  8
1
  6
CONTINUOUS
 62
   251
 60
     1
100
AcDbLine
 10
0.0
 20
0.0
 30
0.0
 11
841.0
 21
0.0
 31
0.0
  0
LINE
  5
57
330
1F
100
AcDbEntity
  8
1
  6
CONTINUOUS
 62
   252
100
AcDbLine
 10
328.7842
 20
144.338048
 30
0.0
 11
328.784786
 21
144.338048
 31
0.0
  0
LINE
  5
58
330
1F
100
AcDbEntity
  8
1
  6
CONTINUOUS
 62
   252
100
AcDbLine
 10
216.7862
 20
327.338048
 30
0.0
 11
325.7822
 21
327.338048
 31
0.0
  0
LINE
  5
59
330
1F
100
AcDbEntity
  8
1
  6
CONTINUOUS
 62
   252
100
AcDbLine
 10
328.7842
 20
327.338048
 30
0.0
 11
328.784786
 21
327.338048
 31
0.0
  0
LINE
  5
5A
330
1F
100
AcDbEntity
  8
1
  6
CONTINUOUS
 62
   252
100
AcDbLine
 10
216.7862
 20
327.338048
 30
0.0
 11
216.7862
 21
144.338048
 31
0.0
  0
LINE
  5
5B
330
1F
100
AcDbEntity
  8
1
  6
CONTINUOUS
 62
   252
100
AcDbLine
 10
325.7822
 20
144.338048
 30
0.0
 11
325.7822
 21
327.338048
 31
0.0
  0
LINE
  5
5C
330
1F
100
AcDbEntity
  8
1
  6
CONTINUOUS
 62
   252
100
AcDbLine
 10
328.784786
 20
144.338048
 30
0.0
 11
328.784786
 21
327.338048
 31
0.0
  0
LINE
  5
5D
330
1F
100
AcDbEntity
  8
1
  6
CONTINUOUS
 62
   252
100
AcDbLine
 10
213.783615
 20
327.338048
 30
0.0
 11
213.783615
 21
144.338048
 31
0.0
  0
LINE
  5
5E
330
1F
100
AcDbEntity
  8
1
  6
CONTINUOUS
 62
   252
100
AcDbLine
 10
213.7842
 20
144.338048
 30
0.0
 11
213.7842
 21
327.338048
 31
0.0
  0
LINE
  5
5F
330
1F
100
AcDbEntity
  8
1
  6
CONTINUOUS
 62
   252
100
AcDbLine
 10
328.7842
 20
327.338048
 30
0.0
 11
328.7842
 21
144.338048
 31
0.0
  0
LINE
  5
60
330
1F
100
AcDbEntity
  8
1
  6
CONTINUOUS
 62
   252
100
AcDbLine
 10
143.073936
 20
154.338048
 30
0.0
 11
143.073936
 21
317.338048
 31
0.0
  0
LINE
  5
61
330
1F
100
AcDbEntity
  8
1
  6
CONTINUOUS
 62
   252
100
AcDbLine
 10
399.494464
 20
317.338048
 30
0.0
 11
399.494464
 21
154.338048
 31
0.0
  0
LINE
  5
62
330
1F
100
AcDbEntity
  8
1
  6
CONTINUOUS
 62
   252
100
AcDbLine
 10
213.7842
 20
144.338048
 30
0.0
 11
213.783615
 21
144.338048
 31
0.0
  0
LINE
  5
63
330
1F
100
AcDbEntity
  8
1
  6
CONTINUOUS
 62
   252
100
AcDbLine
 10
328.7842
 20
144.338048
 30
0.0
 11
325.7822
 21
144.338048
 31
0.0
  0
LINE
  5
64
330
1F
100
AcDbEntity
  8
1
  6
CONTINUOUS
 62
   252
100
AcDbLine
 10
216.7862
 20
144.338048
 30
0.0
 11
213.7842
 21
144.338048
 31
0.0
  0
LINE
  5
65
330
1F
100
AcDbEntity
  8
1
  6
CONTINUOUS
 62
   252
100
AcDbLine
 10
213.783615
 20
144.338048
 30
0.0
 11
150.145004
 21
144.338048
 31
0.0
  0
LINE
  5
66
330
1F
100
AcDbEntity
  8
1
  6
CONTINUOUS
 62
   252
100
AcDbLine
 10
325.7822
 20
144.338048
 30
0.0
 11
216.7862
 21
144.338048
 31
0.0
  0
LINE
  5
67
330
1F
100
AcDbEntity
  8
1
  6
CONTINUOUS
 62
   252
100
AcDbLine
 10
392.423396
 20
144.338048
 30
0.0
 11
328.784786
 21
144.338048
 31
0.0
  0
LINE
  5
68
330
1F
100
AcDbEntity
  8
1
  6
CONTINUOUS
 62
   252
100
AcDbLine
 10
213.7842
 20
327.338048
 30
0.0
 11
216.7862
 21
327.338048
 31
0.0
  0
LINE
  5
69
330
1F
100
AcDbEntity
  8
1
  6
CONTINUOUS
 62
   252
100
AcDbLine
 10
213.7842
 20
327.338048
 30
0.0
 11
213.783615
 21
327.338048
 31
0.0
  0
LINE
  5
6A
330
1F
100
AcDbEntity
  8
1
  6
CONTINUOUS
 62
   252
100
AcDbLine
 10
150.145004
 20
327.338048
 30
0.0
 11
213.783615
 21
327.338048
 31
0.0
  0
LINE
  5
6B
330
1F
100
AcDbEntity
  8
1
  6
CONTINUOUS
 62
   252
100
AcDbLine
 10
325.7822
 20
327.338048
 30
0.0
 11
328.7842
 21
327.338048
 31
0.0
  0
LINE
  5
6C
330
1F
100
AcDbEntity
  8
1
  6
CONTINUOUS
 62
   252
100
AcDbLine
 10
328.784786
 20
327.338048
 30
0.0
 11
392.423396
 21
327.338048
 31
0.0
  0
LINE
  5
6D
330
1F
100
AcDbEntity
  8
1
  6
CONTINUOUS
 62
   252
100
AcDbLine
 10
224.2842
 20
389.011693
 30
0.0
 11
224.2842
 21
381.011693
 31
0.0
  0
LINE
  5
6E
330
1F
100
AcDbEntity
  8
1
  6
CONTINUOUS
 62
   252
100
AcDbLine
 10
238.2842
 20
381.011693
 30
0.0
 11
238.2842
 21
389.011693
 31
0.0
  0
LINE
  5
6F
330
1F
100
AcDbEntity
  8
1
  6
CONTINUOUS
 62
   252
100
AcDbLine
 10
304.2842
 20
389.011693
 30
0.0
 11
304.2842
 21
381.011693
 31
0.0
  0
LINE
  5
70
330
1F
100
AcDbEntity
  8
1
  6
CONTINUOUS
 62
   252
100
AcDbLine
 10
318.2842
 20
381.011693
 30
0.0
 11
318.2842
 21
389.011693
 31
0.0
  0
LINE
  5
71
330
1F
100
AcDbEntity
  8
1
  6
CONTINUOUS
 62
   252
100
AcDbLine
 10
216.7862
 20
378.011693
 30
0.0
 11
325.7822
 21
378.011693
 31
0.0
  0
LINE
  5
72
330
1F
100
AcDbEntity
  8
1
  6
CONTINUOUS
 62
   252
100
AcDbLine
 10
326.663466
 20
480.133599
 30
0.0
 11
390.302076
 21
543.772209
 31
0.0
  0
LINE
  5
73
330
1F
100
AcDbEntity
  8
1
  6
CONTINUOUS
 62
   252
100
AcDbLine
 10
152.266325
 20
543.772209
 30
0.0
 11
215.904935
 21
480.133599
 31
0.0
  0
LINE
  5
74
330
1F
100
AcDbEntity
  8
1
  6
CONTINUOUS
 62
   252
100
AcDbLine
 10
216.7862
 20
381.011693
 30
0.0
 11
325.7822
 21
381.011693
 31
0.0
  0
LINE
  5
75
330
1F
100
AcDbEntity
  8
1
  6
CONTINUOUS
 62
   252
100
AcDbLine
 10
328.7842
 20
478.010864
 30
0.0
 11
328.7842
 21
381.013693
 31
0.0
  0
LINE
  5
76
330
1F
100
AcDbEntity
  8
1
  6
CONTINUOUS
 62
   252
100
AcDbLine
 10
213.7842
 20
381.013693
 30
0.0
 11
213.7842
 21
478.010864
 31
0.0
  0
LINE
  5
77
330
1F
100
AcDbEntity
  8
1
  6
CONTINUOUS
 62
   252
100
AcDbLine
 10
216.7842
 20
381.013693
 30
0.0
 11
216.7842
 21
478.010864
 31
0.0
  0
LINE
  5
78
330
1F
100
AcDbEntity
  8
1
  6
CONTINUOUS
 62
   252
100
AcDbLine
 10
325.7842
 20
478.010864
 30
0.0
 11
325.7842
 21
381.013693
 31
0.0
  0
LINE
  5
79
330
1F
100
AcDbEntity
  8
1
  6
CONTINUOUS
 62
   252
100
AcDbLine
 10
224.2842
 20
389.011693
 30
0.0
 11
238.2842
 21
389.011693
 31
0.0
  0
LINE
  5
7A
330
1F
100
AcDbEntity
  8
1
  6
CONTINUOUS
 62
   252
100
AcDbLine
 10
304.2842
 20
389.011693
 30
0.0
 11
318.2842
 21
389.011693
 31
0.0
  0
LINE
  5
7B
330
1F
100
AcDbEntity
  8
1
  6
CONTINUOUS
 62
   252
100
AcDbLine
 10
397.373144
 20
550.843277
 30
0.0
 11
399.494464
 21
548.721957
 31
0.0
  0
LINE
  5
7C
330
1F
100
AcDbEntity
  8
1
  6
CONTINUOUS
 62
   252
100
AcDbLine
 10
397.373144
 20
550.843277
 30
0.0
 11
390.302076
 21
543.772209
 31
0.0
  0
LINE
  5
7D
330
1F
100
AcDbEntity
  8
1
  6
CONTINUOUS
 62
   252
100
AcDbLine
 10
392.423396
 20
541.650889
 30
0.0
 11
390.302076
 21
543.772209
 31
0.0
  0
LINE
  5
7E
330
1F
100
AcDbEntity
  8
1
  6
CONTINUOUS
 62
   252
100
AcDbLine
 10
143.073936
 20
548.721957
 30
0.0
 11
145.195257
 21
550.843277
 31
0.0
  0
LINE
  5
7F
330
1F
100
AcDbEntity
  8
1
  6
CONTINUOUS
 62
   252
100
AcDbLine
 10
145.195257
 20
550.843277
 30
0.0
 11
152.266325
 21
543.772209
 31
0.0
  0
LINE
  5
80
330
1F
100
AcDbEntity
  8
1
  6
CONTINUOUS
 62
   252
100
AcDbLine
 10
152.266325
 20
543.772209
 30
0.0
 11
150.145004
 21
541.650889
 31
0.0
  0
LINE
  5
81
330
1F
100
AcDbEntity
  8
1
  6
CONTINUOUS
 62
   252
100
AcDbLine
 10
150.145004
 20
541.650889
 30
0.0
 11
213.783615
 21
478.012279
 31
0.0
  0
LINE
  5
82
330
1F
100
AcDbEntity
  8
1
  6
CONTINUOUS
 62
   252
100
AcDbLine
 10
150.145004
 20
541.650889
 30
0.0
 11
143.073936
 21
548.721957
 31
0.0
  0
LINE
  5
83
330
1F
100
AcDbEntity
  8
1
  6
CONTINUOUS
 62
   252
100
AcDbLine
 10
399.494464
 20
548.721957
 30
0.0
 11
392.423396
 21
541.650889
 31
0.0
  0
LINE
  5
84
330
1F
100
AcDbEntity
  8
1
  6
CONTINUOUS
 62
   252
100
AcDbLine
 10
328.784786
 20
478.012279
 30
0.0
 11
392.423396
 21
541.650889
 31
0.0
  0
LINE
  5
85
330
1F
100
AcDbEntity
  8
1
  6
CONTINUOUS
 62
   252
100
AcDbLine
 10
530.879589
 20
492.582412
 30
0.0
 11
530.879589
 21
417.129579
 31
0.0
  0
LINE
  5
86
330
1F
100
AcDbEntity
  8
1
  6
CONTINUOUS
 62
   252
100
AcDbLine
 10
653.581289
 20
503.881713
 30
0.0
 11
653.217485
 21
504.704906
 31
0.0
  0
LINE
  5
87
330
1F
100
AcDbEntity
  8
1
  6
CONTINUOUS
 62
   252
100
AcDbLine
 10
557.545951
 20
441.091995
 30
0.0
 11
557.545951
 21
454.266767
 31
0.0
  0
LINE
  5
88
330
1F
100
AcDbEntity
  8
1
  6
CONTINUOUS
 62
   252
100
AcDbLine
 10
557.545951
 20
484.039983
 30
0.0
 11
557.545951
 21
516.544828
 31
0.0
  0
LINE
  5
89
330
1F
100
AcDbEntity
  8
1
  6
CONTINUOUS
 62
   252
100
AcDbLine
 10
545.887063
 20
542.273804
 30
0.0
 11
544.431849
 21
542.068005
 31
0.0
  0
LINE
  5
8A
330
1F
100
AcDbEntity
  8
1
  6
CONTINUOUS
 62
   252
100
AcDbLine
 10
578.33998
 20
400.540239
 30
0.0
 11
531.608331
 21
416.401487
 31
0.0
  0
LINE
  5
8B
330
1F
100
AcDbEntity
  8
1
  6
CONTINUOUS
 62
   252
100
AcDbLine
 10
578.33998
 20
400.540239
 30
0.0
 11
578.33998
 21
475.993072
 31
0.0
  0
LINE
  5
8C
330
1F
100
AcDbEntity
  8
1
  6
CONTINUOUS
 62
   252
100
AcDbLine
 10
531.608331
 20
491.85432
 30
0.0
 11
531.608331
 21
416.401487
 31
0.0
  0
LINE
  5
8D
330
1F
100
AcDbEntity
  8
1
  6
CONTINUOUS
 62
   252
100
AcDbLine
 10
605.352267
 20
424.357004
 30
0.0
 11
605.352267
 21
499.809836
 31
0.0
  0
LINE
  5
8E
330
1F
100
AcDbEntity
  8
1
  6
CONTINUOUS
 62
   252
100
AcDbLine
 10
532.380074
 20
492.581927
 30
0.0
 11
579.111724
 21
476.720679
 31
0.0
  0
LINE
  5
8F
330
1F
100
AcDbEntity
  8
1
  6
CONTINUOUS
 62
   252
100
AcDbLine
 10
531.093492
 20
493.019267
 30
0.0
 11
556.045808
 21
516.544537
 31
0.0
  0
LINE
  5
90
330
1F
100
AcDbEntity
  8
1
  6
CONTINUOUS
 62
   252
100
AcDbLine
 10
605.351652
 20
499.809579
 30
0.0
 11
580.399335
 21
476.284309
 31
0.0
  0
LINE
  5
91
330
1F
100
AcDbEntity
  8
1
  6
CONTINUOUS
 62
   252
100
AcDbLine
 10
580.399335
 20
400.831476
 30
0.0
 11
605.351652
 21
424.356746
 31
0.0
  0
LINE
  5
92
330
1F
100
AcDbEntity
  8
1
  6
CONTINUOUS
 62
   252
100
AcDbLine
 10
604.065412
 20
500.246143
 30
0.0
 11
579.113096
 21
476.720873
 31
0.0
  0
LINE
  5
93
330
1F
100
AcDbEntity
  8
1
  6
CONTINUOUS
 62
   252
100
AcDbLine
 10
532.379731
 20
492.582703
 30
0.0
 11
557.332048
 21
516.107973
 31
0.0
  0
LINE
  5
94
330
1F
100
AcDbEntity
  8
1
  6
CONTINUOUS
 62
   252
100
AcDbLine
 10
557.332048
 20
440.65514
 30
0.0
 11
554.616534
 21
438.094929
 31
0.0
  0
LINE
  5
95
330
1F
100
AcDbEntity
  8
1
  6
CONTINUOUS
 62
   252
100
AcDbLine
 10
557.332048
 20
516.107973
 30
0.0
 11
557.332048
 21
484.112435
 31
0.0
  0
LINE
  5
96
330
1F
100
AcDbEntity
  8
1
  6
CONTINUOUS
 62
   252
100
AcDbLine
 10
557.332048
 20
454.39345
 30
0.0
 11
557.332048
 21
440.65514
 31
0.0
  0
LINE
  5
97
330
1F
100
AcDbEntity
  8
1
  6
CONTINUOUS
 62
   252
100
AcDbLine
 10
605.351652
 20
424.356746
 30
0.0
 11
605.351652
 21
499.809579
 31
0.0
  0
LINE
  5
98
330
1F
100
AcDbEntity
  8
1
  6
CONTINUOUS
 62
   252
100
AcDbLine
 10
546.587203
 20
541.446172
 30
0.0
 11
557.501135
 21
516.750763
 31
0.0
  0
LINE
  5
99
330
1F
100
AcDbEntity
  8
1
  6
CONTINUOUS
 62
   252
100
AcDbLine
 10
604.988463
 20
500.63303
 30
0.0
 11
648.64419
 21
506.806882
 31
0.0
  0
LINE
  5
9A
330
1F
100
AcDbEntity
  8
1
  6
CONTINUOUS
 62
   252
100
AcDbLine
 10
546.587203
 20
541.446172
 30
0.0
 11
545.13199
 21
541.240373
 31
0.0
  0
LINE
  5
9B
330
1F
100
AcDbEntity
  8
1
  6
CONTINUOUS
 62
   252
100
AcDbLine
 10
649.007993
 20
505.983689
 30
0.0
 11
648.64419
 21
506.806882
 31
0.0
  0
LINE
  5
9C
330
1F
100
AcDbEntity
  8
1
  6
CONTINUOUS
 62
   252
100
AcDbLine
 10
580.399335
 20
476.284309
 30
0.0
 11
580.399335
 21
400.831476
 31
0.0
  0
LINE
  5
9D
330
1F
100
AcDbEntity
  8
1
  6
CONTINUOUS
 62
   252
100
AcDbLine
 10
653.858706
 20
502.546577
 30
0.0
 11
653.858706
 21
435.339956
 31
0.0
  0
LINE
  5
9E
330
1F
100
AcDbEntity
  8
1
  6
CONTINUOUS
 62
   252
100
AcDbLine
 10
543.919311
 20
505.112271
 30
0.0
 11
543.919311
 21
539.861245
 31
0.0
  0
LINE
  5
9F
330
1F
100
AcDbEntity
  8
1
  6
CONTINUOUS
 62
   252
100
AcDbLine
 10
605.352267
 20
499.809836
 30
0.0
 11
649.007993
 21
505.983689
 31
0.0
  0
LINE
  5
A0
330
1F
100
AcDbEntity
  8
1
  6
CONTINUOUS
 62
   252
100
AcDbLine
 10
531.608331
 20
491.85432
 30
0.0
 11
578.33998
 21
475.993072
 31
0.0
  0
LINE
  5
A1
330
1F
100
AcDbEntity
  8
1
  6
CONTINUOUS
 62
   252
100
AcDbLine
 10
545.13199
 20
541.240373
 30
0.0
 11
556.045921
 21
516.544965
 31
0.0
  0
LINE
  5
A2
330
1F
100
AcDbEntity
  8
1
  6
CONTINUOUS
 62
   252
100
AcDbLine
 10
649.007993
 20
430.530856
 30
0.0
 11
605.352267
 21
424.357004
 31
0.0
  0
LINE
  5
A3
330
1F
100
AcDbEntity
  8
1
  6
CONTINUOUS
 62
   252
100
AcDbLine
 10
482.573635
 20
144.338048
 30
0.0
 11
482.575049
 21
144.338048
 31
0.0
  0
LINE
  5
A4
330
1F
100
AcDbEntity
  8
1
  6
CONTINUOUS
 62
   252
100
AcDbLine
 10
482.573049
 20
327.338048
 30
0.0
 11
482.575049
 21
327.338048
 31
0.0
  0
LINE
  5
A5
330
1F
100
AcDbEntity
  8
1
  6
CONTINUOUS
 62
   252
100
AcDbLine
 10
482.575049
 20
144.338048
 30
0.0
 11
482.575049
 21
327.338048
 31
0.0
  0
LINE
  5
A6
330
1F
100
AcDbEntity
  8
1
  6
CONTINUOUS
 62
   252
100
AcDbLine
 10
482.573635
 20
327.338048
 30
0.0
 11
476.551293
 21
327.338048
 31
0.0
  0
LINE
  5
A7
330
1F
100
AcDbEntity
  8
1
  6
CONTINUOUS
 62
   252
100
AcDbLine
 10
482.573635
 20
144.338048
 30
0.0
 11
482.573635
 21
327.338048
 31
0.0
  0
LINE
  5
A8
330
1F
100
AcDbEntity
  8
1
  6
CONTINUOUS
 62
   252
100
AcDbLine
 10
582.573635
 20
317.338048
 30
0.0
 11
582.573635
 21
154.338048
 31
0.0
  0
LINE
  5
A9
330
1F
100
AcDbEntity
  8
1
  6
CONTINUOUS
 62
   252
100
AcDbLine
 10
572.573635
 20
144.338048
 30
0.0
 11
482.575049
 21
144.338048
 31
0.0
  0
LINE
  5
AA
330
1F
100
AcDbEntity
  8
1
  6
CONTINUOUS
 62
   252
100
AcDbLine
 10
482.575049
 20
327.338048
 30
0.0
 11
572.573635
 21
327.338048
 31
0.0
  0
LINE
  5
AB
102
{ACAD_REACTORS
330
250
102
}
330
1F
100
AcDbEntity
  8
201
  6
CONTINUOUS
 62
    80
100
AcDbLine
 10
18.0
 20
51.0
 30
0.0
 11
18.0
 21
10.0
 31
0.0
  0
LINE
  5
AD
102
{ACAD_REACTORS
330
250
102
}
330
1F
100
AcDbEntity
  8
201
  6
CONTINUOUS
 62
    80
100
AcDbLine
 10
326.66675
 20
586.0
 30
0.0
 11
326.66675
 21
584.0
 31
0.0
  0
LINE
  5
AE
102
{ACAD_REACTORS
330
250
102
}
330
1F
100
AcDbEntity
  8
201
  6
CONTINUOUS
 62
    80
100
AcDbLine
 10
263.33325
 20
586.0
 30
0.0
 11
263.33325
 21
584.0
 31
0.0
  0
LINE
  5
AF
102
{ACAD_REACTORS
330
250
102
}
330
1F
100
AcDbEntity
  8
201
  6
CONTINUOUS
 62
    80
100
AcDbLine
 10
73.333252
 20
586.0
 30
0.0
 11
73.333252
 21
584.0
 31
0.0
  0
LINE
  5
B0
102
{ACAD_REACTORS
330
250
102
}
330
1F
100
AcDbEntity
  8
201
  6
CONTINUOUS
 62
    80
100
AcDbLine
 10
6.0
 20
79.25
 30
0.0
 11
10.0
 21
79.25
 31
0.0
  0
LINE
  5
B1
102
{ACAD_REACTORS
330
250
102
}
330
1F
100
AcDbEntity
  8
201
  6
CONTINUOUS
 62
    80
100
AcDbLine
 10
8.0
 20
148.5
 30
0.0
 11
10.0
 21
148.5
 31
0.0
  0
LINE
  5
B2
102
{ACAD_REACTORS
330
250
102
}
330
1F
100
AcDbEntity
  8
201
  6
CONTINUOUS
 62
    80
100
AcDbLine
 10
8.0
 20
217.75
 30
0.0
 11
10.0
 21
217.75
 31
0.0
  0
LINE
  5
B3
102
{ACAD_REACTORS
330
250
102
}
330
1F
100
AcDbEntity
  8
201
  6
CONTINUOUS
 62
    80
100
AcDbLine
 10
8.0
 20
356.25
 30
0.0
 11
10.0
 21
356.25
 31
0.0
  0
LINE
  5
B4
102
{ACAD_REACTORS
330
250
102
}
330
1F
100
AcDbEntity
  8
201
  6
CONTINUOUS
 62
    80
100
AcDbLine
 10
8.0
 20
425.5
 30
0.0
 11
10.0
 21
425.5
 31
0.0
  0
LINE
  5
B5
102
{ACAD_REACTORS
330
250
102
}
330
1F
100
AcDbEntity
  8
201
  6
CONTINUOUS
 62
    80
100
AcDbLine
 10
6.0
 20
564.0
 30
0.0
 11
10.0
 21
564.0
 31
0.0
  0
LINE
  5
B6
102
{ACAD_REACTORS
330
250
102
}
330
1F
100
AcDbEntity
  8
201
  6
CONTINUOUS
 62
    80
100
AcDbLine
 10
706.66675
 20
10.0
 30
0.0
 11
706.66675
 21
8.0
 31
0.0
  0
LINE
  5
B7
102
{ACAD_REACTORS
330
250
102
}
330
1F
100
AcDbEntity
  8
201
  6
CONTINUOUS
 62
    80
100
AcDbLine
 10
643.33333
 20
10.0
 30
0.0
 11
643.33333
 21
8.0
 31
0.0
  0
LINE
  5
B8
102
{ACAD_REACTORS
330
250
102
}
330
1F
100
AcDbEntity
  8
201
  6
CONTINUOUS
 62
    80
100
AcDbLine
 10
516.66675
 20
10.0
 30
0.0
 11
516.66675
 21
8.0
 31
0.0
  0
LINE
  5
B9
102
{ACAD_REACTORS
330
250
102
}
330
1F
100
AcDbEntity
  8
201
  6
CONTINUOUS
 62
    80
100
AcDbLine
 10
453.33325
 20
10.0
 30
0.0
 11
453.33325
 21
8.0
 31
0.0
  0
LINE
  5
BA
102
{ACAD_REACTORS
330
250
102
}
330
1F
100
AcDbEntity
  8
201
  6
CONTINUOUS
 62
    80
100
AcDbLine
 10
326.66675
 20
10.0
 30
0.0
 11
326.66675
 21
8.0
 31
0.0
  0
LINE
  5
BB
102
{ACAD_REACTORS
330
250
102
}
330
1F
100
AcDbEntity
  8
201
  6
CONTINUOUS
 62
    80
100
AcDbLine
 10
263.33325
 20
10.0
 30
0.0
 11
263.33325
 21
8.0
 31
0.0
  0
LINE
  5
BC
102
{ACAD_REACTORS
330
250
102
}
330
1F
100
AcDbEntity
  8
201
  6
CONTINUOUS
 62
    80
100
AcDbLine
 10
73.333252
 20
10.0
 30
0.0
 11
73.333252
 21
8.0
 31
0.0
  0
LINE
  5
BD
102
{ACAD_REACTORS
330
250
102
}
330
1F
100
AcDbEntity
  8
201
  6
CONTINUOUS
 62
    80
100
AcDbLine
 10
770.0
 20
6.0
 30
0.0
 11
770.0
 21
10.0
 31
0.0
  0
LINE
  5
BE
102
{ACAD_REACTORS
330
250
102
}
330
1F
100
AcDbEntity
  8
201
  6
CONTINUOUS
 62
    80
100
AcDbLine
 10
516.66675
 20
586.0
 30
0.0
 11
516.66675
 21
584.0
 31
0.0
  0
LINE
  5
BF
102
{ACAD_REACTORS
330
250
102
}
330
1F
100
AcDbEntity
  8
201
  6
CONTINUOUS
 62
    80
100
AcDbLine
 10
453.33325
 20
586.0
 30
0.0
 11
453.33325
 21
584.0
 31
0.0
  0
LINE
  5
C0
102
{ACAD_REACTORS
330
250
102
}
330
1F
100
AcDbEntity
  8
201
  6
CONTINUOUS
 62
    80
100
AcDbLine
 10
679.71997
 20
46.0
 30
0.0
 11
750.65283
 21
46.0
 31
0.0
  0
LINE
  5
C1
102
{ACAD_REACTORS
330
250
102
}
330
1F
100
AcDbEntity
  8
201
  6
CONTINUOUS
 62
    80
100
AcDbLine
 10
764.09326
 20
51.0
 30
0.0
 11
764.09326
 21
10.0
 31
0.0
  0
LINE
  5
C2
102
{ACAD_REACTORS
330
250
102
}
330
1F
100
AcDbEntity
  8
201
  6
CONTINUOUS
 62
    80
100
AcDbLine
 10
679.71997
 20
37.333496
 30
0.0
 11
750.65283
 21
37.333496
 31
0.0
  0
LINE
  5
C3
102
{ACAD_REACTORS
330
250
102
}
330
1F
100
AcDbEntity
  8
201
  6
CONTINUOUS
 62
    80
100
AcDbLine
 10
667.77222
 20
51.0
 30
0.0
 11
667.77222
 21
32.0
 31
0.0
  0
LINE
  5
C4
102
{ACAD_REACTORS
330
250
102
}
330
1F
100
AcDbEntity
  8
201
  6
CONTINUOUS
 62
    80
100
AcDbLine
 10
656.0
 20
32.0
 30
0.0
 11
750.65283
 21
32.0
 31
0.0
  0
LINE
  5
C5
102
{ACAD_REACTORS
330
250
102
}
330
1F
100
AcDbEntity
  8
201
  6
CONTINUOUS
 62
    80
100
AcDbLine
 10
656.0
 20
41.445801
 30
0.0
 11
679.71997
 21
41.445801
 31
0.0
  0
LINE
  5
C6
102
{ACAD_REACTORS
330
250
102
}
330
1F
100
AcDbEntity
  8
201
  6
CONTINUOUS
 62
    80
100
AcDbLine
 10
656.0
 20
21.0
 30
0.0
 11
831.0
 21
21.0
 31
0.0
  0
LINE
  5
C7
102
{ACAD_REACTORS
330
250
102
}
330
1F
100
AcDbEntity
  8
201
  6
CONTINUOUS
 62
    80
100
AcDbLine
 10
656.0
 20
26.624268
 30
0.0
 11
750.65283
 21
26.624268
 31
0.0
  0
LINE
  5
C8
102
{ACAD_REACTORS
330
250
102
}
330
1F
100
AcDbEntity
  8
201
  6
CONTINUOUS
 62
    80
100
AcDbLine
 10
679.71997
 20
51.0
 30
0.0
 11
679.71997
 21
32.0
 31
0.0
  0
LINE
  5
C9
102
{ACAD_REACTORS
330
250
102
}
330
1F
100
AcDbEntity
  8
201
  6
CONTINUOUS
 62
    80
100
AcDbLine
 10
750.65283
 20
51.0
 30
0.0
 11
750.65283
 21
10.0
 31
0.0
  0
LINE
  5
CA
102
{ACAD_REACTORS
330
250
102
}
330
1F
100
AcDbEntity
  8
201
  6
CONTINUOUS
 62
    80
100
AcDbLine
 10
706.66675
 20
586.0
 30
0.0
 11
706.66675
 21
584.0
 31
0.0
  0
LINE
  5
CB
102
{ACAD_REACTORS
330
250
102
}
330
1F
100
AcDbEntity
  8
201
  6
CONTINUOUS
 62
    80
100
AcDbLine
 10
643.33333
 20
586.0
 30
0.0
 11
643.33333
 21
584.0
 31
0.0
  0
LINE
  5
CC
102
{ACAD_REACTORS
330
250
102
}
330
1F
100
AcDbEntity
  8
201
  6
CONTINUOUS
 62
    80
100
AcDbLine
 10
580.0
 20
6.0
 30
0.0
 11
580.0
 21
10.0
 31
0.0
  0
LINE
  5
CD
102
{ACAD_REACTORS
330
250
102
}
330
1F
100
AcDbEntity
  8
201
  6
CONTINUOUS
 62
    80
100
AcDbLine
 10
10.0
 20
51.0
 30
0.0
 11
90.734131
 21
51.0
 31
0.0
  0
LINE
  5
CE
102
{ACAD_REACTORS
330
250
102
}
330
1F
100
AcDbEntity
  8
201
  6
CONTINUOUS
 62
    80
100
AcDbLine
 10
770.0
 20
586.0
 30
0.0
 11
770.0
 21
584.0
 31
0.0
  0
LINE
  5
CF
102
{ACAD_REACTORS
330
250
102
}
330
1F
100
AcDbEntity
  8
201
  6
CONTINUOUS
 62
    80
100
AcDbLine
 10
90.734131
 20
51.0
 30
0.0
 11
656.0
 21
51.0
 31
0.0
  0
LINE
  5
D0
102
{ACAD_REACTORS
330
250
102
}
330
1F
100
AcDbEntity
  8
201
  6
CONTINUOUS
 62
    80
100
AcDbLine
 10
769.09326
 20
36.0
 30
0.0
 11
826.0
 21
36.0
 31
0.0
  0
LINE
  5
D1
102
{ACAD_REACTORS
330
250
102
}
330
1F
100
AcDbEntity
  8
201
  6
CONTINUOUS
 62
    80
100
AcDbLine
 10
656.0
 20
51.0
 30
0.0
 11
656.0
 21
10.0
 31
0.0
  0
LINE
  5
D2
102
{ACAD_REACTORS
330
250
102
}
330
1F
100
AcDbEntity
  8
201
  6
CONTINUOUS
 62
    80
100
AcDbLine
 10
648.5
 20
584.0
 30
0.0
 11
648.5
 21
574.0
 31
0.0
  0
LINE
  5
D3
102
{ACAD_REACTORS
330
250
102
}
330
1F
100
AcDbEntity
  8
201
  6
CONTINUOUS
 62
    80
100
AcDbLine
 10
746.0
 20
584.0
 30
0.0
 11
746.0
 21
574.0
 31
0.0
  0
LINE
  5
D4
102
{ACAD_REACTORS
330
250
102
}
330
1F
100
AcDbEntity
  8
201
  6
CONTINUOUS
 62
    80
100
AcDbLine
 10
596.0
 20
584.0
 30
0.0
 11
596.0
 21
574.0
 31
0.0
  0
LINE
  5
D5
102
{ACAD_REACTORS
330
250
102
}
330
1F
100
AcDbEntity
  8
201
  6
CONTINUOUS
 62
    80
100
AcDbLine
 10
605.0
 20
584.0
 30
0.0
 11
605.0
 21
574.0
 31
0.0
  0
LINE
  5
D6
102
{ACAD_REACTORS
330
250
102
}
330
1F
100
AcDbEntity
  8
201
  6
CONTINUOUS
 62
    80
100
AcDbLine
 10
688.0
 20
584.0
 30
0.0
 11
688.0
 21
574.0
 31
0.0
  0
LINE
  5
D7
102
{ACAD_REACTORS
330
250
102
}
330
1F
100
AcDbEntity
  8
201
  6
CONTINUOUS
 62
    80
100
AcDbLine
 10
734.0
 20
584.0
 30
0.0
 11
734.0
 21
574.0
 31
0.0
  0
LINE
  5
D8
102
{ACAD_REACTORS
330
250
102
}
330
1F
100
AcDbEntity
  8
201
  6
CONTINUOUS
 62
    80
100
AcDbLine
 10
651.0
 20
574.0
 30
0.0
 11
831.0
 21
574.0
 31
0.0
  0
LINE
  5
D9
102
{ACAD_REACTORS
330
250
102
}
330
1F
100
AcDbEntity
  8
201
  6
CONTINUOUS
 62
    80
100
AcDbLine
 10
651.0
 20
579.0
 30
0.0
 11
831.0
 21
579.0
 31
0.0
  0
LINE
  5
DA
102
{ACAD_REACTORS
330
250
102
}
330
1F
100
AcDbEntity
  8
201
  6
CONTINUOUS
 62
    80
100
AcDbLine
 10
656.0
 20
51.0
 30
0.0
 11
831.0
 21
51.0
 31
0.0
  0
LINE
  5
DB
102
{ACAD_REACTORS
330
250
102
}
330
1F
100
AcDbEntity
  8
201
  6
CONTINUOUS
 62
    80
100
AcDbLine
 10
390.0
 20
6.0
 30
0.0
 11
390.0
 21
10.0
 31
0.0
  0
LINE
  5
DC
102
{ACAD_REACTORS
330
250
102
}
330
1F
100
AcDbEntity
  8
201
  6
CONTINUOUS
 62
    80
100
AcDbLine
 10
136.66675
 20
10.0
 30
0.0
 11
136.66675
 21
8.0
 31
0.0
  0
LINE
  5
DD
102
{ACAD_REACTORS
330
250
102
}
330
1F
100
AcDbEntity
  8
201
  6
CONTINUOUS
 62
    80
100
AcDbLine
 10
831.0
 20
494.75
 30
0.0
 11
833.0
 21
494.75
 31
0.0
  0
LINE
  5
DE
102
{ACAD_REACTORS
330
250
102
}
330
1F
100
AcDbEntity
  8
201
  6
CONTINUOUS
 62
    80
100
AcDbLine
 10
831.0
 20
425.5
 30
0.0
 11
833.0
 21
425.5
 31
0.0
  0
LINE
  5
DF
102
{ACAD_REACTORS
330
250
102
}
330
1F
100
AcDbEntity
  8
201
  6
CONTINUOUS
 62
    80
100
AcDbLine
 10
835.0
 20
564.0
 30
0.0
 11
831.0
 21
564.0
 31
0.0
  0
LINE
  5
E0
102
{ACAD_REACTORS
330
250
102
}
330
1F
100
AcDbEntity
  8
201
  6
CONTINUOUS
 62
    80
100
AcDbLine
 10
831.0
 20
148.5
 30
0.0
 11
833.0
 21
148.5
 31
0.0
  0
LINE
  5
E1
102
{ACAD_REACTORS
330
250
102
}
330
1F
100
AcDbEntity
  8
201
  6
CONTINUOUS
 62
    80
100
AcDbLine
 10
8.0
 20
494.75
 30
0.0
 11
10.0
 21
494.75
 31
0.0
  0
LINE
  5
E2
102
{ACAD_REACTORS
330
250
102
}
330
1F
100
AcDbEntity
  8
201
  6
CONTINUOUS
 62
    80
100
AcDbLine
 10
831.0
 20
356.25
 30
0.0
 11
833.0
 21
356.25
 31
0.0
  0
LINE
  5
E3
102
{ACAD_REACTORS
330
250
102
}
330
1F
100
AcDbEntity
  8
201
  6
CONTINUOUS
 62
    80
100
AcDbLine
 10
831.0
 20
79.25
 30
0.0
 11
833.0
 21
79.25
 31
0.0
  0
LINE
  5
E4
102
{ACAD_REACTORS
330
250
102
}
330
1F
100
AcDbEntity
  8
201
  6
CONTINUOUS
 62
    80
100
AcDbLine
 10
6.0
 20
287.0
 30
0.0
 11
10.0
 21
287.0
 31
0.0
  0
LINE
  5
E5
102
{ACAD_REACTORS
330
250
102
}
330
1F
100
AcDbEntity
  8
201
  6
CONTINUOUS
 62
    80
100
AcDbLine
 10
200.0
 20
6.0
 30
0.0
 11
200.0
 21
10.0
 31
0.0
  0
LINE
  5
E6
102
{ACAD_REACTORS
330
250
102
}
330
1F
100
AcDbEntity
  8
201
  6
CONTINUOUS
 62
    80
100
AcDbLine
 10
835.0
 20
287.0
 30
0.0
 11
831.0
 21
287.0
 31
0.0
  0
LINE
  5
E7
102
{ACAD_REACTORS
330
250
102
}
330
1F
100
AcDbEntity
  8
201
  6
CONTINUOUS
 62
    80
100
AcDbLine
 10
200.0
 20
586.0
 30
0.0
 11
200.0
 21
584.0
 31
0.0
  0
LINE
  5
E8
102
{ACAD_REACTORS
330
250
102
}
330
1F
100
AcDbEntity
  8
201
  6
CONTINUOUS
 62
    80
100
AcDbLine
 10
390.0
 20
586.0
 30
0.0
 11
390.0
 21
584.0
 31
0.0
  0
LINE
  5
E9
102
{ACAD_REACTORS
330
250
102
}
330
1F
100
AcDbEntity
  8
201
  6
CONTINUOUS
 62
    80
100
AcDbLine
 10
136.66675
 20
586.0
 30
0.0
 11
136.66675
 21
584.0
 31
0.0
  0
LINE
  5
EA
102
{ACAD_REACTORS
330
250
102
}
330
1F
100
AcDbEntity
  8
201
  6
CONTINUOUS
 62
    80
100
AcDbLine
 10
580.0
 20
586.0
 30
0.0
 11
580.0
 21
584.0
 31
0.0
  0
LINE
  5
EB
102
{ACAD_REACTORS
330
250
102
}
330
1F
100
AcDbEntity
  8
201
  6
CONTINUOUS
 62
    80
100
AcDbLine
 10
831.0
 20
217.75
 30
0.0
 11
833.0
 21
217.75
 31
0.0
  0
LINE
  5
EC
102
{ACAD_REACTORS
330
250
102
}
330
1F
100
AcDbEntity
  8
201
  6
CONTINUOUS
 62
    80
100
AcDbLine
 10
831.0
 20
584.0
 30
0.0
 11
831.0
 21
10.0
 31
0.0
  0
LINE
  5
ED
102
{ACAD_REACTORS
330
250
102
}
330
1F
100
AcDbEntity
  8
201
  6
CONTINUOUS
 62
    80
100
AcDbLine
 10
10.0
 20
584.0
 30
0.0
 11
10.0
 21
10.0
 31
0.0
  0
LINE
  5
EE
102
{ACAD_REACTORS
330
250
102
}
330
1F
100
AcDbEntity
  8
201
  6
CONTINUOUS
 62
    80
100
AcDbLine
 10
10.0
 20
584.0
 30
0.0
 11
831.0
 21
584.0
 31
0.0
  0
LINE
  5
EF
102
{ACAD_REACTORS
330
250
102
}
330
1F
100
AcDbEntity
  8
201
  6
CONTINUOUS
 62
    80
100
AcDbLine
 10
10.0
 20
10.0
 30
0.0
 11
831.0
 21
10.0
 31
0.0
  0
LINE
  5
F0
102
{ACAD_REACTORS
330
250
102
}
330
1F
100
AcDbEntity
  8
201
  6
CONTINUOUS
 62
    80
100
AcDbLine
 10
670.2207
 20
32.0
 30
0.0
 11
670.2207
 21
21.0
 31
0.0
  0
LINE
  5
F1
102
{ACAD_REACTORS
330
250
102
}
330
1F
100
AcDbEntity
  8
201
  6
CONTINUOUS
 62
    80
100
AcDbLine
 10
703.41997
 20
51.0
 30
0.0
 11
703.41997
 21
32.0
 31
0.0
  0
LINE
  5
F2
102
{ACAD_REACTORS
330
250
102
}
330
1F
100
AcDbEntity
  8
201
  6
CONTINUOUS
 62
    80
100
AcDbLine
 10
727.11997
 20
51.0
 30
0.0
 11
727.11997
 21
32.0
 31
0.0
  0
LINE
  5
F3
102
{ACAD_REACTORS
330
250
102
}
330
1F
100
AcDbEntity
  8
201
  6
CONTINUOUS
 62
    80
100
AcDbLine
 10
690.04622
 20
32.0
 30
0.0
 11
690.04622
 21
21.0
 31
0.0
  0
LINE
  5
F4
330
1F
100
AcDbEntity
  8
201
  6
CONTINUOUS
 62
    80
100
AcDbLine
 10
651.0
 20
569.0
 30
0.0
 11
831.0
 21
569.0
 31
0.0
  0
LINE
  5
F5
330
1F
100
AcDbEntity
  8
201
  6
CONTINUOUS
 62
    80
100
AcDbLine
 10
791.0
 20
579.0
 30
0.0
 11
791.0
 21
569.0
 31
0.0
  0
LINE
  5
F6
330
1F
100
AcDbEntity
  8
201
  6
CONTINUOUS
 62
    80
100
AcDbLine
 10
746.0
 20
579.0
 30
0.0
 11
746.0
 21
569.0
 31
0.0
  0
LINE
  5
F7
330
1F
100
AcDbEntity
  8
201
  6
CONTINUOUS
 62
    80
100
AcDbLine
 10
734.0
 20
579.0
 30
0.0
 11
734.0
 21
569.0
 31
0.0
  0
LINE
  5
F8
330
1F
100
AcDbEntity
  8
201
  6
CONTINUOUS
 62
    80
100
AcDbLine
 10
688.0
 20
579.0
 30
0.0
 11
688.0
 21
569.0
 31
0.0
  0
LINE
  5
F9
330
1F
100
AcDbEntity
  8
201
  6
CONTINUOUS
 62
    80
100
AcDbLine
 10
596.0
 20
574.0
 30
0.0
 11
776.0
 21
574.0
 31
0.0
  0
LINE
  5
FA
330
1F
100
AcDbEntity
  8
201
  6
CONTINUOUS
 62
    80
100
AcDbLine
 10
596.0
 20
579.0
 30
0.0
 11
776.0
 21
579.0
 31
0.0
  0
LINE
  5
FB
330
1F
100
AcDbEntity
  8
201
  6
CONTINUOUS
 62
    80
100
AcDbLine
 10
791.0
 20
584.0
 30
0.0
 11
791.0
 21
574.0
 31
0.0
  0
LINE
  5
FC
330
1F
100
AcDbEntity
  8
201
  6
CONTINUOUS
 62
    80
100
AcDbLine
 10
596.0
 20
579.0
 30
0.0
 11
596.0
 21
569.0
 31
0.0
  0
LINE
  5
FD
330
1F
100
AcDbEntity
  8
201
  6
CONTINUOUS
 62
    80
100
AcDbLine
 10
605.0
 20
579.0
 30
0.0
 11
605.0
 21
569.0
 31
0.0
  0
LINE
  5
FE
330
1F
100
AcDbEntity
  8
201
  6
CONTINUOUS
 62
    80
100
AcDbLine
 10
596.0
 20
569.0
 30
0.0
 11
776.0
 21
569.0
 31
0.0
  0
LINE
  5
FF
330
1F
100
AcDbEntity
  8
201
  6
CONTINUOUS
 62
    80
100
AcDbLine
 10
648.5
 20
579.0
 30
0.0
 11
648.5
 21
569.0
 31
0.0
  0
LINE
  5
100
330
1F
100
AcDbEntity
  8
1
  6
CONTINUOUS
 62
   172
 60
     1
100
AcDbLine
 10
271.2842
 20
327.338048
 30
0.0
 11
271.2852
 21
327.338048
 31
0.0
  0
LINE
  5
101
330
1F
100
AcDbEntity
  8
1
  6
CONTINUOUS
 62
   172
 60
     1
100
AcDbLine
 10
360.604091
 20
327.338048
 30
0.0
 11
360.605091
 21
327.338048
 31
0.0
  0
LINE
  5
102
330
1F
100
AcDbEntity
  8
1
  6
CONTINUOUS
 62
   172
 60
     1
100
AcDbLine
 10
360.604091
 20
144.338048
 30
0.0
 11
360.603091
 21
144.338048
 31
0.0
  0
LINE
  5
103
330
1F
100
AcDbEntity
  8
1
  6
CONTINUOUS
 62
   172
 60
     1
100
AcDbLine
 10
213.783615
 20
235.838048
 30
0.0
 11
213.783615
 21
235.837048
 31
0.0
  0
LINE
  5
104
330
1F
100
AcDbEntity
  8
1
  6
CONTINUOUS
 62
   172
 60
     1
100
AcDbLine
 10
311.2842
 20
389.011693
 30
0.0
 11
311.2852
 21
389.011693
 31
0.0
  0
LINE
  5
105
102
{ACAD_REACTORS
330
24F
102
}
330
1F
100
AcDbEntity
  8
1
  6
CONTINUOUS
 62
     1
100
AcDbLine
 10
431.226706
 20
356.662002
 30
0.0
 11
392.025262
 21
316.934572
 31
0.0
  0
LINE
  5
106
330
1F
100
AcDbEntity
  8
1
  6
CONTINUOUS
 62
   172
 60
     1
100
AcDbLine
 10
398.171078
 20
323.16285
 30
0.0
 11
396.380299
 21
320.012834
 31
0.0
  0
LINE
  5
107
330
1F
100
AcDbEntity
  8
1
  6
CONTINUOUS
 62
   172
 60
     1
100
AcDbLine
 10
396.380299
 20
320.012834
 30
0.0
 11
395.045204
 21
321.330243
 31
0.0
  0
LINE
  5
108
330
1F
100
AcDbEntity
  8
1
  6
CONTINUOUS
 62
   172
 60
     1
100
AcDbLine
 10
395.045204
 20
321.330243
 30
0.0
 11
398.171078
 21
323.16285
 31
0.0
  0
CIRCLE
  5
109
330
1F
100
AcDbEntity
  8
1
  6
CONTINUOUS
 62
   252
100
AcDbCircle
 10
271.2842
 20
235.838048
 30
0.0
 40
22.5
  0
CIRCLE
  5
10A
330
1F
100
AcDbEntity
  8
1
  6
CONTINUOUS
 62
   252
100
AcDbCircle
 10
-311.2842
 20
310.838048
 30
0.0
 40
4.25
210
0.0
220
0.0
230
-1.0
  0
CIRCLE
  5
10B
330
1F
100
AcDbEntity
  8
1
  6
CONTINUOUS
 62
   252
100
AcDbCircle
 10
-231.2842
 20
310.838048
 30
0.0
 40
4.25
210
0.0
220
0.0
230
-1.0
  0
CIRCLE
  5
10C
330
1F
100
AcDbEntity
  8
1
  6
CONTINUOUS
 62
   252
100
AcDbCircle
 10
-311.2842
 20
160.838048
 30
0.0
 40
4.25
210
0.0
220
0.0
230
-1.0
  0
CIRCLE
  5
10D
330
1F
100
AcDbEntity
  8
1
  6
CONTINUOUS
 62
   252
100
AcDbCircle
 10
-231.2842
 20
160.838048
 30
0.0
 40
4.25
210
0.0
220
0.0
230
-1.0
  0
ARC
  5
10E
330
1F
100
AcDbEntity
  8
1
  6
CONTINUOUS
 62
   252
100
AcDbCircle
 10
328.7862
 20
478.010864
 30
0.0
 40
0.0019999999999998
100
AcDbArc
 50
135.0
 51
180.0
  0
ARC
  5
10F
330
1F
100
AcDbEntity
  8
1
  6
CONTINUOUS
 62
   252
100
AcDbCircle
 10
216.7862
 20
381.013693
 30
0.0
 40
0.0019999999999998
100
AcDbArc
 50
180.0
 51
270.0
  0
ARC
  5
110
330
1F
100
AcDbEntity
  8
1
  6
CONTINUOUS
 62
   252
100
AcDbCircle
 10
325.7822
 20
381.013693
 30
0.0
 40
0.0019999999999998
100
AcDbArc
 50
270.0
 51
0.0
  0
ARC
  5
111
330
1F
100
AcDbEntity
  8
1
  6
CONTINUOUS
 62
   252
100
AcDbCircle
 10
328.7862
 20
478.010864
 30
0.0
 40
3.002
100
AcDbArc
 50
135.0
 51
180.0
  0
ARC
  5
112
330
1F
100
AcDbEntity
  8
1
  6
CONTINUOUS
 62
   252
100
AcDbCircle
 10
213.7822
 20
478.010864
 30
0.0
 40
3.002
100
AcDbArc
 50
0.0
 51
45.0
  0
ARC
  5
113
330
1F
100
AcDbEntity
  8
1
  6
CONTINUOUS
 62
   252
100
AcDbCircle
 10
216.7862
 20
381.013693
 30
0.0
 40
3.002
100
AcDbArc
 50
180.0
 51
270.0
  0
ARC
  5
114
330
1F
100
AcDbEntity
  8
1
  6
CONTINUOUS
 62
   252
100
AcDbCircle
 10
213.7822
 20
478.010864
 30
0.0
 40
0.0019999999999998
100
AcDbArc
 50
0.0
 51
45.0
  0
ARC
  5
115
330
1F
100
AcDbEntity
  8
1
  6
CONTINUOUS
 62
   252
100
AcDbCircle
 10
325.7822
 20
381.013693
 30
0.0
 40
3.002
100
AcDbArc
 50
270.0
 51
0.0
  0
CIRCLE
  5
116
330
1F
100
AcDbEntity
  8
1
  6
CONTINUOUS
 62
   252
100
AcDbCircle
 10
-562.573635
 20
309.338048
 30
0.0
 40
5.5
210
0.0
220
0.0
230
-1.0
  0
CIRCLE
  5
117
330
1F
100
AcDbEntity
  8
1
  6
CONTINUOUS
 62
   252
100
AcDbCircle
 10
-502.573635
 20
309.338048
 30
0.0
 40
5.5
210
0.0
220
0.0
230
-1.0
  0
CIRCLE
  5
118
330
1F
100
AcDbEntity
  8
1
  6
CONTINUOUS
 62
   252
100
AcDbCircle
 10
-562.573635
 20
159.338048
 30
0.0
 40
5.5
210
0.0
220
0.0
230
-1.0
  0
CIRCLE
  5
119
330
1F
100
AcDbEntity
  8
1
  6
CONTINUOUS
 62
   252
100
AcDbCircle
 10
-502.573635
 20
159.338048
 30
0.0
 40
5.5
210
0.0
220
0.0
230
-1.0
  0
ARC
  5
11A
330
1F
100
AcDbEntity
  8
1
  6
CONTINUOUS
 62
   252
100
AcDbCircle
 10
572.573635
 20
154.338048
 30
0.0
 40
10.0
100
AcDbArc
 50
270.0
 51
0.0
  0
ARC
  5
11B
330
1F
100
AcDbEntity
  8
1
  6
CONTINUOUS
 62
   252
100
AcDbCircle
 10
572.573635
 20
317.338048
 30
0.0
 40
10.0
100
AcDbArc
 50
0.0
 51
90.0
  0
ELLIPSE
  5
11C
330
1F
100
AcDbEntity
  8
1
  6
CONTINUOUS
 62
   252
100
AcDbEllipse
 10
150.145004
 20
154.338048
 30
0.0
 11
0.0
 21
-10.0
 31
0.0
210
0.0
220
0.0
230
1.0
 40
0.707107
 41
4.71238898038469
 42
6.283185307179586
  0
ELLIPSE
  5
11D
330
1F
100
AcDbEntity
  8
1
  6
CONTINUOUS
 62
   252
100
AcDbEllipse
 10
340.804601
 20
309.338048
 30
0.0
 11
0.0
 21
-5.5
 31
0.0
210
0.0
220
0.0
230
1.0
 40
0.707107
 41
0.2762637009803303
 42
2.865328723041296
  0
ELLIPSE
  5
11E
330
1F
100
AcDbEntity
  8
1
  6
CONTINUOUS
 62
   252
100
AcDbEllipse
 10
340.804601
 20
159.338048
 30
0.0
 11
0.0
 21
-5.5
 31
0.0
210
0.0
220
0.0
230
1.0
 40
0.707107
 41
0.2762637009803303
 42
2.865328723041296
  0
ELLIPSE
  5
11F
330
1F
100
AcDbEntity
  8
1
  6
CONTINUOUS
 62
   252
100
AcDbEllipse
 10
201.763799
 20
309.338048
 30
0.0
 11
0.0
 21
5.5
 31
0.0
210
0.0
220
0.0
230
1.0
 40
0.707107
 41
0.2761657132546944
 42
1.570796333574228
  0
ELLIPSE
  5
120
330
1F
100
AcDbEntity
  8
1
  6
CONTINUOUS
 62
   252
100
AcDbEllipse
 10
201.763799
 20
309.338048
 30
0.0
 11
0.0
 21
5.5
 31
0.0
210
0.0
220
0.0
230
1.0
 40
0.707107
 41
1.570796333574231
 42
2.865426958834583
  0
ELLIPSE
  5
121
330
1F
100
AcDbEntity
  8
1
  6
CONTINUOUS
 62
   252
100
AcDbEllipse
 10
201.763799
 20
159.338048
 30
0.0
 11
0.0
 21
5.5
 31
0.0
210
0.0
220
0.0
230
1.0
 40
0.707107
 41
0.2761657132546944
 42
1.570796333574228
  0
ELLIPSE
  5
122
330
1F
100
AcDbEntity
  8
1
  6
CONTINUOUS
 62
   252
100
AcDbEllipse
 10
201.763799
 20
159.338048
 30
0.0
 11
0.0
 21
5.5
 31
0.0
210
0.0
220
0.0
230
1.0
 40
0.707107
 41
1.570796333574231
 42
2.865426958834583
  0
ELLIPSE
  5
123
330
1F
100
AcDbEntity
  8
1
  6
CONTINUOUS
 62
   252
100
AcDbEllipse
 10
383.231008
 20
309.338048
 30
0.0
 11
0.0
 21
-5.5
 31
0.0
210
0.0
220
0.0
230
1.0
 40
0.707107
 41
0.2762637009803303
 42
2.865328723041296
  0
ELLIPSE
  5
124
330
1F
100
AcDbEntity
  8
1
  6
CONTINUOUS
 62
   252
100
AcDbEllipse
 10
159.337392
 20
159.338048
 30
0.0
 11
0.0
 21
5.5
 31
0.0
210
0.0
220
0.0
230
1.0
 40
0.707107
 41
0.2761657132546944
 42
1.570796333574228
  0
ELLIPSE
  5
125
330
1F
100
AcDbEntity
  8
1
  6
CONTINUOUS
 62
   252
100
AcDbEllipse
 10
159.337392
 20
159.338048
 30
0.0
 11
0.0
 21
5.5
 31
0.0
210
0.0
220
0.0
230
1.0
 40
0.707107
 41
1.570796333574231
 42
2.865426958834583
  0
ELLIPSE
  5
126
330
1F
100
AcDbEntity
  8
1
  6
CONTINUOUS
 62
   252
100
AcDbEllipse
 10
383.231008
 20
159.338048
 30
0.0
 11
0.0
 21
-5.5
 31
0.0
210
0.0
220
0.0
230
1.0
 40
0.707107
 41
0.2762637009803303
 42
2.865328723041296
  0
ELLIPSE
  5
127
330
1F
100
AcDbEntity
  8
1
  6
CONTINUOUS
 62
   252
100
AcDbEllipse
 10
159.337392
 20
309.338048
 30
0.0
 11
0.0
 21
5.5
 31
0.0
210
0.0
220
0.0
230
1.0
 40
0.707107
 41
0.2761657132546944
 42
1.570796333574228
  0
ELLIPSE
  5
128
330
1F
100
AcDbEntity
  8
1
  6
CONTINUOUS
 62
   252
100
AcDbEllipse
 10
159.337392
 20
309.338048
 30
0.0
 11
0.0
 21
5.5
 31
0.0
210
0.0
220
0.0
230
1.0
 40
0.707107
 41
1.570796333574231
 42
2.865426958834583
  0
ELLIPSE
  5
129
330
1F
100
AcDbEntity
  8
1
  6
CONTINUOUS
 62
   252
100
AcDbEllipse
 10
199.642479
 20
309.338048
 30
0.0
 11
0.0
 21
5.5
 31
0.0
210
0.0
220
0.0
230
1.0
 40
0.707107
 41
0.0
 42
6.283185307179586
  0
ELLIPSE
  5
12A
330
1F
100
AcDbEntity
  8
1
  6
CONTINUOUS
 62
   252
100
AcDbEllipse
 10
157.216072
 20
309.338048
 30
0.0
 11
0.0
 21
5.5
 31
0.0
210
0.0
220
0.0
230
1.0
 40
0.707107
 41
0.0
 42
6.283185307179586
  0
ELLIPSE
  5
12B
330
1F
100
AcDbEntity
  8
1
  6
CONTINUOUS
 62
   252
100
AcDbEllipse
 10
385.352329
 20
309.338048
 30
0.0
 11
0.0
 21
-5.5
 31
0.0
210
0.0
220
0.0
230
1.0
 40
0.707107
 41
0.0
 42
6.283185307179586
  0
ELLIPSE
  5
12C
330
1F
100
AcDbEntity
  8
1
  6
CONTINUOUS
 62
   252
100
AcDbEllipse
 10
342.925922
 20
309.338048
 30
0.0
 11
0.0
 21
-5.5
 31
0.0
210
0.0
220
0.0
230
1.0
 40
0.707107
 41
0.0
 42
6.283185307179586
  0
ELLIPSE
  5
12D
330
1F
100
AcDbEntity
  8
1
  6
CONTINUOUS
 62
   252
100
AcDbEllipse
 10
199.642479
 20
159.338048
 30
0.0
 11
0.0
 21
5.5
 31
0.0
210
0.0
220
0.0
230
1.0
 40
0.707107
 41
0.0
 42
6.283185307179586
  0
ELLIPSE
  5
12E
330
1F
100
AcDbEntity
  8
1
  6
CONTINUOUS
 62
   252
100
AcDbEllipse
 10
385.352329
 20
159.338048
 30
0.0
 11
0.0
 21
-5.5
 31
0.0
210
0.0
220
0.0
230
1.0
 40
0.707107
 41
0.0
 42
6.283185307179586
  0
ELLIPSE
  5
12F
330
1F
100
AcDbEntity
  8
1
  6
CONTINUOUS
 62
   252
100
AcDbEllipse
 10
157.216072
 20
159.338048
 30
0.0
 11
0.0
 21
5.5
 31
0.0
210
0.0
220
0.0
230
1.0
 40
0.707107
 41
0.0
 42
6.283185307179586
  0
ELLIPSE
  5
130
330
1F
100
AcDbEntity
  8
1
  6
CONTINUOUS
 62
   252
100
AcDbEllipse
 10
342.925922
 20
159.338048
 30
0.0
 11
0.0
 21
-5.5
 31
0.0
210
0.0
220
0.0
230
1.0
 40
0.707107
 41
0.0
 42
6.283185307179586
  0
ELLIPSE
  5
131
330
1F
100
AcDbEntity
  8
1
  6
CONTINUOUS
 62
   252
100
AcDbEllipse
 10
392.423396
 20
154.338048
 30
0.0
 11
0.0
 21
10.0
 31
0.0
210
0.0
220
0.0
230
1.0
 40
0.707107
 41
3.141592653589789
 42
4.71238898038469
  0
ELLIPSE
  5
132
330
1F
100
AcDbEntity
  8
1
  6
CONTINUOUS
 62
   252
100
AcDbEllipse
 10
150.145004
 20
317.338048
 30
0.0
 11
0.0
 21
-10.0
 31
0.0
210
0.0
220
0.0
230
1.0
 40
0.707107
 41
3.141592653589793
 42
4.71238898038469
  0
ELLIPSE
  5
133
330
1F
100
AcDbEntity
  8
1
  6
CONTINUOUS
 62
   252
100
AcDbEllipse
 10
392.423396
 20
317.338048
 30
0.0
 11
0.0
 21
10.0
 31
0.0
210
0.0
220
0.0
230
1.0
 40
0.707107
 41
4.71238898038469
 42
6.283185307179591
  0
ELLIPSE
  5
134
330
1F
100
AcDbEntity
  8
1
  6
CONTINUOUS
 62
   252
100
AcDbEllipse
 10
649.007993
 20
501.860583
 30
0.0
 11
4.573295603800233
 21
2.021130208636115
 31
0.0
210
0.0
220
0.0
230
1.0
 40
0.8
 41
5.943348397725465
 42
7.51414472452036
  0
ELLIPSE
  5
135
330
1F
100
AcDbEntity
  8
1
  6
CONTINUOUS
 62
   252
100
AcDbEllipse
 10
556.044951
 20
516.544828
 30
0.0
 11
-0.0009999999999999159
 21
0.0
 31
0.0
210
0.0
220
0.0
230
1.0
 40
0.565685
 41
2.601173153287764
 42
3.386571316698022
  0
ELLIPSE
  5
136
330
1F
100
AcDbEntity
  8
1
  6
CONTINUOUS
 62
   252
100
AcDbEllipse
 10
554.974155
 20
446.19728
 30
0.0
 11
7.717436331412898
 21
-8.185577344976238
 31
0.0
210
0.0
220
0.0
230
1.0
 40
0.707107
 41
0.0
 42
6.283185307179586
  0
ELLIPSE
  5
137
330
1F
100
AcDbEntity
  8
1
  6
CONTINUOUS
 62
   252
100
AcDbEllipse
 10
614.689202
 20
433.973679
 30
0.0
 11
-2.51531258209013
 21
-1.11162161474986
 31
0.0
210
0.0
220
0.0
230
0.9999999999999999
 40
0.8
 41
0.2059168155000478
 42
2.801756052560529
  0
ELLIPSE
  5
138
330
1F
100
AcDbEntity
  8
1
  6
CONTINUOUS
 62
   252
100
AcDbEllipse
 10
614.689202
 20
433.973679
 30
0.0
 11
-2.51531258209013
 21
-1.11162161474986
 31
0.0
210
0.0
220
0.0
230
0.9999999999999999
 40
0.8
 41
2.80175561158666
 42
2.935665957415783
  0
ELLIPSE
  5
139
330
1F
100
AcDbEntity
  8
1
  6
CONTINUOUS
 62
   252
100
AcDbEllipse
 10
614.689202
 20
495.820263
 30
0.0
 11
-2.51531258209013
 21
-1.11162161474986
 31
0.0
210
0.0
220
0.0
230
0.9999999999999999
 40
0.8
 41
0.2059168155000478
 42
2.801756052560529
  0
ELLIPSE
  5
13A
330
1F
100
AcDbEntity
  8
1
  6
CONTINUOUS
 62
   252
100
AcDbEllipse
 10
614.689202
 20
495.820263
 30
0.0
 11
-2.51531258209013
 21
-1.11162161474986
 31
0.0
210
0.0
220
0.0
230
0.9999999999999999
 40
0.8
 41
2.80175561158666
 42
2.935665957415783
  0
ELLIPSE
  5
13B
330
1F
100
AcDbEntity
  8
1
  6
CONTINUOUS
 62
   252
100
AcDbEllipse
 10
643.793477
 20
499.936229
 30
0.0
 11
-2.51531258209013
 21
-1.11162161474986
 31
0.0
210
0.0
220
0.0
230
0.9999999999999999
 40
0.8
 41
0.2059168155000478
 42
2.801756052560529
  0
ELLIPSE
  5
13C
330
1F
100
AcDbEntity
  8
1
  6
CONTINUOUS
 62
   252
100
AcDbEllipse
 10
643.793477
 20
499.936229
 30
0.0
 11
-2.51531258209013
 21
-1.11162161474986
 31
0.0
210
0.0
220
0.0
230
0.9999999999999999
 40
0.8
 41
2.80175561158666
 42
2.935665957415783
  0
ELLIPSE
  5
13D
330
1F
100
AcDbEntity
  8
1
  6
CONTINUOUS
 62
   252
100
AcDbEllipse
 10
643.793477
 20
438.089645
 30
0.0
 11
-2.51531258209013
 21
-1.11162161474986
 31
0.0
210
0.0
220
0.0
230
0.9999999999999999
 40
0.8
 41
0.2059168155000478
 42
2.801756052560529
  0
ELLIPSE
  5
13E
330
1F
100
AcDbEntity
  8
1
  6
CONTINUOUS
 62
   252
100
AcDbEllipse
 10
643.793477
 20
438.089645
 30
0.0
 11
-2.51531258209013
 21
-1.11162161474986
 31
0.0
210
0.0
220
0.0
230
0.9999999999999999
 40
0.8
 41
2.80175561158666
 42
2.935665957415783
  0
ELLIPSE
  5
13F
330
1F
100
AcDbEntity
  8
1
  6
CONTINUOUS
 62
   252
100
AcDbEllipse
 10
579.112238
 20
476.721164
 30
0.0
 11
-0.0009999999999999159
 21
0.0
 31
0.0
210
0.0
220
0.0
230
1.0
 40
0.565685
 41
1.03037682652288
 42
2.601173153320076
  0
ELLIPSE
  5
140
330
1F
100
AcDbEntity
  8
1
  6
CONTINUOUS
 62
   252
100
AcDbEllipse
 10
555.745899
 20
446.924887
 30
0.0
 11
7.717436331412898
 21
-8.185577344976238
 31
0.0
210
0.0
220
0.0
230
1.0
 40
0.707107
 41
3.78509371592128
 42
6.216490081794538
  0
ELLIPSE
  5
141
330
1F
100
AcDbEntity
  8
1
  6
CONTINUOUS
 62
   252
100
AcDbEllipse
 10
555.745899
 20
446.924887
 30
0.0
 11
7.717436331412898
 21
-8.185577344976238
 31
0.0
210
0.0
220
0.0
230
1.0
 40
0.707107
 41
3.208218807680262
 42
3.785093715921264
  0
ELLIPSE
  5
142
330
1F
100
AcDbEntity
  8
1
  6
CONTINUOUS
 62
   252
100
AcDbEllipse
 10
532.380589
 20
492.582412
 30
0.0
 11
-0.0009999999999999159
 21
0.0
 31
0.0
210
0.0
220
0.0
230
1.0
 40
0.565685
 41
5.742765806904582
 42
7.31356213369905
  0
ELLIPSE
  5
143
330
1F
100
AcDbEntity
  8
1
  6
CONTINUOUS
 62
   252
100
AcDbEllipse
 10
556.044951
 20
516.544828
 30
0.0
 11
-1.501
 21
0.0
 31
0.0
210
0.0
220
0.0
230
1.0
 40
0.565685
 41
2.601173153319201
 42
3.386571316716636
  0
ELLIPSE
  5
144
330
1F
100
AcDbEntity
  8
1
  6
CONTINUOUS
 62
   252
100
AcDbEllipse
 10
556.044951
 20
441.091995
 30
0.0
 11
1.501
 21
0.0
 31
0.0
210
0.0
220
0.0
230
1.0
 40
0.565685
 41
5.742765806909008
 42
6.283181560066538
  0
ELLIPSE
  5
145
330
1F
100
AcDbEntity
  8
1
  6
CONTINUOUS
 62
   252
100
AcDbEllipse
 10
605.352509
 20
499.809288
 30
0.0
 11
-1.501
 21
0.0
 31
0.0
210
0.0
220
0.0
230
1.0
 40
0.565685
 41
4.957367643511553
 42
5.742765806908992
  0
ELLIPSE
  5
146
330
1F
100
AcDbEntity
  8
1
  6
CONTINUOUS
 62
   252
100
AcDbEllipse
 10
546.587203
 20
537.323066
 30
0.0
 11
-0.700140042014002
 21
4.950737714883372
 31
0.0
210
0.0
220
0.0
230
1.0
 40
0.2
 41
5.667705598509199
 42
6.2831880764973
  0
ELLIPSE
  5
147
330
1F
100
AcDbEntity
  8
1
  6
CONTINUOUS
 62
   252
100
AcDbEllipse
 10
648.64419
 20
502.683776
 30
0.0
 11
-4.573295603800236
 21
-2.021130208636109
 31
0.0
210
0.0
220
0.0
230
1.0
 40
0.8
 41
3.141612201652027
 42
4.372552070930566
  0
ELLIPSE
  5
148
330
1F
100
AcDbEntity
  8
1
  6
CONTINUOUS
 62
   252
100
AcDbEllipse
 10
537.824297
 20
421.094843
 30
0.0
 11
-1.457737973711325
 21
1.546164609606623
 31
0.0
210
0.0
220
0.0
230
0.9999999999999999
 40
0.707107
 41
0.0
 42
6.283185307179586
  0
ELLIPSE
  5
149
330
1F
100
AcDbEntity
  8
1
  6
CONTINUOUS
 62
   252
100
AcDbEllipse
 10
572.124014
 20
409.453133
 30
0.0
 11
-1.457737973711325
 21
1.546164609606623
 31
0.0
210
0.0
220
0.0
230
0.9999999999999999
 40
0.707107
 41
0.0
 42
6.283185307179586
  0
ELLIPSE
  5
14A
330
1F
100
AcDbEntity
  8
1
  6
CONTINUOUS
 62
   252
100
AcDbEllipse
 10
615.053006
 20
433.150485
 30
0.0
 11
-2.51531258209013
 21
-1.11162161474986
 31
0.0
210
0.0
220
0.0
230
0.9999999999999999
 40
0.8
 41
0.0
 42
6.283185307179586
  0
ELLIPSE
  5
14B
330
1F
100
AcDbEntity
  8
1
  6
CONTINUOUS
 62
   252
100
AcDbEllipse
 10
644.157281
 20
437.266451
 30
0.0
 11
-2.51531258209013
 21
-1.11162161474986
 31
0.0
210
0.0
220
0.0
230
0.9999999999999999
 40
0.8
 41
0.0
 42
6.283185307179586
  0
ELLIPSE
  5
14C
330
1F
100
AcDbEntity
  8
1
  6
CONTINUOUS
 62
   252
100
AcDbEllipse
 10
537.824297
 20
482.941427
 30
0.0
 11
-1.457737973711325
 21
1.546164609606623
 31
0.0
210
0.0
220
0.0
230
0.9999999999999999
 40
0.707107
 41
0.0
 42
6.283185307179586
  0
ELLIPSE
  5
14D
330
1F
100
AcDbEntity
  8
1
  6
CONTINUOUS
 62
   252
100
AcDbEllipse
 10
572.124014
 20
471.299717
 30
0.0
 11
-1.457737973711325
 21
1.546164609606623
 31
0.0
210
0.0
220
0.0
230
0.9999999999999999
 40
0.707107
 41
0.0
 42
6.283185307179586
  0
ELLIPSE
  5
14E
330
1F
100
AcDbEntity
  8
1
  6
CONTINUOUS
 62
   252
100
AcDbEllipse
 10
615.053006
 20
494.99707
 30
0.0
 11
-2.51531258209013
 21
-1.11162161474986
 31
0.0
210
0.0
220
0.0
230
0.9999999999999999
 40
0.8
 41
0.0
 42
6.283185307179586
  0
ELLIPSE
  5
14F
330
1F
100
AcDbEntity
  8
1
  6
CONTINUOUS
 62
   252
100
AcDbEllipse
 10
546.344668
 20
532.311737
 30
0.0
 11
-0.3850770231077011
 21
2.722905743185855
 31
0.0
210
0.0
220
0.0
230
1.0
 40
0.2
 41
0.0
 42
6.283185307179586
  0
ELLIPSE
  5
150
330
1F
100
AcDbEntity
  8
1
  6
CONTINUOUS
 62
   252
100
AcDbEllipse
 10
644.157281
 20
499.113036
 30
0.0
 11
-2.51531258209013
 21
-1.11162161474986
 31
0.0
210
0.0
220
0.0
230
0.9999999999999999
 40
0.8
 41
0.0
 42
6.283185307179586
  0
ELLIPSE
  5
151
330
1F
100
AcDbEntity
  8
1
  6
CONTINUOUS
 62
   252
100
AcDbEllipse
 10
553.620736
 20
515.847873
 30
0.0
 11
-0.3850770231077011
 21
2.722905743185855
 31
0.0
210
0.0
220
0.0
230
1.0
 40
0.2
 41
4.317704250319304
 42
6.283185307179586
  0
ELLIPSE
  5
152
330
1F
100
AcDbEntity
  8
1
  6
CONTINUOUS
 62
   252
100
AcDbEllipse
 10
553.620736
 20
515.847873
 30
0.0
 11
-0.3850770231077011
 21
2.722905743185855
 31
0.0
210
0.0
220
0.0
230
1.0
 40
0.2
 41
0.0
 42
2.246511393310388
  0
ELLIPSE
  5
153
330
1F
100
AcDbEntity
  8
1
  6
CONTINUOUS
 62
   252
100
AcDbEllipse
 10
545.13199
 20
537.117268
 30
0.0
 11
0.7001400420140051
 21
-4.950737714883371
 31
0.0
210
0.0
220
0.0
230
1.0
 40
0.2
 41
2.526112944919399
 42
4.096909271714306
  0
ELLIPSE
  5
154
330
1F
100
AcDbEntity
  8
1
  6
CONTINUOUS
 62
   252
100
AcDbEllipse
 10
605.352509
 20
499.809288
 30
0.0
 11
-0.0009999999999999159
 21
0.0
 31
0.0
210
0.0
220
0.0
230
1.0
 40
0.565685
 41
4.957367643510986
 42
5.742765806888327
  0
ELLIPSE
  5
155
330
1F
100
AcDbEntity
  8
1
  6
CONTINUOUS
 62
   252
100
AcDbEllipse
 10
532.380589
 20
492.582412
 30
0.0
 11
-1.501
 21
0.0
 31
0.0
210
0.0
220
0.0
230
1.0
 40
0.565685
 41
5.742765806909001
 42
7.313562133703897
  0
ELLIPSE
  5
156
330
1F
100
AcDbEntity
  8
1
  6
CONTINUOUS
 62
   252
100
AcDbEllipse
 10
579.112238
 20
476.721164
 30
0.0
 11
-1.501
 21
0.0
 31
0.0
210
0.0
220
0.0
230
1.0
 40
0.565685
 41
1.030376826524313
 42
2.601173153319208
  0
ELLIPSE
  5
157
330
1F
100
AcDbEntity
  8
1
  6
CONTINUOUS
 62
   252
100
AcDbEllipse
 10
579.112238
 20
401.268331
 30
0.0
 11
1.501
 21
0.0
 31
0.0
210
0.0
220
0.0
230
1.0
 40
0.565685
 41
4.171969480114106
 42
5.742765806909008
  0
ELLIPSE
  5
158
330
1F
100
AcDbEntity
  8
1
  6
CONTINUOUS
 62
   252
100
AcDbEllipse
 10
605.352509
 20
424.356455
 30
0.0
 11
0.0009999999999999159
 21
0.0
 31
0.0
210
0.0
220
0.0
230
1.0
 40
0.565685
 41
1.81577498993418
 42
2.601173153323732
  0
ELLIPSE
  5
159
330
1F
100
AcDbEntity
  8
1
  6
CONTINUOUS
 62
   252
100
AcDbEllipse
 10
649.007993
 20
434.653961
 30
0.0
 11
4.573295603800233
 21
2.021130208636115
 31
0.0
210
0.0
220
0.0
230
1.0
 40
0.8
 41
4.372552070930564
 42
5.943348397725464
  0
ELLIPSE
  5
15A
330
1F
100
AcDbEntity
  8
1
  6
CONTINUOUS
 62
   252
100
AcDbEllipse
 10
532.380589
 20
417.129579
 30
0.0
 11
1.501
 21
0.0
 31
0.0
210
0.0
220
0.0
230
1.0
 40
0.565685
 41
3.141601192740882
 42
4.171969480114102
  0
SPLINE
  5
15B
330
1F
100
AcDbEntity
  8
1
  6
CONTINUOUS
 62
    81
 60
     1
100
AcDbSpline
210
0.0
220
0.0
230
1.0
 70
    11
 71
     3
 72
    20
 73
    16
 74
     0
 42
0.000000001
 43
0.0000000001
 40
-0.1822439883332728
 40
0.0
 40
0.0
 40
0.0
 40
0.3112647074289688
 40
0.3112647074289688
 40
0.3112647074289688
 40
0.3299311944109977
 40
0.3299311944109977
 40
0.3299311944109977
 40
0.4913122345849058
 40
0.4913122345849058
 40
0.4913122345849058
 40
0.8177560116667272
 40
0.8177560116667272
 40
0.8177560116667272
 40
1.0
 40
1.0
 40
1.0
 40
1.311264707428969
 10
476.1318488047478
 20
340.0836295720696
 30
-0.0000000000000071
 10
478.2791108175241
 20
274.8351024888237
 30
-0.0000000000000071
 10
480.4263728303005
 20
209.5865754055777
 30
-0.0000000000000071
 10
482.5736348430769
 20
144.3380483223317
 30
-0.0000000000000071
 10
484.8021132778204
 20
141.1191072267374
 30
-0.0000000000000024
 10
487.0305917125638
 20
137.9001661311432
 30
0.0000000000000024
 10
489.2590701473073
 20
134.6812250355489
 30
0.0000000000000071
 10
523.1067094913582
 20
134.6812250355489
 30
0.0000000000000095
 10
556.9543488354088
 20
134.6812250355489
 30
0.0000000000000118
 10
590.8019881794596
 20
134.6812250355489
 30
0.0000000000000142
 10
590.8019881794596
 20
203.1486932143892
 30
0.0000000000000047
 10
590.8019881794596
 20
271.6161613932294
 30
-0.0000000000000047
 10
590.8019881794596
 20
340.0836295720697
 30
-0.0000000000000142
 10
552.578608387889
 20
340.0836295720696
 30
-0.0000000000000118
 10
514.3552285963184
 20
340.0836295720696
 30
-0.0000000000000095
 10
476.1318488047478
 20
340.0836295720696
 30
-0.0000000000000071
  0
MTEXT
  5
15C
330
1F
100
AcDbEntity
  8
TOP
  6
CONTINUOUS
 62
     2
100
AcDbMText
 10
797.894174
 20
40.412204
 30
0.0
 40
3.5
 41
0.0
 71
     8
 72
     5
  1
\W01.091;\fsimplex.shx,bigfont.shx;CORNER MOUNT\P
  7
DEFAULT
1001
ACAD
1000
MTEXTBEGIN
1070
    73
1070
     2
1070
    44
1040
1.204819
1000
MTEXTEND
  0
MTEXT
  5
160
102
{ACAD_REACTORS
330
250
102
}
330
1F
100
AcDbEntity
  8
TOP
  6
CONTINUOUS
 62
    80
100
AcDbMText
 10
701.428738
 20
578.91968
 30
0.0
 40
3.0
 41
0.0
 71
     7
 72
     5
  1
\W00.942;\fsimplex.shx,bigfont.shx;COLOR\P
  7
DEFAULT
1001
ACAD
1000
MTEXTBEGIN
1070
    73
1070
     2
1070
    44
1040
1.204819
1000
MTEXTEND
  0
MTEXT
  5
161
102
{ACAD_REACTORS
330
250
102
}
330
1F
100
AcDbEntity
  8
TOP
  6
CONTINUOUS
 62
    80
100
AcDbMText
 10
752.966055
 20
31.411782
 30
0.0
 40
2.8
 41
0.0
 71
     7
 72
     5
  1
\W00.956;\fsimplex.shx,bigfont.shx;NAME\P
  7
DEFAULT
1001
ACAD
1000
MTEXTBEGIN
1070
    73
1070
     2
1070
    44
1040
1.204819
1000
MTEXTEND
  0
MTEXT
  5
162
102
{ACAD_REACTORS
330
250
102
}
330
1F
100
AcDbEntity
  8
TOP
  6
CONTINUOUS
 62
    80
100
AcDbMText
 10
685.179624
 20
46.312162
 30
0.0
 40
2.5
 41
0.0
 71
     7
 72
     5
  1
\W01.076;\fsimplex.shx,bigfont.shx;DESIGN\P
  7
DEFAULT
1001
ACAD
1000
MTEXTBEGIN
1070
    73
1070
     2
1070
    44
1040
1.204819
1000
MTEXTEND
  0
MTEXT
  5
163
102
{ACAD_REACTORS
330
250
102
}
330
1F
100
AcDbEntity
  8
TOP
  6
CONTINUOUS
 62
    80
100
AcDbMText
 10
613.072376
 20
578.73657
 30
0.0
 40
3.0
 41
0.0
 71
     7
 72
     5
  1
\W01.040;\fsimplex.shx,bigfont.shx;PART NAME\P
  7
DEFAULT
1001
ACAD
1000
MTEXTBEGIN
1070
    73
1070
     2
1070
    44
1040
1.204819
1000
MTEXTEND
  0
MTEXT
  5
164
102
{ACAD_REACTORS
330
250
102
}
330
1F
100
AcDbEntity
  8
TOP
  6
CONTINUOUS
 62
    80
100
AcDbMText
 10
729.863021
 20
46.312162
 30
0.0
 40
2.5
 41
0.0
 71
     7
 72
     5
  1
\W01.050;\fsimplex.shx,bigfont.shx;APPROVAL\P
  7
DEFAULT
1001
ACAD
1000
MTEXTBEGIN
1070
    73
1070
     2
1070
    44
1040
1.204819
1000
MTEXTEND
  0
MTEXT
  5
165
102
{ACAD_REACTORS
330
250
102
}
330
1F
100
AcDbEntity
  8
TOP
  6
CONTINUOUS
 62
    80
100
AcDbMText
 10
17.521957
 20
18.5332
 30
0.0
 40
4.167172
 41
0.0
 71
     7
 72
     5
  1
\W01.000;\fsimplex.shx,bigfont.shx;CHANGE\P
  7
DEFAULT
 11
1.186823893889355E-6
 21
0.9999999999992957
 31
0.0
1001
ACAD
1000
MTEXTBEGIN
1070
    73
1070
     2
1070
    44
1040
1.204819
1000
MTEXTEND
  0
MTEXT
  5
166
102
{ACAD_REACTORS
330
250
102
}
330
1F
100
AcDbEntity
  8
TOP
  6
CONTINUOUS
 62
    80
100
AcDbMText
 10
598.702835
 20
578.82129
 30
0.0
 40
3.0
 41
0.0
 71
     7
 72
     5
  1
\W00.808;\fsimplex.shx,bigfont.shx;NO\P
  7
DEFAULT
1001
ACAD
1000
MTEXTBEGIN
1070
    73
1070
     2
1070
    44
1040
1.204819
1000
MTEXTEND
  0
MTEXT
  5
167
102
{ACAD_REACTORS
330
250
102
}
330
1F
100
AcDbEntity
  8
TOP
  6
CONTINUOUS
 62
    80
100
AcDbMText
 10
658.273588
 20
578.91968
 30
0.0
 40
3.0
 41
0.0
 71
     7
 72
     5
  1
\W01.036;\fsimplex.shx,bigfont.shx;CODE NO.\P
  7
DEFAULT
1001
ACAD
1000
MTEXTBEGIN
1070
    73
1070
     2
1070
    44
1040
1.204819
1000
MTEXTEND
  0
MTEXT
  5
168
102
{ACAD_REACTORS
330
250
102
}
330
1F
100
AcDbEntity
  8
TOP
  6
CONTINUOUS
 62
    80
100
AcDbMText
 10
735.143272
 20
579.040297
 30
0.0
 40
2.799999
 41
0.0
 71
     7
 72
     5
  1
\W00.949;\fsimplex.shx,bigfont.shx;Q'TY\P
  7
DEFAULT
1001
ACAD
1000
MTEXTBEGIN
1070
    73
1070
     2
1070
    44
1040
1.204819
1000
MTEXTEND
  0
MTEXT
  5
169
102
{ACAD_REACTORS
330
250
102
}
330
1F
100
AcDbEntity
  8
TOP
  6
CONTINUOUS
 62
    80
100
AcDbMText
 10
0.917068
 20
560.666667
 30
0.0
 40
4.0
 41
0.0
 71
     7
 72
     5
  1
\W00.429;\fsimplex.shx,bigfont.shx;*\P
  7
DEFAULT
1001
ACAD
1000
MTEXTBEGIN
1070
    73
1070
     2
1070
    44
1040
1.204819
1000
MTEXTEND
  0
MTEXT
  5
16A
102
{ACAD_REACTORS
330
250
102
}
330
1F
100
AcDbEntity
  8
TOP
  6
CONTINUOUS
 62
    80
100
AcDbMText
 10
0.917068
 20
283.666667
 30
0.0
 40
4.0
 41
0.0
 71
     7
 72
     5
  1
\W00.429;\fsimplex.shx,bigfont.shx;*\P
  7
DEFAULT
1001
ACAD
1000
MTEXTBEGIN
1070
    73
1070
     2
1070
    44
1040
1.204819
1000
MTEXTEND
  0
MTEXT
  5
16B
102
{ACAD_REACTORS
330
250
102
}
330
1F
100
AcDbEntity
  8
TOP
  6
CONTINUOUS
 62
    80
100
AcDbMText
 10
198.917065
 20
2.666667
 30
0.0
 40
4.0
 41
0.0
 71
     7
 72
     5
  1
\W00.429;\fsimplex.shx,bigfont.shx;*\P
  7
DEFAULT
1001
ACAD
1000
MTEXTBEGIN
1070
    73
1070
     2
1070
    44
1040
1.204819
1000
MTEXTEND
  0
MTEXT
  5
16C
102
{ACAD_REACTORS
330
250
102
}
330
1F
100
AcDbEntity
  8
TOP
  6
CONTINUOUS
 62
    80
100
AcDbMText
 10
388.917065
 20
2.666667
 30
0.0
 40
4.0
 41
0.0
 71
     7
 72
     5
  1
\W00.429;\fsimplex.shx,bigfont.shx;*\P
  7
DEFAULT
1001
ACAD
1000
MTEXTBEGIN
1070
    73
1070
     2
1070
    44
1040
1.204819
1000
MTEXTEND
  0
MTEXT
  5
16D
102
{ACAD_REACTORS
330
250
102
}
330
1F
100
AcDbEntity
  8
TOP
  6
CONTINUOUS
 62
    80
100
AcDbMText
 10
578.917065
 20
2.666667
 30
0.0
 40
4.0
 41
0.0
 71
     7
 72
     5
  1
\W00.429;\fsimplex.shx,bigfont.shx;*\P
  7
DEFAULT
1001
ACAD
1000
MTEXTBEGIN
1070
    73
1070
     2
1070
    44
1040
1.204819
1000
MTEXTEND
  0
MTEXT
  5
16E
102
{ACAD_REACTORS
330
250
102
}
330
1F
100
AcDbEntity
  8
TOP
  6
CONTINUOUS
 62
    80
100
AcDbMText
 10
768.916975
 20
2.666667
 30
0.0
 40
4.0
 41
0.0
 71
     7
 72
     5
  1
\W00.429;\fsimplex.shx,bigfont.shx;*\P
  7
DEFAULT
1001
ACAD
1000
MTEXTBEGIN
1070
    73
1070
     2
1070
    44
1040
1.204819
1000
MTEXTEND
  0
MTEXT
  5
16F
102
{ACAD_REACTORS
330
250
102
}
330
1F
100
AcDbEntity
  8
TOP
  6
CONTINUOUS
 62
    80
100
AcDbMText
 10
838.285716
 20
560.666667
 30
0.0
 40
4.0
 41
0.0
 71
     7
 72
     5
  1
\W01.000;\fsimplex.shx,bigfont.shx; \P
  7
DEFAULT
1001
ACAD
1000
MTEXTBEGIN
1070
    73
1070
     2
1070
    44
1040
1.204819
1000
MTEXTEND
  0
MTEXT
  5
170
102
{ACAD_REACTORS
330
250
102
}
330
1F
100
AcDbEntity
  8
TOP
  6
CONTINUOUS
 62
    80
100
AcDbMText
 10
833.916965
 20
283.666667
 30
0.0
 40
4.0
 41
0.0
 71
     7
 72
     5
  1
\W00.429;\fsimplex.shx,bigfont.shx;*\P
  7
DEFAULT
1001
ACAD
1000
MTEXTBEGIN
1070
    73
1070
     2
1070
    44
1040
1.204819
1000
MTEXTEND
  0
MTEXT
  5
171
102
{ACAD_REACTORS
330
250
102
}
330
1F
100
AcDbEntity
  8
TOP
  6
CONTINUOUS
 62
    80
100
AcDbMText
 10
833.916965
 20
560.666667
 30
0.0
 40
4.0
 41
0.0
 71
     7
 72
     5
  1
\W00.429;\fsimplex.shx,bigfont.shx;*\P
  7
DEFAULT
1001
ACAD
1000
MTEXTBEGIN
1070
    73
1070
     2
1070
    44
1040
1.204819
1000
MTEXTEND
  0
MTEXT
  5
172
102
{ACAD_REACTORS
330
250
102
}
330
1F
100
AcDbEntity
  8
TOP
  6
CONTINUOUS
 62
    80
100
AcDbMText
 10
199.285816
 20
588.666667
 30
0.0
 40
4.0
 41
0.0
 71
     7
 72
     5
  1
\W01.000;\fsimplex.shx,bigfont.shx; \P
  7
DEFAULT
1001
ACAD
1000
MTEXTBEGIN
1070
    73
1070
     2
1070
    44
1040
1.204819
1000
MTEXTEND
  0
MTEXT
  5
173
102
{ACAD_REACTORS
330
250
102
}
330
1F
100
AcDbEntity
  8
TOP
  6
CONTINUOUS
 62
    80
100
AcDbMText
 10
198.917065
 20
582.666667
 30
0.0
 40
4.0
 41
0.0
 71
     7
 72
     5
  1
\W00.429;\fsimplex.shx,bigfont.shx;*\P
  7
DEFAULT
1001
ACAD
1000
MTEXTBEGIN
1070
    73
1070
     2
1070
    44
1040
1.204819
1000
MTEXTEND
  0
MTEXT
  5
174
102
{ACAD_REACTORS
330
250
102
}
330
1F
100
AcDbEntity
  8
TOP
  6
CONTINUOUS
 62
    80
100
AcDbMText
 10
388.917065
 20
582.666667
 30
0.0
 40
4.0
 41
0.0
 71
     7
 72
     5
  1
\W00.429;\fsimplex.shx,bigfont.shx;*\P
  7
DEFAULT
1001
ACAD
1000
MTEXTBEGIN
1070
    73
1070
     2
1070
    44
1040
1.204819
1000
MTEXTEND
  0
MTEXT
  5
175
102
{ACAD_REACTORS
330
250
102
}
330
1F
100
AcDbEntity
  8
TOP
  6
CONTINUOUS
 62
    80
100
AcDbMText
 10
578.917065
 20
582.666667
 30
0.0
 40
4.0
 41
0.0
 71
     7
 72
     5
  1
\W00.429;\fsimplex.shx,bigfont.shx;*\P
  7
DEFAULT
1001
ACAD
1000
MTEXTBEGIN
1070
    73
1070
     2
1070
    44
1040
1.204819
1000
MTEXTEND
  0
MTEXT
  5
176
102
{ACAD_REACTORS
330
250
102
}
330
1F
100
AcDbEntity
  8
TOP
  6
CONTINUOUS
 62
    80
100
AcDbMText
 10
768.916975
 20
582.666667
 30
0.0
 40
4.0
 41
0.0
 71
     7
 72
     5
  1
\W00.429;\fsimplex.shx,bigfont.shx;*\P
  7
DEFAULT
1001
ACAD
1000
MTEXTBEGIN
1070
    73
1070
     2
1070
    44
1040
1.204819
1000
MTEXTEND
  0
MTEXT
  5
177
102
{ACAD_REACTORS
330
250
102
}
330
1F
100
AcDbEntity
  8
TOP
  6
CONTINUOUS
 62
    80
100
AcDbMText
 10
230.984186
 20
4.5
 30
0.0
 40
3.0
 41
0.0
 71
     7
 72
     5
  1
\W00.547;\fsimplex.shx,bigfont.shx;4\P
  7
DEFAULT
1001
ACAD
1000
MTEXTBEGIN
1070
    73
1070
     2
1070
    44
1040
1.204819
1000
MTEXTEND
  0
MTEXT
  5
178
102
{ACAD_REACTORS
330
250
102
}
330
1F
100
AcDbEntity
  8
TOP
  6
CONTINUOUS
 62
    80
100
AcDbMText
 10
294.291521
 20
4.5
 30
0.0
 40
3.0
 41
0.0
 71
     7
 72
     5
  1
\W00.521;\fsimplex.shx,bigfont.shx;5\P
  7
DEFAULT
1001
ACAD
1000
MTEXTBEGIN
1070
    73
1070
     2
1070
    44
1040
1.204819
1000
MTEXTEND
  0
MTEXT
  5
179
102
{ACAD_REACTORS
330
250
102
}
330
1F
100
AcDbEntity
  8
TOP
  6
CONTINUOUS
 62
    80
100
AcDbMText
 10
357.598856
 20
4.5
 30
0.0
 40
3.0
 41
0.0
 71
     7
 72
     5
  1
\W00.483;\fsimplex.shx,bigfont.shx;6\P
  7
DEFAULT
1001
ACAD
1000
MTEXTBEGIN
1070
    73
1070
     2
1070
    44
1040
1.204819
1000
MTEXTEND
  0
MTEXT
  5
17A
102
{ACAD_REACTORS
330
250
102
}
330
1F
100
AcDbEntity
  8
TOP
  6
CONTINUOUS
 62
    80
100
AcDbMText
 10
420.958271
 20
4.5
 30
0.0
 40
3.0
 41
0.0
 71
     7
 72
     5
  1
\W00.521;\fsimplex.shx,bigfont.shx;7\P
  7
DEFAULT
1001
ACAD
1000
MTEXTBEGIN
1070
    73
1070
     2
1070
    44
1040
1.204819
1000
MTEXTEND
  0
MTEXT
  5
17B
102
{ACAD_REACTORS
330
250
102
}
330
1F
100
AcDbEntity
  8
TOP
  6
CONTINUOUS
 62
    80
100
AcDbMText
 10
484.291521
 20
4.5
 30
0.0
 40
3.0
 41
0.0
 71
     7
 72
     5
  1
\W00.521;\fsimplex.shx,bigfont.shx;8\P
  7
DEFAULT
1001
ACAD
1000
MTEXTBEGIN
1070
    73
1070
     2
1070
    44
1040
1.204819
1000
MTEXTEND
  0
MTEXT
  5
17C
102
{ACAD_REACTORS
330
250
102
}
330
1F
100
AcDbEntity
  8
TOP
  6
CONTINUOUS
 62
    80
100
AcDbMText
 10
547.598856
 20
4.5
 30
0.0
 40
3.0
 41
0.0
 71
     7
 72
     5
  1
\W00.513;\fsimplex.shx,bigfont.shx;9\P
  7
DEFAULT
1001
ACAD
1000
MTEXTBEGIN
1070
    73
1070
     2
1070
    44
1040
1.204819
1000
MTEXTEND
  0
MTEXT
  5
17D
102
{ACAD_REACTORS
330
250
102
}
330
1F
100
AcDbEntity
  8
TOP
  6
CONTINUOUS
 62
    80
100
AcDbMText
 10
611.2077
 20
4.5
 30
0.0
 40
3.0
 41
0.0
 71
     7
 72
     5
  1
\W00.958;\fsimplex.shx,bigfont.shx;10\P
  7
DEFAULT
1001
ACAD
1000
MTEXTBEGIN
1070
    73
1070
     2
1070
    44
1040
1.204819
1000
MTEXTEND
  0
MTEXT
  5
17E
102
{ACAD_REACTORS
330
250
102
}
330
1F
100
AcDbEntity
  8
TOP
  6
CONTINUOUS
 62
    80
100
AcDbMText
 10
674.616857
 20
4.5
 30
0.0
 40
3.0
 41
0.0
 71
     7
 72
     5
  1
\W01.291;\fsimplex.shx,bigfont.shx;11\P
  7
DEFAULT
1001
ACAD
1000
MTEXTBEGIN
1070
    73
1070
     2
1070
    44
1040
1.204819
1000
MTEXTEND
  0
MTEXT
  5
17F
102
{ACAD_REACTORS
330
250
102
}
330
1F
100
AcDbEntity
  8
TOP
  6
CONTINUOUS
 62
    80
100
AcDbMText
 10
737.87452
 20
4.5
 30
0.0
 40
3.0
 41
0.0
 71
     7
 72
     5
  1
\W00.958;\fsimplex.shx,bigfont.shx;12\P
  7
DEFAULT
1001
ACAD
1000
MTEXTBEGIN
1070
    73
1070
     2
1070
    44
1040
1.204819
1000
MTEXTEND
  0
MTEXT
  5
180
102
{ACAD_REACTORS
330
250
102
}
330
1F
100
AcDbEntity
  8
TOP
  6
CONTINUOUS
 62
    80
100
AcDbMText
 10
800.04102
 20
4.5
 30
0.0
 40
3.0
 41
0.0
 71
     7
 72
     5
  1
\W00.958;\fsimplex.shx,bigfont.shx;13\P
  7
DEFAULT
1001
ACAD
1000
MTEXTBEGIN
1070
    73
1070
     2
1070
    44
1040
1.204819
1000
MTEXTEND
  0
MTEXT
  5
181
102
{ACAD_REACTORS
330
250
102
}
330
1F
100
AcDbEntity
  8
TOP
  6
CONTINUOUS
 62
    80
100
AcDbMText
 10
8.333332
 20
43.910815
 30
0.0
 40
4.0
 41
0.0
 71
     7
 72
     5
  1
\W00.869;\fsimplex.shx,bigfont.shx;A\P
  7
DEFAULT
 11
1.186823894333445E-6
 21
0.9999999999992957
 31
0.0
1001
ACAD
1000
MTEXTBEGIN
1070
    73
1070
     2
1070
    44
1040
1.204819
1000
MTEXTEND
  0
MTEXT
  5
182
102
{ACAD_REACTORS
330
250
102
}
330
1F
100
AcDbEntity
  8
TOP
  6
CONTINUOUS
 62
    80
100
AcDbMText
 10
8.333332
 20
113.160814
 30
0.0
 40
4.0
 41
0.0
 71
     7
 72
     5
  1
\W00.820;\fsimplex.shx,bigfont.shx;B\P
  7
DEFAULT
 11
1.186823894333445E-6
 21
0.9999999999992957
 31
0.0
1001
ACAD
1000
MTEXTBEGIN
1070
    73
1070
     2
1070
    44
1040
1.204819
1000
MTEXTEND
  0
MTEXT
  5
183
102
{ACAD_REACTORS
330
250
102
}
330
1F
100
AcDbEntity
  8
TOP
  6
CONTINUOUS
 62
    80
100
AcDbMText
 10
8.333332
 20
182.410814
 30
0.0
 40
4.0
 41
0.0
 71
     7
 72
     5
  1
\W00.820;\fsimplex.shx,bigfont.shx;C\P
  7
DEFAULT
 11
1.186823894333445E-6
 21
0.9999999999992957
 31
0.0
1001
ACAD
1000
MTEXTBEGIN
1070
    73
1070
     2
1070
    44
1040
1.204819
1000
MTEXTEND
  0
MTEXT
  5
184
102
{ACAD_REACTORS
330
250
102
}
330
1F
100
AcDbEntity
  8
TOP
  6
CONTINUOUS
 62
    80
100
AcDbMText
 10
8.333332
 20
251.660814
 30
0.0
 40
4.0
 41
0.0
 71
     7
 72
     5
  1
\W00.820;\fsimplex.shx,bigfont.shx;D\P
  7
DEFAULT
 11
1.186823894333445E-6
 21
0.9999999999992957
 31
0.0
1001
ACAD
1000
MTEXTBEGIN
1070
    73
1070
     2
1070
    44
1040
1.204819
1000
MTEXTEND
  0
MTEXT
  5
185
102
{ACAD_REACTORS
330
250
102
}
330
1F
100
AcDbEntity
  8
TOP
  6
CONTINUOUS
 62
    80
100
AcDbMText
 10
8.333332
 20
320.910814
 30
0.0
 40
4.0
 41
0.0
 71
     7
 72
     5
  1
\W00.869;\fsimplex.shx,bigfont.shx;E\P
  7
DEFAULT
 11
1.186823894333445E-6
 21
0.9999999999992957
 31
0.0
1001
ACAD
1000
MTEXTBEGIN
1070
    73
1070
     2
1070
    44
1040
1.204819
1000
MTEXTEND
  0
MTEXT
  5
186
102
{ACAD_REACTORS
330
250
102
}
330
1F
100
AcDbEntity
  8
TOP
  6
CONTINUOUS
 62
    80
100
AcDbMText
 10
8.333332
 20
390.160814
 30
0.0
 40
4.0
 41
0.0
 71
     7
 72
     5
  1
\W00.869;\fsimplex.shx,bigfont.shx;F\P
  7
DEFAULT
 11
1.186823894333445E-6
 21
0.9999999999992957
 31
0.0
1001
ACAD
1000
MTEXTBEGIN
1070
    73
1070
     2
1070
    44
1040
1.204819
1000
MTEXTEND
  0
MTEXT
  5
187
102
{ACAD_REACTORS
330
250
102
}
330
1F
100
AcDbEntity
  8
TOP
  6
CONTINUOUS
 62
    80
100
AcDbMText
 10
8.333332
 20
459.410814
 30
0.0
 40
4.0
 41
0.0
 71
     7
 72
     5
  1
\W00.820;\fsimplex.shx,bigfont.shx;G\P
  7
DEFAULT
 11
1.186823894333445E-6
 21
0.9999999999992957
 31
0.0
1001
ACAD
1000
MTEXTBEGIN
1070
    73
1070
     2
1070
    44
1040
1.204819
1000
MTEXTEND
  0
MTEXT
  5
188
102
{ACAD_REACTORS
330
250
102
}
330
1F
100
AcDbEntity
  8
TOP
  6
CONTINUOUS
 62
    80
100
AcDbMText
 10
8.333332
 20
528.660814
 30
0.0
 40
4.0
 41
0.0
 71
     7
 72
     5
  1
\W00.820;\fsimplex.shx,bigfont.shx;H\P
  7
DEFAULT
 11
1.186823894333445E-6
 21
0.9999999999992957
 31
0.0
1001
ACAD
1000
MTEXTBEGIN
1070
    73
1070
     2
1070
    44
1040
1.204819
1000
MTEXTEND
  0
MTEXT
  5
189
102
{ACAD_REACTORS
330
250
102
}
330
1F
100
AcDbEntity
  8
TOP
  6
CONTINUOUS
 62
    80
100
AcDbMText
 10
8.333332
 20
573.285814
 30
0.0
 40
4.0
 41
0.0
 71
     7
 72
     5
  1
\W03.691;\fsimplex.shx,bigfont.shx;I\P
  7
DEFAULT
 11
1.186823894333445E-6
 21
0.9999999999992957
 31
0.0
1001
ACAD
1000
MTEXTBEGIN
1070
    73
1070
     2
1070
    44
1040
1.204819
1000
MTEXTEND
  0
MTEXT
  5
18A
102
{ACAD_REACTORS
330
250
102
}
330
1F
100
AcDbEntity
  8
TOP
  6
CONTINUOUS
 62
    80
100
AcDbMText
 10
657.936053
 20
43.99522
 30
0.0
 40
2.4
 41
0.0
 71
     7
 72
     5
  1
\W01.053;\fsimplex.shx,bigfont.shx;UNIT\P
  7
DEFAULT
1001
ACAD
1000
MTEXTBEGIN
1070
    73
1070
     2
1070
    44
1040
1.204819
1000
MTEXTEND
  0
MTEXT
  5
18B
102
{ACAD_REACTORS
330
250
102
}
330
1F
100
AcDbEntity
  8
TOP
  6
CONTINUOUS
 62
    80
100
AcDbMText
 10
656.683572
 20
34.594121
 30
0.0
 40
2.4
 41
0.0
 71
     7
 72
     5
  1
\W00.991;\fsimplex.shx,bigfont.shx;SCALE\P
  7
DEFAULT
1001
ACAD
1000
MTEXTBEGIN
1070
    73
1070
     2
1070
    44
1040
1.204819
1000
MTEXTEND
  0
MTEXT
  5
18C
102
{ACAD_REACTORS
330
250
102
}
330
1F
100
AcDbEntity
  8
TOP
  6
CONTINUOUS
 62
    80
100
AcDbMText
 10
709.852995
 20
46.312162
 30
0.0
 40
2.5
 41
0.0
 71
     7
 72
     5
  1
\W00.997;\fsimplex.shx,bigfont.shx;CHECK\P
  7
DEFAULT
1001
ACAD
1000
MTEXTBEGIN
1070
    73
1070
     2
1070
    44
1040
1.204819
1000
MTEXTEND
  0
MTEXT
  5
18D
102
{ACAD_REACTORS
330
250
102
}
330
1F
100
AcDbEntity
  8
TOP
  6
CONTINUOUS
 62
    80
100
AcDbMText
 10
752.91909
 20
35.921769
 30
0.0
 40
2.8
 41
0.0
 71
     7
 72
     5
  1
\W00.949;\fsimplex.shx,bigfont.shx;PART\P
  7
DEFAULT
1001
ACAD
1000
MTEXTBEGIN
1070
    73
1070
     2
1070
    44
1040
1.204819
1000
MTEXTEND
  0
MTEXT
  5
18E
102
{ACAD_REACTORS
330
250
102
}
330
1F
100
AcDbEntity
  8
TOP
  6
CONTINUOUS
 62
    80
100
AcDbMText
 10
752.783322
 20
14.959857
 30
0.0
 40
2.8
 41
0.0
 71
     7
 72
     5
  1
\W00.968;\fsimplex.shx,bigfont.shx;CODE\P
  7
DEFAULT
1001
ACAD
1000
MTEXTBEGIN
1070
    73
1070
     2
1070
    44
1040
1.204819
1000
MTEXTEND
  0
MTEXT
  5
18F
102
{ACAD_REACTORS
330
250
102
}
330
1F
100
AcDbEntity
  8
TOP
  6
CONTINUOUS
 62
    80
100
AcDbMText
 10
752.802525
 20
10.894517
 30
0.0
 40
2.8
 41
0.0
 71
     7
 72
     5
  1
\W00.561;\fsimplex.shx,bigfont.shx; NO\P
  7
DEFAULT
1001
ACAD
1000
MTEXTBEGIN
1070
    73
1070
     2
1070
    44
1040
1.204819
1000
MTEXTEND
  0
MTEXT
  5
190
102
{ACAD_REACTORS
330
250
102
}
330
1F
100
AcDbEntity
  8
TOP
  6
CONTINUOUS
 62
    80
100
AcDbMText
 10
663.623264
 20
11.208505
 30
0.0
 40
4.5
 41
0.0
 71
     7
 72
     5
  1
\W00.886;\fsimplex.shx,bigfont.shx;SAMSUNG TECHWIN CO.\P
  7
DEFAULT
1001
ACAD
1000
MTEXTBEGIN
1070
    73
1070
     2
1070
    44
1040
1.204819
1000
MTEXTEND
  0
MTEXT
  5
191
102
{ACAD_REACTORS
330
250
102
}
330
1F
100
AcDbEntity
  8
TOP
  6
CONTINUOUS
 62
    80
100
AcDbMText
 10
671.572526
 20
43.401512
 30
0.0
 40
3.8
 41
0.0
 71
     7
 72
     5
  1
\W00.850;\fsimplex.shx,bigfont.shx;mm\P
  7
DEFAULT
1001
ACAD
1000
MTEXTBEGIN
1070
    73
1070
     2
1070
    44
1040
1.204819
1000
MTEXTEND
  0
MTEXT
  5
192
102
{ACAD_REACTORS
330
250
102
}
330
1F
100
AcDbEntity
  8
TOP
  6
CONTINUOUS
 62
    80
100
AcDbMText
 10
659.201526
 20
27.163736
 30
0.0
 40
2.5
 41
0.0
 71
     7
 72
     5
  1
\W00.880;\fsimplex.shx,bigfont.shx;NODE\P
  7
DEFAULT
1001
ACAD
1000
MTEXTBEGIN
1070
    73
1070
     2
1070
    44
1040
1.204819
1000
MTEXTEND
  0
MTEXT
  5
193
102
{ACAD_REACTORS
330
250
102
}
330
1F
100
AcDbEntity
  8
TOP
  6
CONTINUOUS
 62
    80
100
AcDbMText
 10
671.513217
 20
27.116896
 30
0.0
 40
2.4
 41
0.0
 71
     7
 72
     5
  1
\W00.963;\fsimplex.shx,bigfont.shx;DIRECTORY\P
  7
DEFAULT
1001
ACAD
1000
MTEXTBEGIN
1070
    73
1070
     2
1070
    44
1040
1.204819
1000
MTEXTEND
  0
MTEXT
  5
194
102
{ACAD_REACTORS
330
250
102
}
330
1F
100
AcDbEntity
  8
TOP
  6
CONTINUOUS
 62
    80
100
AcDbMText
 10
709.67818
 20
27.163427
 30
0.0
 40
2.5
 41
0.0
 71
     7
 72
     5
  1
\W00.962;\fsimplex.shx,bigfont.shx;FILE NAME\P
  7
DEFAULT
1001
ACAD
1000
MTEXTBEGIN
1070
    73
1070
     2
1070
    44
1040
1.204819
1000
MTEXTEND
  0
MTEXT
  5
195
102
{ACAD_REACTORS
330
250
102
}
330
1F
100
AcDbEntity
  8
TOP
  6
CONTINUOUS
 62
    80
100
AcDbMText
 10
11.572013
 20
53.179704
 30
0.0
 40
2.5
 41
0.0
 71
     7
 72
     5
  1
\W00.889;\fsimplex.shx,bigfont.shx;This parts should not contain any substances which are specified in OQA-2049\P
  7
DEFAULT
1001
ACAD
1000
MTEXTBEGIN
1070
    73
1070
     2
1070
    44
1040
1.204819
1000
MTEXTEND
  0
MTEXT
  5
196
330
1F
100
AcDbEntity
  8
TOP
  6
CONTINUOUS
 62
    53
100
AcDbMText
 10
669.190979
 20
33.611932
 30
0.0
 40
3.5
 41
0.0
 71
     7
 72
     5
  1
\W01.268;\fsimplex.shx;1/1\fsimplex.shx,bigfont.shx;\P
  7
DEFAULT
1001
ACAD
1000
MTEXTBEGIN
1070
    73
1070
     2
1070
    44
1040
1.204819
1000
MTEXTEND
  0
MTEXT
  5
197
330
1F
100
AcDbEntity
  8
TOP
  6
CONTINUOUS
 62
    80
100
AcDbMText
 10
761.292107
 20
578.985528
 30
0.0
 40
3.0
 41
0.0
 71
     7
 72
     5
  1
\W01.003;\fsimplex.shx,bigfont.shx;REMARK\P
  7
DEFAULT
1001
ACAD
1000
MTEXTBEGIN
1070
    73
1070
     2
1070
    44
1040
1.204819
1000
MTEXTEND
  0
MTEXT
  5
198
330
1F
100
AcDbEntity
  8
TOP
  6
CONTINUOUS
 62
    53
100
AcDbMText
 10
782.58736
 20
25.573808
 30
0.0
 40
3.5
 41
0.0
 71
     7
 72
     5
  1
\W00.990;\fsimplex.shx,bigfont.shx;SBP-300KM\P
  7
DEFAULT
1001
ACAD
1000
MTEXTBEGIN
1070
    44
1040
0.903614
1000
MTEXTEND
  0
LINE
  5
199
330
1F
100
AcDbEntity
  8
TOP
  6
CENTER
 62
     1
100
AcDbLine
 10
243.7842
 20
235.838048
 30
0.0
 11
298.7842
 21
235.838048
 31
0.0
  0
LINE
  5
19A
330
1F
100
AcDbEntity
  8
TOP
  6
CENTER
 62
     1
100
AcDbLine
 10
271.2842
 20
208.338048
 30
0.0
 11
271.2842
 21
263.338048
 31
0.0
  0
LINE
  5
19B
330
1F
100
AcDbEntity
  8
TOP
  6
CENTER
 62
     1
100
AcDbLine
 10
302.0342
 20
310.838048
 30
0.0
 11
320.5342
 21
310.838048
 31
0.0
  0
LINE
  5
19C
330
1F
100
AcDbEntity
  8
TOP
  6
CENTER
 62
     1
100
AcDbLine
 10
311.2842
 20
301.588048
 30
0.0
 11
311.2842
 21
320.088048
 31
0.0
  0
LINE
  5
19D
330
1F
100
AcDbEntity
  8
TOP
  6
CENTER
 62
     1
100
AcDbLine
 10
302.0342
 20
160.838048
 30
0.0
 11
320.5342
 21
160.838048
 31
0.0
  0
LINE
  5
19E
330
1F
100
AcDbEntity
  8
TOP
  6
CENTER
 62
     1
100
AcDbLine
 10
311.2842
 20
151.588048
 30
0.0
 11
311.2842
 21
170.088048
 31
0.0
  0
LINE
  5
19F
330
1F
100
AcDbEntity
  8
TOP
  6
CENTER
 62
     1
100
AcDbLine
 10
222.0342
 20
160.838048
 30
0.0
 11
240.5342
 21
160.838048
 31
0.0
  0
LINE
  5
1A0
330
1F
100
AcDbEntity
  8
TOP
  6
CENTER
 62
     1
100
AcDbLine
 10
231.2842
 20
151.588048
 30
0.0
 11
231.2842
 21
170.088048
 31
0.0
  0
LINE
  5
1A1
330
1F
100
AcDbEntity
  8
TOP
  6
CENTER
 62
     1
100
AcDbLine
 10
222.0342
 20
310.838048
 30
0.0
 11
240.5342
 21
310.838048
 31
0.0
  0
LINE
  5
1A2
330
1F
100
AcDbEntity
  8
TOP
  6
CENTER
 62
     1
100
AcDbLine
 10
231.2842
 20
301.588048
 30
0.0
 11
231.2842
 21
320.088048
 31
0.0
  0
LINE
  5
1A3
330
1F
100
AcDbEntity
  8
TOP
  6
CENTER
 62
     1
100
AcDbLine
 10
482.073635
 20
309.338048
 30
0.0
 11
523.073635
 21
309.338048
 31
0.0
  0
LINE
  5
1A4
330
1F
100
AcDbEntity
  8
TOP
  6
CENTER
 62
     1
100
AcDbLine
 10
502.573635
 20
288.838048
 30
0.0
 11
502.573635
 21
329.838048
 31
0.0
  0
LINE
  5
1A5
330
1F
100
AcDbEntity
  8
TOP
  6
CENTER
 62
     1
100
AcDbLine
 10
542.073635
 20
309.338048
 30
0.0
 11
583.073635
 21
309.338048
 31
0.0
  0
LINE
  5
1A6
330
1F
100
AcDbEntity
  8
TOP
  6
CENTER
 62
     1
100
AcDbLine
 10
562.573635
 20
288.838048
 30
0.0
 11
562.573635
 21
329.838048
 31
0.0
  0
LINE
  5
1A7
330
1F
100
AcDbEntity
  8
TOP
  6
CENTER
 62
     1
100
AcDbLine
 10
542.073635
 20
159.338048
 30
0.0
 11
583.073635
 21
159.338048
 31
0.0
  0
LINE
  5
1A8
330
1F
100
AcDbEntity
  8
TOP
  6
CENTER
 62
     1
100
AcDbLine
 10
562.573635
 20
138.838048
 30
0.0
 11
562.573635
 21
179.838048
 31
0.0
  0
LINE
  5
1A9
330
1F
100
AcDbEntity
  8
TOP
  6
CENTER
 62
     1
100
AcDbLine
 10
482.073635
 20
159.338048
 30
0.0
 11
523.073635
 21
159.338048
 31
0.0
  0
LINE
  5
1AA
330
1F
100
AcDbEntity
  8
TOP
  6
CENTER
 62
     1
100
AcDbLine
 10
502.573635
 20
138.838048
 30
0.0
 11
502.573635
 21
179.838048
 31
0.0
  0
LINE
  5
1AB
330
1F
100
AcDbEntity
  8
TOP
  6
CONTINUOUS
 62
     1
100
AcDbLine
 10
311.2842
 20
366.011693
 30
0.0
 11
311.2842
 21
404.011693
 31
0.0
  0
LINE
  5
1AC
330
1F
100
AcDbEntity
  8
TOP
  6
CONTINUOUS
 62
     1
100
AcDbLine
 10
231.2842
 20
366.011693
 30
0.0
 11
231.2842
 21
404.011693
 31
0.0
  0
INSERT
  5
1B2
330
1F
100
AcDbEntity
  8
TOP
  6
CONTINUOUS
 62
     1
100
AcDbBlockReference
  2
LABLE3D_1
 10
0.0
 20
0.0
 30
0.0
  0
MTEXT
  5
1B5
102
{ACAD_REACTORS
330
24F
102
}
330
1F
100
AcDbEntity
  8
TOP
  6
CONTINUOUS
 62
     1
100
AcDbMText
 10
425.149413
 20
351.385585
 30
0.0
 40
3.5
 41
0.0
 71
     7
 72
     5
  1
\W01.148;\fsimplex.shx,bigfont.shx;R\P
  7
DEFAULT
 11
0.7023789880882971
 21
0.7118031729994324
 31
0.0
1001
ACAD
1000
MTEXTBEGIN
1070
    44
1040
0.903614
1000
MTEXTEND
  0
MTEXT
  5
1B6
102
{ACAD_REACTORS
330
24F
102
}
330
1F
100
AcDbEntity
  8
TOP
  6
CONTINUOUS
 62
     1
100
AcDbMText
 10
427.582132
 20
353.850945
 30
0.0
 40
3.5
 41
0.0
 71
     7
 72
     5
  1
\W00.878;\fsimplex.shx,bigfont.shx;10\P
  7
DEFAULT
 11
0.7023789880882971
 21
0.7118031729994324
 31
0.0
1001
ACAD
1000
MTEXTBEGIN
1070
    44
1040
0.903614
1000
MTEXTEND
  0
MTEXT
  5
1B7
102
{ACAD_REACTORS
330
24F
102
}
330
1F
100
AcDbEntity
  8
TOP
  6
CONTINUOUS
 62
     1
100
AcDbMText
 10
417.823191
 20
343.961063
 30
0.0
 40
3.5
 41
0.0
 71
     7
 72
     5
  1
\W00.984;\fsimplex.shx,bigfont.shx;4-\P
  7
DEFAULT
 11
0.7023789880882971
 21
0.7118031729994324
 31
0.0
1001
ACAD
1000
MTEXTBEGIN
1070
    44
1040
0.903614
1000
MTEXTEND
  0
LINE
  5
1B8
102
{ACAD_REACTORS
330
1BB
102
}
330
1F
100
AcDbEntity
  8
1
  6
CONTINUOUS
 62
     7
 60
     1
100
AcDbLine
 10
398.171078
 20
323.16285
 30
0.0
 11
396.380299
 21
320.012834
 31
0.0
  0
LINE
  5
1B9
102
{ACAD_REACTORS
330
1BB
102
}
330
1F
100
AcDbEntity
  8
1
  6
CONTINUOUS
 62
     7
 60
     1
100
AcDbLine
 10
396.380299
 20
320.012834
 30
0.0
 11
395.045204
 21
321.330243
 31
0.0
  0
LINE
  5
1BA
102
{ACAD_REACTORS
330
1BB
102
}
330
1F
100
AcDbEntity
  8
1
  6
CONTINUOUS
 62
     7
 60
     1
100
AcDbLine
 10
395.045204
 20
321.330243
 30
0.0
 11
398.171078
 21
323.16285
 31
0.0
  0
HATCH
  5
1BB
102
{ACAD_REACTORS
330
24F
102
}
330
1F
100
AcDbEntity
  8
TOP
  6
CONTINUOUS
 62
     7
100
AcDbHatch
 10
0.0
 20
0.0
 30
0.0
210
0.0
220
0.0
230
1.0
  2
ANSI31
 70
     0
 71
     1
 91
        1
 92
        0
 93
        3
 72
     1
 10
398.1710780916134
 20
323.1628496482041
 11
396.3802988516771
 21
320.0128344055036
 72
     1
 10
396.3802988516771
 20
320.0128344055036
 11
395.0452044149316
 21
321.3302426799087
 72
     1
 10
395.0452044149316
 20
321.3302426799087
 11
398.1710780916134
 21
323.1628496482041
 97
        3
330
1B8
330
1B9
330
1BA
 75
     0
 76
     0
 52
45.0
 41
0.001
 77
     0
 78
     1
 53
44.99999999999994
 43
0.0
 44
0.0
 45
-0.0007071067811865
 46
0.0007071067811865
 79
     0
 98
        0
  0
DIMENSION
  5
1C6
330
1F
100
AcDbEntity
  8
TOP
  6
CONTINUOUS
 62
     1
100
AcDbDimension
  2
DIMNDRAFT3D1
 10
311.2842
 20
123.044542
 30
0.0
 11
259.865742
 21
126.794542
 31
0.0
 70
    32
  1
\C1 <> 
  3
STANDARD
100
AcDbAlignedDimension
 13
231.2842
 23
160.538048
 33
0.0
 14
311.2842
 24
160.538048
 34
0.0
100
AcDbRotatedDimension
1001
ACAD
1000
DSTYLE
1002
{
1070
   271
1070
     2
1070
   272
1070
     2
1070
    77
1070
     1
1070
    73
1070
     0
1070
   171
1070
     3
1070
   274
1070
     4
1070
   177
1070
     1
1070
   176
1070
     1
1070
   178
1070
     1
1070
    78
1070
     8
1070
    48
1040
-0.005
1070
    41
1041
3.5
1070
   147
1041
1.5
1070
    42
1041
0.3
1070
    44
1041
2.0
1070
   140
1041
3.5
1070
     6
1000
_CLOSEDFILLED_TYPE
1070
     7
1000
_CLOSEDFILLED_TYPE
1002
}
  0
DIMENSION
  5
1D0
330
1F
100
AcDbEntity
  8
TOP
  6
CONTINUOUS
 62
     1
100
AcDbDimension
  2
DIMNDRAFT3D2
 10
328.784786
 20
109.372121
 30
0.0
 11
267.580179
 21
113.122121
 31
0.0
 70
    33
  1
\C1 <> 
  3
STANDARD
100
AcDbAlignedDimension
 13
213.7842
 23
144.038048
 33
0.0
 14
328.784786
 24
144.038048
 34
0.0
1001
ACAD
1000
DSTYLE
1002
{
1070
   271
1070
     2
1070
   272
1070
     2
1070
    77
1070
     1
1070
    73
1070
     0
1070
   171
1070
     3
1070
   274
1070
     4
1070
   177
1070
     1
1070
   176
1070
     1
1070
   178
1070
     1
1070
    78
1070
     8
1070
    48
1040
-0.005
1070
    41
1041
3.5
1070
   147
1041
1.5
1070
    42
1041
0.3
1070
    44
1041
2.0
1070
   140
1041
3.5
1070
     6
1000
_CLOSEDFILLED_TYPE
1070
     7
1000
_CLOSEDFILLED_TYPE
1002
}
  0
DIMENSION
  5
1D8
330
1F
100
AcDbEntity
  8
TOP
  6
CONTINUOUS
 62
     1
100
AcDbDimension
  2
DIMNDRAFT3D3
 10
215.904935
 20
480.133599
 30
0.0
 11
266.942159
 21
513.364693
 31
0.0
 70
    34
  1
\C1 <> 
  3
STANDARD
100
AcDb2LineAngularDimension
 13
326.663466
 23
480.133599
 33
0.0
 14
390.302076
 24
543.772209
 34
0.0
 15
152.266325
 25
543.772209
 35
0.0
 16
271.2842
 26
515.114693
 36
0.0
1001
ACAD
1000
DSTYLE
1002
{
1070
   271
1070
     2
1070
   272
1070
     2
1070
    77
1070
     1
1070
    73
1070
     0
1070
   171
1070
     3
1070
   274
1070
     4
1070
   177
1070
     1
1070
   176
1070
     1
1070
   178
1070
     1
1070
    78
1070
     8
1070
    48
1040
-0.005
1070
    41
1041
3.5
1070
   147
1041
1.5
1070
    42
1041
0.3
1070
    44
1041
2.0
1070
   140
1041
3.5
1070
     6
1000
_CLOSEDFILLED_TYPE
1070
     7
1000
_CLOSEDFILLED_TYPE
1002
}
  0
DIMENSION
  5
1E0
330
1F
100
AcDbEntity
  8
TOP
  6
CONTINUOUS
 62
     1
100
AcDbDimension
  2
DIMNDRAFT3D4
 10
287.581201
 20
251.351197
 30
0.0
 11
298.622893
 21
265.485939
 31
0.0
 70
    35
 53
43.588427
  3
STANDARD
100
AcDbDiametricDimension
 15
-759.257298
 25
291.217204
 35
0.0
 40
0.0
1001
ACAD
1000
DSTYLE
1002
{
1070
    75
1070
     1
1070
    76
1070
     1
1070
   271
1070
     2
1070
   272
1070
     2
1070
    77
1070
     1
1070
    73
1070
     0
1070
   171
1070
     3
1070
   274
1070
     4
1070
   177
1070
     1
1070
   176
1070
     1
1070
   178
1070
     1
1070
    78
1070
     8
1070
    48
1040
-0.005
1070
    41
1041
3.5
1070
   147
1041
1.5
1070
    42
1041
0.3
1070
    44
1041
2.0
1070
   140
1041
3.5
1070
     6
1000
_CLOSEDFILLED_TYPE
1070
     7
1000
_CLOSEDFILLED_TYPE
1002
}
  0
DIMENSION
  5
1E9
330
1F
100
AcDbEntity
  8
TOP
  6
CONTINUOUS
 62
     1
100
AcDbDimension
  2
DIMNDRAFT3D5
 10
558.662391
 20
305.471245
 30
0.0
 11
533.853988
 21
284.636001
 31
0.0
 70
    35
 53
44.67264
  3
STANDARD
100
AcDbDiametricDimension
 15
566.484879
 25
-924.147341
 35
0.0
 40
0.0
1001
ACAD
1000
DSTYLE
1002
{
1070
    75
1070
     1
1070
    76
1070
     1
1070
   271
1070
     2
1070
   272
1070
     2
1070
    77
1070
     1
1070
    73
1070
     0
1070
   171
1070
     3
1070
   274
1070
     4
1070
   177
1070
     1
1070
   176
1070
     1
1070
   178
1070
     1
1070
    78
1070
     8
1070
    48
1040
-0.005
1070
    41
1041
3.5
1070
   147
1041
1.5
1070
    42
1041
0.3
1070
    44
1041
2.0
1070
   140
1041
3.5
1070
     6
1000
_CLOSEDFILLED_TYPE
1070
     7
1000
_CLOSEDFILLED_TYPE
1002
}
  0
DIMENSION
  5
1F2
330
1F
100
AcDbEntity
  8
TOP
  6
CONTINUOUS
 62
     1
100
AcDbDimension
  2
DIMNDRAFT3D6
 10
257.920709
 20
327.338048
 30
0.0
 11
256.170709
 21
275.403111
 31
0.0
 70
    32
  1
\C1 <> 
 53
90.0
  3
STANDARD
100
AcDbAlignedDimension
 13
270.9842
 23
327.338048
 33
0.0
 14
257.920709
 24
235.838048
 34
0.0
 50
90.0
100
AcDbRotatedDimension
1001
ACAD
1000
DSTYLE
1002
{
1070
   271
1070
     2
1070
   272
1070
     2
1070
    77
1070
     1
1070
    73
1070
     0
1070
   171
1070
     3
1070
   274
1070
     4
1070
   177
1070
     1
1070
   176
1070
     1
1070
   178
1070
     1
1070
    78
1070
     8
1070
    48
1040
-0.005
1070
    41
1041
3.5
1070
   147
1041
1.5
1070
    42
1041
0.3
1070
    44
1041
2.0
1070
   140
1041
3.5
1070
     6
1000
_CLOSEDFILLED_TYPE
1070
     7
1000
_CLOSEDFILLED_TYPE
1002
}
  0
DIMENSION
  5
1FD
330
1F
100
AcDbEntity
  8
TOP
  6
CONTINUOUS
 62
     1
100
AcDbDimension
  2
DIMNDRAFT3D7
 10
354.651055
 20
310.838048
 30
0.0
 11
350.901055
 21
221.699944
 31
0.0
 70
    32
  1
\C1 <> 
 53
90.0
  3
STANDARD
100
AcDbAlignedDimension
 13
320.8342
 23
160.838048
 33
0.0
 14
320.8342
 24
310.838048
 34
0.0
 50
90.0
100
AcDbRotatedDimension
1001
ACAD
1000
DSTYLE
1002
{
1070
   271
1070
     2
1070
   272
1070
     2
1070
    77
1070
     1
1070
    73
1070
     0
1070
   171
1070
     3
1070
   274
1070
     4
1070
   177
1070
     1
1070
   176
1070
     1
1070
   178
1070
     1
1070
    78
1070
     8
1070
    48
1040
-0.005
1070
    41
1041
3.5
1070
   147
1041
1.5
1070
    42
1041
0.3
1070
    44
1041
2.0
1070
   140
1041
3.5
1070
     6
1000
_CLOSEDFILLED_TYPE
1070
     7
1000
_CLOSEDFILLED_TYPE
1002
}
  0
DIMENSION
  5
208
330
1F
100
AcDbEntity
  8
TOP
  6
CONTINUOUS
 62
     1
100
AcDbDimension
  2
DIMNDRAFT3D8
 10
375.589392
 20
144.338048
 30
0.0
 11
371.839392
 21
222.686069
 31
0.0
 70
    32
  1
\C1 <> 
 53
90.0
  3
STANDARD
100
AcDbAlignedDimension
 13
360.905091
 23
327.338048
 33
0.0
 14
360.904091
 24
144.338048
 34
0.0
 50
90.0
100
AcDbRotatedDimension
1001
ACAD
1000
DSTYLE
1002
{
1070
   271
1070
     2
1070
   272
1070
     2
1070
    77
1070
     1
1070
    73
1070
     0
1070
   171
1070
     3
1070
   274
1070
     4
1070
   177
1070
     1
1070
   176
1070
     1
1070
   178
1070
     1
1070
    78
1070
     8
1070
    48
1040
-0.005
1070
    41
1041
3.5
1070
   147
1041
1.5
1070
    42
1041
0.3
1070
    44
1041
2.0
1070
   140
1041
3.5
1070
     6
1000
_CLOSEDFILLED_TYPE
1070
     7
1000
_CLOSEDFILLED_TYPE
1002
}
  0
DIMENSION
  5
212
330
1F
100
AcDbEntity
  8
TOP
  6
CONTINUOUS
 62
     1
100
AcDbDimension
  2
DIMNDRAFT3D9
 10
458.230592
 20
159.338048
 30
0.0
 11
458.480592
 21
229.886632
 31
0.0
 70
    32
  1
\C1 <> 
 53
90.0
  3
STANDARD
100
AcDbAlignedDimension
 13
481.773635
 23
309.338048
 33
0.0
 14
481.773635
 24
159.338048
 34
0.0
 50
90.0
100
AcDbRotatedDimension
1001
ACAD
1000
DSTYLE
1002
{
1070
   271
1070
     2
1070
   272
1070
     2
1070
    77
1070
     1
1070
    73
1070
     0
1070
   171
1070
     3
1070
   274
1070
     4
1070
   177
1070
     1
1070
   176
1070
     1
1070
   178
1070
     1
1070
    78
1070
     8
1070
    48
1040
-0.005
1070
    41
1041
3.5
1070
   147
1041
1.5
1070
    42
1041
0.3
1070
    44
1041
2.0
1070
   140
1041
3.5
1070
     6
1000
_CLOSEDFILLED_TYPE
1070
     7
1000
_CLOSEDFILLED_TYPE
1002
}
  0
DIMENSION
  5
21C
330
1F
100
AcDbEntity
  8
TOP
  6
CONTINUOUS
 62
     1
100
AcDbDimension
  2
DIMNDRAFT3D10
 10
271.2842
 20
209.274353
 30
0.0
 11
235.601574
 21
213.024353
 31
0.0
 70
    32
  1
\C1 <> 
  3
STANDARD
100
AcDbAlignedDimension
 13
213.783615
 23
235.537048
 33
0.0
 14
271.2842
 24
235.538048
 34
0.0
100
AcDbRotatedDimension
1001
ACAD
1000
DSTYLE
1002
{
1070
   271
1070
     2
1070
   272
1070
     2
1070
    77
1070
     1
1070
    73
1070
     0
1070
   171
1070
     3
1070
   274
1070
     4
1070
   177
1070
     1
1070
   176
1070
     1
1070
   178
1070
     1
1070
    78
1070
     8
1070
    48
1040
-0.005
1070
    41
1041
3.5
1070
   147
1041
1.5
1070
    42
1041
0.3
1070
    44
1041
2.0
1070
   140
1041
3.5
1070
     6
1000
_CLOSEDFILLED_TYPE
1070
     7
1000
_CLOSEDFILLED_TYPE
1002
}
  0
DIMENSION
  5
226
330
1F
100
AcDbEntity
  8
TOP
  6
CONTINUOUS
 62
     1
100
AcDbDimension
  2
DIMNDRAFT3D11
 10
582.573635
 20
373.782912
 30
0.0
 11
528.122218
 21
373.532912
 31
0.0
 70
    32
  1
\C1 <> 
  3
STANDARD
100
AcDbAlignedDimension
 13
482.573635
 23
327.638048
 33
0.0
 14
582.573635
 24
317.638048
 34
0.0
100
AcDbRotatedDimension
1001
ACAD
1000
DSTYLE
1002
{
1070
   271
1070
     2
1070
   272
1070
     2
1070
    77
1070
     1
1070
    73
1070
     0
1070
   171
1070
     3
1070
   274
1070
     4
1070
   177
1070
     1
1070
   176
1070
     1
1070
   178
1070
     1
1070
    78
1070
     8
1070
    48
1040
-0.005
1070
    41
1041
3.5
1070
   147
1041
1.5
1070
    42
1041
0.3
1070
    44
1041
2.0
1070
   140
1041
3.5
1070
     6
1000
_CLOSEDFILLED_TYPE
1070
     7
1000
_CLOSEDFILLED_TYPE
1002
}
  0
DIMENSION
  5
230
330
1F
100
AcDbEntity
  8
TOP
  6
CONTINUOUS
 62
     1
100
AcDbDimension
  2
DIMNDRAFT3D12
 10
582.573635
 20
352.688319
 30
0.0
 11
569.108343
 21
352.438319
 31
0.0
 70
    32
  1
\C1 <> 
  3
STANDARD
100
AcDbAlignedDimension
 13
562.573635
 23
309.638048
 33
0.0
 14
582.573635
 24
317.638048
 34
0.0
100
AcDbRotatedDimension
1001
ACAD
1000
DSTYLE
1002
{
1070
   271
1070
     2
1070
   272
1070
     2
1070
    77
1070
     1
1070
    73
1070
     0
1070
   171
1070
     3
1070
   274
1070
     4
1070
   177
1070
     1
1070
   176
1070
     1
1070
   178
1070
     1
1070
    78
1070
     8
1070
    48
1040
-0.005
1070
    41
1041
3.5
1070
   147
1041
1.5
1070
    42
1041
0.3
1070
    44
1041
2.0
1070
   140
1041
3.5
1070
     6
1000
_CLOSEDFILLED_TYPE
1070
     7
1000
_CLOSEDFILLED_TYPE
1002
}
  0
DIMENSION
  5
23A
330
1F
100
AcDbEntity
  8
TOP
  6
CONTINUOUS
 62
     1
100
AcDbDimension
  2
DIMNDRAFT3D13
 10
562.573635
 20
352.297679
 30
0.0
 11
529.108343
 21
352.047679
 31
0.0
 70
    32
  1
\C1 <> 
  3
STANDARD
100
AcDbAlignedDimension
 13
502.573635
 23
309.638048
 33
0.0
 14
562.573635
 24
309.638048
 34
0.0
100
AcDbRotatedDimension
1001
ACAD
1000
DSTYLE
1002
{
1070
   271
1070
     2
1070
   272
1070
     2
1070
    77
1070
     1
1070
    73
1070
     0
1070
   171
1070
     3
1070
   274
1070
     4
1070
   177
1070
     1
1070
   176
1070
     1
1070
   178
1070
     1
1070
    78
1070
     8
1070
    48
1040
-0.005
1070
    41
1041
3.5
1070
   147
1041
1.5
1070
    42
1041
0.3
1070
    44
1041
2.0
1070
   140
1041
3.5
1070
     6
1000
_CLOSEDFILLED_TYPE
1070
     7
1000
_CLOSEDFILLED_TYPE
1002
}
  0
DIMENSION
  5
244
330
1F
100
AcDbEntity
  8
TOP
  6
CONTINUOUS
 62
     1
100
AcDbDimension
  2
DIMNDRAFT3D14
 10
160.827654
 20
378.011693
 30
0.0
 11
161.077654
 21
423.559862
 31
0.0
 70
    33
  1
\C1 <> 
 53
90.0
  3
STANDARD
100
AcDbAlignedDimension
 13
213.4842
 23
478.010864
 33
0.0
 14
216.4862
 24
378.011693
 34
0.0
1001
ACAD
1000
DSTYLE
1002
{
1070
   271
1070
     2
1070
   272
1070
     2
1070
    77
1070
     1
1070
    73
1070
     0
1070
   171
1070
     3
1070
   274
1070
     4
1070
   177
1070
     1
1070
   176
1070
     1
1070
   178
1070
     1
1070
    78
1070
     8
1070
    48
1040
-0.005
1070
    41
1041
3.5
1070
   147
1041
1.5
1070
    42
1041
0.3
1070
    44
1041
2.0
1070
   140
1041
3.5
1070
     6
1000
_CLOSEDFILLED_TYPE
1070
     7
1000
_CLOSEDFILLED_TYPE
1002
}
  0
DIMENSION
  5
24E
330
1F
100
AcDbEntity
  8
TOP
  6
CONTINUOUS
 62
     1
100
AcDbDimension
  2
DIMNDRAFT3D15
 10
356.384767
 20
381.011693
 30
0.0
 11
352.634767
 21
383.279922
 31
0.0
 70
    33
  1
\C1 <> 
 53
90.0
  3
STANDARD
100
AcDbAlignedDimension
 13
311.5852
 23
389.011693
 33
0.0
 14
326.0822
 24
381.011693
 34
0.0
1001
ACAD
1000
DSTYLE
1002
{
1070
   271
1070
     2
1070
   272
1070
     2
1070
    77
1070
     1
1070
    73
1070
     0
1070
   171
1070
     3
1070
   274
1070
     4
1070
   177
1070
     1
1070
   176
1070
     1
1070
   178
1070
     1
1070
    78
1070
     8
1070
    48
1040
-0.005
1070
    41
1041
3.5
1070
   147
1041
1.5
1070
    42
1041
0.3
1070
    44
1041
2.0
1070
   140
1041
3.5
1070
     6
1000
_CLOSEDFILLED_TYPE
1070
     7
1000
_CLOSEDFILLED_TYPE
1002
}
  0
ENDSEC
  0
SECTION
  2
OBJECTS
  0
DICTIONARY
  5
C
330
0
100
AcDbDictionary
  3
ACAD_GROUP
350
D
  3
ACAD_LAYOUT
350
1A
  3
ACAD_MLEADERSTYLE
350
282
  3
ACAD_MLINESTYLE
350
17
  3
ACAD_PLOTSETTINGS
350
19
  3
ACAD_TABLESTYLE
350
281
  3
ACAD_VISUALSTYLE
350
2A
  3
ACDBHEADERROUNDTRIPXREC
350
261
  0
DICTIONARY
  5
D
102
{ACAD_REACTORS
330
C
102
}
330
C
100
AcDbDictionary
  3
A1
350
250
  3
DIMENSION
350
24F
  0
DICTIONARY
  5
1A
102
{ACAD_REACTORS
330
C
102
}
330
C
100
AcDbDictionary
  0
DICTIONARY
  5
282
102
{ACAD_REACTORS
330
C
102
}
330
C
100
AcDbDictionary
  0
DICTIONARY
  5
17
102
{ACAD_REACTORS
330
C
102
}
330
C
100
AcDbDictionary
  3
STANDARD
350
18
  0
DICTIONARY
  5
19
102
{ACAD_REACTORS
330
C
102
}
330
C
100
AcDbDictionary
  0
DICTIONARY
  5
281
102
{ACAD_REACTORS
330
C
102
}
330
C
100
AcDbDictionary
  0
DICTIONARY
  5
2A
102
{ACAD_REACTORS
330
C
102
}
330
C
100
AcDbDictionary
  3
2DWIREFRAME
350
2F
  3
3D_HIDDEN
350
31
  3
3DWIREFRAME
350
30
  3
BASIC
350
32
  3
BRIGHTEN
350
36
  3
COLORCHANGE
350
3A
  3
CONCEPTUAL
350
34
  3
DIM
350
35
  3
FACEPATTERN
350
39
  3
FLAT
350
2B
  3
FLATWITHEDGES
350
2C
  3
GOURAUD
350
2D
  3
GOURAUDWITHEDGES
350
2E
  3
LINEPATTERN
350
38
  3
REALISTIC
350
33
  3
THICKEN
350
37
  0
DICTIONARY
  5
261
102
{ACAD_REACTORS
330
C
102
}
330
C
100
AcDbDictionary
  3
CEPSNTYPE
350
26A
  3
DIMSTYLEDATA
350
280
  3
FINGERPRINTGUID
350
26B
  3
HYPERLINKBASE
350
264
  3
INSUNITS
350
269
  3
LAYOUTDICT
350
266
  3
LWETCUNION
350
268
  3
PLOTSETDICT
350
267
  3
PSVPSCALE
350
26D
  3
PUCSBASE
350
270
  3
PUCSORGBACK
350
276
  3
PUCSORGBOTTOM
350
272
  3
PUCSORGFRONT
350
275
  3
PUCSORGLEFT
350
273
  3
PUCSORGRIGHT
350
274
  3
PUCSORGTOP
350
271
  3
PUCSORTHOREF
350
26E
  3
PUCSORTHOVIEW
350
26F
  3
STYLESHEET
350
265
  3
TSTACKALIGN
350
262
  3
TSTACKSIZE
350
263
  3
UCSBASE
350
279
  3
UCSORGBACK
350
27F
  3
UCSORGBOTTOM
350
27B
  3
UCSORGFRONT
350
27E
  3
UCSORGLEFT
350
27C
  3
UCSORGRIGHT
350
27D
  3
UCSORGTOP
350
27A
  3
UCSORTHOREF
350
277
  3
UCSORTHOVIEW
350
278
  3
VERSIONGUID
350
26C
  0
GROUP
  5
250
102
{ACAD_REACTORS
330
D
102
}
330
D
100
AcDbGroup
300

 70
     0
 71
     1
340
AB
340
AD
340
AE
340
AF
340
B0
340
B1
340
B2
340
B3
340
B4
340
B5
340
B6
340
B7
340
B8
340
B9
340
BA
340
BB
340
BC
340
BD
340
BE
340
BF
340
C0
340
C1
340
C2
340
C3
340
C4
340
C5
340
C6
340
C7
340
C8
340
C9
340
CA
340
CB
340
CC
340
CD
340
CE
340
CF
340
D0
340
D1
340
D2
340
D3
340
D4
340
D5
340
D6
340
D7
340
D8
340
D9
340
DA
340
DB
340
DC
340
DD
340
DE
340
DF
340
E0
340
E1
340
E2
340
E3
340
E4
340
E5
340
E6
340
E7
340
E8
340
E9
340
EA
340
EB
340
EC
340
ED
340
EE
340
EF
340
F0
340
F1
340
F2
340
F3
340
165
340
166
340
163
340
167
340
160
340
168
340
169
340
16A
340
16B
340
16C
340
16D
340
16E
340
16F
340
170
340
171
340
172
340
173
340
174
340
175
340
176
340
177
340
178
340
179
340
17A
340
17B
340
17C
340
17D
340
17E
340
17F
340
180
340
181
340
182
340
183
340
184
340
185
340
186
340
187
340
188
340
189
340
18A
340
18B
340
162
340
18C
340
18D
340
161
340
18E
340
18F
340
164
340
190
340
191
340
192
340
193
340
194
340
195
  0
GROUP
  5
24F
102
{ACAD_REACTORS
330
D
102
}
330
D
100
AcDbGroup
300

 70
     0
 71
     1
340
105
340
1B5
340
1B6
340
1B7
340
1BB
  0
MLINESTYLE
  5
18
102
{ACAD_REACTORS
330
17
102
}
330
17
100
AcDbMlineStyle
  2
Standard
 70
     0
  3

 62
   256
 51
90.0
 52
90.0
 71
     2
 49
0.5
 62
   256
  6
BYLAYER
 49
-0.5
 62
   256
  6
BYLAYER
  0
VISUALSTYLE
  5
2F
102
{ACAD_REACTORS
330
2A
102
}
330
2A
100
AcDbVisualStyle
  2
2dWireframe
 70
     4
 71
     0
 72
     2
 73
     0
 90
        0
 40
-0.6
 41
-30.0
 62
     5
 63
     7
 74
     1
 91
        4
 64
     7
 65
   257
 75
     1
175
     1
 42
1.0
 92
        0
 66
   257
 43
1.0
 76
     1
 77
     6
 78
     2
 67
     7
 79
     5
170
     0
171
     0
290
     0
174
     0
 93
        1
 44
0.0
173
     0
291
     0
 45
0.0
1001
ACAD
1000
AcDbSavedByObjectVersion
1070
     0
  0
VISUALSTYLE
  5
31
102
{ACAD_REACTORS
330
2A
102
}
330
2A
100
AcDbVisualStyle
  2
3D Hidden
 70
     6
 71
     1
 72
     2
 73
     2
 90
        0
 40
-0.6
 41
-30.0
 62
     5
 63
     7
 74
     2
 91
        2
 64
     7
 65
   257
 75
     2
175
     1
 42
40.0
 92
        0
 66
   257
 43
1.0
 76
     1
 77
     6
 78
     2
 67
     7
 79
     3
170
     0
171
     0
290
     0
174
     0
 93
        1
 44
0.0
173
     0
291
     0
 45
0.0
1001
ACAD
1000
AcDbSavedByObjectVersion
1070
     0
  0
VISUALSTYLE
  5
30
102
{ACAD_REACTORS
330
2A
102
}
330
2A
100
AcDbVisualStyle
  2
3dWireframe
 70
     5
 71
     0
 72
     2
 73
     0
 90
        0
 40
-0.6
 41
-30.0
 62
     5
 63
     7
 74
     1
 91
        4
 64
     7
 65
   257
 75
     1
175
     1
 42
1.0
 92
        0
 66
   257
 43
1.0
 76
     1
 77
     6
 78
     2
 67
     7
 79
     5
170
     0
171
     0
290
     0
174
     0
 93
        1
 44
0.0
173
     0
291
     0
 45
0.0
1001
ACAD
1000
AcDbSavedByObjectVersion
1070
     0
  0
VISUALSTYLE
  5
32
102
{ACAD_REACTORS
330
2A
102
}
330
2A
100
AcDbVisualStyle
  2
Basic
 70
     7
 71
     1
 72
     0
 73
     1
 90
        0
 40
-0.6
 41
-30.0
 62
     5
 63
     7
 74
     0
 91
        4
 64
     7
 65
   257
 75
     1
175
     1
 42
1.0
 92
        8
 66
     7
 43
1.0
 76
     1
 77
     6
 78
     2
 67
     7
 79
     5
170
     0
171
     0
290
     0
174
     0
 93
        1
 44
0.0
173
     0
291
     1
 45
0.0
1001
ACAD
1000
AcDbSavedByObjectVersion
1070
     0
  0
VISUALSTYLE
  5
36
102
{ACAD_REACTORS
330
2A
102
}
330
2A
100
AcDbVisualStyle
  2
Brighten
 70
    12
 71
     2
 72
     2
 73
     0
 90
        0
 40
-0.6
 41
-30.0
 62
     5
 63
     7
 74
     1
 91
        4
 64
     7
 65
   257
 75
     1
175
     1
 42
1.0
 92
        8
 66
     7
 43
1.0
 76
     1
 77
     6
 78
     2
 67
     7
 79
     5
170
     0
171
     0
290
     0
174
     0
 93
        1
 44
50.0
173
     0
291
     1
 45
0.0
1001
ACAD
1000
AcDbSavedByObjectVersion
1070
     0
  0
VISUALSTYLE
  5
3A
102
{ACAD_REACTORS
330
2A
102
}
330
2A
100
AcDbVisualStyle
  2
ColorChange
 70
    16
 71
     2
 72
     2
 73
     3
 90
        0
 40
-0.6
 41
-30.0
 62
     5
 63
     8
 74
     1
 91
        4
 64
     7
 65
   257
 75
     1
175
     1
 42
1.0
 92
        8
 66
     8
 43
1.0
 76
     1
 77
     6
 78
     2
 67
     7
 79
     5
170
     0
171
     0
290
     0
174
     0
 93
        1
 44
0.0
173
     0
291
     1
 45
0.0
1001
ACAD
1000
AcDbSavedByObjectVersion
1070
     0
  0
VISUALSTYLE
  5
34
102
{ACAD_REACTORS
330
2A
102
}
330
2A
100
AcDbVisualStyle
  2
Conceptual
 70
     9
 71
     3
 72
     2
 73
     0
 90
        0
 40
-0.6
 41
-30.0
 62
     5
 63
     7
 74
     2
 91
        2
 64
     7
 65
   257
 75
     1
175
     1
 42
40.0
 92
        8
 66
     7
 43
1.0
 76
     1
 77
     6
 78
     2
 67
     7
 79
     3
170
     0
171
     0
290
     0
174
     0
 93
        1
 44
0.0
173
     0
291
     0
 45
0.0
1001
ACAD
1000
AcDbSavedByObjectVersion
1070
     0
  0
VISUALSTYLE
  5
35
102
{ACAD_REACTORS
330
2A
102
}
330
2A
100
AcDbVisualStyle
  2
Dim
 70
    11
 71
     2
 72
     2
 73
     0
 90
        0
 40
-0.6
 41
-30.0
 62
     5
 63
     7
 74
     1
 91
        4
 64
     7
 65
   257
 75
     1
175
     1
 42
1.0
 92
        8
 66
     7
 43
1.0
 76
     1
 77
     6
 78
     2
 67
     7
 79
     5
170
     0
171
     0
290
     0
174
     0
 93
        1
 44
-50.0
173
     0
291
     1
 45
0.0
1001
ACAD
1000
AcDbSavedByObjectVersion
1070
     0
  0
VISUALSTYLE
  5
39
102
{ACAD_REACTORS
330
2A
102
}
330
2A
100
AcDbVisualStyle
  2
Facepattern
 70
    15
 71
     2
 72
     2
 73
     0
 90
        0
 40
-0.6
 41
-30.0
 62
     5
 63
     7
 74
     1
 91
        4
 64
     7
 65
   257
 75
     1
175
     1
 42
1.0
 92
        8
 66
     7
 43
1.0
 76
     1
 77
     6
 78
     2
 67
     7
 79
     5
170
     0
171
     0
290
     0
174
     0
 93
        1
 44
0.0
173
     0
291
     1
 45
0.0
1001
ACAD
1000
AcDbSavedByObjectVersion
1070
     0
  0
VISUALSTYLE
  5
2B
102
{ACAD_REACTORS
330
2A
102
}
330
2A
100
AcDbVisualStyle
  2
Flat
 70
     0
 71
     2
 72
     1
 73
     1
 90
        2
 40
-0.6
 41
30.0
 62
     5
 63
     7
 74
     0
 91
        4
 64
     7
 65
   257
 75
     1
175
     1
 42
1.0
 92
        8
 66
     7
 43
1.0
 76
     1
 77
     6
 78
     2
 67
     7
 79
     5
170
     0
171
     0
290
     0
174
     0
 93
       13
 44
0.0
173
     0
291
     1
 45
0.0
1001
ACAD
1000
AcDbSavedByObjectVersion
1070
     0
  0
VISUALSTYLE
  5
2C
102
{ACAD_REACTORS
330
2A
102
}
330
2A
100
AcDbVisualStyle
  2
FlatWithEdges
 70
     1
 71
     2
 72
     1
 73
     1
 90
        2
 40
-0.6
 41
30.0
 62
     5
 63
     7
 74
     1
 91
        4
 64
     7
 65
   257
 75
     1
175
     1
 42
1.0
 92
        0
 66
   257
 43
1.0
 76
     1
 77
     6
 78
     2
 67
     7
 79
     5
170
     0
171
     0
290
     0
174
     0
 93
       13
 44
0.0
173
     0
291
     1
 45
0.0
1001
ACAD
1000
AcDbSavedByObjectVersion
1070
     0
  0
VISUALSTYLE
  5
2D
102
{ACAD_REACTORS
330
2A
102
}
330
2A
100
AcDbVisualStyle
  2
Gouraud
 70
     2
 71
     2
 72
     2
 73
     1
 90
        2
 40
-0.6
 41
30.0
 62
     5
 63
     7
 74
     0
 91
        4
 64
     7
 65
   257
 75
     1
175
     1
 42
1.0
 92
        0
 66
     7
 43
1.0
 76
     1
 77
     6
 78
     2
 67
     7
 79
     5
170
     0
171
     0
290
     0
174
     0
 93
       13
 44
0.0
173
     0
291
     1
 45
0.0
1001
ACAD
1000
AcDbSavedByObjectVersion
1070
     0
  0
VISUALSTYLE
  5
2E
102
{ACAD_REACTORS
330
2A
102
}
330
2A
100
AcDbVisualStyle
  2
GouraudWithEdges
 70
     3
 71
     2
 72
     2
 73
     1
 90
        2
 40
-0.6
 41
30.0
 62
     5
 63
     7
 74
     1
 91
        4
 64
     7
 65
   257
 75
     1
175
     1
 42
1.0
 92
        0
 66
   257
 43
1.0
 76
     1
 77
     6
 78
     2
 67
     7
 79
     5
170
     0
171
     0
290
     0
174
     0
 93
       13
 44
0.0
173
     0
291
     1
 45
0.0
1001
ACAD
1000
AcDbSavedByObjectVersion
1070
     0
  0
VISUALSTYLE
  5
38
102
{ACAD_REACTORS
330
2A
102
}
330
2A
100
AcDbVisualStyle
  2
Linepattern
 70
    14
 71
     2
 72
     2
 73
     0
 90
        0
 40
-0.6
 41
-30.0
 62
     5
 63
     7
 74
     1
 91
        4
 64
     7
 65
   257
 75
     7
175
     7
 42
1.0
 92
        8
 66
     7
 43
1.0
 76
     1
 77
     6
 78
     2
 67
     7
 79
     5
170
     0
171
     0
290
     0
174
     0
 93
        1
 44
0.0
173
     0
291
     1
 45
0.0
1001
ACAD
1000
AcDbSavedByObjectVersion
1070
     0
  0
VISUALSTYLE
  5
33
102
{ACAD_REACTORS
330
2A
102
}
330
2A
100
AcDbVisualStyle
  2
Realistic
 70
     8
 71
     2
 72
     2
 73
     0
 90
        0
 40
-0.6
 41
-30.0
 62
     5
 63
     7
 74
     1
 91
        0
 64
     7
 65
   257
 75
     1
175
     1
 42
1.0
 92
        8
 66
     8
 43
1.0
 76
     1
 77
     6
 78
     2
 67
     7
 79
     5
170
     0
171
     0
290
     0
174
     0
 93
       13
 44
0.0
173
     0
291
     0
 45
0.0
1001
ACAD
1000
AcDbSavedByObjectVersion
1070
     0
  0
VISUALSTYLE
  5
37
102
{ACAD_REACTORS
330
2A
102
}
330
2A
100
AcDbVisualStyle
  2
Thicken
 70
    13
 71
     2
 72
     2
 73
     0
 90
        0
 40
-0.6
 41
-30.0
 62
     5
 63
     7
 74
     1
 91
        4
 64
     7
 65
   257
 75
     1
175
     1
 42
1.0
 92
       12
 66
     7
 43
1.0
 76
     1
 77
     6
 78
     2
 67
     7
 79
     5
170
     0
171
     0
290
     0
174
     0
 93
        1
 44
0.0
173
     0
291
     1
 45
0.0
1001
ACAD
1000
AcDbSavedByObjectVersion
1070
     0
  0
XRECORD
  5
26A
102
{ACAD_REACTORS
330
261
102
}
330
261
100
AcDbXrecord
 90
        0
  0
XRECORD
  5
280
102
{ACAD_REACTORS
330
261
102
}
330
261
100
AcDbXrecord
1000
DSTYLE
1002
{
1070
   171
 70
     2
1070
   143
 40
25.4
1070
   274
 70
     2
1070
    41
 40
0.18
1070
   141
 40
0.09
1070
   271
 70
     4
1070
    43
 40
0.38
1070
   278
 70
    46
1070
    44
 40
0.18
1070
    42
 40
0.0625
1070
   147
 40
0.09
1070
    77
 70
     0
1070
   272
 70
     4
1070
    73
 70
     1
1070
   172
 70
     0
1070
    74
 70
     1
1070
   283
 70
     1
1070
   340
340
11
1070
   140
 40
0.18
1070
   284
 70
     0
1070
    78
 70
     0
1002
}
  0
XRECORD
  5
26B
102
{ACAD_REACTORS
330
261
102
}
330
261
100
AcDbXrecord
  1
{7AF925E6-6F93-4248-81AA-D7B0378D52A4}
  0
XRECORD
  5
264
102
{ACAD_REACTORS
330
261
102
}
330
261
100
AcDbXrecord
  1

  0
XRECORD
  5
269
102
{ACAD_REACTORS
330
261
102
}
330
261
100
AcDbXrecord
 90
        4
  0
XRECORD
  5
266
102
{ACAD_REACTORS
330
261
102
}
330
261
100
AcDbXrecord
340
1A
  0
XRECORD
  5
268
102
{ACAD_REACTORS
330
261
102
}
330
261
100
AcDbXrecord
 90
    10781
  0
XRECORD
  5
267
102
{ACAD_REACTORS
330
261
102
}
330
261
100
AcDbXrecord
340
19
  0
XRECORD
  5
26D
102
{ACAD_REACTORS
330
261
102
}
330
261
100
AcDbXrecord
 40
0.0
  0
XRECORD
  5
270
102
{ACAD_REACTORS
330
261
102
}
330
261
100
AcDbXrecord
340
0
  0
XRECORD
  5
276
102
{ACAD_REACTORS
330
261
102
}
330
261
100
AcDbXrecord
 10
0.0
 20
0.0
 30
0.0
  0
XRECORD
  5
272
102
{ACAD_REACTORS
330
261
102
}
330
261
100
AcDbXrecord
 10
0.0
 20
0.0
 30
0.0
  0
XRECORD
  5
275
102
{ACAD_REACTORS
330
261
102
}
330
261
100
AcDbXrecord
 10
0.0
 20
0.0
 30
0.0
  0
XRECORD
  5
273
102
{ACAD_REACTORS
330
261
102
}
330
261
100
AcDbXrecord
 10
0.0
 20
0.0
 30
0.0
  0
XRECORD
  5
274
102
{ACAD_REACTORS
330
261
102
}
330
261
100
AcDbXrecord
 10
0.0
 20
0.0
 30
0.0
  0
XRECORD
  5
271
102
{ACAD_REACTORS
330
261
102
}
330
261
100
AcDbXrecord
 10
0.0
 20
0.0
 30
0.0
  0
XRECORD
  5
26E
102
{ACAD_REACTORS
330
261
102
}
330
261
100
AcDbXrecord
340
0
  0
XRECORD
  5
26F
102
{ACAD_REACTORS
330
261
102
}
330
261
100
AcDbXrecord
 70
     0
  0
XRECORD
  5
265
102
{ACAD_REACTORS
330
261
102
}
330
261
100
AcDbXrecord
  1

  0
XRECORD
  5
262
102
{ACAD_REACTORS
330
261
102
}
330
261
100
AcDbXrecord
 90
        1
  0
XRECORD
  5
263
102
{ACAD_REACTORS
330
261
102
}
330
261
100
AcDbXrecord
 90
       70
  0
XRECORD
  5
279
102
{ACAD_REACTORS
330
261
102
}
330
261
100
AcDbXrecord
340
0
  0
XRECORD
  5
27F
102
{ACAD_REACTORS
330
261
102
}
330
261
100
AcDbXrecord
 10
0.0
 20
0.0
 30
0.0
  0
XRECORD
  5
27B
102
{ACAD_REACTORS
330
261
102
}
330
261
100
AcDbXrecord
 10
0.0
 20
0.0
 30
0.0
  0
XRECORD
  5
27E
102
{ACAD_REACTORS
330
261
102
}
330
261
100
AcDbXrecord
 10
0.0
 20
0.0
 30
0.0
  0
XRECORD
  5
27C
102
{ACAD_REACTORS
330
261
102
}
330
261
100
AcDbXrecord
 10
0.0
 20
0.0
 30
0.0
  0
XRECORD
  5
27D
102
{ACAD_REACTORS
330
261
102
}
330
261
100
AcDbXrecord
 10
0.0
 20
0.0
 30
0.0
  0
XRECORD
  5
27A
102
{ACAD_REACTORS
330
261
102
}
330
261
100
AcDbXrecord
 10
0.0
 20
0.0
 30
0.0
  0
XRECORD
  5
277
102
{ACAD_REACTORS
330
261
102
}
330
261
100
AcDbXrecord
340
0
  0
XRECORD
  5
278
102
{ACAD_REACTORS
330
261
102
}
330
261
100
AcDbXrecord
 70
     0
  0
XRECORD
  5
26C
102
{ACAD_REACTORS
330
261
102
}
330
261
100
AcDbXrecord
  1
{FAEB1C32-E019-11D5-929B-00C0DF256EC4}
  0
ENDSEC
  0
EOF
