  0
SECTION
  2
HEADER
  9
$ACADVER
  1
AC1014
  9
$ACADMAINTVER
 70
     9
  9
$DWGCODEPAGE
  3
ANSI_949
  9
$INSBASE
 10
0.0
 20
0.0
 30
0.0
  9
$EXTMIN
 10
-0.5
 20
-0.5
 30
-0.5
  9
$EXTMAX
 10
5.0
 20
5.0
 30
5.0
  9
$LIMMIN
 10
-0.5
 20
-0.5
  9
$LIMMAX
 10
5.0
 20
5.0
  9
$ORTHOMODE
 70
     0
  9
$REGENMODE
 70
     1
  9
$FILLMODE
 70
     1
  9
$QTEXTMODE
 70
     0
  9
$MIRRTEXT
 70
     1
  9
$DRAGMODE
 70
     2
  9
$LTSCALE
 40
1.0
  9
$OSMODE
 70
    37
  9
$ATTMODE
 70
     1
  9
$TEXTSIZE
 40
0.2
  9
$TRACEWID
 40
0.05
  9
$TEXTSTYLE
  7
STANDARD
  9
$CLAYER
  8
0
  9
$CELTYPE
  6
BYLAYER
  9
$CECOLOR
 62
   256
  9
$CELTSCALE
 40
1.0
  9
$DELOBJ
 70
     1
  9
$DISPSILH
 70
     0
  9
$DIMSCALE
 40
1.0
  9
$DIMASZ
 40
0.18
  9
$DIMEXO
 40
0.0625
  9
$DIMDLI
 40
0.38
  9
$DIMRND
 40
0.0
  9
$DIMDLE
 40
0.0
  9
$DIMEXE
 40
0.18
  9
$DIMTP
 40
0.0
  9
$DIMTM
 40
0.0
  9
$DIMTXT
 40
0.18
  9
$DIMCEN
 40
0.09
  9
$DIMTSZ
 40
0.0
  9
$DIMTOL
 70
     0
  9
$DIMLIM
 70
     0
  9
$DIMTIH
 70
     1
  9
$DIMTOH
 70
     1
  9
$DIMSE1
 70
     0
  9
$DIMSE2
 70
     0
  9
$DIMTAD
 70
     0
  9
$DIMZIN
 70
     0
  9
$DIMBLK
  1

  9
$DIMASO
 70
     1
  9
$DIMSHO
 70
     1
  9
$DIMPOST
  1

  9
$DIMAPOST
  1

  9
$DIMALT
 70
     0
  9
$DIMALTD
 70
     2
  9
$DIMALTF
 40
25.4
  9
$DIMLFAC
 40
1.0
  9
$DIMTOFL
 70
     0
  9
$DIMTVP
 40
0.0
  9
$DIMTIX
 70
     0
  9
$DIMSOXD
 70
     0
  9
$DIMSAH
 70
     0
  9
$DIMBLK1
  1

  9
$DIMBLK2
  1

  9
$DIMSTYLE
  2
STANDARD
  9
$DIMCLRD
 70
     0
  9
$DIMCLRE
 70
     0
  9
$DIMCLRT
 70
     0
  9
$DIMTFAC
 40
1.0
  9
$DIMGAP
 40
0.09
  9
$DIMJUST
 70
     0
  9
$DIMSD1
 70
     0
  9
$DIMSD2
 70
     0
  9
$DIMTOLJ
 70
     1
  9
$DIMTZIN
 70
     0
  9
$DIMALTZ
 70
     0
  9
$DIMALTTZ
 70
     0
  9
$DIMFIT
 70
     3
  9
$DIMUPT
 70
     0
  9
$DIMUNIT
 70
     2
  9
$DIMDEC
 70
     4
  9
$DIMTDEC
 70
     4
  9
$DIMALTU
 70
     2
  9
$DIMALTTD
 70
     2
  9
$DIMTXSTY
  7
STANDARD
  9
$DIMAUNIT
 70
     0
  9
$LUNITS
 70
     2
  9
$LUPREC
 70
     4
  9
$SKETCHINC
 40
0.1
  9
$FILLETRAD
 40
0.5
  9
$AUNITS
 70
     0
  9
$AUPREC
 70
     0
  9
$MENU
  1
.
  9
$ELEVATION
 40
0.0
  9
$PELEVATION
 40
0.0
  9
$THICKNESS
 40
0.0
  9
$LIMCHECK
 70
     0
  9
$CHAMFERA
 40
0.5
  9
$CHAMFERB
 40
0.5
  9
$CHAMFERC
 40
1.0
  9
$CHAMFERD
 40
0.0
  9
$SKPOLY
 70
     0
  9
$TDCREATE
 40
2455698.660962847
  9
$TDUPDATE
 40
2455698.660962859
  9
$TDINDWG
 40
0.0000000116
  9
$TDUSRTIMER
 40
0.0000000116
  9
$USRTIMER
 70
     1
  9
$ANGBASE
 50
0.0
  9
$ANGDIR
 70
     0
  9
$PDMODE
 70
     0
  9
$PDSIZE
 40
0.0
  9
$PLINEWID
 40
0.0
  9
$COORDS
 70
     1
  9
$SPLFRAME
 70
     0
  9
$SPLINETYPE
 70
     6
  9
$SPLINESEGS
 70
     8
  9
$ATTDIA
 70
     0
  9
$ATTREQ
 70
     1
  9
$HANDLING
 70
     1
  9
$HANDSEED
  5
1C9
  9
$SURFTAB1
 70
     6
  9
$SURFTAB2
 70
     6
  9
$SURFTYPE
 70
     6
  9
$SURFU
 70
     6
  9
$SURFV
 70
     6
  9
$UCSNAME
  2

  9
$UCSORG
 10
0.0
 20
0.0
 30
0.0
  9
$UCSXDIR
 10
1.0
 20
0.0
 30
0.0
  9
$UCSYDIR
 10
0.0
 20
1.0
 30
0.0
  9
$PUCSNAME
  2

  9
$PUCSORG
 10
0.0
 20
0.0
 30
0.0
  9
$PUCSXDIR
 10
1.0
 20
0.0
 30
0.0
  9
$PUCSYDIR
 10
0.0
 20
1.0
 30
0.0
  9
$USERI1
 70
     0
  9
$USERI2
 70
     0
  9
$USERI3
 70
     0
  9
$USERI4
 70
     0
  9
$USERI5
 70
     0
  9
$USERR1
 40
0.0
  9
$USERR2
 40
0.0
  9
$USERR3
 40
0.0
  9
$USERR4
 40
0.0
  9
$USERR5
 40
0.0
  9
$WORLDVIEW
 70
     1
  9
$SHADEDGE
 70
     3
  9
$SHADEDIF
 70
    70
  9
$TILEMODE
 70
     1
  9
$MAXACTVP
 70
    64
  9
$PINSBASE
 10
0.0
 20
0.0
 30
0.0
  9
$PLIMCHECK
 70
     0
  9
$PEXTMIN
 10
-0.5
 20
-0.5
 30
-0.5
  9
$PEXTMAX
 10
5.0
 20
5.0
 30
5.0
  9
$PLIMMIN
 10
-0.5
 20
-0.5
  9
$PLIMMAX
 10
5.0
 20
5.0
  9
$UNITMODE
 70
     0
  9
$VISRETAIN
 70
     1
  9
$PLINEGEN
 70
     0
  9
$PSLTSCALE
 70
     1
  9
$TREEDEPTH
 70
  3020
  9
$PICKSTYLE
 70
     1
  9
$CMLSTYLE
  2
STANDARD
  9
$CMLJUST
 70
     0
  9
$CMLSCALE
 40
1.0
  9
$PROXYGRAPHICS
 70
     1
  9
$MEASUREMENT
 70
     1
  0
ENDSEC
  0
SECTION
  2
CLASSES
  0
CLASS
  1
ACDBDICTIONARYWDFLT
  2
AcDbDictionaryWithDefault
  3
ObjectDBX Classes
 90
        0
280
     0
281
     0
  0
CLASS
  1
VISUALSTYLE
  2
AcDbVisualStyle
  3
ObjectDBX Classes
 90
     4095
280
     0
281
     0
  0
CLASS
  1
XRECORD
  2
AcDbXrecord
  3
AutoCAD 2000
 90
        0
280
     0
281
     0
  0
CLASS
  1
LWPOLYLINE
  2
AcDbPolyline
  3
AutoCAD 2000
 90
        0
280
     0
281
     1
  0
CLASS
  1
HATCH
  2
AcDbHatch
  3
AutoCAD 2000
 90
        0
280
     0
281
     1
  0
CLASS
  1
ACDBPLACEHOLDER
  2
AcDbPlaceHolder
  3
ObjectDBX Classes
 90
        0
280
     0
281
     0
  0
CLASS
  1
LAYOUT
  2
AcDbLayout
  3
ObjectDBX Classes
 90
        0
280
     0
281
     0
  0
ENDSEC
  0
SECTION
  2
TABLES
  0
TABLE
  2
VPORT
  5
8
330
0
100
AcDbSymbolTable
 70
    17
  0
VPORT
  5
29
330
8
100
AcDbSymbolTableRecord
100
AcDbViewportTableRecord
  2
DUMMY
 70
     0
 10
0.0
 20
0.0
 11
1.0
 21
1.0
 12
10.429907
 22
4.5
 13
0.0
 23
0.0
 14
0.5
 24
0.5
 15
0.5
 25
0.5
 16
0.0
 26
0.0
 36
1.0
 17
0.0
 27
0.0
 37
0.0
 40
9.0
 41
1.972973
 42
50.0
 43
0.0
 44
0.0
 50
0.0
 51
0.0
 71
     0
 72
   100
 73
     1
 74
     3
 75
     0
 76
     0
 77
     0
 78
     0
  0
VPORT
  5
197
330
8
100
AcDbSymbolTableRecord
100
AcDbViewportTableRecord
  2
*ACTIVE
 70
     0
 10
0.0
 20
0.0
 11
1.0
 21
1.0
 12
295.928815
 22
209.999954
 13
0.0
 23
0.0
 14
0.5
 24
0.5
 15
0.5
 25
0.5
 16
0.0
 26
0.0
 36
1.0
 17
0.0
 27
0.0
 37
0.0
 40
254.0
 41
0.069908
 42
50.0
 43
1128.328426
 44
-1128.328426
 50
0.0
 51
0.0
 71
     0
 72
   100
 73
     1
 74
     3
 75
     0
 76
     0
 77
     0
 78
     0
  0
VPORT
  5
198
330
8
100
AcDbSymbolTableRecord
100
AcDbViewportTableRecord
  2
L1
 70
     0
 10
0.0
 20
0.0
 11
1.0
 21
1.0
 12
295.928815
 22
209.999954
 13
0.0
 23
0.0
 14
0.5
 24
0.5
 15
0.5
 25
0.5
 16
0.0
 26
0.0
 36
1.0
 17
0.0
 27
0.0
 37
0.0
 40
254.0
 41
0.069908
 42
50.0
 43
1128.328426
 44
-1128.328426
 50
0.0
 51
0.0
 71
     0
 72
   100
 73
     1
 74
     3
 75
     0
 76
     0
 77
     0
 78
     0
  0
VPORT
  5
199
330
8
100
AcDbSymbolTableRecord
100
AcDbViewportTableRecord
  2
L2
 70
     0
 10
0.0
 20
0.0
 11
0.5
 21
1.0
 12
0.0
 22
0.0
 13
0.0
 23
0.0
 14
0.5
 24
0.5
 15
0.5
 25
0.5
 16
0.0
 26
-1.0
 36
0.0
 17
0.0
 27
0.0
 37
0.0
 40
1319.822715
 41
0.013454
 42
50.0
 43
672.020833
 44
-672.020833
 50
0.0
 51
0.0
 71
     0
 72
   100
 73
     1
 74
     3
 75
     0
 76
     0
 77
     0
 78
     0
  0
VPORT
  5
19A
330
8
100
AcDbSymbolTableRecord
100
AcDbViewportTableRecord
  2
L2
 70
     0
 10
0.5
 20
0.0
 11
1.0
 21
1.0
 12
0.0
 22
0.0
 13
0.0
 23
0.0
 14
0.5
 24
0.5
 15
0.5
 25
0.5
 16
1.0
 26
0.0
 36
0.0
 17
0.0
 27
0.0
 37
0.0
 40
1319.822715
 41
0.013454
 42
50.0
 43
672.020833
 44
-672.020833
 50
0.0
 51
0.0
 71
     0
 72
   100
 73
     1
 74
     3
 75
     0
 76
     0
 77
     0
 78
     0
  0
VPORT
  5
19B
330
8
100
AcDbSymbolTableRecord
100
AcDbViewportTableRecord
  2
L3
 70
     0
 10
0.0
 20
0.5
 11
1.0
 21
1.0
 12
295.928815
 22
209.999954
 13
0.0
 23
0.0
 14
0.5
 24
0.5
 15
0.5
 25
0.5
 16
0.0
 26
0.0
 36
1.0
 17
0.0
 27
0.0
 37
0.0
 40
254.0
 41
0.069908
 42
50.0
 43
1128.328426
 44
-1128.328426
 50
0.0
 51
0.0
 71
     0
 72
   100
 73
     1
 74
     3
 75
     0
 76
     0
 77
     0
 78
     0
  0
VPORT
  5
19C
330
8
100
AcDbSymbolTableRecord
100
AcDbViewportTableRecord
  2
L3
 70
     0
 10
0.0
 20
0.0
 11
1.0
 21
0.5
 12
0.0
 22
0.0
 13
0.0
 23
0.0
 14
0.5
 24
0.5
 15
0.5
 25
0.5
 16
0.0
 26
-1.0
 36
0.0
 17
0.0
 27
0.0
 37
0.0
 40
1319.822715
 41
0.013454
 42
50.0
 43
672.020833
 44
-672.020833
 50
0.0
 51
0.0
 71
     0
 72
   100
 73
     1
 74
     3
 75
     0
 76
     0
 77
     0
 78
     0
  0
VPORT
  5
19D
330
8
100
AcDbSymbolTableRecord
100
AcDbViewportTableRecord
  2
L4
 70
     0
 10
0.0
 20
0.5
 11
0.5
 21
1.0
 12
295.928815
 22
209.999954
 13
0.0
 23
0.0
 14
0.5
 24
0.5
 15
0.5
 25
0.5
 16
0.0
 26
0.0
 36
1.0
 17
0.0
 27
0.0
 37
0.0
 40
254.0
 41
0.069908
 42
50.0
 43
1128.328426
 44
-1128.328426
 50
0.0
 51
0.0
 71
     0
 72
   100
 73
     1
 74
     3
 75
     0
 76
     0
 77
     0
 78
     0
  0
VPORT
  5
19E
330
8
100
AcDbSymbolTableRecord
100
AcDbViewportTableRecord
  2
L4
 70
     0
 10
0.0
 20
0.0
 11
0.5
 21
0.5
 12
0.0
 22
0.0
 13
0.0
 23
0.0
 14
0.5
 24
0.5
 15
0.5
 25
0.5
 16
0.0
 26
-1.0
 36
0.0
 17
0.0
 27
0.0
 37
0.0
 40
1319.822715
 41
0.013454
 42
50.0
 43
672.020833
 44
-672.020833
 50
0.0
 51
0.0
 71
     0
 72
   100
 73
     1
 74
     3
 75
     0
 76
     0
 77
     0
 78
     0
  0
VPORT
  5
19F
330
8
100
AcDbSymbolTableRecord
100
AcDbViewportTableRecord
  2
L4
 70
     0
 10
0.5
 20
0.0
 11
1.0
 21
0.5
 12
0.0
 22
0.0
 13
0.0
 23
0.0
 14
0.5
 24
0.5
 15
0.5
 25
0.5
 16
1.0
 26
0.0
 36
0.0
 17
0.0
 27
0.0
 37
0.0
 40
1319.822715
 41
0.013454
 42
50.0
 43
672.020833
 44
-672.020833
 50
0.0
 51
0.0
 71
     0
 72
   100
 73
     1
 74
     3
 75
     0
 76
     0
 77
     0
 78
     0
  0
VPORT
  5
1A0
330
8
100
AcDbSymbolTableRecord
100
AcDbViewportTableRecord
  2
L4
 70
     0
 10
0.5
 20
0.5
 11
1.0
 21
1.0
 12
0.0
 22
0.0
 13
0.0
 23
0.0
 14
0.5
 24
0.5
 15
0.5
 25
0.5
 16
0.5773502691896258
 26
-0.5773502691896258
 36
0.5773502691896258
 17
0.0
 27
0.0
 37
0.0
 40
1285.020866
 41
0.013818
 42
50.0
 43
667.141407
 44
-667.141407
 50
0.0
 51
0.0
 71
     0
 72
   100
 73
     1
 74
     3
 75
     0
 76
     0
 77
     0
 78
     0
  0
VPORT
  5
1A1
330
8
100
AcDbSymbolTableRecord
100
AcDbViewportTableRecord
  2
L6
 70
     0
 10
0.0
 20
0.5
 11
0.333333
 21
1.0
 12
0.0
 22
0.0
 13
0.0
 23
0.0
 14
0.5
 24
0.5
 15
0.5
 25
0.5
 16
0.7188730927569434
 26
-0.5850486126764431
 36
0.3754192287502549
 17
0.0
 27
0.0
 37
0.0
 40
1357.434192
 41
0.013081
 42
50.0
 43
701.839477
 44
-701.839477
 50
0.0
 51
0.0
 71
     0
 72
   100
 73
     1
 74
     3
 75
     0
 76
     0
 77
     0
 78
     0
  0
VPORT
  5
1A2
330
8
100
AcDbSymbolTableRecord
100
AcDbViewportTableRecord
  2
L6
 70
     0
 10
0.0
 20
0.0
 11
0.333333
 21
0.5
 12
0.0
 22
0.0
 13
0.0
 23
0.0
 14
0.5
 24
0.5
 15
0.5
 25
0.5
 16
-1.0
 26
0.0
 36
0.0
 17
0.0
 27
0.0
 37
0.0
 40
1319.822715
 41
0.013454
 42
50.0
 43
672.020833
 44
-672.020833
 50
0.0
 51
0.0
 71
     0
 72
   100
 73
     1
 74
     3
 75
     0
 76
     0
 77
     0
 78
     0
  0
VPORT
  5
1A3
330
8
100
AcDbSymbolTableRecord
100
AcDbViewportTableRecord
  2
L6
 70
     0
 10
0.333333
 20
0.5
 11
0.666667
 21
1.0
 12
295.928815
 22
209.999954
 13
0.0
 23
0.0
 14
0.5
 24
0.5
 15
0.5
 25
0.5
 16
0.0
 26
0.0
 36
1.0
 17
0.0
 27
0.0
 37
0.0
 40
254.0
 41
0.069908
 42
50.0
 43
1128.328426
 44
-1128.328426
 50
0.0
 51
0.0
 71
     0
 72
   100
 73
     1
 74
     3
 75
     0
 76
     0
 77
     0
 78
     0
  0
VPORT
  5
1A4
330
8
100
AcDbSymbolTableRecord
100
AcDbViewportTableRecord
  2
L6
 70
     0
 10
0.333333
 20
0.0
 11
0.666667
 21
0.5
 12
0.0
 22
0.0
 13
0.0
 23
0.0
 14
0.5
 24
0.5
 15
0.5
 25
0.5
 16
0.0
 26
-1.0
 36
0.0
 17
0.0
 27
0.0
 37
0.0
 40
1319.822715
 41
0.013454
 42
50.0
 43
672.020833
 44
-672.020833
 50
0.0
 51
0.0
 71
     0
 72
   100
 73
     1
 74
     3
 75
     0
 76
     0
 77
     0
 78
     0
  0
VPORT
  5
1A5
330
8
100
AcDbSymbolTableRecord
100
AcDbViewportTableRecord
  2
L6
 70
     0
 10
0.666667
 20
0.5
 11
1.0
 21
1.0
 12
0.0
 22
0.0
 13
0.0
 23
0.0
 14
0.5
 24
0.5
 15
0.5
 25
0.5
 16
0.5773502691896258
 26
-0.5773502691896258
 36
0.5773502691896258
 17
0.0
 27
0.0
 37
0.0
 40
1285.020866
 41
0.013818
 42
50.0
 43
667.141407
 44
-667.141407
 50
0.0
 51
0.0
 71
     0
 72
   100
 73
     1
 74
     3
 75
     0
 76
     0
 77
     0
 78
     0
  0
VPORT
  5
1A6
330
8
100
AcDbSymbolTableRecord
100
AcDbViewportTableRecord
  2
L6
 70
     0
 10
0.666667
 20
0.0
 11
1.0
 21
0.5
 12
0.0
 22
0.0
 13
0.0
 23
0.0
 14
0.5
 24
0.5
 15
0.5
 25
0.5
 16
1.0
 26
0.0
 36
0.0
 17
0.0
 27
0.0
 37
0.0
 40
1319.822715
 41
0.013454
 42
50.0
 43
672.020833
 44
-672.020833
 50
0.0
 51
0.0
 71
     0
 72
   100
 73
     1
 74
     3
 75
     0
 76
     0
 77
     0
 78
     0
  0
ENDTAB
  0
TABLE
  2
LTYPE
  5
5
330
0
100
AcDbSymbolTable
 70
     7
  0
LTYPE
  5
14
330
5
100
AcDbSymbolTableRecord
100
AcDbLinetypeTableRecord
  2
BYBLOCK
 70
     0
  3

 72
    65
 73
     0
 40
0.0
  0
LTYPE
  5
15
330
5
100
AcDbSymbolTableRecord
100
AcDbLinetypeTableRecord
  2
BYLAYER
 70
     0
  3

 72
    65
 73
     0
 40
0.0
  0
LTYPE
  5
16
330
5
100
AcDbSymbolTableRecord
100
AcDbLinetypeTableRecord
  2
CONTINUOUS
 70
     0
  3
Solid line
 72
    65
 73
     0
 40
0.0
  0
LTYPE
  5
3B
330
5
100
AcDbSymbolTableRecord
100
AcDbLinetypeTableRecord
  2
DASHED
 70
     0
  3
__ __ __ __ __ __ __ __ __
 72
    65
 73
     2
 40
25.72
 49
12.86
 74
     4
 75
     0
340
0
 46
0.0
 50
0.0
 44
0.0
 45
0.0
 49
-12.86
 74
     4
 75
     0
340
0
 46
0.0
 50
0.0
 44
0.0
 45
0.0
  0
LTYPE
  5
3C
330
5
100
AcDbSymbolTableRecord
100
AcDbLinetypeTableRecord
  2
HIDDEN
 70
     0
  3
_ _ _ _ _ _ _ _ _ _ _ _ _ _ _
 72
    65
 73
     2
 40
0.5
 49
0.25
 74
     4
 75
     0
340
0
 46
0.0
 50
0.0
 44
0.0
 45
0.0
 49
-0.25
 74
     4
 75
     0
340
0
 46
0.0
 50
0.0
 44
0.0
 45
0.0
  0
LTYPE
  5
3D
330
5
100
AcDbSymbolTableRecord
100
AcDbLinetypeTableRecord
  2
PHANTOM
 70
     0
  3
____ _ _ ____ _ _ _____ _ _ ____
 72
    65
 73
     6
 40
50.5
 49
18.0
 74
     4
 75
     0
340
0
 46
0.0
 50
0.0
 44
0.0
 45
0.0
 49
-6.5
 74
     4
 75
     0
340
0
 46
0.0
 50
0.0
 44
0.0
 45
0.0
 49
6.5
 74
     4
 75
     0
340
0
 46
0.0
 50
0.0
 44
0.0
 45
0.0
 49
-6.5
 74
     4
 75
     0
340
0
 46
0.0
 50
0.0
 44
0.0
 45
0.0
 49
6.5
 74
     4
 75
     0
340
0
 46
0.0
 50
0.0
 44
0.0
 45
0.0
 49
-6.5
 74
     4
 75
     0
340
0
 46
0.0
 50
0.0
 44
0.0
 45
0.0
  0
LTYPE
  5
3E
330
5
100
AcDbSymbolTableRecord
100
AcDbLinetypeTableRecord
  2
CENTER
 70
     0
  3
____ _ ____ _ ____ _ ____
 72
    65
 73
     4
 40
47.4
 49
22.0
 74
     4
 75
     0
340
0
 46
0.0
 50
0.0
 44
0.0
 45
0.0
 49
-8.5
 74
     4
 75
     0
340
0
 46
0.0
 50
0.0
 44
0.0
 45
0.0
 49
8.5
 74
     4
 75
     0
340
0
 46
0.0
 50
0.0
 44
0.0
 45
0.0
 49
-8.5
 74
     4
 75
     0
340
0
 46
0.0
 50
0.0
 44
0.0
 45
0.0
  0
LTYPE
  5
3F
330
5
100
AcDbSymbolTableRecord
100
AcDbLinetypeTableRecord
  2
DOT
 70
     0
  3
.........................
 72
    65
 73
     2
 40
10.0
 49
0.0
 74
     4
 75
     0
340
0
 46
0.0
 50
0.0
 44
0.0
 45
0.0
 49
-10.0
 74
     4
 75
     0
340
0
 46
0.0
 50
0.0
 44
0.0
 45
0.0
  0
LTYPE
  5
40
330
5
100
AcDbSymbolTableRecord
100
AcDbLinetypeTableRecord
  2
DASHDOT
 70
     0
  3
_._._._._._._._._._._._._._._._.
 72
    65
 73
     4
 40
70.0
 49
31.0
 74
     4
 75
     0
340
0
 46
0.0
 50
0.0
 44
0.0
 45
0.0
 49
-13.0
 74
     4
 75
     0
340
0
 46
0.0
 50
0.0
 44
0.0
 45
0.0
 49
13.0
 74
     4
 75
     0
340
0
 46
0.0
 50
0.0
 44
0.0
 45
0.0
 49
-13.0
 74
     4
 75
     0
340
0
 46
0.0
 50
0.0
 44
0.0
 45
0.0
  0
ENDTAB
  0
TABLE
  2
LAYER
  5
2
330
0
100
AcDbSymbolTable
 70
     4
  0
LAYER
  5
10
330
2
100
AcDbSymbolTableRecord
100
AcDbLayerTableRecord
  2
0
 70
     0
 62
     7
  6
CONTINUOUS
  0
LAYER
  5
42
330
2
100
AcDbSymbolTableRecord
100
AcDbLayerTableRecord
  2
1
 70
     0
 62
     7
  6
CONTINUOUS
  0
LAYER
  5
91
330
2
100
AcDbSymbolTableRecord
100
AcDbLayerTableRecord
  2
201
 70
     0
 62
     7
  6
CONTINUOUS
  0
LAYER
  5
132
330
2
100
AcDbSymbolTableRecord
100
AcDbLayerTableRecord
  2
TOP
 70
     0
 62
     7
  6
CONTINUOUS
  0
ENDTAB
  0
TABLE
  2
STYLE
  5
3
330
0
100
AcDbSymbolTable
 70
     3
  0
STYLE
  5
11
330
3
100
AcDbSymbolTableRecord
100
AcDbTextStyleTableRecord
  2
STANDARD
 70
     0
 40
0.0
 41
1.0
 50
0.0
 71
     0
 42
0.2
  3
txt
  4

  0
STYLE
  5
130
330
3
100
AcDbSymbolTableRecord
100
AcDbTextStyleTableRecord
  2
DEFAULT
 70
     0
 40
0.0
 41
1.0
 50
0.0
 71
     0
 42
0.2
  3
simplex.shx
  4

  0
STYLE
  5
131
330
3
100
AcDbSymbolTableRecord
100
AcDbTextStyleTableRecord
  2
DWGDIRECTTEXTSTYLE
 70
     0
 40
0.0
 41
1.0
 50
0.0
 71
     0
 42
0.2
  3
SIMPLEX
  4
bigfont
  0
ENDTAB
  0
TABLE
  2
VIEW
  5
6
330
0
100
AcDbSymbolTable
 70
     0
  0
ENDTAB
  0
TABLE
  2
UCS
  5
7
330
0
100
AcDbSymbolTable
 70
     0
  0
ENDTAB
  0
TABLE
  2
APPID
  5
9
330
0
100
AcDbSymbolTable
 70
     1
  0
APPID
  5
12
330
9
100
AcDbSymbolTableRecord
100
AcDbRegAppTableRecord
  2
ACAD
 70
     0
  0
ENDTAB
  0
TABLE
  2
DIMSTYLE
  5
A
330
0
100
AcDbSymbolTable
 70
     1
  0
DIMSTYLE
105
27
102
{ACAD_REACTORS
330
17E
330
188
330
193
102
}
330
A
100
AcDbSymbolTableRecord
100
AcDbDimStyleTableRecord
  2
STANDARD
 70
     0
  3

  4

  5

  6

  7

 40
1.0
 41
0.18
 42
0.0625
 43
0.38
 44
0.18
 45
0.0
 46
0.0
 47
0.0
 48
0.0
140
0.18
141
0.09
142
0.0
143
25.4
144
1.0
145
0.0
146
1.0
147
0.09
 71
     0
 72
     0
 73
     1
 74
     1
 75
     0
 76
     0
 77
     0
 78
     0
170
     0
171
     2
172
     0
173
     0
174
     0
175
     0
176
     0
177
     0
178
     0
270
     2
271
     4
272
     4
273
     2
274
     2
340
11
275
     0
280
     0
281
     0
282
     0
283
     1
284
     0
285
     0
286
     0
287
     3
288
     0
  0
ENDTAB
  0
TABLE
  2
BLOCK_RECORD
  5
1
330
0
100
AcDbSymbolTable
 70
     5
  0
BLOCK_RECORD
  5
1F
330
1
100
AcDbSymbolTableRecord
100
AcDbBlockTableRecord
  2
*MODEL_SPACE
  0
BLOCK_RECORD
  5
1B
330
1
100
AcDbSymbolTableRecord
100
AcDbBlockTableRecord
  2
*PAPER_SPACE
  0
BLOCK_RECORD
  5
160
330
1
100
AcDbSymbolTableRecord
100
AcDbBlockTableRecord
  2
LABLE3D_1
  0
BLOCK_RECORD
  5
175
330
1
100
AcDbSymbolTableRecord
100
AcDbBlockTableRecord
  2
DIMNDRAFT3D1
  0
BLOCK_RECORD
  5
17F
330
1
100
AcDbSymbolTableRecord
100
AcDbBlockTableRecord
  2
DIMNDRAFT3D2
  0
BLOCK_RECORD
  5
189
330
1
100
AcDbSymbolTableRecord
100
AcDbBlockTableRecord
  2
DIMNDRAFT3D3
  0
ENDTAB
  0
ENDSEC
  0
SECTION
  2
BLOCKS
  0
BLOCK
  5
20
330
1F
100
AcDbEntity
  8
0
100
AcDbBlockBegin
  2
*MODEL_SPACE
 70
     0
 10
0.0
 20
0.0
 30
0.0
  3
*MODEL_SPACE
  1

  0
ENDBLK
  5
21
330
1F
100
AcDbEntity
  8
0
100
AcDbBlockEnd
  0
BLOCK
  5
1C
330
1B
100
AcDbEntity
 67
     1
  8
0
100
AcDbBlockBegin
  2
*PAPER_SPACE
 70
     0
 10
0.0
 20
0.0
 30
0.0
  3
*PAPER_SPACE
  1

  0
ENDBLK
  5
1D
330
1B
100
AcDbEntity
 67
     1
  8
0
100
AcDbBlockEnd
  0
BLOCK
  5
166
330
160
100
AcDbEntity
  8
0
100
AcDbBlockBegin
  2
LABLE3D_1
 70
     0
 10
0.0
 20
0.0
 30
0.0
  3
LABLE3D_1
  1

  0
MTEXT
  5
161
330
160
100
AcDbEntity
  8
TOP
  6
CONTINUOUS
 62
     1
100
AcDbMText
 10
278.290199
 20
161.104785
 30
0.0
 40
6.0
 41
0.0
 71
     7
 72
     5
  1
\W00.982;\fsimplex.shx,bigfont.shx;1-1/2" PF TAP\P
  7
DEFAULT
1001
ACAD
1000
MTEXTBEGIN
1070
    44
1040
0.903614
1000
MTEXTEND
  0
LINE
  5
162
330
160
100
AcDbEntity
  8
TOP
  6
CONTINUOUS
 62
     1
100
AcDbLine
 10
348.924699
 20
162.442285
 30
0.0
 11
275.790199
 21
162.442285
 31
0.0
  0
LINE
  5
163
330
160
100
AcDbEntity
  8
TOP
  6
CONTINUOUS
 62
     1
100
AcDbLine
 10
253.32619
 20
180.270351
 30
0.0
 11
275.790199
 21
162.442285
 31
0.0
  0
SOLID
  5
164
330
160
100
AcDbEntity
  8
TOP
  6
CONTINUOUS
 62
     1
100
AcDbTrace
 10
253.32619
 20
180.270351
 30
0.0
 11
256.089528
 21
178.92637
 31
0.0
 12
255.262637
 22
177.88445
 32
0.0
 13
253.32619
 23
180.270351
 33
0.0
  0
ENDBLK
  5
167
330
160
100
AcDbEntity
  8
0
100
AcDbBlockEnd
  0
BLOCK
  5
17C
330
175
100
AcDbEntity
  8
0
100
AcDbBlockBegin
  2
DIMNDRAFT3D1
 70
     0
 10
0.0
 20
0.0
 30
0.0
  3
DIMNDRAFT3D1
  1

  0
MTEXT
  5
176
330
175
100
AcDbEntity
  8
TOP
  6
CONTINUOUS
 62
     1
100
AcDbMText
 10
134.257916
 20
107.171725
 30
0.0
 40
6.0
 41
6.756
 71
     7
 72
     5
  1
\W01.000;\fsimplex.shx,bigfont.shx;11\P
  7
DEFAULT
 11
0.5436147867037094
 21
-0.8393348340662864
 31
0.0
1001
ACAD
1000
MTEXTBEGIN
1070
    44
1040
0.903614
1000
MTEXTEND
  0
MTEXT
  5
177
330
175
100
AcDbEntity
  8
TOP
  6
CONTINUOUS
 62
     1
100
AcDbMText
 10
120.04877
 20
130.892531
 30
0.0
 40
3.0
 41
11.884
 71
     7
 72
     5
  1
\W01.000;\fsimplex.shx,bigfont.shx;\H12.00;4-\H6.00;\P
  7
DEFAULT
 11
0.5436147867037094
 21
-0.8393348340662864
 31
0.0
1001
ACAD
1000
MTEXTBEGIN
1070
    44
1040
0.903614
1000
MTEXTEND
  0
MTEXT
  5
178
330
175
100
AcDbEntity
  8
TOP
  6
CONTINUOUS
 62
     1
100
AcDbMText
 10
127.734538
 20
117.243743
 30
0.0
 40
6.0
 41
12.0
 71
     7
 72
     5
  1
\W01.000;\fsimplex.shx,bigfont.shx;%%c\P
  7
DEFAULT
 11
0.5436147867037094
 21
-0.8393348340662864
 31
0.0
1001
ACAD
1000
MTEXTBEGIN
1070
    44
1040
0.903614
1000
MTEXTEND
  0
LINE
  5
179
330
175
100
AcDbEntity
  8
TOP
  6
CONTINUOUS
 62
     1
100
AcDbLine
 10
89.880113
 20
170.976715
 30
0.0
 11
134.96436
 21
101.367168
 31
0.0
  0
SOLID
  5
17A
330
175
100
AcDbEntity
  8
TOP
  6
CONTINUOUS
 62
     1
100
AcDbTrace
 10
104.014097
 20
149.154009
 30
0.0
 11
108.39224
 21
144.841103
 31
0.0
 12
106.159332
 22
143.394897
 32
0.0
 13
104.014097
 23
149.154009
 33
0.0
  0
SOLID
  5
17B
330
175
100
AcDbEntity
  8
TOP
  6
CONTINUOUS
 62
     1
100
AcDbTrace
 10
98.034335
 20
158.386692
 30
0.0
 11
93.656192
 21
162.699598
 31
0.0
 12
95.8891
 22
164.145805
 32
0.0
 13
98.034335
 23
158.386692
 33
0.0
  0
ENDBLK
  5
17D
330
175
100
AcDbEntity
  8
0
100
AcDbBlockEnd
  0
BLOCK
  5
186
330
17F
100
AcDbEntity
  8
0
100
AcDbBlockBegin
  2
DIMNDRAFT3D2
 70
     0
 10
0.0
 20
0.0
 30
0.0
  3
DIMNDRAFT3D2
  1

  0
MTEXT
  5
180
330
17F
100
AcDbEntity
  8
TOP
  6
CONTINUOUS
 62
     1
100
AcDbMText
 10
370.22044
 20
285.000471
 30
0.0
 40
6.0
 41
29.7115
 71
     7
 72
     5
  1
\W01.000;\fsimplex.shx,bigfont.shx;305.5\P
  7
DEFAULT
1001
ACAD
1000
MTEXTBEGIN
1070
    44
1040
0.903614
1000
MTEXTEND
  0
LINE
  5
181
330
17F
100
AcDbEntity
  8
TOP
  6
CONTINUOUS
 62
     1
100
AcDbLine
 10
230.82619
 20
204.071351
 30
0.0
 11
230.82619
 21
285.937971
 31
0.0
  0
LINE
  5
182
330
17F
100
AcDbEntity
  8
TOP
  6
CONTINUOUS
 62
     1
100
AcDbLine
 10
536.32619
 20
269.070351
 30
0.0
 11
536.32619
 21
285.937971
 31
0.0
  0
LINE
  5
183
330
17F
100
AcDbEntity
  8
TOP
  6
CONTINUOUS
 62
     1
100
AcDbLine
 10
230.82619
 20
283.937971
 30
0.0
 11
536.32619
 21
283.937971
 31
0.0
  0
SOLID
  5
184
330
17F
100
AcDbEntity
  8
TOP
  6
CONTINUOUS
 62
     1
100
AcDbTrace
 10
230.82619
 20
283.937971
 30
0.0
 11
236.826185
 21
285.268139
 31
0.0
 12
236.826195
 22
282.607803
 32
0.0
 13
230.82619
 23
283.937971
 33
0.0
  0
SOLID
  5
185
330
17F
100
AcDbEntity
  8
TOP
  6
CONTINUOUS
 62
     1
100
AcDbTrace
 10
536.32619
 20
283.937971
 30
0.0
 11
530.326195
 21
282.607803
 31
0.0
 12
530.326185
 22
285.268139
 32
0.0
 13
536.32619
 23
283.937971
 33
0.0
  0
ENDBLK
  5
187
330
17F
100
AcDbEntity
  8
0
100
AcDbBlockEnd
  0
BLOCK
  5
191
330
189
100
AcDbEntity
  8
0
100
AcDbBlockBegin
  2
DIMNDRAFT3D3
 70
     0
 10
0.0
 20
0.0
 30
0.0
  3
DIMNDRAFT3D3
  1

  0
MTEXT
  5
18A
330
189
100
AcDbEntity
  8
TOP
  6
CONTINUOUS
 62
     1
100
AcDbMText
 10
559.873928
 20
205.140851
 30
0.0
 40
6.0
 41
15.262
 71
     7
 72
     5
  1
\W01.000;\fsimplex.shx,bigfont.shx;130\P
  7
DEFAULT
 11
6.123031769111886E-17
 21
1.0
 31
0.0
1001
ACAD
1000
MTEXTBEGIN
1070
    44
1040
0.903614
1000
MTEXTEND
  0
MTEXT
  5
18B
330
189
100
AcDbEntity
  8
TOP
  6
CONTINUOUS
 62
     1
100
AcDbMText
 10
558.905178
 20
189.387851
 30
0.0
 40
3.0
 41
12.003
 71
     7
 72
     5
  1
\W01.000;\fsimplex.shx,bigfont.shx;\H12.00;%%c\H6.00;\P
  7
DEFAULT
 11
6.123031769111886E-17
 21
1.0
 31
0.0
1001
ACAD
1000
MTEXTBEGIN
1070
    44
1040
0.903614
1000
MTEXTEND
  0
LINE
  5
18C
330
189
100
AcDbEntity
  8
TOP
  6
CONTINUOUS
 62
     1
100
AcDbLine
 10
536.62619
 20
268.770351
 30
0.0
 11
564.436428
 21
268.770351
 31
0.0
  0
LINE
  5
18D
330
189
100
AcDbEntity
  8
TOP
  6
CONTINUOUS
 62
     1
100
AcDbLine
 10
536.62619
 20
138.770351
 30
0.0
 11
564.436428
 21
138.770351
 31
0.0
  0
LINE
  5
18E
330
189
100
AcDbEntity
  8
TOP
  6
CONTINUOUS
 62
     1
100
AcDbLine
 10
562.436428
 20
268.770351
 30
0.0
 11
562.436428
 21
138.770351
 31
0.0
  0
SOLID
  5
18F
330
189
100
AcDbEntity
  8
TOP
  6
CONTINUOUS
 62
     1
100
AcDbTrace
 10
562.436428
 20
268.770351
 30
0.0
 11
563.766596
 21
262.770356
 31
0.0
 12
561.10626
 22
262.770346
 32
0.0
 13
562.436428
 23
268.770351
 33
0.0
  0
SOLID
  5
190
330
189
100
AcDbEntity
  8
TOP
  6
CONTINUOUS
 62
     1
100
AcDbTrace
 10
562.436428
 20
138.770351
 30
0.0
 11
561.10626
 21
144.770346
 31
0.0
 12
563.766596
 22
144.770356
 32
0.0
 13
562.436428
 23
138.770351
 33
0.0
  0
ENDBLK
  5
192
330
189
100
AcDbEntity
  8
0
100
AcDbBlockEnd
  0
ENDSEC
  0
SECTION
  2
ENTITIES
  0
LINE
  5
41
330
1F
100
AcDbEntity
  8
1
  6
CONTINUOUS
 62
   251
100
AcDbLine
 10
29.674216
 20
132.420351
 30
0.0
 11
29.674216
 21
275.120351
 31
0.0
  0
LINE
  5
43
330
1F
100
AcDbEntity
  8
1
  6
CONTINUOUS
 62
   251
100
AcDbLine
 10
172.374216
 20
275.120351
 30
0.0
 11
29.674216
 21
275.120351
 31
0.0
  0
LINE
  5
44
330
1F
100
AcDbEntity
  8
1
  6
CONTINUOUS
 62
   251
100
AcDbLine
 10
172.374216
 20
275.120351
 30
0.0
 11
172.374216
 21
132.420351
 31
0.0
  0
LINE
  5
45
330
1F
100
AcDbEntity
  8
1
  6
CONTINUOUS
 62
   251
100
AcDbLine
 10
29.674216
 20
132.420351
 30
0.0
 11
172.374216
 21
132.420351
 31
0.0
  0
LINE
  5
46
330
1F
100
AcDbEntity
  8
1
  6
CONTINUOUS
 62
   251
100
AcDbLine
 10
224.47619
 20
132.420351
 30
0.0
 11
224.47619
 21
275.120351
 31
0.0
  0
LINE
  5
47
330
1F
100
AcDbEntity
  8
1
  6
CONTINUOUS
 62
   251
100
AcDbLine
 10
542.67619
 20
275.120351
 30
0.0
 11
224.47619
 21
275.120351
 31
0.0
  0
LINE
  5
48
330
1F
100
AcDbEntity
  8
1
  6
CONTINUOUS
 62
   251
100
AcDbLine
 10
542.67619
 20
275.120351
 30
0.0
 11
542.67619
 21
132.420351
 31
0.0
  0
LINE
  5
49
330
1F
100
AcDbEntity
  8
1
  6
CONTINUOUS
 62
   251
100
AcDbLine
 10
224.47619
 20
132.420351
 30
0.0
 11
542.67619
 21
132.420351
 31
0.0
  0
LINE
  5
4A
330
1F
100
AcDbEntity
  8
1
  6
CONTINUOUS
 62
   251
100
AcDbLine
 10
29.674216
 20
274.243473
 30
0.0
 11
29.674216
 21
400.826703
 31
0.0
  0
LINE
  5
4B
330
1F
100
AcDbEntity
  8
1
  6
CONTINUOUS
 62
   251
100
AcDbLine
 10
159.979371
 20
400.826703
 30
0.0
 11
29.674216
 21
400.826703
 31
0.0
  0
LINE
  5
4C
330
1F
100
AcDbEntity
  8
1
  6
CONTINUOUS
 62
   251
100
AcDbLine
 10
159.979371
 20
400.826703
 30
0.0
 11
159.979371
 21
274.243473
 31
0.0
  0
LINE
  5
4D
330
1F
100
AcDbEntity
  8
1
  6
CONTINUOUS
 62
   251
100
AcDbLine
 10
29.674216
 20
274.243473
 30
0.0
 11
159.979371
 21
274.243473
 31
0.0
  0
LINE
  5
4E
330
1F
100
AcDbEntity
  8
1
  6
CONTINUOUS
 62
   251
 60
     1
100
AcDbLine
 10
0.0
 20
0.0
 30
0.0
 11
0.0
 21
420.0
 31
0.0
  0
LINE
  5
4F
330
1F
100
AcDbEntity
  8
1
  6
CONTINUOUS
 62
   251
 60
     1
100
AcDbLine
 10
594.0
 20
420.0
 30
0.0
 11
0.0
 21
420.0
 31
0.0
  0
LINE
  5
50
330
1F
100
AcDbEntity
  8
1
  6
CONTINUOUS
 62
   251
 60
     1
100
AcDbLine
 10
594.0
 20
420.0
 30
0.0
 11
594.0
 21
0.0
 31
0.0
  0
LINE
  5
51
330
1F
100
AcDbEntity
  8
1
  6
CONTINUOUS
 62
   251
 60
     1
100
AcDbLine
 10
0.0
 20
0.0
 30
0.0
 11
594.0
 21
0.0
 31
0.0
  0
LINE
  5
52
330
1F
100
AcDbEntity
  8
1
  6
CONTINUOUS
 62
   252
100
AcDbLine
 10
125.524216
 20
203.270351
 30
0.0
 11
127.019408
 21
203.270351
 31
0.0
  0
LINE
  5
53
330
1F
100
AcDbEntity
  8
1
  6
CONTINUOUS
 62
   252
100
AcDbLine
 10
127.019408
 20
204.270351
 30
0.0
 11
125.524216
 21
204.270351
 31
0.0
  0
LINE
  5
54
330
1F
100
AcDbEntity
  8
1
  6
CONTINUOUS
 62
   252
100
AcDbLine
 10
125.524216
 20
204.270351
 30
0.0
 11
125.524216
 21
203.270351
 31
0.0
  0
LINE
  5
55
330
1F
100
AcDbEntity
  8
1
  6
DASHED
 62
   252
100
AcDbLine
 10
230.82619
 20
180.270351
 30
0.0
 11
255.82619
 21
180.270351
 31
0.0
  0
LINE
  5
56
330
1F
100
AcDbEntity
  8
1
  6
DASHED
 62
   252
100
AcDbLine
 10
531.32619
 20
148.270351
 30
0.0
 11
536.32619
 21
148.270351
 31
0.0
  0
LINE
  5
57
330
1F
100
AcDbEntity
  8
1
  6
DASHED
 62
   252
100
AcDbLine
 10
536.32619
 20
159.270351
 30
0.0
 11
531.32619
 21
159.270351
 31
0.0
  0
LINE
  5
58
330
1F
100
AcDbEntity
  8
1
  6
DASHED
 62
   252
100
AcDbLine
 10
531.32619
 20
248.270351
 30
0.0
 11
536.32619
 21
248.270351
 31
0.0
  0
LINE
  5
59
330
1F
100
AcDbEntity
  8
1
  6
DASHED
 62
   252
100
AcDbLine
 10
536.32619
 20
259.270351
 30
0.0
 11
531.32619
 21
259.270351
 31
0.0
  0
LINE
  5
5A
330
1F
100
AcDbEntity
  8
1
  6
DASHED
 62
   252
100
AcDbLine
 10
530.82619
 20
229.770351
 30
0.0
 11
525.824627
 21
229.770351
 31
0.0
  0
LINE
  5
5B
330
1F
100
AcDbEntity
  8
1
  6
CONTINUOUS
 62
   252
100
AcDbLine
 10
525.824627
 20
229.770351
 30
0.0
 11
230.82619
 21
229.770351
 31
0.0
  0
LINE
  5
5C
330
1F
100
AcDbEntity
  8
1
  6
CONTINUOUS
 62
   252
100
AcDbLine
 10
230.82619
 20
177.770351
 30
0.0
 11
525.824627
 21
177.770351
 31
0.0
  0
LINE
  5
5D
330
1F
100
AcDbEntity
  8
1
  6
DASHED
 62
   252
100
AcDbLine
 10
525.824627
 20
177.770351
 30
0.0
 11
530.82619
 21
177.770351
 31
0.0
  0
LINE
  5
5E
330
1F
100
AcDbEntity
  8
1
  6
DASHED
 62
   252
100
AcDbLine
 10
255.82619
 20
227.270351
 30
0.0
 11
230.82619
 21
227.270351
 31
0.0
  0
LINE
  5
5F
330
1F
100
AcDbEntity
  8
1
  6
DASHED
 62
   252
100
AcDbLine
 10
530.82619
 20
225.770351
 30
0.0
 11
255.82619
 21
225.770351
 31
0.0
  0
LINE
  5
60
330
1F
100
AcDbEntity
  8
1
  6
DASHED
 62
   252
100
AcDbLine
 10
255.82619
 20
181.770351
 30
0.0
 11
530.82619
 21
181.770351
 31
0.0
  0
LINE
  5
61
330
1F
100
AcDbEntity
  8
1
  6
DASHED
 62
   252
100
AcDbLine
 10
535.52619
 20
202.270351
 30
0.0
 11
536.32619
 21
202.270351
 31
0.0
  0
LINE
  5
62
330
1F
100
AcDbEntity
  8
1
  6
DASHED
 62
   252
100
AcDbLine
 10
536.32619
 20
205.270351
 30
0.0
 11
535.52619
 21
205.270351
 31
0.0
  0
LINE
  5
63
330
1F
100
AcDbEntity
  8
1
  6
DASHED
 62
   252
100
AcDbLine
 10
531.32619
 20
236.270351
 30
0.0
 11
530.82619
 21
236.270351
 31
0.0
  0
LINE
  5
64
330
1F
100
AcDbEntity
  8
1
  6
DASHED
 62
   252
100
AcDbLine
 10
536.32619
 20
209.270351
 30
0.0
 11
531.32619
 21
209.270351
 31
0.0
  0
LINE
  5
65
330
1F
100
AcDbEntity
  8
1
  6
DASHED
 62
   252
100
AcDbLine
 10
531.32619
 20
198.270351
 30
0.0
 11
536.32619
 21
198.270351
 31
0.0
  0
LINE
  5
66
330
1F
100
AcDbEntity
  8
1
  6
DASHED
 62
   252
100
AcDbLine
 10
530.82619
 20
171.270351
 30
0.0
 11
531.32619
 21
171.270351
 31
0.0
  0
LINE
  5
67
330
1F
100
AcDbEntity
  8
1
  6
CONTINUOUS
 62
   252
100
AcDbLine
 10
531.32619
 20
241.270351
 30
0.0
 11
530.82619
 21
241.270351
 31
0.0
  0
LINE
  5
68
330
1F
100
AcDbEntity
  8
1
  6
CONTINUOUS
 62
   252
100
AcDbLine
 10
530.82619
 20
166.270351
 30
0.0
 11
531.32619
 21
166.270351
 31
0.0
  0
LINE
  5
69
330
1F
100
AcDbEntity
  8
1
  6
CONTINUOUS
 62
   252
100
AcDbLine
 10
531.32619
 20
205.270351
 30
0.0
 11
530.52619
 21
205.270351
 31
0.0
  0
LINE
  5
6A
330
1F
100
AcDbEntity
  8
1
  6
CONTINUOUS
 62
   252
100
AcDbLine
 10
530.52619
 20
202.270351
 30
0.0
 11
531.32619
 21
202.270351
 31
0.0
  0
LINE
  5
6B
330
1F
100
AcDbEntity
  8
1
  6
CONTINUOUS
 62
   252
100
AcDbLine
 10
536.32619
 20
268.770351
 30
0.0
 11
531.32619
 21
268.770351
 31
0.0
  0
LINE
  5
6C
330
1F
100
AcDbEntity
  8
1
  6
CONTINUOUS
 62
   252
100
AcDbLine
 10
531.32619
 20
138.770351
 30
0.0
 11
536.32619
 21
138.770351
 31
0.0
  0
LINE
  5
6D
330
1F
100
AcDbEntity
  8
1
  6
CONTINUOUS
 62
   252
100
AcDbLine
 10
531.32619
 20
138.770351
 30
0.0
 11
531.32619
 21
268.770351
 31
0.0
  0
LINE
  5
6E
330
1F
100
AcDbEntity
  8
1
  6
CONTINUOUS
 62
   252
100
AcDbLine
 10
233.82619
 20
203.270351
 30
0.0
 11
230.82619
 21
203.270351
 31
0.0
  0
LINE
  5
6F
330
1F
100
AcDbEntity
  8
1
  6
CONTINUOUS
 62
   252
100
AcDbLine
 10
230.82619
 20
204.270351
 30
0.0
 11
233.82619
 21
204.270351
 31
0.0
  0
LINE
  5
70
330
1F
100
AcDbEntity
  8
1
  6
DASHED
 62
   252
100
AcDbLine
 10
527.82619
 20
204.270351
 30
0.0
 11
530.82619
 21
204.270351
 31
0.0
  0
LINE
  5
71
330
1F
100
AcDbEntity
  8
1
  6
DASHED
 62
   252
100
AcDbLine
 10
530.82619
 20
203.270351
 30
0.0
 11
527.82619
 21
203.270351
 31
0.0
  0
LINE
  5
72
330
1F
100
AcDbEntity
  8
1
  6
DASHED
 62
   252
100
AcDbLine
 10
527.82619
 20
203.270351
 30
0.0
 11
527.82619
 21
204.270351
 31
0.0
  0
LINE
  5
73
330
1F
100
AcDbEntity
  8
1
  6
DASHED
 62
   252
100
AcDbLine
 10
530.82619
 20
171.270351
 30
0.0
 11
530.82619
 21
236.270351
 31
0.0
  0
LINE
  5
74
330
1F
100
AcDbEntity
  8
1
  6
CONTINUOUS
 62
   252
100
AcDbLine
 10
536.32619
 20
138.770351
 30
0.0
 11
536.32619
 21
268.770351
 31
0.0
  0
LINE
  5
75
330
1F
100
AcDbEntity
  8
1
  6
CONTINUOUS
 62
   252
100
AcDbLine
 10
255.213655
 20
183.910929
 30
0.0
 11
254.651904
 21
183.910929
 31
0.0
  0
LINE
  5
76
330
1F
100
AcDbEntity
  8
1
  6
CONTINUOUS
 62
   252
100
AcDbLine
 10
255.884576
 20
184.907244
 30
0.0
 11
253.980983
 21
184.907244
 31
0.0
  0
LINE
  5
77
330
1F
100
AcDbEntity
  8
1
  6
CONTINUOUS
 62
   252
100
AcDbLine
 10
525.82619
 20
171.270351
 30
0.0
 11
525.82619
 21
236.270351
 31
0.0
  0
LINE
  5
78
330
1F
100
AcDbEntity
  8
1
  6
CONTINUOUS
 62
   252
100
AcDbLine
 10
230.82619
 20
204.270351
 30
0.0
 11
230.82619
 21
229.770351
 31
0.0
  0
LINE
  5
79
330
1F
100
AcDbEntity
  8
1
  6
CONTINUOUS
 62
   252
100
AcDbLine
 10
230.82619
 20
177.770351
 30
0.0
 11
230.82619
 21
203.270351
 31
0.0
  0
LINE
  5
7A
330
1F
100
AcDbEntity
  8
1
  6
CONTINUOUS
 62
   252
100
AcDbLine
 10
530.82619
 20
205.268345
 30
0.0
 11
530.82619
 21
241.270351
 31
0.0
  0
LINE
  5
7B
330
1F
100
AcDbEntity
  8
1
  6
DASHED
 62
   252
100
AcDbLine
 10
530.82619
 20
202.268678
 30
0.0
 11
530.82619
 21
205.268345
 31
0.0
  0
LINE
  5
7C
330
1F
100
AcDbEntity
  8
1
  6
CONTINUOUS
 62
   252
100
AcDbLine
 10
530.82619
 20
166.270351
 30
0.0
 11
530.82619
 21
202.268678
 31
0.0
  0
LINE
  5
7D
330
1F
100
AcDbEntity
  8
1
  6
DASHED
 62
   252
100
AcDbLine
 10
530.82619
 20
166.270351
 30
0.0
 11
530.82619
 21
171.269882
 31
0.0
  0
LINE
  5
7E
330
1F
100
AcDbEntity
  8
1
  6
DASHED
 62
   252
100
AcDbLine
 10
530.82619
 20
236.268983
 30
0.0
 11
530.82619
 21
241.270351
 31
0.0
  0
LINE
  5
7F
330
1F
100
AcDbEntity
  8
1
  6
CONTINUOUS
 62
   252
100
AcDbLine
 10
233.82619
 20
204.270351
 30
0.0
 11
233.82619
 21
203.270351
 31
0.0
  0
LINE
  5
80
330
1F
100
AcDbEntity
  8
1
  6
CONTINUOUS
 62
   252
100
AcDbLine
 10
230.82619
 20
225.770351
 30
0.0
 11
230.82619
 21
223.745835
 31
0.0
  0
LINE
  5
81
330
1F
100
AcDbEntity
  8
1
  6
CONTINUOUS
 62
   252
100
AcDbLine
 10
230.82619
 20
204.270351
 30
0.0
 11
230.82619
 21
203.270351
 31
0.0
  0
LINE
  5
82
330
1F
100
AcDbEntity
  8
1
  6
CONTINUOUS
 62
   252
100
AcDbLine
 10
230.82619
 20
180.608351
 30
0.0
 11
230.82619
 21
187.652803
 31
0.0
  0
LINE
  5
83
330
1F
100
AcDbEntity
  8
1
  6
CONTINUOUS
 62
   252
100
AcDbLine
 10
114.14142
 20
372.968163
 30
0.0
 11
38.253698
 21
301.420533
 31
0.0
  0
LINE
  5
84
330
1F
100
AcDbEntity
  8
1
  6
CONTINUOUS
 62
   252
100
AcDbLine
 10
56.08955
 20
282.502754
 30
0.0
 11
131.977272
 21
354.050385
 31
0.0
  0
LINE
  5
85
330
1F
100
AcDbEntity
  8
1
  6
CONTINUOUS
 62
   252
100
AcDbLine
 10
103.466035
 20
389.703501
 30
0.0
 11
102.179795
 21
388.490822
 31
0.0
  0
LINE
  5
86
330
1F
100
AcDbEntity
  8
1
  6
CONTINUOUS
 62
   252
100
AcDbLine
 10
146.769427
 20
341.196376
 30
0.0
 11
148.055667
 21
342.409054
 31
0.0
  0
LINE
  5
87
330
1F
100
AcDbEntity
  8
1
  6
CONTINUOUS
 62
   252
100
AcDbLine
 10
111.612217
 20
378.486228
 30
0.0
 11
111.483593
 21
378.36496
 31
0.0
  0
LINE
  5
88
330
1F
100
AcDbEntity
  8
1
  6
CONTINUOUS
 62
   252
100
AcDbLine
 10
137.208381
 20
351.079702
 30
0.0
 11
137.337005
 21
351.20097
 31
0.0
  0
LINE
  5
89
330
1F
100
AcDbEntity
  8
1
  6
CONTINUOUS
 62
   252
100
AcDbLine
 10
48.157741
 20
303.334582
 30
0.0
 11
47.385997
 21
302.606975
 31
0.0
  0
LINE
  5
8A
330
1F
100
AcDbEntity
  8
1
  6
CONTINUOUS
 62
   252
100
AcDbLine
 10
46.957251
 20
302.752497
 30
0.0
 11
47.728994
 21
303.480103
 31
0.0
  0
LINE
  5
8B
330
1F
100
AcDbEntity
  8
1
  6
CONTINUOUS
 62
   252
100
AcDbLine
 10
47.728994
 20
303.480103
 30
0.0
 11
47.728994
 21
302.930364
 31
0.0
  0
LINE
  5
8C
330
1F
100
AcDbEntity
  8
1
  6
CONTINUOUS
 62
   252
100
AcDbLine
 10
46.957251
 20
302.136013
 30
0.0
 11
47.385991
 21
302.540233
 31
0.0
  0
LINE
  5
8D
330
1F
100
AcDbEntity
  8
1
  6
CONTINUOUS
 62
   252
100
AcDbLine
 10
47.385997
 20
301.990492
 30
0.0
 11
47.385997
 21
302.606975
 31
0.0
  0
LINE
  5
8E
330
1F
100
AcDbEntity
  8
1
  6
CONTINUOUS
 62
   252
100
AcDbLine
 10
46.957251
 20
302.752497
 30
0.0
 11
46.957251
 21
302.136013
 31
0.0
  0
LINE
  5
8F
330
1F
100
AcDbEntity
  8
1
  6
CONTINUOUS
 62
   252
100
AcDbLine
 10
46.957251
 20
302.136013
 30
0.0
 11
47.385997
 21
301.990492
 31
0.0
  0
LINE
  5
90
102
{ACAD_REACTORS
330
196
102
}
330
1F
100
AcDbEntity
  8
201
  6
CONTINUOUS
 62
    80
100
AcDbLine
 10
583.99951
 20
79.25
 30
0.0
 11
585.99951
 21
79.25
 31
0.0
  0
LINE
  5
92
102
{ACAD_REACTORS
330
196
102
}
330
1F
100
AcDbEntity
  8
201
  6
CONTINUOUS
 62
    80
100
AcDbLine
 10
583.99951
 20
148.5
 30
0.0
 11
585.99951
 21
148.5
 31
0.0
  0
LINE
  5
93
102
{ACAD_REACTORS
330
196
102
}
330
1F
100
AcDbEntity
  8
201
  6
CONTINUOUS
 62
    80
100
AcDbLine
 10
583.99951
 20
348.49991
 30
0.0
 11
585.99951
 21
348.49991
 31
0.0
  0
LINE
  5
94
102
{ACAD_REACTORS
330
196
102
}
330
1F
100
AcDbEntity
  8
201
  6
CONTINUOUS
 62
    80
100
AcDbLine
 10
583.99951
 20
217.75
 30
0.0
 11
585.99951
 21
217.75
 31
0.0
  0
LINE
  5
95
102
{ACAD_REACTORS
330
196
102
}
330
1F
100
AcDbEntity
  8
201
  6
CONTINUOUS
 62
    80
100
AcDbLine
 10
519.33301
 20
10.0
 30
0.0
 11
519.33301
 21
8.0
 31
0.0
  0
LINE
  5
96
102
{ACAD_REACTORS
330
196
102
}
330
1F
100
AcDbEntity
  8
201
  6
CONTINUOUS
 62
    80
100
AcDbLine
 10
454.6665
 20
10.0
 30
0.0
 11
454.6665
 21
8.0
 31
0.0
  0
LINE
  5
97
102
{ACAD_REACTORS
330
196
102
}
330
1F
100
AcDbEntity
  8
201
  6
CONTINUOUS
 62
    80
100
AcDbLine
 10
326.66675
 20
10.0
 30
0.0
 11
326.66675
 21
8.0
 31
0.0
  0
LINE
  5
98
102
{ACAD_REACTORS
330
196
102
}
330
1F
100
AcDbEntity
  8
201
  6
CONTINUOUS
 62
    80
100
AcDbLine
 10
263.33325
 20
10.0
 30
0.0
 11
263.33325
 21
8.0
 31
0.0
  0
LINE
  5
99
102
{ACAD_REACTORS
330
196
102
}
330
1F
100
AcDbEntity
  8
201
  6
CONTINUOUS
 62
    80
100
AcDbLine
 10
136.66667
 20
10.0
 30
0.0
 11
136.66667
 21
8.0
 31
0.0
  0
LINE
  5
9A
102
{ACAD_REACTORS
330
196
102
}
330
1F
100
AcDbEntity
  8
201
  6
CONTINUOUS
 62
    80
100
AcDbLine
 10
73.333252
 20
10.0
 30
0.0
 11
73.333252
 21
8.0
 31
0.0
  0
LINE
  5
9B
102
{ACAD_REACTORS
330
196
102
}
330
1F
100
AcDbEntity
  8
201
  6
CONTINUOUS
 62
    80
100
AcDbLine
 10
454.6665
 20
411.99991
 30
0.0
 11
454.6665
 21
409.99991
 31
0.0
  0
LINE
  5
9C
102
{ACAD_REACTORS
330
196
102
}
330
1F
100
AcDbEntity
  8
201
  6
CONTINUOUS
 62
    80
100
AcDbLine
 10
519.33301
 20
411.99991
 30
0.0
 11
519.33301
 21
409.99991
 31
0.0
  0
LINE
  5
9D
102
{ACAD_REACTORS
330
196
102
}
330
1F
100
AcDbEntity
  8
201
  6
CONTINUOUS
 62
    80
100
AcDbLine
 10
390.0
 20
10.0
 30
0.0
 11
390.0
 21
6.0
 31
0.0
  0
LINE
  5
9E
102
{ACAD_REACTORS
330
196
102
}
330
1F
100
AcDbEntity
  8
201
  6
CONTINUOUS
 62
    80
100
AcDbLine
 10
10.0
 20
51.000031
 30
0.0
 11
90.734131
 21
51.000031
 31
0.0
  0
LINE
  5
9F
102
{ACAD_REACTORS
330
196
102
}
330
1F
100
AcDbEntity
  8
201
  6
CONTINUOUS
 62
    80
100
AcDbLine
 10
18.0
 20
10.0
 30
0.0
 11
18.0
 21
51.000031
 31
0.0
  0
LINE
  5
A0
102
{ACAD_REACTORS
330
196
102
}
330
1F
100
AcDbEntity
  8
201
  6
CONTINUOUS
 62
    80
100
AcDbLine
 10
432.71997
 20
46.000031
 30
0.0
 11
503.65283
 21
46.000031
 31
0.0
  0
LINE
  5
A1
102
{ACAD_REACTORS
330
196
102
}
330
1F
100
AcDbEntity
  8
201
  6
CONTINUOUS
 62
    80
100
AcDbLine
 10
517.09326
 20
51.000031
 30
0.0
 11
517.09326
 21
10.000031
 31
0.0
  0
LINE
  5
A2
102
{ACAD_REACTORS
330
196
102
}
330
1F
100
AcDbEntity
  8
201
  6
CONTINUOUS
 62
    80
100
AcDbLine
 10
432.71997
 20
37.333527
 30
0.0
 11
503.65283
 21
37.333527
 31
0.0
  0
LINE
  5
A3
102
{ACAD_REACTORS
330
196
102
}
330
1F
100
AcDbEntity
  8
201
  6
CONTINUOUS
 62
    80
100
AcDbLine
 10
420.77222
 20
51.000031
 30
0.0
 11
420.77222
 21
32.000031
 31
0.0
  0
LINE
  5
A4
102
{ACAD_REACTORS
330
196
102
}
330
1F
100
AcDbEntity
  8
201
  6
CONTINUOUS
 62
    80
100
AcDbLine
 10
409.0
 20
32.000031
 30
0.0
 11
503.65283
 21
32.000031
 31
0.0
  0
LINE
  5
A5
102
{ACAD_REACTORS
330
196
102
}
330
1F
100
AcDbEntity
  8
201
  6
CONTINUOUS
 62
    80
100
AcDbLine
 10
409.0
 20
41.445831
 30
0.0
 11
432.71997
 21
41.445831
 31
0.0
  0
LINE
  5
A6
102
{ACAD_REACTORS
330
196
102
}
330
1F
100
AcDbEntity
  8
201
  6
CONTINUOUS
 62
    80
100
AcDbLine
 10
409.0
 20
21.000031
 30
0.0
 11
584.0
 21
21.000031
 31
0.0
  0
LINE
  5
A7
102
{ACAD_REACTORS
330
196
102
}
330
1F
100
AcDbEntity
  8
201
  6
CONTINUOUS
 62
    80
100
AcDbLine
 10
409.0
 20
26.624298
 30
0.0
 11
503.65283
 21
26.624298
 31
0.0
  0
LINE
  5
A8
102
{ACAD_REACTORS
330
196
102
}
330
1F
100
AcDbEntity
  8
201
  6
CONTINUOUS
 62
    80
100
AcDbLine
 10
423.2207
 20
32.000031
 30
0.0
 11
423.2207
 21
21.000031
 31
0.0
  0
LINE
  5
A9
102
{ACAD_REACTORS
330
196
102
}
330
1F
100
AcDbEntity
  8
201
  6
CONTINUOUS
 62
    80
100
AcDbLine
 10
432.71997
 20
51.000031
 30
0.0
 11
432.71997
 21
32.000031
 31
0.0
  0
LINE
  5
AA
102
{ACAD_REACTORS
330
196
102
}
330
1F
100
AcDbEntity
  8
201
  6
CONTINUOUS
 62
    80
100
AcDbLine
 10
503.65283
 20
51.000031
 30
0.0
 11
503.65283
 21
10.000031
 31
0.0
  0
LINE
  5
AB
102
{ACAD_REACTORS
330
196
102
}
330
1F
100
AcDbEntity
  8
201
  6
CONTINUOUS
 62
    80
100
AcDbLine
 10
263.33325
 20
411.99991
 30
0.0
 11
263.33325
 21
409.99991
 31
0.0
  0
LINE
  5
AC
102
{ACAD_REACTORS
330
196
102
}
330
1F
100
AcDbEntity
  8
201
  6
CONTINUOUS
 62
    80
100
AcDbLine
 10
522.09326
 20
36.000031
 30
0.0
 11
579.0
 21
36.000031
 31
0.0
  0
LINE
  5
AD
102
{ACAD_REACTORS
330
196
102
}
330
1F
100
AcDbEntity
  8
201
  6
CONTINUOUS
 62
    80
100
AcDbLine
 10
409.0
 20
51.000031
 30
0.0
 11
409.0
 21
10.000031
 31
0.0
  0
LINE
  5
AE
102
{ACAD_REACTORS
330
196
102
}
330
1F
100
AcDbEntity
  8
201
  6
CONTINUOUS
 62
    80
100
AcDbLine
 10
456.5
 20
409.99991
 30
0.0
 11
456.5
 21
399.99991
 31
0.0
  0
LINE
  5
AF
102
{ACAD_REACTORS
330
196
102
}
330
1F
100
AcDbEntity
  8
201
  6
CONTINUOUS
 62
    80
100
AcDbLine
 10
554.0
 20
409.99991
 30
0.0
 11
554.0
 21
399.99991
 31
0.0
  0
LINE
  5
B0
102
{ACAD_REACTORS
330
196
102
}
330
1F
100
AcDbEntity
  8
201
  6
CONTINUOUS
 62
    80
100
AcDbLine
 10
404.0
 20
409.99991
 30
0.0
 11
404.0
 21
399.99991
 31
0.0
  0
LINE
  5
B1
102
{ACAD_REACTORS
330
196
102
}
330
1F
100
AcDbEntity
  8
201
  6
CONTINUOUS
 62
    80
100
AcDbLine
 10
413.0
 20
409.99991
 30
0.0
 11
413.0
 21
399.99991
 31
0.0
  0
LINE
  5
B2
102
{ACAD_REACTORS
330
196
102
}
330
1F
100
AcDbEntity
  8
201
  6
CONTINUOUS
 62
    80
100
AcDbLine
 10
496.0
 20
409.99991
 30
0.0
 11
496.0
 21
399.99991
 31
0.0
  0
LINE
  5
B3
102
{ACAD_REACTORS
330
196
102
}
330
1F
100
AcDbEntity
  8
201
  6
CONTINUOUS
 62
    80
100
AcDbLine
 10
542.0
 20
409.99991
 30
0.0
 11
542.0
 21
399.99991
 31
0.0
  0
LINE
  5
B4
102
{ACAD_REACTORS
330
196
102
}
330
1F
100
AcDbEntity
  8
201
  6
CONTINUOUS
 62
    80
100
AcDbLine
 10
404.0
 20
399.99991
 30
0.0
 11
584.0
 21
399.99991
 31
0.0
  0
LINE
  5
B5
102
{ACAD_REACTORS
330
196
102
}
330
1F
100
AcDbEntity
  8
201
  6
CONTINUOUS
 62
    80
100
AcDbLine
 10
404.0
 20
404.99991
 30
0.0
 11
584.0
 21
404.99991
 31
0.0
  0
LINE
  5
B6
102
{ACAD_REACTORS
330
196
102
}
330
1F
100
AcDbEntity
  8
201
  6
CONTINUOUS
 62
    80
100
AcDbLine
 10
409.0
 20
51.000031
 30
0.0
 11
584.0
 21
51.000031
 31
0.0
  0
LINE
  5
B7
102
{ACAD_REACTORS
330
196
102
}
330
1F
100
AcDbEntity
  8
201
  6
CONTINUOUS
 62
    80
100
AcDbLine
 10
90.734116
 20
51.0
 30
0.0
 11
408.99976
 21
51.0
 31
0.0
  0
LINE
  5
B8
102
{ACAD_REACTORS
330
196
102
}
330
1F
100
AcDbEntity
  8
201
  6
CONTINUOUS
 62
    80
100
AcDbLine
 10
8.0
 20
217.75
 30
0.0
 11
10.0
 21
217.75
 31
0.0
  0
LINE
  5
B9
102
{ACAD_REACTORS
330
196
102
}
330
1F
100
AcDbEntity
  8
201
  6
CONTINUOUS
 62
    80
100
AcDbLine
 10
136.66667
 20
411.99991
 30
0.0
 11
136.66667
 21
409.99991
 31
0.0
  0
LINE
  5
BA
102
{ACAD_REACTORS
330
196
102
}
330
1F
100
AcDbEntity
  8
201
  6
CONTINUOUS
 62
    80
100
AcDbLine
 10
73.333252
 20
411.99991
 30
0.0
 11
73.333252
 21
409.99991
 31
0.0
  0
LINE
  5
BB
102
{ACAD_REACTORS
330
196
102
}
330
1F
100
AcDbEntity
  8
201
  6
CONTINUOUS
 62
    80
100
AcDbLine
 10
8.0
 20
79.25
 30
0.0
 11
10.0
 21
79.25
 31
0.0
  0
LINE
  5
BC
102
{ACAD_REACTORS
330
196
102
}
330
1F
100
AcDbEntity
  8
201
  6
CONTINUOUS
 62
    80
100
AcDbLine
 10
8.0
 20
148.5
 30
0.0
 11
10.0
 21
148.5
 31
0.0
  0
LINE
  5
BD
102
{ACAD_REACTORS
330
196
102
}
330
1F
100
AcDbEntity
  8
201
  6
CONTINUOUS
 62
    80
100
AcDbLine
 10
326.66675
 20
411.99991
 30
0.0
 11
326.66675
 21
409.99991
 31
0.0
  0
LINE
  5
BE
102
{ACAD_REACTORS
330
196
102
}
330
1F
100
AcDbEntity
  8
201
  6
CONTINUOUS
 62
    80
100
AcDbLine
 10
8.0
 20
348.49991
 30
0.0
 11
10.0
 21
348.49991
 31
0.0
  0
LINE
  5
BF
102
{ACAD_REACTORS
330
196
102
}
330
1F
100
AcDbEntity
  8
201
  6
CONTINUOUS
 62
    80
100
AcDbLine
 10
390.0
 20
413.99991
 30
0.0
 11
390.0
 21
409.99991
 31
0.0
  0
LINE
  5
C0
102
{ACAD_REACTORS
330
196
102
}
330
1F
100
AcDbEntity
  8
201
  6
CONTINUOUS
 62
    80
100
AcDbLine
 10
10.0
 20
10.0
 30
0.0
 11
583.99951
 21
10.0
 31
0.0
  0
LINE
  5
C1
102
{ACAD_REACTORS
330
196
102
}
330
1F
100
AcDbEntity
  8
201
  6
CONTINUOUS
 62
    80
100
AcDbLine
 10
583.99951
 20
409.99991
 30
0.0
 11
583.99951
 21
10.0
 31
0.0
  0
LINE
  5
C2
102
{ACAD_REACTORS
330
196
102
}
330
1F
100
AcDbEntity
  8
201
  6
CONTINUOUS
 62
    80
100
AcDbLine
 10
10.0
 20
409.99991
 30
0.0
 11
583.99951
 21
409.99991
 31
0.0
  0
LINE
  5
C3
102
{ACAD_REACTORS
330
196
102
}
330
1F
100
AcDbEntity
  8
201
  6
CONTINUOUS
 62
    80
100
AcDbLine
 10
583.99951
 20
286.99991
 30
0.0
 11
587.99951
 21
286.99991
 31
0.0
  0
LINE
  5
C4
102
{ACAD_REACTORS
330
196
102
}
330
1F
100
AcDbEntity
  8
201
  6
CONTINUOUS
 62
    80
100
AcDbLine
 10
200.0
 20
10.0
 30
0.0
 11
200.0
 21
6.0
 31
0.0
  0
LINE
  5
C5
102
{ACAD_REACTORS
330
196
102
}
330
1F
100
AcDbEntity
  8
201
  6
CONTINUOUS
 62
    80
100
AcDbLine
 10
200.0
 20
413.99991
 30
0.0
 11
200.0
 21
409.99991
 31
0.0
  0
LINE
  5
C6
102
{ACAD_REACTORS
330
196
102
}
330
1F
100
AcDbEntity
  8
201
  6
CONTINUOUS
 62
    80
100
AcDbLine
 10
10.0
 20
409.99991
 30
0.0
 11
10.0
 21
10.0
 31
0.0
  0
LINE
  5
C7
102
{ACAD_REACTORS
330
196
102
}
330
1F
100
AcDbEntity
  8
201
  6
CONTINUOUS
 62
    80
100
AcDbLine
 10
6.0
 20
286.99991
 30
0.0
 11
10.0
 21
286.99991
 31
0.0
  0
LINE
  5
C8
102
{ACAD_REACTORS
330
196
102
}
330
1F
100
AcDbEntity
  8
201
  6
CONTINUOUS
 62
    80
100
AcDbLine
 10
456.41997
 20
51.000031
 30
0.0
 11
456.41997
 21
32.000031
 31
0.0
  0
LINE
  5
C9
102
{ACAD_REACTORS
330
196
102
}
330
1F
100
AcDbEntity
  8
201
  6
CONTINUOUS
 62
    80
100
AcDbLine
 10
480.11997
 20
51.000031
 30
0.0
 11
480.11997
 21
32.000031
 31
0.0
  0
LINE
  5
CA
102
{ACAD_REACTORS
330
196
102
}
330
1F
100
AcDbEntity
  8
201
  6
CONTINUOUS
 62
    80
100
AcDbLine
 10
443.04622
 20
32.0
 30
0.0
 11
443.04622
 21
21.0
 31
0.0
  0
LINE
  5
CB
330
1F
100
AcDbEntity
  8
201
  6
CONTINUOUS
 62
    80
100
AcDbLine
 10
404.0
 20
399.99991
 30
0.0
 11
404.0
 21
389.99991
 31
0.0
  0
LINE
  5
CC
330
1F
100
AcDbEntity
  8
201
  6
CONTINUOUS
 62
    80
100
AcDbLine
 10
413.0
 20
399.99991
 30
0.0
 11
413.0
 21
389.99991
 31
0.0
  0
LINE
  5
CD
330
1F
100
AcDbEntity
  8
201
  6
CONTINUOUS
 62
    80
100
AcDbLine
 10
404.0
 20
389.99991
 30
0.0
 11
584.0
 21
389.99991
 31
0.0
  0
LINE
  5
CE
330
1F
100
AcDbEntity
  8
201
  6
CONTINUOUS
 62
    80
100
AcDbLine
 10
404.0
 20
394.99991
 30
0.0
 11
584.0
 21
394.99991
 31
0.0
  0
LINE
  5
CF
330
1F
100
AcDbEntity
  8
201
  6
CONTINUOUS
 62
    80
100
AcDbLine
 10
456.5
 20
399.99991
 30
0.0
 11
456.5
 21
389.99991
 31
0.0
  0
LINE
  5
D0
330
1F
100
AcDbEntity
  8
201
  6
CONTINUOUS
 62
    80
100
AcDbLine
 10
496.0
 20
399.99991
 30
0.0
 11
496.0
 21
389.99991
 31
0.0
  0
LINE
  5
D1
330
1F
100
AcDbEntity
  8
201
  6
CONTINUOUS
 62
    80
100
AcDbLine
 10
542.0
 20
399.99991
 30
0.0
 11
542.0
 21
389.99991
 31
0.0
  0
LINE
  5
D2
330
1F
100
AcDbEntity
  8
201
  6
CONTINUOUS
 62
    80
100
AcDbLine
 10
554.0
 20
399.99991
 30
0.0
 11
554.0
 21
389.99991
 31
0.0
  0
LINE
  5
D3
102
{ACAD_REACTORS
330
194
102
}
330
1F
100
AcDbEntity
  8
1
  6
CENTER
 62
     1
100
AcDbLine
 10
215.82619
 20
203.770351
 30
0.0
 11
545.82619
 21
203.770351
 31
0.0
  0
LINE
  5
D4
102
{ACAD_REACTORS
330
195
102
}
330
1F
100
AcDbEntity
  8
1
  6
CONTINUOUS
 62
     1
100
AcDbLine
 10
71.586893
 20
244.186239
 30
0.0
 11
159.77237
 21
123.112243
 31
0.0
  0
LINE
  5
D5
330
1F
100
AcDbEntity
  8
1
  6
CONTINUOUS
 62
   172
 60
     1
100
AcDbLine
 10
71.586893
 20
244.186239
 30
0.0
 11
76.194567
 21
240.119468
 31
0.0
  0
LINE
  5
D6
330
1F
100
AcDbEntity
  8
1
  6
CONTINUOUS
 62
   172
 60
     1
100
AcDbLine
 10
76.194567
 20
240.119468
 30
0.0
 11
74.044176
 21
238.553196
 31
0.0
  0
LINE
  5
D7
330
1F
100
AcDbEntity
  8
1
  6
CONTINUOUS
 62
   172
 60
     1
100
AcDbLine
 10
74.044176
 20
238.553196
 30
0.0
 11
71.586893
 21
244.186239
 31
0.0
  0
LINE
  5
D8
330
1F
100
AcDbEntity
  8
1
  6
CONTINUOUS
 62
   172
 60
     1
100
AcDbLine
 10
130.461539
 20
163.354463
 30
0.0
 11
125.853865
 21
167.421234
 31
0.0
  0
LINE
  5
D9
330
1F
100
AcDbEntity
  8
1
  6
CONTINUOUS
 62
   172
 60
     1
100
AcDbLine
 10
125.853865
 20
167.421234
 30
0.0
 11
128.004256
 21
168.987505
 31
0.0
  0
LINE
  5
DA
330
1F
100
AcDbEntity
  8
1
  6
CONTINUOUS
 62
   172
 60
     1
100
AcDbLine
 10
128.004256
 20
168.987505
 30
0.0
 11
130.461539
 21
163.354463
 31
0.0
  0
LINE
  5
DB
330
1F
100
AcDbEntity
  8
1
  6
CONTINUOUS
 62
   172
 60
     1
100
AcDbLine
 10
230.82619
 20
203.770351
 30
0.0
 11
230.82619
 21
203.771351
 31
0.0
  0
CIRCLE
  5
DC
330
1F
100
AcDbEntity
  8
1
  6
CONTINUOUS
 62
   252
100
AcDbCircle
 10
-51.024216
 20
203.770351
 30
0.0
 40
5.5
210
0.0
220
0.0
230
-1.0
  0
CIRCLE
  5
DD
330
1F
100
AcDbEntity
  8
1
  6
CONTINUOUS
 62
   252
100
AcDbCircle
 10
-101.024216
 20
203.770351
 30
0.0
 40
65.0
210
0.0
220
0.0
230
-1.0
  0
CIRCLE
  5
DE
330
1F
100
AcDbEntity
  8
1
  6
CONTINUOUS
 62
   252
100
AcDbCircle
 10
-101.024216
 20
153.770351
 30
0.0
 40
5.5
210
0.0
220
0.0
230
-1.0
  0
CIRCLE
  5
DF
330
1F
100
AcDbEntity
  8
1
  6
CONTINUOUS
 62
   252
100
AcDbCircle
 10
101.024216
 20
203.770351
 30
0.0
 40
32.5
  0
ARC
  5
E0
330
1F
100
AcDbEntity
  8
1
  6
CONTINUOUS
 62
   252
100
AcDbCircle
 10
101.024216
 20
203.770351
 30
0.0
 40
26.0
100
AcDbArc
 50
1.10191
 51
358.89809
  0
CIRCLE
  5
E1
330
1F
100
AcDbEntity
  8
1
  6
CONTINUOUS
 62
   252
100
AcDbCircle
 10
-101.024216
 20
203.770351
 30
0.0
 40
37.5
210
0.0
220
0.0
230
-1.0
  0
CIRCLE
  5
E2
330
1F
100
AcDbEntity
  8
1
  6
CONTINUOUS
 62
   252
100
AcDbCircle
 10
-101.024216
 20
253.770351
 30
0.0
 40
5.5
210
0.0
220
0.0
230
-1.0
  0
CIRCLE
  5
E3
330
1F
100
AcDbEntity
  8
1
  6
CONTINUOUS
 62
   252
100
AcDbCircle
 10
-151.024216
 20
203.770351
 30
0.0
 40
5.5
210
0.0
220
0.0
230
-1.0
  0
ARC
  5
E4
330
1F
100
AcDbEntity
  8
1
  6
CONTINUOUS
 62
   252
100
AcDbCircle
 10
-101.024216
 20
203.770351
 30
0.0
 40
26.0
210
0.0
220
0.0
230
-1.0
100
AcDbArc
 50
178.89809
 51
181.10191
  0
ARC
  5
E5
330
1F
100
AcDbEntity
  8
1
  6
CONTINUOUS
 62
   252
100
AcDbCircle
 10
101.024216
 20
203.770351
 30
0.0
 40
22.0
100
AcDbArc
 50
65.229984
 51
114.772793
  0
ARC
  5
E6
330
1F
100
AcDbEntity
  8
1
  6
CONTINUOUS
 62
   252
100
AcDbCircle
 10
101.024216
 20
203.770351
 30
0.0
 40
23.162
100
AcDbArc
 50
224.095919
 51
315.904081
  0
ARC
  5
E7
330
1F
100
AcDbEntity
  8
1
  6
CONTINUOUS
 62
   252
100
AcDbCircle
 10
530.52619
 20
202.470351
 30
0.0
 40
0.2
100
AcDbArc
 50
180.0
 51
270.0
  0
ARC
  5
E8
330
1F
100
AcDbEntity
  8
1
  6
DASHED
 62
   252
100
AcDbCircle
 10
-531.32619
 20
241.270351
 30
0.0
 40
5.0
210
0.0
220
0.0
230
-1.0
100
AcDbArc
 50
180.0
 51
270.0
  0
ARC
  5
E9
330
1F
100
AcDbEntity
  8
1
  6
DASHED
 62
   252
100
AcDbCircle
 10
-531.32619
 20
166.270351
 30
0.0
 40
5.0
210
0.0
220
0.0
230
-1.0
100
AcDbArc
 50
90.0
 51
180.0
  0
ARC
  5
EA
330
1F
100
AcDbEntity
  8
1
  6
DASHED
 62
   252
100
AcDbCircle
 10
535.52619
 20
202.470351
 30
0.0
 40
0.2
100
AcDbArc
 50
180.0
 51
270.0
  0
ARC
  5
EB
330
1F
100
AcDbEntity
  8
1
  6
DASHED
 62
   252
100
AcDbCircle
 10
535.52619
 20
205.070351
 30
0.0
 40
0.2
100
AcDbArc
 50
90.0
 51
180.0
  0
ARC
  5
EC
330
1F
100
AcDbEntity
  8
1
  6
CONTINUOUS
 62
   252
100
AcDbCircle
 10
530.82619
 20
171.270351
 30
0.0
 40
5.0
100
AcDbArc
 50
180.0
 51
270.0
  0
ARC
  5
ED
330
1F
100
AcDbEntity
  8
1
  6
CONTINUOUS
 62
   252
100
AcDbCircle
 10
530.82619
 20
236.270351
 30
0.0
 40
5.0
100
AcDbArc
 50
90.0
 51
180.0
  0
ARC
  5
EE
330
1F
100
AcDbEntity
  8
1
  6
CONTINUOUS
 62
   252
100
AcDbCircle
 10
530.52619
 20
205.070351
 30
0.0
 40
0.2
100
AcDbArc
 50
90.0
 51
180.0
  0
CIRCLE
  5
EF
330
1F
100
AcDbEntity
  8
1
  6
CONTINUOUS
 62
   172
 60
     1
100
AcDbCircle
 10
101.024216
 20
203.770351
 30
0.0
 40
0.5
  0
ELLIPSE
  5
F0
330
1F
100
AcDbEntity
  8
1
  6
CONTINUOUS
 62
   252
100
AcDbEllipse
 10
124.474611
 20
344.228071
 30
0.0
 11
-1.886484436567597
 21
2.000918906549747
 31
0.0
210
0.0
220
0.0
230
1.0
 40
0.707107
 41
0.7565001885151963
 42
5.526714243523421
  0
ELLIPSE
  5
F1
330
1F
100
AcDbEntity
  8
1
  6
CONTINUOUS
 62
   252
100
AcDbEllipse
 10
124.474611
 20
364.843599
 30
0.0
 11
12.86239388568816
 21
-13.64262890829373
 31
0.0
210
0.0
220
0.0
230
1.0
 40
0.707107
 41
0.6435011187692472
 42
3.141656352731811
  0
ELLIPSE
  5
F2
330
1F
100
AcDbEntity
  8
1
  6
CONTINUOUS
 62
   252
100
AcDbEllipse
 10
124.474611
 20
364.843599
 30
0.0
 11
12.86239388568816
 21
-13.64262890829373
 31
0.0
210
0.0
220
0.0
230
1.0
 40
0.707107
 41
0.0
 42
0.6435011136873471
  0
ELLIPSE
  5
F3
330
1F
100
AcDbEntity
  8
1
  6
CONTINUOUS
 62
   252
100
AcDbEllipse
 10
124.474611
 20
364.843599
 30
0.0
 11
-22.29481606852615
 21
23.64722344104246
 31
0.0
210
0.0
220
0.0
230
0.9999999999999999
 40
0.707107
 41
1.982408623703191
 42
6.283185307179586
  0
ELLIPSE
  5
F4
330
1F
100
AcDbEntity
  8
1
  6
CONTINUOUS
 62
   252
100
AcDbEllipse
 10
124.474611
 20
364.843599
 30
0.0
 11
-22.29481606852615
 21
23.64722344104246
 31
0.0
210
0.0
220
0.0
230
0.9999999999999999
 40
0.707107
 41
0.0
 42
0.6435011186624346
  0
ELLIPSE
  5
F5
330
1F
100
AcDbEntity
  8
1
  6
CONTINUOUS
 62
   252
100
AcDbEllipse
 10
124.474611
 20
364.843599
 30
0.0
 11
-22.29481606852615
 21
23.64722344104246
 31
0.0
210
0.0
220
0.0
230
0.9999999999999999
 40
0.707107
 41
0.6435011013564319
 42
1.159311346524165
  0
ELLIPSE
  5
F6
330
1F
100
AcDbEntity
  8
1
  6
CONTINUOUS
 62
   252
100
AcDbEllipse
 10
145.911934
 20
357.56753
 30
0.0
 11
-1.886484436567597
 21
2.000918906549747
 31
0.0
210
0.0
220
0.0
230
1.0
 40
0.707107
 41
0.0
 42
6.283185307179586
  0
ELLIPSE
  5
F7
330
1F
100
AcDbEntity
  8
1
  6
CONTINUOUS
 62
   252
100
AcDbEllipse
 10
123.059748
 20
363.509653
 30
0.0
 11
-8.91792642741046
 21
9.458889376416989
 31
0.0
210
0.0
220
0.0
230
1.0
 40
0.707107
 41
3.14165628310898
 42
6.283185307179586
  0
ELLIPSE
  5
F8
330
1F
100
AcDbEntity
  8
1
  6
CONTINUOUS
 62
   252
100
AcDbEllipse
 10
125.760851
 20
345.440749
 30
0.0
 11
1.886484436567597
 21
-2.000918906549747
 31
0.0
210
0.0
220
0.0
230
1.0
 40
0.707107
 41
3.89799475152356
 42
5.811322744527068
  0
ELLIPSE
  5
F9
330
1F
100
AcDbEntity
  8
1
  6
CONTINUOUS
 62
   252
100
AcDbEllipse
 10
147.198174
 20
358.780208
 30
0.0
 11
1.886484436567597
 21
-2.000918906549747
 31
0.0
210
0.0
220
0.0
230
1.0
 40
0.707107
 41
3.613484404170312
 42
5.811323212691569
  0
ELLIPSE
  5
FA
330
1F
100
AcDbEntity
  8
1
  6
CONTINUOUS
 62
   252
100
AcDbEllipse
 10
125.760851
 20
386.671805
 30
0.0
 11
1.886484436567597
 21
-2.000918906549747
 31
0.0
210
0.0
220
0.0
230
1.0
 40
0.707107
 41
3.613484404170312
 42
5.811323212691569
  0
ELLIPSE
  5
FB
330
1F
100
AcDbEntity
  8
1
  6
CONTINUOUS
 62
   252
100
AcDbEllipse
 10
125.760851
 20
366.056277
 30
0.0
 11
-22.29481606852615
 21
23.64722344104246
 31
0.0
210
0.0
220
0.0
230
0.9999999999999999
 40
0.707107
 41
3.141656326623252
 42
6.283185307179586
  0
ELLIPSE
  5
FC
330
1F
100
AcDbEntity
  8
1
  6
CONTINUOUS
 62
   252
100
AcDbEllipse
 10
104.323528
 20
373.332346
 30
0.0
 11
1.886484436567597
 21
-2.000918906549747
 31
0.0
210
0.0
220
0.0
230
1.0
 40
0.707107
 41
3.613484404170312
 42
5.811323212691569
  0
ELLIPSE
  5
FD
330
1F
100
AcDbEntity
  8
1
  6
CONTINUOUS
 62
   252
100
AcDbEllipse
 10
123.059748
 20
363.509653
 30
0.0
 11
11.14740803426307
 21
-11.82361172052123
 31
0.0
210
0.0
220
0.0
230
0.9999999999999999
 40
0.707107
 41
0.6435011386696043
 42
3.785093782255804
  0
ELLIPSE
  5
FE
330
1F
100
AcDbEntity
  8
1
  6
CONTINUOUS
 62
   252
100
AcDbEllipse
 10
123.059748
 20
363.509653
 30
0.0
 11
11.14740803426307
 21
-11.82361172052123
 31
0.0
210
0.0
220
0.0
230
0.9999999999999999
 40
0.707107
 41
5.639615159988034
 42
6.283185307179586
  0
ELLIPSE
  5
FF
330
1F
100
AcDbEntity
  8
1
  6
CONTINUOUS
 62
   252
100
AcDbEllipse
 10
123.059748
 20
363.509653
 30
0.0
 11
11.14740803426307
 21
-11.82361172052123
 31
0.0
210
0.0
220
0.0
230
0.9999999999999999
 40
0.707107
 41
0.0
 42
0.6435011186624346
  0
ELLIPSE
  5
100
330
1F
100
AcDbEntity
  8
1
  6
CONTINUOUS
 62
   252
100
AcDbEllipse
 10
47.171624
 20
291.961644
 30
0.0
 11
8.91792642741046
 21
-9.458889376416989
 31
0.0
210
0.0
220
0.0
230
1.0
 40
0.707107
 41
2.233529390344734
 42
8.478250788011213
  0
ELLIPSE
  5
101
330
1F
100
AcDbEntity
  8
1
  6
CONTINUOUS
 62
   252
100
AcDbEllipse
 10
124.345987
 20
364.722331
 30
0.0
 11
-12.86239388568816
 21
13.64262890829373
 31
0.0
210
0.0
220
0.0
230
1.0
 40
0.707107
 41
0.0
 42
0.0025180517272756
  0
ELLIPSE
  5
102
330
1F
100
AcDbEntity
  8
1
  6
CONTINUOUS
 62
   252
100
AcDbEllipse
 10
124.345987
 20
364.722331
 30
0.0
 11
-12.86239388568816
 21
13.64262890829373
 31
0.0
210
0.0
220
0.0
230
1.0
 40
0.707107
 41
3.142343547315518
 42
6.283185307179586
  0
ELLIPSE
  5
103
330
1F
100
AcDbEntity
  8
1
  6
CONTINUOUS
 62
   252
100
AcDbEllipse
 10
103.037288
 20
372.119668
 30
0.0
 11
-1.886484436567597
 21
2.000918906549747
 31
0.0
210
0.0
220
0.0
230
1.0
 40
0.707107
 41
0.0
 42
6.283185307179586
  0
ELLIPSE
  5
104
330
1F
100
AcDbEntity
  8
1
  6
CONTINUOUS
 62
   252
100
AcDbEllipse
 10
124.474611
 20
385.459127
 30
0.0
 11
-1.886484436567597
 21
2.000918906549747
 31
0.0
210
0.0
220
0.0
230
1.0
 40
0.707107
 41
0.0
 42
6.283185307179586
  0
ELLIPSE
  5
105
330
1F
100
AcDbEntity
  8
1
  6
CONTINUOUS
 62
   252
100
AcDbEllipse
 10
47.943368
 20
292.689251
 30
0.0
 11
-8.91792642741046
 21
9.458889376416989
 31
0.0
210
0.0
220
0.0
230
1.0
 40
0.707107
 41
5.336658134421421
 42
5.375122043934528
  0
ELLIPSE
  5
106
330
1F
100
AcDbEntity
  8
1
  6
CONTINUOUS
 62
   252
100
AcDbEllipse
 10
47.171624
 20
291.961644
 30
0.0
 11
7.545937746270389
 21
-8.003675626198989
 31
0.0
210
0.0
220
0.0
230
1.0
 40
0.707107
 41
3.352775419290713
 42
4.217460566547883
  0
ELLIPSE
  5
107
330
1F
100
AcDbEntity
  8
1
  6
CONTINUOUS
 62
   252
100
AcDbEllipse
 10
47.171624
 20
291.961644
 30
0.0
 11
7.944500458141579
 21
-8.426415220637317
 31
0.0
210
0.0
220
0.0
230
0.9999999999999999
 40
0.707107
 41
6.125509057407915
 42
7.727863774537658
  0
SPLINE
  5
108
330
1F
100
AcDbEntity
  8
1
  6
CONTINUOUS
 62
   252
100
AcDbSpline
210
0.0
220
0.0
230
1.0
 70
     8
 71
     3
 72
    48
 73
    44
 74
     0
 42
0.000000001
 43
0.0000000001
 40
0.0
 40
0.0
 40
0.0
 40
0.0
 40
0.0873057449410851
 40
0.0873057449410851
 40
0.1309586174116276
 40
0.1309586174116276
 40
0.1746114898821702
 40
0.1746114898821702
 40
0.2182643623527128
 40
0.2182643623527128
 40
0.2619172348232553
 40
0.2619172348232553
 40
0.3055701072937979
 40
0.3055701072937979
 40
0.3492229797643404
 40
0.3492229797643404
 40
0.392875852234883
 40
0.392875852234883
 40
0.4365287247054256
 40
0.4365287247054256
 40
0.4801815971759681
 40
0.4801815971759681
 40
0.5238344696465107
 40
0.5238344696465107
 40
0.5674873421170532
 40
0.5674873421170532
 40
0.6111402145875958
 40
0.6111402145875958
 40
0.6547930870581384
 40
0.6547930870581384
 40
0.6984459595286809
 40
0.6984459595286809
 40
0.7420988319992234
 40
0.7420988319992234
 40
0.785751704469766
 40
0.785751704469766
 40
0.8294045769403087
 40
0.8294045769403087
 40
0.8730574494108512
 40
0.8730574494108512
 40
0.9603631943519362
 40
0.9603631943519362
 40
1.0
 40
1.0
 40
1.0
 40
1.0
 10
110.2417094524426
 20
223.7462817099613
 30
0.0
 10
113.9853131593164
 20
222.0188707157681
 30
0.0
 10
117.1812426377489
 20
219.2528934292515
 30
0.0
 10
120.546996988459
 20
214.1168807548818
 30
0.0
 10
121.4160983620107
 20
212.2795309294209
 30
0.0
 10
122.6404503760613
 20
208.350025891364
 30
0.0
 10
122.9693135274315
 20
206.3361406182941
 30
0.0
 10
123.0666279303208
 20
202.2528993349041
 30
0.0
 10
122.8267752576629
 20
200.1947542776662
 30
0.0
 10
121.8017603156195
 20
196.2583515553996
 30
0.0
 10
121.0011434447293
 20
194.3335276739535
 30
0.0
 10
118.9340440881273
 20
190.8332213475809
 30
0.0
 10
117.6392282908618
 20
189.2068361283916
 30
0.0
 10
114.6807854857795
 20
186.4021988346923
 30
0.0
 10
113.0091813224279
 20
185.2078061375728
 30
0.0
 10
109.3710115878449
 20
183.3121382345656
 30
0.0
 10
107.4561044741372
 20
182.6316502658228
 30
0.0
 10
103.434321727189
 20
181.8066252533735
 30
0.0
 10
101.387024271072
 20
181.6790279250094
 30
0.0
 10
97.32047593106316
 20
181.9886960038397
 30
0.0
 10
95.29119937763775
 20
182.4334189518503
 30
0.0
 10
91.4786391554879
 20
183.845138053216
 30
0.0
 10
89.64290014380241
 20
184.8336015318746
 30
0.0
 10
86.3647766135179
 20
187.2405092879053
 30
0.0
 10
84.87890320186376
 20
188.687407206065
 30
0.0
 10
82.37959375168744
 20
191.9152095455703
 30
0.0
 10
81.36250466591207
 20
193.6884402546769
 30
0.0
 10
79.83479374703568
 20
197.5064704051557
 30
0.0
 10
79.34960114018445
 20
199.4801006964773
 30
0.0
 10
78.93012637498363
 20
203.5549926489199
 30
0.0
 10
79.00720567771978
 20
205.6140552938184
 30
0.0
 10
79.71984358824983
 20
209.6245549447366
 30
0.0
 10
80.36564297291753
 20
211.603195054041
 30
0.0
 10
82.15011129379494
 20
215.2550475916254
 30
0.0
 10
83.31580936736371
 20
216.9822010026173
 30
0.0
 10
86.03952373886109
 20
220.0061029937262
 30
0.0
 10
87.62229248677534
 20
221.3364759653435
 30
0.0
 10
91.08888753480817
 20
223.505333841455
 30
0.0
 10
92.94423642703632
 20
224.336403514068
 30
0.0
 10
98.8854531256855
 20
226.050837040024
 30
0.0
 10
103.0895765169669
 20
226.0578062546127
 30
0.0
 10
108.8543623652191
 20
224.4147697866029
 30
0.0
 10
110.5853918641694
 20
223.6699972540029
 30
0.0
 10
112.1829092391673
 20
222.7303146979626
 30
0.0
  0
SPLINE
  5
109
330
1F
100
AcDbEntity
  8
1
  6
CONTINUOUS
 62
   252
100
AcDbSpline
210
0.0
220
0.0
230
1.0
 70
     8
 71
     3
 72
     8
 73
     4
 74
     0
 42
0.000000001
 43
0.0000000001
 40
0.0
 40
0.0
 40
0.0
 40
0.0
 40
1.0
 40
1.0
 40
1.0
 40
1.0
 10
112.5362703084315
 20
185.0227634212513
 30
0.0
 10
112.4730670356784
 20
184.9839431116945
 30
0.0
 10
112.4096489896478
 20
184.9454358663853
 30
0.0
 10
112.3460182804406
 20
184.907244155942
 30
0.0
  0
SPLINE
  5
10A
330
1F
100
AcDbEntity
  8
1
  6
CONTINUOUS
 62
   252
100
AcDbSpline
210
0.0
220
0.0
230
1.0
 70
     8
 71
     3
 72
    20
 73
    16
 74
     0
 42
0.000000001
 43
0.0000000001
 40
0.0
 40
0.0
 40
0.0
 40
0.0
 40
0.1249999999999999
 40
0.1249999999999999
 40
0.2499999999999998
 40
0.2499999999999998
 40
0.3749999999999998
 40
0.3749999999999998
 40
0.4999999999999998
 40
0.4999999999999998
 40
0.6249999999999998
 40
0.6249999999999998
 40
0.7499999999999998
 40
0.7499999999999998
 40
1.0
 40
1.0
 40
1.0
 40
1.0
 10
91.80575452019393
 20
223.7458349968879
 30
0.0
 10
90.14096330343739
 20
223.0320061834621
 30
0.0
 10
88.59321781258828
 20
222.1273827524259
 30
0.0
 10
85.73788427422505
 20
219.9652237963456
 30
0.0
 10
84.42564436459504
 20
218.6906729635805
 30
0.0
 10
82.18040159035488
 20
215.9082563366461
 30
0.0
 10
81.21627195565178
 20
214.3703985296068
 30
0.0
 10
79.68800217402182
 20
211.1118209683373
 30
0.0
 10
79.13032000494177
 20
209.4145030875251
 30
0.0
 10
78.4161766562915
 20
205.8876593188604
 30
0.0
 10
78.27050464435992
 20
204.0788581447701
 30
0.0
 10
78.40883593857049
 20
200.5082083938482
 30
0.0
 10
78.69408097378778
 20
198.7038354108732
 30
0.0
 10
80.1495778128931
 20
193.5311693897585
 30
0.0
 10
81.94320786425205
 20
190.3154201306089
 30
0.0
 10
84.3898265739192
 20
187.6528034913807
 30
0.0
  0
SPLINE
  5
10B
330
1F
100
AcDbEntity
  8
1
  6
CONTINUOUS
 62
   252
100
AcDbSpline
210
0.0
220
0.0
230
1.0
 70
     8
 71
     3
 72
    22
 73
    18
 74
     0
 42
0.000000001
 43
0.0000000001
 40
0.0
 40
0.0
 40
0.0
 40
0.0
 40
0.1249999999999999
 40
0.1249999999999999
 40
0.2499999999999999
 40
0.2499999999999999
 40
0.3749999999999999
 40
0.3749999999999999
 40
0.4999999999999999
 40
0.4999999999999999
 40
0.6249999999999999
 40
0.6249999999999999
 40
0.75
 40
0.75
 40
0.875
 40
0.875
 40
1.0
 40
1.0
 40
1.0
 40
1.0
 10
117.6586054429251
 20
187.6528034913779
 30
0.0
 10
118.8825755599934
 20
188.9848309081331
 30
0.0
 10
119.949408153831
 20
190.4650347410491
 30
0.0
 10
121.6961540706006
 20
193.5940833812597
 30
0.0
 10
122.381429591378
 20
195.2446171804905
 30
0.0
 10
123.3598597034393
 20
198.7249860885759
 30
0.0
 10
123.6387143147682
 20
200.4998006525049
 30
0.0
 10
123.7782626552904
 20
204.0732162783177
 30
0.0
 10
123.6302329889487
 20
205.8970962245095
 30
0.0
 10
122.9206853806448
 20
209.4023446189728
 30
0.0
 10
122.3603786047807
 20
211.1135821153941
 30
0.0
 10
120.8248631690021
 20
214.3842971419657
 30
0.0
 10
119.8754876992151
 20
215.8981119182819
 30
0.0
 10
117.6242033089876
 20
218.6898180547389
 30
0.0
 10
116.3140230436138
 20
219.9616048389491
 30
0.0
 10
113.4672658779265
 20
222.1192420844638
 30
0.0
 10
111.898358591881
 20
223.036023795856
 30
0.0
 10
110.2417094524432
 20
223.7462817099611
 30
0.0
  0
SPLINE
  5
10C
330
1F
100
AcDbEntity
  8
1
  6
CONTINUOUS
 62
   252
100
AcDbSpline
210
0.0
220
0.0
230
1.0
 70
     8
 71
     3
 72
   516
 73
   512
 74
     0
 42
0.000000001
 43
0.0000000001
 40
0.0
 40
0.0
 40
0.0
 40
0.0
 40
0.00390625
 40
0.00390625
 40
0.0078125
 40
0.0078125
 40
0.01171875
 40
0.01171875
 40
0.015625
 40
0.015625
 40
0.01953125
 40
0.01953125
 40
0.0234375
 40
0.0234375
 40
0.02734375
 40
0.02734375
 40
0.03125
 40
0.03125
 40
0.03515625
 40
0.03515625
 40
0.0390625
 40
0.0390625
 40
0.04296875
 40
0.04296875
 40
0.046875
 40
0.046875
 40
0.05078125
 40
0.05078125
 40
0.0546874999999999
 40
0.0546874999999999
 40
0.0585937499999999
 40
0.0585937499999999
 40
0.0624999999999999
 40
0.0624999999999999
 40
0.0664062499999999
 40
0.0664062499999999
 40
0.0703124999999999
 40
0.0703124999999999
 40
0.0742187499999999
 40
0.0742187499999999
 40
0.0781249999999999
 40
0.0781249999999999
 40
0.0820312499999999
 40
0.0820312499999999
 40
0.0859374999999999
 40
0.0859374999999999
 40
0.0898437499999999
 40
0.0898437499999999
 40
0.0937499999999999
 40
0.0937499999999999
 40
0.0976562499999999
 40
0.0976562499999999
 40
0.1015624999999999
 40
0.1015624999999999
 40
0.1054687499999999
 40
0.1054687499999999
 40
0.1093749999999999
 40
0.1093749999999999
 40
0.11328125
 40
0.11328125
 40
0.1171875
 40
0.1171875
 40
0.12109375
 40
0.12109375
 40
0.125
 40
0.125
 40
0.12890625
 40
0.12890625
 40
0.1328125000000001
 40
0.1328125000000001
 40
0.1367187500000001
 40
0.1367187500000001
 40
0.1406250000000001
 40
0.1406250000000001
 40
0.1445312500000001
 40
0.1445312500000001
 40
0.1484375000000001
 40
0.1484375000000001
 40
0.1523437500000002
 40
0.1523437500000002
 40
0.1562500000000002
 40
0.1562500000000002
 40
0.1601562500000002
 40
0.1601562500000002
 40
0.1640625000000002
 40
0.1640625000000002
 40
0.1679687500000002
 40
0.1679687500000002
 40
0.1718750000000003
 40
0.1718750000000003
 40
0.1757812500000003
 40
0.1757812500000003
 40
0.1796875000000003
 40
0.1796875000000003
 40
0.1835937500000004
 40
0.1835937500000004
 40
0.1875000000000004
 40
0.1875000000000004
 40
0.1914062500000004
 40
0.1914062500000004
 40
0.1953125000000004
 40
0.1953125000000004
 40
0.1992187500000004
 40
0.1992187500000004
 40
0.2031250000000005
 40
0.2031250000000005
 40
0.2070312500000005
 40
0.2070312500000005
 40
0.2109375000000005
 40
0.2109375000000005
 40
0.2148437500000005
 40
0.2148437500000005
 40
0.2187500000000006
 40
0.2187500000000006
 40
0.2226562500000006
 40
0.2226562500000006
 40
0.2265625000000006
 40
0.2265625000000006
 40
0.2304687500000006
 40
0.2304687500000006
 40
0.2343750000000007
 40
0.2343750000000007
 40
0.2382812500000007
 40
0.2382812500000007
 40
0.2421875000000007
 40
0.2421875000000007
 40
0.2460937500000007
 40
0.2460937500000007
 40
0.2500000000000007
 40
0.2500000000000007
 40
0.2539062500000007
 40
0.2539062500000007
 40
0.2578125000000007
 40
0.2578125000000007
 40
0.2617187500000007
 40
0.2617187500000007
 40
0.2656250000000007
 40
0.2656250000000007
 40
0.2695312500000007
 40
0.2695312500000007
 40
0.2734375000000007
 40
0.2734375000000007
 40
0.2773437500000007
 40
0.2773437500000007
 40
0.2812500000000007
 40
0.2812500000000007
 40
0.2851562500000007
 40
0.2851562500000007
 40
0.2890625000000007
 40
0.2890625000000007
 40
0.2929687500000007
 40
0.2929687500000007
 40
0.2968750000000007
 40
0.2968750000000007
 40
0.3007812500000007
 40
0.3007812500000007
 40
0.3046875000000007
 40
0.3046875000000007
 40
0.3085937500000007
 40
0.3085937500000007
 40
0.3125000000000007
 40
0.3125000000000007
 40
0.3164062500000007
 40
0.3164062500000007
 40
0.3203125000000007
 40
0.3203125000000007
 40
0.3242187500000007
 40
0.3242187500000007
 40
0.3281250000000006
 40
0.3281250000000006
 40
0.3320312500000006
 40
0.3320312500000006
 40
0.3359375000000006
 40
0.3359375000000006
 40
0.3398437500000006
 40
0.3398437500000006
 40
0.3437500000000006
 40
0.3437500000000006
 40
0.3476562500000006
 40
0.3476562500000006
 40
0.3515625000000006
 40
0.3515625000000006
 40
0.3554687500000006
 40
0.3554687500000006
 40
0.3593750000000006
 40
0.3593750000000006
 40
0.3632812500000006
 40
0.3632812500000006
 40
0.3671875000000006
 40
0.3671875000000006
 40
0.3710937500000006
 40
0.3710937500000006
 40
0.3750000000000006
 40
0.3750000000000006
 40
0.3789062500000006
 40
0.3789062500000006
 40
0.3828125000000006
 40
0.3828125000000006
 40
0.3867187500000006
 40
0.3867187500000006
 40
0.3906250000000006
 40
0.3906250000000006
 40
0.3945312500000006
 40
0.3945312500000006
 40
0.3984375000000006
 40
0.3984375000000006
 40
0.4023437500000006
 40
0.4023437500000006
 40
0.4062500000000006
 40
0.4062500000000006
 40
0.4101562500000006
 40
0.4101562500000006
 40
0.4140625000000006
 40
0.4140625000000006
 40
0.4179687500000006
 40
0.4179687500000006
 40
0.4218750000000006
 40
0.4218750000000006
 40
0.4257812500000005
 40
0.4257812500000005
 40
0.4296875000000005
 40
0.4296875000000005
 40
0.4335937500000005
 40
0.4335937500000005
 40
0.4375000000000005
 40
0.4375000000000005
 40
0.4414062500000005
 40
0.4414062500000005
 40
0.4453125000000005
 40
0.4453125000000005
 40
0.4492187500000005
 40
0.4492187500000005
 40
0.4531250000000005
 40
0.4531250000000005
 40
0.4570312500000005
 40
0.4570312500000005
 40
0.4609375000000005
 40
0.4609375000000005
 40
0.4648437500000005
 40
0.4648437500000005
 40
0.4687500000000005
 40
0.4687500000000005
 40
0.4726562500000005
 40
0.4726562500000005
 40
0.4765625000000004
 40
0.4765625000000004
 40
0.4804687500000004
 40
0.4804687500000004
 40
0.4843750000000004
 40
0.4843750000000004
 40
0.4882812500000004
 40
0.4882812500000004
 40
0.4921875000000004
 40
0.4921875000000004
 40
0.4960937500000004
 40
0.4960937500000004
 40
0.5000000000000004
 40
0.5000000000000004
 40
0.5039062500000004
 40
0.5039062500000004
 40
0.5078125000000004
 40
0.5078125000000004
 40
0.5117187500000004
 40
0.5117187500000004
 40
0.5156250000000004
 40
0.5156250000000004
 40
0.5195312500000004
 40
0.5195312500000004
 40
0.5234375000000004
 40
0.5234375000000004
 40
0.5273437500000004
 40
0.5273437500000004
 40
0.5312500000000004
 40
0.5312500000000004
 40
0.5351562500000004
 40
0.5351562500000004
 40
0.5390625000000004
 40
0.5390625000000004
 40
0.5429687500000004
 40
0.5429687500000004
 40
0.5468750000000004
 40
0.5468750000000004
 40
0.5507812500000003
 40
0.5507812500000003
 40
0.5546875000000003
 40
0.5546875000000003
 40
0.5585937500000003
 40
0.5585937500000003
 40
0.5625000000000003
 40
0.5625000000000003
 40
0.5664062500000003
 40
0.5664062500000003
 40
0.5703125000000003
 40
0.5703125000000003
 40
0.5742187500000003
 40
0.5742187500000003
 40
0.5781250000000003
 40
0.5781250000000003
 40
0.5820312500000003
 40
0.5820312500000003
 40
0.5859375000000003
 40
0.5859375000000003
 40
0.5898437500000003
 40
0.5898437500000003
 40
0.5937500000000003
 40
0.5937500000000003
 40
0.5976562500000003
 40
0.5976562500000003
 40
0.6015625000000003
 40
0.6015625000000003
 40
0.6054687500000003
 40
0.6054687500000003
 40
0.6093750000000003
 40
0.6093750000000003
 40
0.6132812500000003
 40
0.6132812500000003
 40
0.6171875000000003
 40
0.6171875000000003
 40
0.6210937500000003
 40
0.6210937500000003
 40
0.6250000000000003
 40
0.6250000000000003
 40
0.6289062500000003
 40
0.6289062500000003
 40
0.6328125000000003
 40
0.6328125000000003
 40
0.6367187500000003
 40
0.6367187500000003
 40
0.6406250000000003
 40
0.6406250000000003
 40
0.6445312500000003
 40
0.6445312500000003
 40
0.6484375000000003
 40
0.6484375000000003
 40
0.6523437500000002
 40
0.6523437500000002
 40
0.6562500000000002
 40
0.6562500000000002
 40
0.6601562500000002
 40
0.6601562500000002
 40
0.6640625000000002
 40
0.6640625000000002
 40
0.6679687500000002
 40
0.6679687500000002
 40
0.6718750000000002
 40
0.6718750000000002
 40
0.6757812500000002
 40
0.6757812500000002
 40
0.6796875000000002
 40
0.6796875000000002
 40
0.6835937500000002
 40
0.6835937500000002
 40
0.6875000000000002
 40
0.6875000000000002
 40
0.6914062500000002
 40
0.6914062500000002
 40
0.6953125000000002
 40
0.6953125000000002
 40
0.6992187500000002
 40
0.6992187500000002
 40
0.7031250000000002
 40
0.7031250000000002
 40
0.7070312500000002
 40
0.7070312500000002
 40
0.7109375000000002
 40
0.7109375000000002
 40
0.7148437500000002
 40
0.7148437500000002
 40
0.7187500000000002
 40
0.7187500000000002
 40
0.7226562500000002
 40
0.7226562500000002
 40
0.7265625000000002
 40
0.7265625000000002
 40
0.7304687500000002
 40
0.7304687500000002
 40
0.7343750000000002
 40
0.7343750000000002
 40
0.7382812500000002
 40
0.7382812500000002
 40
0.7421875000000002
 40
0.7421875000000002
 40
0.7460937500000002
 40
0.7460937500000002
 40
0.7500000000000001
 40
0.7500000000000001
 40
0.7539062500000001
 40
0.7539062500000001
 40
0.7578125000000001
 40
0.7578125000000001
 40
0.7617187500000001
 40
0.7617187500000001
 40
0.7656250000000001
 40
0.7656250000000001
 40
0.7695312500000001
 40
0.7695312500000001
 40
0.7734375000000001
 40
0.7734375000000001
 40
0.7773437500000001
 40
0.7773437500000001
 40
0.7812500000000001
 40
0.7812500000000001
 40
0.7851562500000001
 40
0.7851562500000001
 40
0.7890625000000001
 40
0.7890625000000001
 40
0.7929687500000001
 40
0.7929687500000001
 40
0.7968750000000001
 40
0.7968750000000001
 40
0.8007812500000001
 40
0.8007812500000001
 40
0.8046875000000001
 40
0.8046875000000001
 40
0.8085937500000001
 40
0.8085937500000001
 40
0.8125000000000001
 40
0.8125000000000001
 40
0.8203125000000001
 40
0.8203125000000001
 40
0.8242187500000001
 40
0.8242187500000001
 40
0.8281250000000001
 40
0.8281250000000001
 40
0.8320312500000001
 40
0.8320312500000001
 40
0.8359375000000001
 40
0.8359375000000001
 40
0.8398437500000001
 40
0.8398437500000001
 40
0.8437500000000001
 40
0.8437500000000001
 40
0.8476562500000001
 40
0.8476562500000001
 40
0.8515625
 40
0.8515625
 40
0.85546875
 40
0.85546875
 40
0.859375
 40
0.859375
 40
0.86328125
 40
0.86328125
 40
0.8671875
 40
0.8671875
 40
0.87109375
 40
0.87109375
 40
0.875
 40
0.875
 40
0.87890625
 40
0.87890625
 40
0.8828125
 40
0.8828125
 40
0.88671875
 40
0.88671875
 40
0.890625
 40
0.890625
 40
0.89453125
 40
0.89453125
 40
0.8984375
 40
0.8984375
 40
0.90234375
 40
0.90234375
 40
0.90625
 40
0.90625
 40
0.91015625
 40
0.91015625
 40
0.9140625
 40
0.9140625
 40
0.91796875
 40
0.91796875
 40
0.921875
 40
0.921875
 40
0.92578125
 40
0.92578125
 40
0.9296875
 40
0.9296875
 40
0.93359375
 40
0.93359375
 40
0.9375
 40
0.9375
 40
0.94140625
 40
0.94140625
 40
0.9453125
 40
0.9453125
 40
0.94921875
 40
0.94921875
 40
0.9531249999999999
 40
0.9531249999999999
 40
0.9570312499999999
 40
0.9570312499999999
 40
0.9609374999999999
 40
0.9609374999999999
 40
0.9648437499999999
 40
0.9648437499999999
 40
0.9687499999999999
 40
0.9687499999999999
 40
0.9726562499999999
 40
0.9726562499999999
 40
0.9765624999999999
 40
0.9765624999999999
 40
0.9804687499999999
 40
0.9804687499999999
 40
0.9843749999999999
 40
0.9843749999999999
 40
0.9882812499999999
 40
0.9882812499999999
 40
0.9921874999999999
 40
0.9921874999999999
 40
0.9960937499999999
 40
0.9960937499999999
 40
1.0
 40
1.0
 40
1.0
 40
1.0
 10
230.8261896926332
 20
187.6528034913779
 30
0.0000000000000009
 10
230.8580228581538
 20
186.1572962225969
 30
-0.0000000000000008
 10
230.8886980595412
 20
184.8410713043048
 30
-0.0000000000000008
 10
230.9529229078419
 20
182.729823272694
 30
-0.0000000000000008
 10
230.9845779496748
 20
181.9201549236305
 30
0.0
 10
231.0475412070615
 20
180.8423558913316
 30
0.0
 10
231.080179007629
 20
180.5857967479483
 30
0.0
 10
231.1435754166517
 20
180.6339514980669
 30
0.0
 10
231.1743407101277
 20
180.9447279779434
 30
0.0
 10
231.2387599624457
 20
182.1076483500421
 30
-0.0000000000000009
 10
231.2703348246448
 20
182.9743485214698
 30
-0.0000000000000009
 10
231.3330156549413
 20
185.1643150750704
 30
-0.0000000000000009
 10
231.366522921863
 20
186.5195706035497
 30
-0.0000000000000009
 10
231.428974894761
 20
189.5862064567757
 30
0.0000000000000009
 10
231.460175939188
 20
191.3098652459597
 30
0.0000000000000009
 10
231.525187425165
 20
195.048707926509
 30
0.0000000000000009
 10
231.5554863132705
 20
197.012096062852
 30
0.0000000000000009
 10
231.6191524781059
 20
201.1263830597025
 30
0.0000000000000009
 10
231.6521006897322
 20
203.2287552058226
 30
0.0000000000000009
 10
231.7142607710535
 20
207.3933559347766
 30
0.0000000000000009
 10
231.7464210853749
 20
209.4823160552805
 30
0.0000000000000009
 10
231.8107051252365
 20
213.4114624625811
 30
0.0000000000000009
 10
231.8414551406873
 20
215.3099095802489
 30
0.0000000000000009
 10
231.9051439949931
 20
218.7329384824676
 30
0.0000000000000009
 10
231.9376882063874
 20
220.2843418399627
 30
0.0000000000000009
 10
232.0002198345411
 20
222.9609843251342
 30
0.0000000000000009
 10
232.0321492911207
 20
224.0593242368137
 30
0.0000000000000009
 10
232.0966740174301
 20
225.7747873185251
 30
0.0
 10
232.1269179301943
 20
226.3640387198175
 30
0.0
 10
232.1910312426448
 20
226.9851886627118
 30
0.0
 10
232.2233929123188
 20
227.0136684743499
 30
0.0
 10
232.2855434667242
 20
226.5071909472616
 30
0.0
 10
232.3187603587947
 20
225.9642278707085
 30
0.0
 10
232.3820754278827
 20
224.3657816685249
 30
0.0000000000000008
 10
232.4126997931821
 20
223.3026093353492
 30
0.0000000000000008
 10
232.4774836474354
 20
220.7148148238931
 30
0.0000000000000008
 10
232.5085038866927
 20
219.2223003653696
 30
0.0000000000000008
 10
232.5716105930096
 20
215.8372889018864
 30
0.0000000000000008
 10
232.60460166141
 20
213.9932665239233
 30
0.0000000000000008
 10
232.667310525717
 20
210.0917260069381
 30
0.0000000000000008
 10
232.6987236980788
 20
208.0172304321702
 30
0.0000000000000008
 10
232.7631562601453
 20
203.8708338431694
 30
0.0000000000000008
 10
232.7944243809998
 20
201.7382782459825
 30
0.0000000000000008
 10
232.8573822381665
 20
197.6327942651521
 30
0.0000000000000008
 10
232.8905023785834
 20
195.621283319347
 30
0.0000000000000008
 10
232.9530952110575
 20
191.8404453257443
 30
0.0000000000000008
 10
232.9843143607732
 20
190.1020639787158
 30
0.0000000000000008
 10
233.0494364772006
 20
186.9328661779899
 30
0.0000000000000008
 10
233.0797252162986
 20
185.5570044227799
 30
0.0000000000000008
 10
233.1432366881178
 20
183.263125177789
 30
0.0000000000000008
 10
233.1762714485493
 20
182.346670509511
 30
0.0000000000000008
 10
233.2382962879898
 20
181.0765188462322
 30
-0.0000000000000001
 10
233.2708584930556
 20
180.7060850234443
 30
-0.0000000000000001
 10
233.3350556787661
 20
180.5451385085944
 30
-0.0000000000000001
 10
233.3654390402894
 20
180.7483683355684
 30
-0.0000000000000001
 10
233.4296027640228
 20
181.7142220625912
 30
-0.0000000000000001
 10
233.4614460261976
 20
182.4615522962506
 30
0.0000000000000008
 10
233.5243065836293
 20
184.4933763246768
 30
0.0000000000000008
 10
233.5567562822256
 20
185.7429840118227
 30
0.0000000000000008
 10
233.6205573921214
 20
188.6647351135697
 30
0.0000000000000008
 10
233.6512237237911
 20
190.3440736900002
 30
0.0000000000000008
 10
233.7153257371617
 20
193.9469388617648
 30
0.0000000000000008
 10
233.7474015199056
 20
195.921768694822
 30
0.0000000000000008
 10
233.809839561688
 20
199.9561653107128
 30
0.0000000000000008
 10
233.8430761439266
 20
202.0595842798448
 30
0.0000000000000008
 10
233.9062110971552
 20
206.2492495755721
 30
0.0000000000000008
 10
233.9366434565205
 20
208.3084218782985
 30
0.0000000000000008
 10
234.0018015507315
 20
212.3539067609897
 30
0.0000000000000007
 10
234.0326211162505
 20
214.2591278151446
 30
0.0000000000000007
 10
234.095636606299
 20
217.8074782584242
 30
0.0000000000000007
 10
234.129037815816
 20
219.4412499339556
 30
0.0000000000000007
 10
234.1912963569344
 20
222.2555569970853
 30
0.0000000000000007
 10
234.2230546315334
 20
223.4721551290158
 30
0.0000000000000007
 10
234.2875005764985
 20
225.3611493309012
 30
0.0000000000000007
 10
234.3183212480342
 20
226.0593933403192
 30
-0.0000000000000002
 10
234.3818591853188
 20
226.8884605818341
 30
-0.0000000000000002
 10
234.4143857662012
 20
227.0239137573715
 30
0.0
 10
234.4772397832887
 20
226.7228978924275
 30
-0.0000000000000002
 10
234.5087838003507
 20
226.2922864061346
 30
-0.0000000000000002
 10
234.5733399961443
 20
224.8885702692531
 30
0.0000000000000007
 10
234.6039201041646
 20
223.9112807153851
 30
0.0000000000000007
 10
234.6675693039839
 20
221.5133638582395
 30
0.0000000000000007
 10
234.7004552820458
 20
220.0593690659394
 30
0.0000000000000007
 10
234.7624932469547
 20
216.8358217962532
 30
0.0000000000000007
 10
234.7951322076878
 20
215.0274356667422
 30
0.0000000000000007
 10
234.8592582994177
 20
211.1974600102996
 30
0.0000000000000007
 10
234.889224757207
 20
209.1945179592452
 30
0.0000000000000007
 10
234.9541373571926
 20
205.0152854312534
 30
0.0000000000000007
 10
234.9856642738392
 20
202.932115690073
 30
0.0000000000000007
 10
235.0481892661853
 20
198.7783602722641
 30
0.0000000000000007
 10
235.0812905102601
 20
196.7294071133527
 30
0.0000000000000007
 10
235.1444098104972
 20
192.8865766491432
 30
0.0000000000000007
 10
235.1754895740279
 20
191.047114256551
 30
0.0000000000000007
 10
235.2398182231367
 20
187.7779077559562
 30
0.0000000000000007
 10
235.2713895178249
 20
186.3030333234385
 30
0.0000000000000007
 10
235.3341956653913
 20
183.834911586497
 30
0.0000000000000007
 10
235.3670139615483
 20
182.8393460013142
 30
0.0000000000000007
 10
235.4302697725157
 20
181.3517402524618
 30
-0.0000000000000002
 10
235.4610516409078
 20
180.8890254615283
 30
-0.0000000000000002
 10
235.5258745457002
 20
180.5138284483137
 30
0.0
 10
235.5568359944982
 20
180.6124283882361
 30
0.0000000000000002
 10
235.6198208712936
 20
181.3644948818043
 30
-0.0000000000000002
 10
235.653236900777
 20
182.0304445571909
 30
0.0000000000000006
 10
235.7153513189382
 20
183.8525008770154
 30
0.0000000000000006
 10
235.7473374116806
 20
185.0317910314627
 30
0.0000000000000006
 10
235.8119659210387
 20
187.8010610697257
 30
0.0000000000000006
 10
235.8421297196031
 20
189.3843808118002
 30
0.0000000000000006
 10
235.9062860633759
 20
192.9197357694904
 30
0.0000000000000006
 10
235.9385473005991
 20
194.8039926482754
 30
0.0000000000000006
 10
236.0009732868216
 20
198.801740617509
 30
0.0000000000000006
 10
236.0333463271973
 20
200.8884758757505
 30
0.0000000000000006
 10
236.0974714751632
 20
205.0553185323878
 30
0.0000000000000006
 10
236.1281411508463
 20
207.1795132530748
 30
0.0000000000000006
 10
236.1919460838622
 20
211.2284940809828
 30
0.0000000000000006
 10
236.2243901890073
 20
213.2112364407307
 30
0.0000000000000006
 10
236.2867606440969
 20
216.862874221746
 30
0.0000000000000006
 10
236.319330685287
 20
218.5412840677574
 30
0.0000000000000006
 10
236.383476019551
 20
221.5394317936965
 30
0.0000000000000006
 10
236.4135162342693
 20
222.8098578649698
 30
0.0000000000000006
 10
236.478112282715
 20
224.8991530511908
 30
0.0000000000000006
 10
236.5097764981482
 20
225.6935107074658
 30
-0.0000000000000003
 10
236.5722914782764
 20
226.7268073946623
 30
0.0000000000000001
 10
236.605803239028
 20
226.9708110200951
 30
-0.0000000000000001
 10
236.6684544639697
 20
226.8837743775423
 30
0.0000000000000001
 10
236.699687437142
 20
226.5526583208569
 30
-0.0000000000000003
 10
236.764243789372
 20
225.3496026631425
 30
0.0000000000000006
 10
236.7951233127469
 20
224.4809022574356
 30
0.0000000000000006
 10
236.8586137828015
 20
222.234463830758
 30
0.0000000000000006
 10
236.8913392946034
 20
220.8951468577011
 30
0.0000000000000006
 10
236.9540076234766
 20
217.787907874547
 30
0.0000000000000006
 10
236.9854887881789
 20
216.0461072663557
 30
0.0000000000000006
 10
237.0499874186141
 20
212.3197614640535
 30
0.0000000000000006
 10
237.0809494036936
 20
210.3012618239936
 30
0.0000000000000006
 10
237.1442050765422
 20
206.2155328197586
 30
0.0000000000000006
 10
237.1773961254576
 20
204.0883149949373
 30
0.0000000000000006
 10
237.2395490445011
 20
199.9245183803923
 30
0.0000000000000005
 10
237.2714404536721
 20
197.8679877185174
 30
0.0000000000000005
 10
237.3362646690394
 20
193.913016069936
 30
0.0000000000000005
 10
237.3661869931948
 20
192.0685027007022
 30
0.0000000000000005
 10
237.4304148589126
 20
188.6444550201593
 30
0.0000000000000005
 10
237.4628088847481
 20
187.1071688388488
 30
0.0000000000000005
 10
237.5249554545285
 20
184.4761937906177
 30
0.0000000000000005
 10
237.5578301941972
 20
183.3680791803555
 30
0.0000000000000005
 10
237.621540210159
 20
181.704605879352
 30
-0.0000000000000004
 10
237.6522643305987
 20
181.1244029766719
 30
-0.0000000000000004
 10
237.7164849310904
 20
180.5433211020598
 30
0.0000000000000001
 10
237.7482631009327
 20
180.5325823542138
 30
0.0
 10
237.8110749597155
 20
181.0827618781892
 30
-0.0000000000000004
 10
237.8436405149988
 20
181.6312135565222
 30
-0.0000000000000004
 10
237.9071711632504
 20
183.2749710112506
 30
0.0000000000000005
 10
237.9378744068752
 20
184.3544441204097
 30
0.0000000000000005
 10
238.0023619734716
 20
186.955716733905
 30
0.0000000000000005
 10
238.0339538609221
 20
188.4980184743305
 30
0.0000000000000005
 10
238.096536667115
 20
191.8709277315762
 30
0.0000000000000005
 10
238.1300309934634
 20
193.7516193491187
 30
0.0000000000000005
 10
238.1925097852954
 20
197.6635253341135
 30
0.0000000000000005
 10
238.2237799739133
 20
199.7214952928373
 30
0.0000000000000005
 10
238.2887687075738
 20
203.9062647682482
 30
0.0000000000000005
 10
238.3190843688243
 20
205.9859305093879
 30
0.0000000000000005
 10
238.3827139724526
 20
210.1195953426287
 30
0.0000000000000005
 10
238.415589750158
 20
212.1139822814891
 30
0.0000000000000005
 10
238.4778319926168
 20
215.861776387452
 30
0.0000000000000005
 10
238.5099691472748
 20
217.6290657335545
 30
0.0000000000000005
 10
238.5743082484217
 20
220.7377595767376
 30
0.0000000000000005
 10
238.605065047031
 20
222.1243852968886
 30
0.0000000000000005
 10
238.6686211224006
 20
224.3805343865126
 30
0.0000000000000005
 10
238.7012508861641
 20
225.2739185085751
 30
0.0000000000000005
 10
238.763761503779
 20
226.5159251334847
 30
-0.0000000000000004
 10
238.7956942046836
 20
226.8591116846199
 30
0.0
 10
238.8603531115076
 20
226.9849016772217
 30
0.0
 10
238.8904779986581
 20
226.7616097434529
 30
0.0
 10
238.9545336215233
 20
225.7645855955298
 30
-0.0000000000000004
 10
238.9869100184993
 20
224.980631514059
 30
0.0000000000000004
 10
239.0490988002825
 20
222.9394496791978
 30
0.0000000000000004
 10
239.0823351809498
 20
221.6515842968836
 30
0.0000000000000004
 10
239.1457000047396
 20
218.7084258382434
 30
0.0000000000000004
 10
239.1763001270939
 20
217.0282018019622
 30
0.0000000000000004
 10
239.2409440778467
 20
213.3806731269194
 30
0.0000000000000004
 10
239.2720224337725
 20
211.447947141999
 30
0.0000000000000004
 10
239.3352317474707
 20
207.3617156714297
 30
0.0000000000000004
 10
239.3681781847912
 20
205.2783737379443
 30
0.0000000000000004
 10
239.430959022986
 20
201.1000903582957
 30
0.0000000000000004
 10
239.4622479351008
 20
198.9995279879316
 30
0.0000000000000004
 10
239.5266316243755
 20
195.0157746550456
 30
0.0000000000000004
 10
239.5579718892108
 20
193.0765852105905
 30
0.0000000000000004
 10
239.6209320478932
 20
189.5610465065359
 30
0.0000000000000004
 10
239.6541585477045
 20
187.9449632251682
 30
0.0000000000000004
 10
239.7166870444699
 20
185.142952252323
 30
0.0000000000000004
 10
239.7478145188804
 20
183.9709867700393
 30
0.0000000000000004
 10
239.8129867042244
 20
182.0932731868826
 30
0.0000000000000004
 10
239.8432500069001
 20
181.4251026729696
 30
0.0000000000000004
 10
239.9068301149785
 20
180.632146907103
 30
-0.0000000000000001
 10
239.939889505478
 20
180.5158912412227
 30
0.0
 10
240.0018834703033
 20
180.8504151242908
 30
-0.0000000000000001
 10
240.0343589269737
 20
181.3080085384967
 30
0.0000000000000004
 10
240.0985446313881
 20
182.7438363573843
 30
0.0000000000000004
 10
240.1290226344003
 20
183.734939468117
 30
0.0000000000000004
 10
240.1931598925379
 20
186.1784260077872
 30
0.0000000000000004
 10
240.2250680444061
 20
187.6090195426045
 30
0.0000000000000004
 10
240.2879384118565
 20
190.8971781595364
 30
0.0000000000000004
 10
240.3202152992763
 20
192.6874117498886
 30
0.0000000000000004
 10
240.3841142393064
 20
196.5297956197517
 30
0.0000000000000004
 10
240.4147604158735
 20
198.5772290054324
 30
0.0000000000000004
 10
240.4789063424397
 20
202.7053387454857
 30
0.0000000000000004
 10
240.5110385235511
 20
204.8410435092866
 30
0.0000000000000003
 10
240.5733704552189
 20
208.9700782829852
 30
0.0000000000000003
 10
240.6065906259887
 20
211.0145719114455
 30
0.0000000000000003
 10
240.6697419076763
 20
214.859536022061
 30
0.0000000000000003
 10
240.7001826560133
 20
216.6452709805819
 30
0.0000000000000003
 10
240.7654618974313
 20
219.9358843917695
 30
0.0000000000000003
 10
240.7962274381539
 20
221.3667550782647
 30
0.0000000000000003
 10
240.8591906163013
 20
223.8074905114993
 30
0.0000000000000003
 10
240.8925201101447
 20
224.7997085861736
 30
0.0000000000000003
 10
240.954850310386
 20
226.2340844849496
 30
0.0000000000000003
 10
240.9866118264663
 20
226.691308127077
 30
-0.0000000000000001
 10
241.051085499681
 20
227.0247856581955
 30
0.0
 10
241.0819635303917
 20
226.9082864811074
 30
-0.0000000000000001
 10
241.1453478906723
 20
226.1137752484694
 30
0.0000000000000003
 10
241.1779265964586
 20
225.4471784238642
 30
0.0000000000000003
 10
241.2408223455216
 20
223.5664331947662
 30
0.0000000000000003
 10
241.2723223770576
 20
222.3934167279456
 30
0.0000000000000003
 10
241.336983543334
 20
219.5931153970639
 30
0.0000000000000003
 10
241.367500232716
 20
217.9741869608688
 30
0.0000000000000003
 10
241.4310646923568
 20
214.4592414359747
 30
0.0000000000000003
 10
241.4639755820064
 20
212.5194786751713
 30
0.0000000000000003
 10
241.5260383168527
 20
208.5346746220726
 30
0.0000000000000003
 10
241.5587217187438
 20
206.4364752471565
 30
0.0000000000000003
 10
241.622866466786
 20
202.2553202387963
 30
0.0000000000000003
 10
241.6528691396275
 20
200.1773655753973
 30
0.0000000000000003
 10
241.7176073463839
 20
196.0863622982933
 30
0.0000000000000003
 10
241.749173912435
 20
194.1537408443274
 30
0.0000000000000003
 10
241.8117838765921
 20
190.5099029203692
 30
0.0000000000000003
 10
241.8448442607597
 20
188.8270591696065
 30
0.0000000000000003
 10
241.9080548856559
 20
185.8857785342297
 30
0.0000000000000003
 10
241.9390421772877
 20
184.5978171234027
 30
0.0000000000000003
 10
242.0032830950833
 20
182.5573624554006
 30
0.0000000000000003
 10
242.0349494716937
 20
181.7745876378746
 30
0.0000000000000003
 10
242.0977410198394
 20
180.7779112739443
 30
-0.0000000000000002
 10
242.1306780896929
 20
180.5554662303828
 30
0.0
 10
242.1938811298166
 20
180.6821789578077
 30
-0.0000000000000002
 10
242.2245652477621
 20
181.026409153356
 30
0.0000000000000002
 10
242.2893920781472
 20
182.2681056755934
 30
0.0000000000000002
 10
242.3203602132662
 20
183.163445623791
 30
0.0000000000000002
 10
242.3833939392289
 20
185.4195735907526
 30
0.0000000000000002
 10
242.4168540950848
 20
186.8070908892764
 30
0.0000000000000002
 10
242.4789461695009
 20
189.9168465869425
 30
0.0000000000000002
 10
242.5108712341676
 20
191.682732200969
 30
0.0000000000000002
 10
242.57543706811
 20
195.4332135315729
 30
0.0000000000000002
 10
242.6057346813153
 20
197.423043506689
 30
0.0000000000000002
 10
242.6698435088985
 20
201.5615272878996
 30
0.0000000000000002
 10
242.7021610621627
 20
203.6413548218538
 30
0.0000000000000002
 10
242.7645983116025
 20
207.8219938210314
 30
0.0000000000000002
 10
242.7968209755524
 20
209.8838619280782
 30
0.0000000000000002
 10
242.8609883735357
 20
213.7935805626508
 30
0.0000000000000002
 10
242.8916847328217
 20
215.6751251087268
 30
0.0000000000000002
 10
242.9555110322036
 20
219.0475296729292
 30
0.0000000000000002
 10
242.9880452802027
 20
220.5882794719316
 30
0.0000000000000002
 10
243.0503063322566
 20
223.1902151355969
 30
0.0000000000000002
 10
243.0828642352248
 20
224.2669903932356
 30
0.0000000000000002
 10
243.1469973931471
 20
225.9117750292066
 30
0.0000000000000002
 10
243.1770483052127
 20
226.4592721094859
 30
0.0000000000000002
 10
243.2417387886828
 20
227.0080313774846
 30
0.0
 10
243.273391542952
 20
226.9969405652566
 30
0.0
 10
243.3358444823789
 20
226.4150877054517
 30
0.0000000000000002
 10
243.3692811410824
 20
225.834117529621
 30
0.0000000000000002
 10
243.431994837619
 20
224.1695847962918
 30
0.0000000000000002
 10
243.4632583709878
 20
223.0618840688953
 30
0.0000000000000002
 10
243.5278163802667
 20
220.428737095892
 30
0.0000000000000002
 10
243.5587998982159
 20
218.8944656064626
 30
0.0000000000000002
 10
243.6221206309368
 20
215.4663326934622
 30
0.0000000000000002
 10
243.6548208489697
 20
213.6214014935022
 30
0.0000000000000002
 10
243.7176064014
 20
209.6703217539641
 30
0.0000000000000002
 10
243.7490259588358
 20
207.609249511769
 30
0.0000000000000002
 10
243.8136016165669
 20
203.4476541637455
 30
0.0000000000000001
 10
243.8445517380152
 20
201.3188184827203
 30
0.0000000000000001
 10
243.9077011420387
 20
197.2334266438568
 30
0.0000000000000001
 10
243.9409224412033
 20
195.2163044824874
 30
0.0000000000000001
 10
244.0030878405738
 20
191.4886182812682
 30
0.0000000000000001
 10
244.0350502357405
 20
189.7504980438553
 30
0.0000000000000001
 10
244.0998625280694
 20
186.6407512432229
 30
0.0000000000000001
 10
244.1297621067614
 20
185.302245858484
 30
0.0000000000000001
 10
244.1939553077205
 20
183.0589892103261
 30
0.0000000000000001
 10
244.2263122270433
 20
182.1885898089994
 30
0.0000000000000001
 10
244.2885288451682
 20
180.9872209880696
 30
0.0000000000000001
 10
244.3213835660288
 20
180.6562304875011
 30
0.0000000000000001
 10
244.3851625668982
 20
180.5703271236361
 30
-0.0000000000000001
 10
244.4158493264937
 20
180.8146352365492
 30
0.0000000000000001
 10
244.4799482269441
 20
181.8494287586111
 30
0.0000000000000001
 10
244.5118389037709
 20
182.6426078370728
 30
0.0000000000000001
 10
244.5746202663179
 20
184.7346994106632
 30
0.0000000000000001
 10
244.6072000571966
 20
186.0057993271903
 30
0.0000000000000001
 10
244.6708613449291
 20
189.0010604749107
 30
0.0000000000000001
 10
244.7014061395334
 20
190.683720463791
 30
0.0000000000000001
 10
244.7658570415138
 20
194.3335631071625
 30
0.0000000000000001
 10
244.7974806127291
 20
196.3183962912649
 30
0.0000000000000001
 10
244.8600946877068
 20
200.3672139605942
 30
0.0000000000000001
 10
244.8936456852497
 20
202.4905939242933
 30
0.0000000000000001
 10
244.9561148163592
 20
206.6590857302325
 30
0.0000000000000001
 10
244.987353322031
 20
208.7420864228141
 30
0.0000000000000001
 10
245.0522322555986
 20
212.7431958204829
 30
0.0000000000000001
 10
245.0826094032517
 20
214.6268156602553
 30
0.0000000000000001
 10
245.1463379473776
 20
218.15754276001
 30
0.0000000000000001
 10
245.1791936866432
 20
219.7446518640863
 30
0.0000000000000001
 10
245.2414543907077
 20
222.5113501546529
 30
0.0000000000000001
 10
245.2734658532594
 20
223.6915831252348
 30
0.0000000000000001
 10
245.3377960287252
 20
225.5123400657862
 30
0.0000000000000001
 10
245.3686192272813
 20
226.1777152303095
 30
0.0000000000000001
 10
245.43217585987
 20
226.9289677057923
 30
0.0
 10
245.4649238844165
 20
227.0270417308543
 30
0.0
 10
245.5273261281414
 20
226.6505839938941
 30
0.0
 10
245.5591685882534
 20
226.1869561631098
 30
0.0
 10
245.6239253902723
 20
224.7005079610336
 30
0.0
 10
245.6540070370738
 20
223.7020397499172
 30
0.0
 10
245.7181326987063
 20
221.2348572943464
 30
0.0
 10
245.750533687077
 20
219.7579465222964
 30
0.0
 10
245.8126562667522
 20
216.4886426737096
 30
0.0
 10
245.8458149814959
 20
214.649298057227
 30
0.0
 10
245.909226489492
 20
210.8048254016835
 30
0.0
 10
245.9398892759646
 20
208.7588989608753
 30
0.0
 10
246.0045100736994
 20
204.6015895629461
 30
0.0
 10
246.0356396813645
 20
202.518837496085
 30
0.0
 10
246.0988334654758
 20
198.3450282018291
 30
0.0
 10
246.1316456289129
 20
196.3366385205248
 30
0.0
 10
246.1945335757151
 20
192.5098976793386
 30
0.0
 10
246.2257882979342
 20
190.6993355594176
 30
0.0
 10
246.290222560342
 20
187.4772698844178
 30
0.0
 10
246.321598009599
 20
186.0236582936478
 30
0.0
 10
246.3844356296003
 20
183.6259811495954
 30
0.0
 10
246.417693967107
 20
182.6504437764403
 30
0.0
 10
246.4802231400446
 20
181.2465159545916
 30
0.0
 10
246.5113568994958
 20
180.8171731856465
 30
0.0
 10
246.576658494949
 20
180.5168794575208
 30
0.0
 10
246.6068379019824
 20
180.653156583751
 30
0.0
 10
246.6703593470677
 20
181.4825238594976
 30
0.0
 10
246.7033890289903
 20
182.1821055350096
 30
0.0
 10
246.7654403217875
 20
184.0715926604765
 30
0.0
 10
246.7979209603956
 20
185.2885969537177
 30
0.0
 10
246.8621462798845
 20
188.1043703844011
 30
0.0
 10
246.8926435144712
 20
189.7362692746742
 30
0.0
 10
246.9566298938791
 20
193.2877942551176
 30
0.0
 10
246.9885904891038
 20
195.1878013482773
 30
0.0
 10
247.0515555511024
 20
199.2387226695461
 30
-0.0000000000000001
 10
247.0837589700702
 20
201.2984407705423
 30
-0.0000000000000001
 10
247.1477761627422
 20
205.4846363443315
 30
-0.0000000000000001
 10
247.1783142163119
 20
207.5912713022813
 30
-0.0000000000000001
 10
247.2423883686932
 20
211.6241045471423
 30
-0.0000000000000001
 10
247.2745707861704
 20
213.5990774886484
 30
-0.0000000000000001
 10
247.3369182625099
 20
217.2021069994939
 30
-0.0000000000000001
 10
247.3702010689477
 20
218.879144950632
 30
-0.0000000000000001
 10
247.4333588373578
 20
221.802261479394
 30
-0.0000000000000001
 10
247.4637875098597
 20
223.0483415133717
 30
-0.0000000000000001
 10
247.528941156722
 20
225.0820280766369
 30
-0.0000000000000001
 10
247.5597455281925
 20
225.828544780774
 30
-0.0000000000000001
 10
247.6227875625317
 20
226.7926508467165
 30
-0.0000000000000001
 10
247.6561122506046
 20
226.9958469893142
 30
-0.0000000000000001
 10
247.7184731790466
 20
226.8338610110503
 30
-0.0000000000000001
 10
247.7501363803749
 20
226.4629040454457
 30
-0.0000000000000001
 10
247.8145544671549
 20
225.1914955416775
 30
-0.0000000000000001
 10
247.8455319123262
 20
224.2756741321109
 30
-0.0000000000000001
 10
247.9088975378631
 20
221.9794108623849
 30
-0.0000000000000001
 10
247.9416171448411
 20
220.6068519584863
 30
-0.0000000000000001
 10
248.0044093054523
 20
217.4333264278586
 30
-0.0000000000000001
 10
248.0358081630747
 20
215.6941652922978
 30
-0.0000000000000001
 10
248.100514206988
 20
211.9164106509909
 30
-0.0000000000000001
 10
248.1310299674736
 20
209.9012164988114
 30
-0.0000000000000001
 10
248.194642339298
 20
205.797166758154
 30
-0.0000000000000001
 10
248.2276073067473
 20
203.6638291628251
 30
-0.0000000000000001
 10
248.2896047672425
 20
199.5170262688906
 30
-0.0000000000000001
 10
248.3222318357189
 20
197.4446890625793
 30
-0.0000000000000001
 10
248.3863646217259
 20
193.5410906128138
 30
-0.0000000000000001
 10
248.4164809169035
 20
191.7016324014416
 30
-0.0000000000000001
 10
248.4811723097674
 20
188.313197620765
 30
-0.0000000000000001
 10
248.5127909011614
 20
186.8212621287058
 30
-0.0000000000000001
 10
248.5753785769226
 20
184.2366229116089
 30
-0.0000000000000001
 10
248.6082996850382
 20
183.1717791019718
 30
-0.0000000000000001
 10
248.6716091197035
 20
181.5750242858412
 30
-0.0000000000000002
 10
248.7025900392414
 20
181.0322029123521
 30
-0.0000000000000002
 10
248.7668566679602
 20
180.5268136328047
 30
0.0
 10
248.7986004630242
 20
180.5556750263049
 30
0.0000000000000001
 10
248.8612581544151
 20
181.1782240282607
 30
-0.0000000000000002
 10
248.8942261652205
 20
181.766406537967
 30
-0.0000000000000002
 10
248.9574177247572
 20
183.4845265735576
 30
-0.0000000000000002
 10
248.9881004231922
 20
184.5837980697626
 30
-0.0000000000000002
 10
249.0530284681689
 20
187.2584213680261
 30
-0.0000000000000002
 10
249.0839624055677
 20
188.8131557672009
 30
-0.0000000000000002
 10
249.1469194908328
 20
192.2351803235336
 30
-0.0000000000000002
 10
249.1803522709068
 20
194.1348961231849
 30
-0.0000000000000002
 10
249.2424905771441
 20
198.0645805381203
 30
-0.0000000000000002
 10
249.2744469749786
 20
200.1520219490799
 30
-0.0000000000000002
 10
249.3390239829819
 20
204.3189230884364
 30
-0.0000000000000002
 10
249.3693944587631
 20
206.4167273453355
 30
-0.0000000000000002
 10
249.4333278621045
 20
210.5352411224244
 30
-0.0000000000000002
 10
249.4656583155947
 20
212.4982877133277
 30
-0.0000000000000002
 10
249.5281992160229
 20
216.2328877050996
 30
-0.0000000000000002
 10
249.5603624850538
 20
217.9599739406491
 30
-0.0000000000000002
 10
249.624618843714
 20
221.0242876216798
 30
-0.0000000000000002
 10
249.6552638639921
 20
222.3801923929049
 30
-0.0000000000000002
 10
249.7189886393454
 20
224.5691727357999
 30
-0.0000000000000002
 10
249.751586022562
 20
225.4349156737603
 30
-0.0000000000000002
 10
249.8138483051308
 20
226.5974066993699
 30
-0.0000000000000002
 10
249.8464808054995
 20
226.9072075470534
 30
0.0000000000000002
 10
249.9106164174739
 20
226.9545548566407
 30
0.0
 10
249.9405960100433
 20
226.6969885285943
 30
0.0000000000000002
 10
250.0052664856888
 20
225.6195610617946
 30
-0.0000000000000002
 10
250.0369056185746
 20
224.8078013293907
 30
-0.0000000000000002
 10
250.0994200353007
 20
222.6968100404098
 30
-0.0000000000000002
 10
250.132859229376
 20
221.3792273630704
 30
-0.0000000000000002
 10
250.1956203023752
 20
218.3875587388562
 30
-0.0000000000000002
 10
250.2268159658203
 20
216.6690092286838
 30
-0.0000000000000002
 10
250.2912762930764
 20
213.0030207693051
 30
-0.0000000000000002
 10
250.3223860932209
 20
211.0319120161876
 30
-0.0000000000000003
 10
250.3856699798702
 20
206.9396256352257
 30
-0.0000000000000003
 10
250.4184156115953
 20
204.8661631801986
 30
-0.0000000000000003
 10
250.4812724952649
 20
200.6643042149602
 30
-0.0000000000000003
 10
250.5125289630582
 20
198.5950994723776
 30
-0.0000000000000003
 10
250.5771015178199
 20
194.6238229929807
 30
-0.0000000000000003
 10
250.6080856134993
 20
192.7051691155387
 30
-0.0000000000000003
 10
250.702851590693
 20
187.4988701812618
 30
-0.0000000000000003
 10
250.766729321347
 20
184.6259125015245
 30
-0.0000000000000003
 10
250.8635721137567
 20
181.9396325450961
 30
-0.0000000000000003
 10
250.8942039286698
 20
181.298441377979
 30
-0.0000000000000003
 10
250.9580954458725
 20
180.5893733315017
 30
-0.0000000000000001
 10
250.9903152229074
 20
180.5137492678284
 30
0.0
 10
251.053072766153
 20
180.9360907701972
 30
-0.0000000000000003
 10
251.0851191218295
 20
181.4238139193716
 30
-0.0000000000000003
 10
251.1493381126916
 20
182.9436155412997
 30
-0.0000000000000003
 10
251.1797952785897
 20
183.9716073935169
 30
-0.0000000000000003
 10
251.2438975088524
 20
186.4683897530201
 30
-0.0000000000000003
 10
251.2761874512706
 20
187.9665174753315
 30
-0.0000000000000003
 10
251.3384017947715
 20
191.263283972634
 30
-0.0000000000000003
 10
251.3716346104915
 20
193.1081063494447
 30
-0.0000000000000003
 10
251.4348756233143
 20
196.9790389252746
 30
-0.0000000000000003
 10
251.4653920880269
 20
199.0100545804951
 30
-0.0000000000000003
 10
251.5304298179818
 20
203.1934794008906
 30
-0.0000000000000003
 10
251.5613279088923
 20
205.2755237792416
 30
-0.0000000000000003
 10
251.6243222930188
 20
209.4204319160513
 30
-0.0000000000000003
 10
251.6575212245808
 20
211.4450619365117
 30
-0.0000000000000003
 10
251.7200291196051
 20
215.2428968493359
 30
-0.0000000000000003
 10
251.7516190863033
 20
217.0491003005839
 30
-0.0000000000000003
 10
251.8160638996775
 20
220.2415196917083
 30
-0.0000000000000003
 10
251.8471637988247
 20
221.6749955287671
 30
-0.0000000000000003
 10
251.9103097288684
 20
224.0411251459341
 30
-0.0000000000000003
 10
251.9431847584987
 20
224.988264460665
 30
-0.0000000000000004
 10
252.0059230961095
 20
226.3571323242506
 30
-0.0000000000000004
 10
252.0372573981475
 20
226.7620859473472
 30
0.0000000000000001
 10
252.1021385905118
 20
227.0170793188552
 30
0.0
 10
252.1325739407493
 20
226.8577407311301
 30
0.0000000000000001
 10
252.1960779901877
 20
225.9871420947062
 30
-0.0000000000000004
 10
252.2290939880497
 20
225.2633604741564
 30
-0.0000000000000004
 10
252.291116004323
 20
223.3347456975614
 30
-0.0000000000000004
 10
252.3237373459264
 20
222.1019825201006
 30
-0.0000000000000004
 10
252.387925590342
 20
219.2475457648092
 30
-0.0000000000000004
 10
252.4181177736542
 20
217.6162866987241
 30
-0.0000000000000004
 10
252.4825522987792
 20
214.0252146922737
 30
-0.0000000000000004
 10
252.5142722415433
 20
212.1169825868185
 30
-0.0000000000000004
 10
252.5769696693249
 20
208.0757818909659
 30
-0.0000000000000004
 10
252.6097405414547
 20
205.9883939756457
 30
-0.0000000000000004
 10
252.6732655099231
 20
201.8150466181486
 30
-0.0000000000000004
 10
252.70408966389
 20
199.700282030611
 30
-0.0000000000000004
 10
252.7682409161488
 20
195.6817630784872
 30
-0.0000000000000004
 10
252.8001477693045
 20
193.7183832964573
 30
-0.0000000000000004
 10
252.8627375400936
 20
190.1315794258231
 30
-0.0000000000000004
 10
252.8958049190422
 20
188.4834712179483
 30
-0.0000000000000004
 10
252.9590678431172
 20
185.5755057600331
 30
-0.0000000000000004
 10
252.9901571192155
 20
184.3332759484605
 30
-0.0000000000000004
 10
253.0549930047803
 20
182.3554150762344
 30
-0.0000000000000004
 10
253.0855678644297
 20
181.629144595217
 30
-0.0000000000000004
 10
253.1491301850721
 20
180.7082954852053
 30
0.0
 10
253.1820631128567
 20
180.5324783833306
 30
0.0
 10
253.2444336864235
 20
180.7430863117569
 30
0.0
 10
253.2762161197967
 20
181.1376860504734
 30
-0.0000000000000004
 10
253.3406064994269
 20
182.4543025882631
 30
-0.0000000000000004
 10
253.3715545929458
 20
183.3966395475819
 30
-0.0000000000000004
 10
253.4349247291242
 20
185.7264390473702
 30
-0.0000000000000004
 10
253.4678622764857
 20
187.1342559228052
 30
-0.0000000000000004
 10
253.5302553667463
 20
190.3222381242019
 30
-0.0000000000000004
 10
253.5618789243256
 20
192.0730548664072
 30
-0.0000000000000004
 10
253.6268224045092
 20
195.893482249895
 30
-0.0000000000000005
 10
253.6569023390716
 20
197.8934158361481
 30
-0.0000000000000005
 10
253.7208718150262
 20
202.0172608442571
 30
-0.0000000000000005
 10
253.7534954002628
 20
204.143310193198
 30
-0.0000000000000005
 10
253.8155439758305
 20
208.2856574213878
 30
-0.0000000000000005
 10
253.8484996033301
 20
210.3592194794615
 30
-0.0000000000000005
 10
253.9122109056271
 20
214.2349836302796
 30
-0.0000000000000005
 10
253.942751586901
 20
216.0823592193799
 30
-0.0000000000000005
 10
254.0072391177869
 20
219.4226550909078
 30
-0.0000000000000005
 10
254.0386143812722
 20
220.8998006109547
 30
-0.0000000000000005
 10
254.1016880536858
 20
223.4599968283887
 30
-0.0000000000000005
 10
254.1343900532543
 20
224.4901310416359
 30
-0.0000000000000005
 10
254.1975567679749
 20
226.0469037793948
 30
0.0000000000000004
 10
254.2285962112175
 20
226.562859563954
 30
0.0000000000000004
 10
254.2929719203867
 20
227.0209516798596
 30
0.0
 10
254.3245694117203
 20
226.9666773669435
 30
-0.0000000000000001
 10
254.3872341681583
 20
226.2981471687482
 30
0.0000000000000004
 10
254.4205441193946
 20
225.6793488773192
 30
0.0000000000000004
 10
254.4832055311119
 20
223.9252527216368
 30
-0.0000000000000005
 10
254.5141197802296
 20
222.8073942135427
 30
-0.0000000000000005
 10
254.579460153156
 20
220.0779051878576
 30
-0.0000000000000005
 10
254.6097854920941
 20
218.5257457803191
 30
-0.0000000000000005
 10
254.6731322444666
 20
215.0650562452111
 30
-0.0000000000000005
 10
254.7062961825191
 20
213.1634714518623
 30
-0.0000000000000005
 10
254.7683870130149
 20
209.2162187085763
 30
-0.0000000000000005
 10
254.8006453815821
 20
207.1190839181495
 30
-0.0000000000000005
 10
254.8649956229942
 20
202.9585254009612
 30
-0.0000000000000005
 10
254.895567768966
 20
200.8420785701968
 30
-0.0000000000000005
 10
254.9593697229345
 20
196.7544475387376
 30
-0.0000000000000005
 10
254.991555658937
 20
194.7959075246738
 30
-0.0000000000000005
 10
255.0544549686308
 20
191.0642471630354
 30
-0.0000000000000005
 10
255.0864460122214
 20
189.3730613497665
 30
-0.0000000000000005
 10
255.1507242818867
 20
186.3312802349072
 30
-0.0000000000000005
 10
255.1812429248982
 20
184.997948013356
 30
-0.0000000000000005
 10
255.2136553898169
 20
183.9109291580928
 30
-0.0000000000000006
  0
SPLINE
  5
10D
330
1F
100
AcDbEntity
  8
1
  6
CONTINUOUS
 62
   252
100
AcDbSpline
210
0.0
220
0.0
230
1.0
 70
    24
 71
     1
 72
     4
 73
     2
 74
     0
 42
0.000000001
 43
0.0000000001
 40
0.0
 40
0.0
 40
1.0
 40
1.0
 10
255.2136553898169
 20
183.9109291580929
 30
-0.0000000000000006
 10
255.8845760632873
 20
184.9072441559421
 30
-0.0000000000000006
  0
SPLINE
  5
10E
330
1F
100
AcDbEntity
  8
1
  6
CONTINUOUS
 62
   252
100
AcDbSpline
210
0.0
220
0.0
230
1.0
 70
     8
 71
     3
 72
   516
 73
   512
 74
     0
 42
0.000000001
 43
0.0000000001
 40
0.0
 40
0.0
 40
0.0
 40
0.0
 40
0.00390625
 40
0.00390625
 40
0.0078125
 40
0.0078125
 40
0.01171875
 40
0.01171875
 40
0.015625
 40
0.015625
 40
0.01953125
 40
0.01953125
 40
0.0234375
 40
0.0234375
 40
0.02734375
 40
0.02734375
 40
0.03125
 40
0.03125
 40
0.03515625
 40
0.03515625
 40
0.0390625
 40
0.0390625
 40
0.04296875
 40
0.04296875
 40
0.046875
 40
0.046875
 40
0.05078125
 40
0.05078125
 40
0.0546875
 40
0.0546875
 40
0.05859375
 40
0.05859375
 40
0.0625
 40
0.0625
 40
0.06640625
 40
0.06640625
 40
0.0703125
 40
0.0703125
 40
0.07421875
 40
0.07421875
 40
0.078125
 40
0.078125
 40
0.08203125
 40
0.08203125
 40
0.0859375
 40
0.0859375
 40
0.08984375
 40
0.08984375
 40
0.09375
 40
0.09375
 40
0.09765625
 40
0.09765625
 40
0.1015625
 40
0.1015625
 40
0.10546875
 40
0.10546875
 40
0.109375
 40
0.109375
 40
0.11328125
 40
0.11328125
 40
0.1171875
 40
0.1171875
 40
0.12109375
 40
0.12109375
 40
0.125
 40
0.125
 40
0.12890625
 40
0.12890625
 40
0.1328125
 40
0.1328125
 40
0.13671875
 40
0.13671875
 40
0.140625
 40
0.140625
 40
0.14453125
 40
0.14453125
 40
0.1484375
 40
0.1484375
 40
0.15234375
 40
0.15234375
 40
0.15625
 40
0.15625
 40
0.16015625
 40
0.16015625
 40
0.1640625
 40
0.1640625
 40
0.16796875
 40
0.16796875
 40
0.171875
 40
0.171875
 40
0.17578125
 40
0.17578125
 40
0.1796875
 40
0.1796875
 40
0.18359375
 40
0.18359375
 40
0.1875
 40
0.1875
 40
0.19140625
 40
0.19140625
 40
0.1953125
 40
0.1953125
 40
0.19921875
 40
0.19921875
 40
0.203125
 40
0.203125
 40
0.20703125
 40
0.20703125
 40
0.2109375
 40
0.2109375
 40
0.21484375
 40
0.21484375
 40
0.21875
 40
0.21875
 40
0.22265625
 40
0.22265625
 40
0.2265625
 40
0.2265625
 40
0.23046875
 40
0.23046875
 40
0.234375
 40
0.234375
 40
0.23828125
 40
0.23828125
 40
0.2421875
 40
0.2421875
 40
0.24609375
 40
0.24609375
 40
0.25
 40
0.25
 40
0.25390625
 40
0.25390625
 40
0.2578125
 40
0.2578125
 40
0.26171875
 40
0.26171875
 40
0.265625
 40
0.265625
 40
0.26953125
 40
0.26953125
 40
0.2734375
 40
0.2734375
 40
0.27734375
 40
0.27734375
 40
0.28125
 40
0.28125
 40
0.28515625
 40
0.28515625
 40
0.2890625
 40
0.2890625
 40
0.29296875
 40
0.29296875
 40
0.296875
 40
0.296875
 40
0.30078125
 40
0.30078125
 40
0.3046875
 40
0.3046875
 40
0.30859375
 40
0.30859375
 40
0.3125
 40
0.3125
 40
0.31640625
 40
0.31640625
 40
0.3203125
 40
0.3203125
 40
0.32421875
 40
0.32421875
 40
0.328125
 40
0.328125
 40
0.33203125
 40
0.33203125
 40
0.3359375
 40
0.3359375
 40
0.33984375
 40
0.33984375
 40
0.34375
 40
0.34375
 40
0.34765625
 40
0.34765625
 40
0.3515625
 40
0.3515625
 40
0.35546875
 40
0.35546875
 40
0.359375
 40
0.359375
 40
0.36328125
 40
0.36328125
 40
0.3671875
 40
0.3671875
 40
0.37109375
 40
0.37109375
 40
0.3749999999999999
 40
0.3749999999999999
 40
0.3789062499999999
 40
0.3789062499999999
 40
0.3828124999999999
 40
0.3828124999999999
 40
0.3867187499999999
 40
0.3867187499999999
 40
0.3906249999999999
 40
0.3906249999999999
 40
0.3945312499999999
 40
0.3945312499999999
 40
0.3984374999999999
 40
0.3984374999999999
 40
0.4023437499999999
 40
0.4023437499999999
 40
0.4062499999999999
 40
0.4062499999999999
 40
0.4101562499999999
 40
0.4101562499999999
 40
0.4140624999999999
 40
0.4140624999999999
 40
0.4179687499999999
 40
0.4179687499999999
 40
0.4218749999999999
 40
0.4218749999999999
 40
0.4257812499999999
 40
0.4257812499999999
 40
0.4296874999999999
 40
0.4296874999999999
 40
0.4335937499999999
 40
0.4335937499999999
 40
0.4374999999999999
 40
0.4374999999999999
 40
0.4414062499999999
 40
0.4414062499999999
 40
0.4453124999999999
 40
0.4453124999999999
 40
0.4492187499999999
 40
0.4492187499999999
 40
0.4531249999999999
 40
0.4531249999999999
 40
0.4570312499999999
 40
0.4570312499999999
 40
0.4609374999999999
 40
0.4609374999999999
 40
0.4648437499999999
 40
0.4648437499999999
 40
0.4687499999999999
 40
0.4687499999999999
 40
0.4726562499999999
 40
0.4726562499999999
 40
0.4765624999999999
 40
0.4765624999999999
 40
0.4804687499999999
 40
0.4804687499999999
 40
0.4843749999999999
 40
0.4843749999999999
 40
0.4882812499999999
 40
0.4882812499999999
 40
0.4921874999999999
 40
0.4921874999999999
 40
0.4960937499999999
 40
0.4960937499999999
 40
0.5
 40
0.5
 40
0.50390625
 40
0.50390625
 40
0.5078125
 40
0.5078125
 40
0.51171875
 40
0.51171875
 40
0.515625
 40
0.515625
 40
0.51953125
 40
0.51953125
 40
0.5234375
 40
0.5234375
 40
0.52734375
 40
0.52734375
 40
0.53125
 40
0.53125
 40
0.53515625
 40
0.53515625
 40
0.5390625
 40
0.5390625
 40
0.54296875
 40
0.54296875
 40
0.546875
 40
0.546875
 40
0.55078125
 40
0.55078125
 40
0.5546875
 40
0.5546875
 40
0.55859375
 40
0.55859375
 40
0.5625
 40
0.5625
 40
0.56640625
 40
0.56640625
 40
0.5703125
 40
0.5703125
 40
0.57421875
 40
0.57421875
 40
0.578125
 40
0.578125
 40
0.58203125
 40
0.58203125
 40
0.5859375
 40
0.5859375
 40
0.58984375
 40
0.58984375
 40
0.59375
 40
0.59375
 40
0.59765625
 40
0.59765625
 40
0.6015625
 40
0.6015625
 40
0.60546875
 40
0.60546875
 40
0.609375
 40
0.609375
 40
0.61328125
 40
0.61328125
 40
0.6171875
 40
0.6171875
 40
0.62109375
 40
0.62109375
 40
0.625
 40
0.625
 40
0.62890625
 40
0.62890625
 40
0.6328125
 40
0.6328125
 40
0.63671875
 40
0.63671875
 40
0.640625
 40
0.640625
 40
0.64453125
 40
0.64453125
 40
0.6484375
 40
0.6484375
 40
0.65234375
 40
0.65234375
 40
0.65625
 40
0.65625
 40
0.66015625
 40
0.66015625
 40
0.6640625
 40
0.6640625
 40
0.66796875
 40
0.66796875
 40
0.671875
 40
0.671875
 40
0.67578125
 40
0.67578125
 40
0.6796875
 40
0.6796875
 40
0.68359375
 40
0.68359375
 40
0.6875
 40
0.6875
 40
0.69140625
 40
0.69140625
 40
0.6953125
 40
0.6953125
 40
0.69921875
 40
0.69921875
 40
0.703125
 40
0.703125
 40
0.70703125
 40
0.70703125
 40
0.7109375
 40
0.7109375
 40
0.71484375
 40
0.71484375
 40
0.71875
 40
0.71875
 40
0.72265625
 40
0.72265625
 40
0.7265625
 40
0.7265625
 40
0.73046875
 40
0.73046875
 40
0.734375
 40
0.734375
 40
0.73828125
 40
0.73828125
 40
0.7421875
 40
0.7421875
 40
0.74609375
 40
0.74609375
 40
0.7499999999999999
 40
0.7499999999999999
 40
0.7539062499999999
 40
0.7539062499999999
 40
0.7578124999999999
 40
0.7578124999999999
 40
0.7617187499999999
 40
0.7617187499999999
 40
0.7656249999999999
 40
0.7656249999999999
 40
0.7695312499999999
 40
0.7695312499999999
 40
0.7734374999999999
 40
0.7734374999999999
 40
0.7773437499999999
 40
0.7773437499999999
 40
0.7812499999999999
 40
0.7812499999999999
 40
0.7851562499999999
 40
0.7851562499999999
 40
0.7890624999999999
 40
0.7890624999999999
 40
0.7929687499999999
 40
0.7929687499999999
 40
0.7968749999999999
 40
0.7968749999999999
 40
0.8007812499999999
 40
0.8007812499999999
 40
0.8046874999999999
 40
0.8046874999999999
 40
0.8085937499999999
 40
0.8085937499999999
 40
0.8124999999999999
 40
0.8124999999999999
 40
0.8164062499999999
 40
0.8164062499999999
 40
0.8203124999999999
 40
0.8203124999999999
 40
0.8242187499999999
 40
0.8242187499999999
 40
0.8281249999999999
 40
0.8281249999999999
 40
0.8320312499999999
 40
0.8320312499999999
 40
0.8359374999999999
 40
0.8359374999999999
 40
0.8398437499999999
 40
0.8398437499999999
 40
0.8437499999999999
 40
0.8437499999999999
 40
0.8476562499999999
 40
0.8476562499999999
 40
0.8515624999999999
 40
0.8515624999999999
 40
0.8554687499999999
 40
0.8554687499999999
 40
0.8593749999999999
 40
0.8593749999999999
 40
0.8632812499999999
 40
0.8632812499999999
 40
0.8671874999999999
 40
0.8671874999999999
 40
0.8710937499999999
 40
0.8710937499999999
 40
0.8749999999999999
 40
0.8749999999999999
 40
0.8789062499999999
 40
0.8789062499999999
 40
0.8828124999999999
 40
0.8828124999999999
 40
0.8867187499999999
 40
0.8867187499999999
 40
0.8906249999999999
 40
0.8906249999999999
 40
0.8945312499999999
 40
0.8945312499999999
 40
0.8984374999999999
 40
0.8984374999999999
 40
0.9023437499999999
 40
0.9023437499999999
 40
0.9062499999999999
 40
0.9062499999999999
 40
0.9101562499999999
 40
0.9101562499999999
 40
0.9140624999999999
 40
0.9140624999999999
 40
0.9179687499999999
 40
0.9179687499999999
 40
0.9218749999999999
 40
0.9218749999999999
 40
0.9257812499999999
 40
0.9257812499999999
 40
0.9296874999999999
 40
0.9296874999999999
 40
0.9335937499999999
 40
0.9335937499999999
 40
0.9374999999999999
 40
0.9374999999999999
 40
0.9414062499999999
 40
0.9414062499999999
 40
0.9453124999999999
 40
0.9453124999999999
 40
0.9492187499999999
 40
0.9492187499999999
 40
0.9531249999999999
 40
0.9531249999999999
 40
0.9570312499999999
 40
0.9570312499999999
 40
0.9609374999999999
 40
0.9609374999999999
 40
0.9648437499999999
 40
0.9648437499999999
 40
0.9687499999999999
 40
0.9687499999999999
 40
0.9726562499999999
 40
0.9726562499999999
 40
0.9765624999999999
 40
0.9765624999999999
 40
0.9804687499999999
 40
0.9804687499999999
 40
0.9843749999999999
 40
0.9843749999999999
 40
0.9882812499999999
 40
0.9882812499999999
 40
0.9921874999999999
 40
0.9921874999999999
 40
1.0
 40
1.0
 40
1.0
 40
1.0
 10
253.9809833037969
 20
184.907244155942
 30
-0.0000000000000005
 10
253.9508715019595
 20
185.8874935642292
 30
-0.0000000000000005
 10
253.9192038670909
 20
187.0819565025801
 30
-0.0000000000000005
 10
253.8593482878449
 20
189.7833568927769
 30
-0.0000000000000005
 10
253.8303982134471
 20
191.2894429951328
 30
-0.0000000000000005
 10
253.768678829671
 20
194.6024437673991
 30
-0.0000000000000005
 10
253.7390347253678
 20
196.3437909466217
 30
-0.0000000000000005
 10
253.6795409039443
 20
199.9917424919041
 30
-0.0000000000000005
 10
253.6480776158778
 20
201.8926947832479
 30
-0.0000000000000005
 10
253.5880542871305
 20
205.6485663861592
 30
-0.0000000000000005
 10
253.5586625288109
 20
207.5558673379292
 30
-0.0000000000000004
 10
253.4977515506166
 20
211.1951120422922
 30
-0.0000000000000004
 10
253.4675959710976
 20
212.9506239558247
 30
-0.0000000000000004
 10
253.4078594111966
 20
216.254194685604
 30
-0.0000000000000004
 10
253.377213963483
 20
217.7562722374045
 30
-0.0000000000000004
 10
253.3164617992609
 20
220.4649564743679
 30
-0.0000000000000004
 10
253.2874097699058
 20
221.6512084624295
 30
-0.0000000000000004
 10
253.2267562994047
 20
223.588667210516
 30
-0.0000000000000004
 10
253.1958560506895
 20
224.3612314766758
 30
-0.0000000000000004
 10
253.1367757647095
 20
225.4152369080334
 30
-0.0000000000000004
 10
253.1059302599511
 20
225.7116677987185
 30
0.0
 10
253.0447832976345
 20
225.8132107680915
 30
0.0
 10
253.0163153466281
 20
225.6228281113217
 30
0.0
 10
252.9553659106112
 20
224.7597919800863
 30
-0.0000000000000004
 10
252.9245650952571
 20
224.090166361255
 30
-0.0000000000000004
 10
252.8655452483459
 20
222.3297785103907
 30
-0.0000000000000004
 10
252.8345746373689
 20
221.2174788274848
 30
-0.0000000000000004
 10
252.7736883275674
 20
218.6704262242415
 30
-0.0000000000000004
 10
252.7446705272943
 20
217.2064031160927
 30
-0.0000000000000004
 10
252.6840246474055
 20
214.0218106550474
 30
-0.0000000000000004
 10
252.653416174711
 20
212.3232273916934
 30
-0.0000000000000004
 10
252.5938530909032
 20
208.7106585718244
 30
-0.0000000000000004
 10
252.5635939921053
 20
206.8476040014789
 30
-0.0000000000000004
 10
252.5024591010348
 20
203.0897872728911
 30
-0.0000000000000004
 10
252.4731551974622
 20
201.1719371909892
 30
-0.0000000000000004
 10
252.4130779740295
 20
197.4932640997743
 30
-0.0000000000000004
 10
252.381673377034
 20
195.6808587499839
 30
-0.0000000000000004
 10
252.3224416298812
 20
192.3016501932718
 30
-0.0000000000000004
 10
252.2926631487624
 20
190.7383881860938
 30
-0.0000000000000004
 10
252.2307602304664
 20
187.8712700542706
 30
-0.0000000000000004
 10
252.2019525216801
 20
186.6242752064094
 30
-0.0000000000000004
 10
252.1418836192544
 20
184.5083802357588
 30
-0.0000000000000004
 10
252.1102895020813
 20
183.6438964741141
 30
-0.0000000000000004
 10
252.0512366628693
 20
182.3961833343502
 30
-0.0000000000000004
 10
252.0210040200484
 20
181.9952397562896
 30
0.0000000000000001
 10
251.9596954760535
 20
181.6900818617784
 30
0.0
 10
251.9306502194037
 20
181.7772829033373
 30
0.0000000000000001
 10
251.8702281530477
 20
182.4429145344823
 30
-0.0000000000000003
 10
251.8393006373233
 20
183.0067827255256
 30
-0.0000000000000003
 10
251.7800940486279
 20
184.5797803660375
 30
-0.0000000000000003
 10
251.7500255261186
 20
185.6044427835207
 30
-0.0000000000000003
 10
251.6890778435314
 20
187.9873064017894
 30
-0.0000000000000003
 10
251.6596045643424
 20
189.3702130272932
 30
-0.0000000000000003
 10
251.5995858210254
 20
192.4447362123028
 30
-0.0000000000000003
 10
251.5685834734517
 20
194.0963061690223
 30
-0.0000000000000003
 10
251.5087015956065
 20
197.6270112354074
 30
-0.0000000000000003
 10
251.4791712068371
 20
199.4795152882947
 30
-0.0000000000000003
 10
251.4180778198972
 20
203.2154255357736
 30
-0.0000000000000003
 10
251.3879175350376
 20
205.1400005940708
 30
-0.0000000000000003
 10
251.3285683497639
 20
208.8574708051278
 30
-0.0000000000000003
 10
251.297148067708
 20
210.693892123394
 30
-0.0000000000000003
 10
251.2370243344068
 20
214.1701179414827
 30
-0.0000000000000003
 10
251.2081536383472
 20
215.7877734699651
 30
-0.0000000000000003
 10
251.1466204173968
 20
218.7800961102675
 30
-0.0000000000000003
 10
251.1166304860602
 20
220.1144480165904
 30
-0.0000000000000003
 10
251.0573714860408
 20
222.3974900259356
 30
-0.0000000000000003
 10
251.0258578595726
 20
223.3586426699866
 30
-0.0000000000000003
 10
250.965777930055
 20
224.8023621849573
 30
-0.0000000000000003
 10
250.936509103009
 20
225.3063780444227
 30
-0.0000000000000003
 10
250.875383424579
 20
225.8219503352202
 30
-0.0000000000000001
 10
250.845438162942
 20
225.8398101699659
 30
0.0
 10
250.7856738091339
 20
225.385311580078
 30
-0.0000000000000003
 10
250.754940368238
 20
224.9190229683865
 30
-0.0000000000000003
 10
250.6943563470617
 20
223.5327823404299
 30
-0.0000000000000003
 10
250.6651112780256
 20
222.6013687586051
 30
-0.0000000000000003
 10
250.6044535460424
 20
220.3751648563335
 30
-0.0000000000000003
 10
250.5735915484751
 20
219.0487924268503
 30
-0.0000000000000003
 10
250.5144279397726
 20
216.1152813801571
 30
-0.0000000000000003
 10
250.4839979854566
 20
214.5121970773978
 30
-0.0000000000000003
 10
250.4225031811943
 20
211.0389293295883
 30
-0.0000000000000003
 10
250.3939878902739
 20
209.239598126486
 30
-0.0000000000000003
 10
250.3332495964171
 20
205.5191121063167
 30
-0.0000000000000003
 10
250.3021783737688
 20
203.6030299023678
 30
-0.0000000000000003
 10
250.243268646814
 20
199.863381301017
 30
-0.0000000000000002
 10
250.212401727405
 20
197.9874032934077
 30
-0.0000000000000002
 10
250.1514074164313
 20
194.45208010995
 30
-0.0000000000000002
 10
250.1226365085831
 20
192.7710221172467
 30
-0.0000000000000002
 10
250.0616777440783
 20
189.6536822454901
 30
-0.0000000000000002
 10
250.0310216837289
 20
188.2624323686521
 30
-0.0000000000000002
 10
249.9717667688665
 20
185.8098470317116
 30
-0.0000000000000002
 10
249.941306667013
 20
184.7669220373222
 30
-0.0000000000000002
 10
249.8802888029268
 20
183.1359392618825
 30
-0.0000000000000002
 10
249.8509188944388
 20
182.5298922036036
 30
-0.0000000000000002
 10
249.7907396343372
 20
181.814485941465
 30
-0.0000000000000002
 10
249.759517533207
 20
181.693398771345
 30
0.0
 10
249.7000683532453
 20
181.9427554577898
 30
-0.0000000000000002
 10
249.6703777312703
 20
182.3053706930552
 30
-0.0000000000000002
 10
249.6088235516025
 20
183.5056722681132
 30
-0.0000000000000002
 10
249.5796339515188
 20
184.3377718783727
 30
-0.0000000000000002
 10
249.5196707713935
 20
186.3979776483871
 30
-0.0000000000000002
 10
249.487958192177
 20
187.6509403625134
 30
-0.0000000000000002
 10
249.4288824752498
 20
190.4429997699202
 30
-0.0000000000000002
 10
249.3989013141767
 20
192.0137045403792
 30
-0.0000000000000002
 10
249.3374209077409
 20
195.3737184928995
 30
-0.0000000000000002
 10
249.3084684435279
 20
197.1391705306654
 30
-0.0000000000000002
 10
249.2481454383048
 20
200.8428454643124
 30
-0.0000000000000002
 10
249.2168291572188
 20
202.7308036758375
 30
-0.0000000000000002
 10
249.157505910522
 20
206.4909955887125
 30
-0.0000000000000002
 10
249.1275321745946
 20
208.3876087513232
 30
-0.0000000000000002
 10
249.0664653014363
 20
211.9804383029986
 30
-0.0000000000000002
 10
249.0366808886503
 20
213.7268066190047
 30
-0.0000000000000002
 10
248.9768729406798
 20
216.9368936405753
 30
-0.0000000000000002
 10
248.945822278405
 20
218.3967963998566
 30
-0.0000000000000002
 10
248.8856258276345
 20
221.0191508670925
 30
-0.0000000000000002
 10
248.8564805282936
 20
222.1309503383098
 30
-0.0000000000000002
 10
248.7952972932989
 20
223.9487980020978
 30
-0.0000000000000002
 10
248.7651924069208
 20
224.6510593816397
 30
-0.0000000000000002
 10
248.7058369352472
 20
225.5654585289751
 30
-0.0000000000000002
 10
248.6741855014319
 20
225.7907391448794
 30
0.0000000000000001
 10
248.6142844566906
 20
225.7469967290285
 30
-0.0000000000000001
 10
248.5853458464434
 20
225.4860300469211
 30
-0.0000000000000001
 10
248.523667829318
 20
224.4762339622186
 30
-0.0000000000000001
 10
248.4939803489713
 20
223.7478311143643
 30
-0.0000000000000001
 10
248.4344984149583
 20
221.8549056285871
 30
-0.0000000000000001
 10
248.4030783073309
 20
220.6879184924613
 30
-0.0000000000000001
 10
248.342986184733
 20
218.038257200709
 30
-0.0000000000000001
 10
248.3136207659364
 20
216.5177636309156
 30
-0.0000000000000001
 10
248.2527428645413
 20
213.2713207587039
 30
-0.0000000000000001
 10
248.2225230241491
 20
211.5273882112575
 30
-0.0000000000000001
 10
248.1628236834456
 20
207.8734746111863
 30
-0.0000000000000001
 10
248.132214403323
 20
206.0150010760607
 30
-0.0000000000000001
 10
248.0713944690847
 20
202.2357139000971
 30
-0.0000000000000001
 10
248.0423710932053
 20
200.337938472007
 30
-0.0000000000000001
 10
247.9817423720259
 20
196.6892137756642
 30
-0.0000000000000001
 10
247.9507977924557
 20
194.8946974428274
 30
-0.0000000000000001
 10
247.8917363192016
 20
191.5934528765251
 30
-0.0000000000000001
 10
247.8609116007096
 20
190.0509987832995
 30
-0.0000000000000001
 10
247.7997395657966
 20
187.2972558313468
 30
-0.0000000000000001
 10
247.7712732637095
 20
186.1074396064257
 30
-0.0000000000000001
 10
247.7103388898046
 20
184.1025912128707
 30
-0.0000000000000001
 10
247.6795155142823
 20
183.3126355041404
 30
-0.0000000000000001
 10
247.6204954311397
 20
182.1996457966357
 30
-0.0000000000000001
 10
247.5895649711204
 20
181.8710549819177
 30
-0.0000000000000001
 10
247.5286526966226
 20
181.7100612192559
 30
0.0
 10
247.4996114317481
 20
181.8726415156375
 30
-0.0000000000000001
 10
247.4390130559589
 20
182.6771147272378
 30
-0.0000000000000001
 10
247.4083696918075
 20
183.3075675835077
 30
-0.0000000000000001
 10
247.3487860924666
 20
185.0316741927898
 30
-0.0000000000000001
 10
247.3185857239076
 20
186.1022797950229
 30
-0.0000000000000001
 10
247.2574234858126
 20
188.6082581538263
 30
-0.0000000000000001
 10
247.2281035665501
 20
190.0625231316875
 30
-0.0000000000000001
 10
247.1680622989609
 20
193.1944952484144
 30
-0.0000000000000001
 10
247.1366211730115
 20
194.9154990271394
 30
-0.0000000000000001
 10
247.0773904911769
 20
198.4871298054551
 30
-0.0000000000000001
 10
247.0476493474866
 20
200.3285992167633
 30
-0.0000000000000001
 10
246.985715526515
 20
204.1259470616793
 30
0.0
 10
246.9569018145667
 20
206.0048457463932
 30
0.0
 10
246.8968565392391
 20
209.7080076278058
 30
0.0
 10
246.8652526824533
 20
211.5325009671985
 30
0.0
 10
246.8061789703814
 20
214.9232881477537
 30
0.0
 10
246.7759784889673
 20
216.5379879316806
 30
0.0
 10
246.7146789464752
 20
219.4138403391752
 30
0.0
 10
246.6855811825827
 20
220.6888093975104
 30
0.0
 10
246.625200389092
 20
222.8721282515831
 30
0.0
 10
246.5941893226881
 20
223.7435315338284
 30
0.0
 10
246.5346564338013
 20
225.0551914863998
 30
0.0
 10
246.5047871830444
 20
225.4833853569654
 30
0.0
 10
246.4436734332398
 20
225.848716565236
 30
0.0
 10
246.4137664887782
 20
225.7886925306622
 30
0.0
 10
246.3541968282433
 20
225.1885778553048
 30
0.0
 10
246.3228738998735
 20
224.6498919104716
 30
0.0
 10
246.2628536087913
 20
223.1124833455319
 30
0.0
 10
246.2337877111987
 20
222.1370649913661
 30
0.0
 10
246.1723285885632
 20
219.7762726014466
 30
0.0
 10
246.1424201932586
 20
218.4024455848714
 30
0.0
 10
246.0830835937084
 20
215.3862383464596
 30
0.0
 10
246.0514032631442
 20
213.7066839196815
 30
0.0
 10
245.991623245533
 20
210.2181869983129
 30
0.0
 10
245.9623079702161
 20
208.3729239107875
 30
0.0
 10
245.9009126117593
 20
204.6184074372279
 30
0.0
 10
245.871230875032
 20
202.7406490710673
 30
0.0
 10
245.8115418929678
 20
198.9841652639866
 30
0.0
 10
245.7804203722519
 20
197.1488726697193
 30
0.0
 10
245.7202356458637
 20
193.6700284855677
 30
0.0
 10
245.6908235054211
 20
191.9988952109077
 30
0.0
 10
245.629998635983
 20
189.0025198887899
 30
0.0
 10
245.5994852232002
 20
187.6364459906199
 30
0.0
 10
245.5401198132415
 20
185.3035941391559
 30
0.0
 10
245.5095529211032
 20
184.3408041726414
 30
0.0
 10
245.4484295213776
 20
182.8298291174344
 30
0.0
 10
245.4196841494795
 20
182.3085756850059
 30
0.0
 10
245.3588853136122
 20
181.7388328691285
 30
0.0000000000000001
 10
245.3279646586811
 20
181.695010623721
 30
0.0
 10
245.2690124988864
 20
182.091176435545
 30
0.0000000000000001
 10
245.2380081615554
 20
182.535932330831
 30
0.0000000000000001
 10
245.1770968286033
 20
183.8754286632057
 30
0.0000000000000001
 10
245.1485768470756
 20
184.7604194076586
 30
0.0000000000000001
 10
245.0872351461621
 20
186.9743960890099
 30
0.0000000000000001
 10
245.0567631573691
 20
188.2554059998915
 30
0.0000000000000001
 10
244.997630822713
 20
191.1543215870734
 30
0.0000000000000001
 10
244.9668470452143
 20
192.7753155144769
 30
0.0000000000000001
 10
244.9059761350999
 20
196.1793946630272
 30
0.0000000000000001
 10
244.8767336178383
 20
198.0113214777518
 30
0.0000000000000001
 10
244.8162898803999
 20
201.7166075451761
 30
0.0000000000000001
 10
244.7854256703295
 20
203.6044748955431
 30
0.0000000000000001
 10
244.7258381851642
 20
207.3919654071763
 30
0.0000000000000001
 10
244.6959240486074
 20
209.2297720648686
 30
0.0000000000000001
 10
244.6345887838813
 20
212.7955087681093
 30
0.0000000000000001
 10
244.6053941126582
 20
214.5057938187046
 30
0.0000000000000001
 10
244.5452879448383
 20
217.6212342707957
 30
0.0000000000000001
 10
244.5137056637832
 20
219.0659193732641
 30
0.0000000000000001
 10
244.4546693672753
 20
221.5466882358929
 30
0.0000000000000001
 10
244.4246343004233
 20
222.6078909193476
 30
0.0000000000000001
 10
244.3630089844768
 20
224.3005549108844
 30
0.0000000000000001
 10
244.3342387678609
 20
224.9168300270341
 30
0.0000000000000001
 10
244.2739041319057
 20
225.691559410276
 30
0.0000000000000001
 10
244.2424795099167
 20
225.8376578925869
 30
0.0
 10
244.1833754591241
 20
225.6455212861508
 30
0.0000000000000001
 10
244.1531675661923
 20
225.3009537860169
 30
0.0000000000000001
 10
244.0920394543581
 20
224.1588928026094
 30
0.0000000000000001
 10
244.062592802178
 20
223.3519005563907
 30
0.0000000000000001
 10
244.0024721481558
 20
221.3233725433129
 30
0.0000000000000001
 10
243.9714371883716
 20
220.122002975455
 30
0.0000000000000001
 10
243.9116475490862
 20
217.3419974894958
 30
0.0000000000000001
 10
243.8820924055788
 20
215.7952833380031
 30
0.0000000000000001
 10
243.8209331681511
 20
212.4771397398388
 30
0.0000000000000001
 10
243.7910062431731
 20
210.6776160801949
 30
0.0000000000000001
 10
243.7314766467082
 20
207.0227999135515
 30
0.0000000000000002
 10
243.6998508252717
 20
205.1187547600744
 30
0.0000000000000002
 10
243.6401126512495
 20
201.3451122459047
 30
0.0000000000000002
 10
243.611086409359
 20
199.4883661356966
 30
0.0000000000000002
 10
243.5493548629714
 20
195.8363925756586
 30
0.0000000000000002
 10
243.5197616043772
 20
194.1057042355189
 30
0.0000000000000002
 10
243.4602490524387
 20
190.8723867836305
 30
0.0000000000000002
 10
243.4285905571913
 20
189.3634383550301
 30
0.0000000000000002
 10
243.3688556312183
 20
186.7362156726589
 30
0.0000000000000002
 10
243.3393736892531
 20
185.5799815220489
 30
0.0000000000000002
 10
243.2782731319371
 20
183.7163701745222
 30
0.0000000000000002
 10
243.2485161945311
 20
183.0008199137274
 30
0.0000000000000002
 10
243.1885033816781
 20
182.0212821296925
 30
0.0000000000000002
 10
243.157690029425
 20
181.7766890134133
 30
0.0
 10
243.0973234783282
 20
181.76425188518
 30
0.0
 10
243.0680662928954
 20
182.005188594897
 30
0.0000000000000002
 10
243.0073160810575
 20
182.9497411495818
 30
0.0000000000000002
 10
242.9766441188065
 20
183.667856302775
 30
0.0000000000000002
 10
242.9174266263449
 20
185.5113765744905
 30
0.0000000000000002
 10
242.8865872922725
 20
186.6407257843594
 30
0.0000000000000002
 10
242.8254873057869
 20
189.2810730219952
 30
0.0000000000000002
 10
242.7969785402127
 20
190.7499392201167
 30
0.0000000000000002
 10
242.7360326620065
 20
193.9805365572128
 30
0.0000000000000002
 10
242.7052820125763
 20
195.7295583934904
 30
0.0000000000000002
 10
242.6462642619494
 20
199.332368776207
 30
0.0000000000000002
 10
242.6151257387935
 20
201.2327185728724
 30
0.0000000000000002
 10
242.5543500381332
 20
204.9913206151058
 30
0.0000000000000002
 10
242.5254924837774
 20
206.8844226604558
 30
0.0000000000000002
 10
242.4645581470559
 20
210.5747399202838
 30
0.0000000000000002
 10
242.434117987227
 20
212.3348448781698
 30
0.0000000000000002
 10
242.3747035582593
 20
215.6852836042805
 30
0.0000000000000002
 10
242.3441082460667
 20
217.2422962840558
 30
0.0000000000000002
 10
242.2831454141446
 20
220.0147760767378
 30
0.0000000000000002
 10
242.2538875157919
 20
221.2554528460121
 30
0.0000000000000002
 10
242.1936295366485
 20
223.2885517510821
 30
0.0000000000000002
 10
242.162469151901
 20
224.1084844191434
 30
0.0000000000000002
 10
242.103146477465
 20
225.2770077806772
 30
0.0000000000000003
 10
242.0732039725626
 20
225.6249786825874
 30
-0.0000000000000002
 10
242.0115462083486
 20
225.8430112804983
 30
0.0
 10
241.9826578121477
 20
225.7063279113684
 30
-0.0000000000000002
 10
241.9225184879209
 20
224.9598303006426
 30
0.0000000000000003
 10
241.8909687328406
 20
224.3388316410232
 30
0.0000000000000003
 10
241.8319783453506
 20
222.6803694143516
 30
0.0000000000000003
 10
241.8016506896942
 20
221.6215973607986
 30
0.0000000000000003
 10
241.7402610299931
 20
219.1483329332162
 30
0.0000000000000003
 10
241.7114935090361
 20
217.7466547893436
 30
0.0000000000000003
 10
241.6508943280989
 20
214.6051484707757
 30
0.0000000000000003
 10
241.6198354176317
 20
212.9237546893412
 30
0.0000000000000003
 10
241.5605657491092
 20
209.3745967451991
 30
0.0000000000000003
 10
241.5303913653236
 20
207.4973383366484
 30
0.0000000000000003
 10
241.4692676723631
 20
203.7552742708364
 30
0.0000000000000003
 10
241.4396328852125
 20
201.8366656520953
 30
0.0000000000000003
 10
241.3798011569968
 20
198.1253966026477
 30
0.0000000000000003
 10
241.3486847821364
 20
196.3250134469355
 30
0.0000000000000003
 10
241.2886776436868
 20
192.8671969952555
 30
0.0000000000000003
 10
241.2593950345249
 20
191.2751743713058
 30
0.0000000000000003
 10
241.1980131608371
 20
188.3582250283806
 30
0.0000000000000003
 10
241.168216021331
 20
187.0459029735305
 30
0.0000000000000003
 10
241.1087553070246
 20
184.8444961751345
 30
0.0000000000000003
 10
241.0770248656043
 20
183.9263066296354
 30
0.0000000000000003
 10
241.0174521509592
 20
182.5703251754895
 30
0.0000000000000003
 10
240.9881196279633
 20
182.1177787683831
 30
0.0000000000000003
 10
240.9264525791515
 20
181.6958220802234
 30
0.0
 10
240.8970194822948
 20
181.7286210392622
 30
0.0000000000000001
 10
240.8373527568634
 20
182.2760862325648
 30
0.0000000000000003
 10
240.8059174218439
 20
182.7944154150383
 30
0.0000000000000003
 10
240.7461319543627
 20
184.2672623451799
 30
0.0000000000000003
 10
240.7165318140836
 20
185.2428400201056
 30
0.0000000000000003
 10
240.6555349485377
 20
187.5490650061053
 30
0.0000000000000003
 10
240.6254169375153
 20
188.8992868497904
 30
0.0000000000000003
 10
240.5657923137303
 20
191.906064448809
 30
0.0000000000000003
 10
240.5350426275498
 20
193.5311494697368
 30
0.0000000000000003
 10
240.4744145313127
 20
197.0250752181272
 30
0.0000000000000004
 10
240.4453623693394
 20
198.860324867328
 30
0.0000000000000004
 10
240.3844923190981
 20
202.5842178741763
 30
0.0000000000000004
 10
240.3537782443078
 20
204.5087457077656
 30
0.0000000000000004
 10
240.2947221799854
 20
208.2394878139508
 30
0.0000000000000004
 10
240.263628306825
 20
210.0931199350945
 30
0.0000000000000004
 10
240.2028331986532
 20
213.6072713824618
 30
0.0000000000000004
 10
240.17429101487
 20
215.2519500057212
 30
0.0000000000000004
 10
240.112992490435
 20
218.3131296846547
 30
0.0000000000000004
 10
240.0825227063832
 20
219.6821005173658
 30
0.0000000000000004
 10
240.0234458581596
 20
222.0510024401984
 30
0.0000000000000004
 10
239.9923827091244
 20
223.0588334101188
 30
0.0000000000000004
 10
239.9316884391888
 20
224.6010818845984
 30
0.0000000000000004
 10
239.9025564352214
 20
225.1583498217855
 30
0.0000000000000004
 10
239.841827293093
 20
225.7802036857262
 30
-0.0000000000000001
 10
239.8113472639297
 20
225.8522514739156
 30
0.0
 10
239.7516435580677
 20
225.5052195467713
 30
0.0
 10
239.7214488672034
 20
225.0924126089914
 30
0.0000000000000004
 10
239.660355153518
 20
223.8061482738738
 30
0.0000000000000004
 10
239.6311488389874
 20
222.9239017162819
 30
0.0000000000000004
 10
239.5708741677989
 20
220.7852516091631
 30
0.0000000000000004
 10
239.5395050467184
 20
219.4978632683938
 30
0.0000000000000004
 10
239.4804319542572
 20
216.6351045205401
 30
0.0000000000000004
 10
239.450384240426
 20
215.0562691384521
 30
0.0000000000000004
 10
239.3886307394387
 20
211.6333623618832
 30
0.0000000000000004
 10
239.3599918580724
 20
209.8508131178789
 30
0.0000000000000004
 10
239.2996132779354
 20
206.1466801268543
 30
0.0000000000000004
 10
239.268173434936
 20
204.2358114419888
 30
0.0000000000000004
 10
239.209207492731
 20
200.487241437121
 30
0.0000000000000004
 10
239.178801333672
 20
198.5989664544751
 30
0.0000000000000004
 10
239.1176267236143
 20
195.0299119073875
 30
0.0000000000000004
 10
239.088528916005
 20
193.3205844493447
 30
0.0000000000000004
 10
239.02805817525
 20
190.1462943436272
 30
0.0000000000000004
 10
238.9970869962468
 20
188.7193974424265
 30
0.0000000000000004
 10
238.9376172897047
 20
186.1833315908924
 30
0.0000000000000004
 10
238.9076865994199
 20
185.096955566588
 30
0.0000000000000004
 10
238.8465606181742
 20
183.3692435861748
 30
0.0000000000000005
 10
238.8168311258134
 20
182.7111768042189
 30
-0.0000000000000004
 10
238.7570864791214
 20
181.8906490732417
 30
0.0
 10
238.7255958249215
 20
181.715106550465
 30
0.0
 10
238.6659301510426
 20
181.8561919076558
 30
0.0
 10
238.6367099462371
 20
182.1655133552367
 30
-0.0000000000000004
 10
238.5751038246605
 20
183.2638764668548
 30
0.0000000000000005
 10
238.5455430228146
 20
184.0451329797866
 30
0.0000000000000005
 10
238.4859532730878
 20
186.0152323234278
 30
0.0000000000000005
 10
238.4541737212963
 20
187.2256716331869
 30
0.0000000000000005
 10
238.3947037272148
 20
189.9439103195254
 30
0.0000000000000005
 10
238.365132363451
 20
191.4854447312542
 30
0.0000000000000005
 10
238.3038077988049
 20
194.7916625843155
 30
0.0000000000000005
 10
238.2743563054166
 20
196.5381513912504
 30
0.0000000000000005
 10
238.2143345639844
 20
200.2211692553823
 30
0.0000000000000005
 10
238.1831754360842
 20
202.0988078288734
 30
0.0000000000000005
 10
238.1232650710512
 20
205.8635778218955
 30
0.0000000000000005
 10
238.0937516014514
 20
207.76739292202
 30
0.0000000000000005
 10
238.0328744546933
 20
211.3897469889244
 30
0.0000000000000005
 10
238.0025217346879
 20
213.1600423865174
 30
0.0000000000000005
 10
237.9430917489781
 20
216.4231274824201
 30
0.0000000000000005
 10
237.9122853129161
 20
217.9169273698133
 30
0.0000000000000005
 10
237.851302942075
 20
220.6204610916103
 30
0.0000000000000005
 10
237.8226603325608
 20
221.7717810938203
 30
0.0000000000000005
 10
237.7616906908129
 20
223.6846032474652
 30
0.0000000000000005
 10
237.731069680927
 20
224.4368554233229
 30
-0.0000000000000004
 10
237.6719930379529
 20
225.4552546320075
 30
-0.0000000000000004
 10
237.640693917255
 20
225.7351326109003
 30
0.0000000000000001
 10
237.5800893165345
 20
225.7991990230989
 30
0.0000000000000001
 10
237.5513909881336
 20
225.5909668375811
 30
0.0000000000000001
 10
237.4901025109284
 20
224.6874336091006
 30
-0.0000000000000004
 10
237.4598781228433
 20
224.0094282120999
 30
0.0000000000000005
 10
237.4005655012405
 20
222.2091891027773
 30
0.0000000000000005
 10
237.3696203192425
 20
221.0876145069394
 30
0.0000000000000005
 10
237.3088864362041
 20
218.5148775693487
 30
0.0000000000000005
 10
237.2796734124883
 20
217.0279951679238
 30
0.0000000000000005
 10
237.2191776841619
 20
213.8388606543528
 30
0.0000000000000006
 10
237.1883722305126
 20
212.1128183056825
 30
0.0000000000000006
 10
237.1288857877119
 20
208.4936898192412
 30
0.0000000000000006
 10
237.0987315630646
 20
206.6439088945116
 30
0.0000000000000006
 10
237.037371057768
 20
202.8643457705981
 30
0.0000000000000006
 10
237.0084029786005
 20
200.9645934225537
 30
0.0000000000000006
 10
236.9481430465232
 20
197.2905480060973
 30
0.0000000000000006
 10
236.9167303802242
 20
195.4767915057225
 30
0.0000000000000006
 10
236.8577475411237
 20
192.1265131091929
 30
0.0000000000000006
 10
236.8273327844059
 20
190.5498106828154
 30
0.0000000000000006
 10
236.7658717191225
 20
187.7257241748842
 30
0.0000000000000006
 10
236.7372624055621
 20
186.4944420784947
 30
0.0000000000000006
 10
236.6766716135402
 20
184.3963106299429
 30
0.0000000000000006
 10
236.6455187811906
 20
183.5591720389314
 30
0.0000000000000006
 10
236.5864312399642
 20
182.3432647844847
 30
-0.0000000000000003
 10
236.5559878025792
 20
181.9607740027292
 30
0.0000000000000001
 10
236.4948694478945
 20
181.6923841755725
 30
0.0
 10
236.4655170827789
 20
181.8007007007372
 30
0.0000000000000002
 10
236.405386187495
 20
182.4986738851176
 30
-0.0000000000000003
 10
236.3744312567668
 20
183.0779332615139
 30
-0.0000000000000003
 10
236.3146231014291
 20
184.7067472607435
 30
0.0000000000000006
 10
236.2849790169665
 20
185.7297360508136
 30
0.0000000000000006
 10
236.2236830061638
 20
188.1556707940875
 30
0.0000000000000006
 10
236.1940174853374
 20
189.5724052273525
 30
0.0000000000000006
 10
236.1343910993976
 20
192.6435065658863
 30
0.0000000000000006
 10
236.1027196365321
 20
194.3415754131493
 30
0.0000000000000006
 10
236.04326441194
 20
197.8745539522747
 30
0.0000000000000006
 10
236.0139481840632
 20
199.7073885675486
 30
0.0000000000000006
 10
235.9520111985466
 20
203.4959991593888
 30
0.0000000000000006
 10
235.9228031446771
 20
205.3740188664187
 30
0.0000000000000006
 10
235.8631107882424
 20
209.0983210361941
 30
0.0000000000000006
 10
235.831478451042
 20
210.9370787669745
 30
0.0000000000000006
 10
235.772001232375
 20
214.3729361658326
 30
0.0000000000000006
 10
235.7422392444068
 20
216.0179168091216
 30
0.0000000000000006
 10
235.6810701564894
 20
218.9605184932167
 30
0.0000000000000006
 10
235.6513862043894
 20
220.2781137765215
 30
0.0000000000000006
 10
235.5914491299259
 20
222.546611043037
 30
0.0000000000000007
 10
235.5605344522365
 20
223.4654890075592
 30
0.0000000000000007
 10
235.5004053058323
 20
224.8790326685796
 30
-0.0000000000000002
 10
235.4710248032323
 20
225.3595995838696
 30
-0.0000000000000002
 10
235.4100780889734
 20
225.8319572504982
 30
0.0
 10
235.3796176465822
 20
225.8268746881431
 30
0.0
 10
235.3204008808168
 20
225.3335642542313
 30
-0.0000000000000002
 10
235.2892684256009
 20
224.8459088839778
 30
-0.0000000000000002
 10
235.2286264448499
 20
223.409747814443
 30
0.0000000000000007
 10
235.1999760260204
 20
222.4810691718617
 30
0.0000000000000007
 10
235.1387074040989
 20
220.2034588148654
 30
0.0000000000000007
 10
235.1082984080775
 20
218.8705087635796
 30
0.0000000000000007
 10
235.0492148864518
 20
215.9187634454002
 30
0.0000000000000007
 10
235.0179192564018
 20
214.2668097934724
 30
0.0000000000000007
 10
234.9574359057459
 20
210.820888655788
 30
0.0000000000000007
 10
234.9283894641127
 20
208.9867057094692
 30
0.0000000000000007
 10
234.8673583546035
 20
205.2506748483542
 30
0.0000000000000007
 10
234.8371208173328
 20
203.3733478448595
 30
0.0000000000000007
 10
234.7775745064622
 20
199.599858323687
 30
0.0000000000000007
 10
234.7469572025262
 20
197.7555172658284
 30
0.0000000000000007
 10
234.6861329848305
 20
194.2355428621811
 30
0.0000000000000007
 10
234.656899293644
 20
192.538555398185
 30
0.0000000000000007
 10
234.5964355799611
 20
189.4790208517049
 30
0.0000000000000007
 10
234.5653539506578
 20
188.0732974614925
 30
0.0000000000000007
 10
234.5061722014391
 20
185.6584142535471
 30
0.0000000000000007
 10
234.4760553966049
 20
184.6492990814239
 30
0.0000000000000007
 10
234.4143862585132
 20
183.037400257537
 30
-0.0000000000000002
 10
234.3857283088252
 20
182.4661289948706
 30
-0.0000000000000002
 10
234.3252788406044
 20
181.7896853246823
 30
-0.0000000000000002
 10
234.2939080057233
 20
181.6910883428528
 30
0.0
 10
234.2350037123805
 20
181.9800970588045
 30
-0.0000000000000002
 10
234.2044380994925
 20
182.3717925208347
 30
-0.0000000000000002
 10
234.1432361223685
 20
183.6090474649187
 30
0.0000000000000007
 10
234.1144905226033
 20
184.4488705467479
 30
0.0000000000000007
 10
234.0536363683061
 20
186.5707779689744
 30
0.0000000000000007
 10
234.0227689172133
 20
187.8111810601817
 30
0.0000000000000007
 10
233.9635369815643
 20
190.6420294590405
 30
0.0000000000000008
 10
233.9332669769043
 20
192.2311721324546
 30
0.0000000000000008
 10
233.8721886142139
 20
195.5887339523624
 30
0.0000000000000008
 10
233.8426672021756
 20
197.4044377357932
 30
0.0000000000000008
 10
233.782671291401
 20
201.0870832476656
 30
0.0000000000000008
 10
233.7514173152136
 20
202.9762092082358
 30
0.0000000000000008
 10
233.6917377555743
 20
206.7661301257269
 30
0.0000000000000008
 10
233.6623044685768
 20
208.6140883297336
 30
0.0000000000000008
 10
233.6008303039161
 20
212.2170681036999
 30
0.0000000000000008
 10
233.5713240757956
 20
213.9483717285401
 30
0.0000000000000008
 10
233.511615643713
 20
217.1233961620478
 30
0.0000000000000008
 10
233.4798251485999
 20
218.6041605812718
 30
0.0000000000000008
 10
233.4205297631677
 20
221.1638254099836
 30
0.0000000000000008
 10
233.3909005249103
 20
222.2718968189408
 30
0.0000000000000008
 10
233.3293547369548
 20
224.0588836374443
 30
0.0000000000000008
 10
233.3001456046335
 20
224.726056156472
 30
-0.0000000000000001
 10
233.2401479840104
 20
225.6072152021179
 30
-0.0000000000000001
 10
233.2087192185719
 20
225.8070766761723
 30
-0.0000000000000001
 10
233.1491743575653
 20
225.7224904251401
 30
-0.0000000000000001
 10
233.1194484091462
 20
225.4328880223166
 30
-0.0000000000000001
 10
233.058250575235
 20
224.3900700228729
 30
-0.0000000000000001
 10
233.0281145030385
 20
223.6256987322089
 30
0.0000000000000008
 10
232.9685076866978
 20
221.6916431903889
 30
0.0000000000000008
 10
232.9369315865676
 20
220.5059035229833
 30
0.0000000000000008
 10
232.8769087358847
 20
217.8085516521406
 30
0.0000000000000008
 10
232.8480849467837
 20
216.3098160234171
 30
0.0000000000000008
 10
232.7864393642474
 20
213.0053955553169
 30
0.0000000000000008
 10
232.7566083097539
 20
211.2590007891409
 30
0.0000000000000008
 10
232.6972332750711
 20
207.6194132810498
 30
0.0000000000000008
 10
232.6657439785038
 20
205.7149811450432
 30
0.0000000000000008
 10
232.6056407106162
 20
201.9595206573589
 30
0.0000000000000008
 10
232.5763396196091
 20
200.054566862177
 30
0.0000000000000008
 10
232.5153851163589
 20
196.4077872155106
 30
0.0000000000000008
 10
232.4853419429632
 20
194.6599478677274
 30
0.0000000000000008
 10
232.4254721482177
 20
191.3414698131583
 30
0.0000000000000008
 10
232.3948604869596
 20
189.8358194150391
 30
0.0000000000000008
 10
232.334144249736
 20
187.1236502405076
 30
0.0000000000000008
 10
232.3050167613823
 20
185.9288072592929
 30
0.0000000000000009
 10
232.2444244871695
 20
183.9822720745673
 30
0.0000000000000009
 10
232.2134931080642
 20
183.204642929267
 30
0.0000000000000009
 10
232.1543723925517
 20
182.1384919263215
 30
0.0
 10
232.123725224748
 20
181.8372604331376
 30
0.0
 10
232.0623769076605
 20
181.7232835391987
 30
0.0
 10
232.0339073369587
 20
181.9087893005502
 30
0.0
 10
231.9731262655761
 20
182.758362482181
 30
0.0
 10
231.9421524759969
 20
183.4247277545252
 30
0.0000000000000009
 10
231.8831798031346
 20
185.1737377083179
 30
0.0000000000000009
 10
231.8522603280501
 20
186.2809385125707
 30
0.0000000000000009
 10
231.7912940048226
 20
188.8212373370322
 30
0.0000000000000009
 10
231.7623834898138
 20
190.2754239313758
 30
0.0000000000000009
 10
231.7016577868884
 20
193.460105647037
 30
0.0000000000000009
 10
231.6710089899511
 20
195.1563559549496
 30
0.0000000000000009
 10
231.611582943043
 20
198.7566696796969
 30
0.0000000000000009
 10
231.5812298660426
 20
200.6275686581535
 30
0.0000000000000009
 10
231.5201293638677
 20
204.3811224395714
 30
0.0000000000000009
 10
231.4907724658918
 20
206.3009778262029
 30
0.0000000000000009
 10
231.4307159691793
 20
209.9834070845922
 30
0.0000000000000009
 10
231.3993712413198
 20
211.7922124483836
 30
0.0000000000000009
 10
231.3400201095926
 20
215.1826665522197
 30
0.0000000000000009
 10
231.3103044295489
 20
216.7480302016232
 30
0.0000000000000009
 10
231.2485533202887
 20
219.6156389824295
 30
-0.0000000000000009
 10
231.2195309654037
 20
220.874558850006
 30
-0.0000000000000009
 10
231.1595819916677
 20
222.9974493918855
 30
-0.0000000000000009
 10
231.1279147693036
 20
223.8689155681709
 30
-0.0000000000000009
 10
231.0688284848713
 20
225.1275775743557
 30
0.0
 10
231.0388336509731
 20
225.5335807083434
 30
0.0
 10
230.946122548554
 20
226.0113367276321
 30
0.0
 10
230.8862480321598
 20
225.3421175767518
 30
0.0000000000000001
 10
230.8261896926331
 20
223.745834996896
 30
-0.0000000000000008
  0
SPLINE
  5
10F
330
1F
100
AcDbEntity
  8
1
  6
CONTINUOUS
 62
   252
100
AcDbSpline
210
0.0
220
0.0
230
1.0
 70
     8
 71
     3
 72
   516
 73
   512
 74
     0
 42
0.000000001
 43
0.0000000001
 40
0.0
 40
0.0
 40
0.0
 40
0.0
 40
0.0078125
 40
0.0078125
 40
0.01171875
 40
0.01171875
 40
0.015625
 40
0.015625
 40
0.01953125
 40
0.01953125
 40
0.0234375
 40
0.0234375
 40
0.02734375
 40
0.02734375
 40
0.03125
 40
0.03125
 40
0.03515625
 40
0.03515625
 40
0.0390625
 40
0.0390625
 40
0.04296875
 40
0.04296875
 40
0.046875
 40
0.046875
 40
0.05078125
 40
0.05078125
 40
0.0546875
 40
0.0546875
 40
0.05859375
 40
0.05859375
 40
0.0625
 40
0.0625
 40
0.06640625
 40
0.06640625
 40
0.0703125
 40
0.0703125
 40
0.07421875
 40
0.07421875
 40
0.078125
 40
0.078125
 40
0.08203125
 40
0.08203125
 40
0.0859375
 40
0.0859375
 40
0.08984375
 40
0.08984375
 40
0.09375
 40
0.09375
 40
0.09765625
 40
0.09765625
 40
0.1015625
 40
0.1015625
 40
0.10546875
 40
0.10546875
 40
0.109375
 40
0.109375
 40
0.11328125
 40
0.11328125
 40
0.1171875
 40
0.1171875
 40
0.12109375
 40
0.12109375
 40
0.125
 40
0.125
 40
0.12890625
 40
0.12890625
 40
0.1328125
 40
0.1328125
 40
0.13671875
 40
0.13671875
 40
0.140625
 40
0.140625
 40
0.14453125
 40
0.14453125
 40
0.1484375
 40
0.1484375
 40
0.15234375
 40
0.15234375
 40
0.15625
 40
0.15625
 40
0.16015625
 40
0.16015625
 40
0.1640625
 40
0.1640625
 40
0.16796875
 40
0.16796875
 40
0.171875
 40
0.171875
 40
0.17578125
 40
0.17578125
 40
0.1796875
 40
0.1796875
 40
0.18359375
 40
0.18359375
 40
0.1875
 40
0.1875
 40
0.19140625
 40
0.19140625
 40
0.1953125
 40
0.1953125
 40
0.19921875
 40
0.19921875
 40
0.203125
 40
0.203125
 40
0.20703125
 40
0.20703125
 40
0.2109375
 40
0.2109375
 40
0.21484375
 40
0.21484375
 40
0.21875
 40
0.21875
 40
0.22265625
 40
0.22265625
 40
0.2265625
 40
0.2265625
 40
0.23046875
 40
0.23046875
 40
0.234375
 40
0.234375
 40
0.23828125
 40
0.23828125
 40
0.2421875
 40
0.2421875
 40
0.24609375
 40
0.24609375
 40
0.2500000000000001
 40
0.2500000000000001
 40
0.2539062500000001
 40
0.2539062500000001
 40
0.2578125000000001
 40
0.2578125000000001
 40
0.2617187500000001
 40
0.2617187500000001
 40
0.2656250000000001
 40
0.2656250000000001
 40
0.2695312500000001
 40
0.2695312500000001
 40
0.2734375000000001
 40
0.2734375000000001
 40
0.2773437500000001
 40
0.2773437500000001
 40
0.2812500000000001
 40
0.2812500000000001
 40
0.2851562500000001
 40
0.2851562500000001
 40
0.2890625000000001
 40
0.2890625000000001
 40
0.2929687500000001
 40
0.2929687500000001
 40
0.2968750000000001
 40
0.2968750000000001
 40
0.3007812500000001
 40
0.3007812500000001
 40
0.3046875000000001
 40
0.3046875000000001
 40
0.3085937500000001
 40
0.3085937500000001
 40
0.3125000000000001
 40
0.3125000000000001
 40
0.3164062500000001
 40
0.3164062500000001
 40
0.3203125000000001
 40
0.3203125000000001
 40
0.3242187500000001
 40
0.3242187500000001
 40
0.3281250000000001
 40
0.3281250000000001
 40
0.3320312500000001
 40
0.3320312500000001
 40
0.3359375000000001
 40
0.3359375000000001
 40
0.3398437500000001
 40
0.3398437500000001
 40
0.3437500000000001
 40
0.3437500000000001
 40
0.3476562500000001
 40
0.3476562500000001
 40
0.3515625000000001
 40
0.3515625000000001
 40
0.3554687500000001
 40
0.3554687500000001
 40
0.3593750000000001
 40
0.3593750000000001
 40
0.3632812500000001
 40
0.3632812500000001
 40
0.3671875000000001
 40
0.3671875000000001
 40
0.3710937500000001
 40
0.3710937500000001
 40
0.375
 40
0.375
 40
0.37890625
 40
0.37890625
 40
0.3828125
 40
0.3828125
 40
0.38671875
 40
0.38671875
 40
0.390625
 40
0.390625
 40
0.39453125
 40
0.39453125
 40
0.3984375
 40
0.3984375
 40
0.40234375
 40
0.40234375
 40
0.40625
 40
0.40625
 40
0.41015625
 40
0.41015625
 40
0.4140625
 40
0.4140625
 40
0.41796875
 40
0.41796875
 40
0.421875
 40
0.421875
 40
0.42578125
 40
0.42578125
 40
0.4296875
 40
0.4296875
 40
0.43359375
 40
0.43359375
 40
0.4375
 40
0.4375
 40
0.44140625
 40
0.44140625
 40
0.4453125
 40
0.4453125
 40
0.44921875
 40
0.44921875
 40
0.453125
 40
0.453125
 40
0.45703125
 40
0.45703125
 40
0.4609375
 40
0.4609375
 40
0.46484375
 40
0.46484375
 40
0.46875
 40
0.46875
 40
0.47265625
 40
0.47265625
 40
0.4765625
 40
0.4765625
 40
0.48046875
 40
0.48046875
 40
0.484375
 40
0.484375
 40
0.48828125
 40
0.48828125
 40
0.4921875
 40
0.4921875
 40
0.49609375
 40
0.49609375
 40
0.5
 40
0.5
 40
0.50390625
 40
0.50390625
 40
0.5078125
 40
0.5078125
 40
0.51171875
 40
0.51171875
 40
0.515625
 40
0.515625
 40
0.51953125
 40
0.51953125
 40
0.5234375
 40
0.5234375
 40
0.52734375
 40
0.52734375
 40
0.53125
 40
0.53125
 40
0.53515625
 40
0.53515625
 40
0.5390625
 40
0.5390625
 40
0.54296875
 40
0.54296875
 40
0.546875
 40
0.546875
 40
0.55078125
 40
0.55078125
 40
0.5546875
 40
0.5546875
 40
0.55859375
 40
0.55859375
 40
0.5625
 40
0.5625
 40
0.56640625
 40
0.56640625
 40
0.5703125
 40
0.5703125
 40
0.57421875
 40
0.57421875
 40
0.578125
 40
0.578125
 40
0.58203125
 40
0.58203125
 40
0.5859375
 40
0.5859375
 40
0.58984375
 40
0.58984375
 40
0.59375
 40
0.59375
 40
0.59765625
 40
0.59765625
 40
0.6015625
 40
0.6015625
 40
0.60546875
 40
0.60546875
 40
0.609375
 40
0.609375
 40
0.61328125
 40
0.61328125
 40
0.6171875
 40
0.6171875
 40
0.62109375
 40
0.62109375
 40
0.625
 40
0.625
 40
0.62890625
 40
0.62890625
 40
0.6328125
 40
0.6328125
 40
0.63671875
 40
0.63671875
 40
0.640625
 40
0.640625
 40
0.64453125
 40
0.64453125
 40
0.6484375
 40
0.6484375
 40
0.65234375
 40
0.65234375
 40
0.65625
 40
0.65625
 40
0.66015625
 40
0.66015625
 40
0.6640625
 40
0.6640625
 40
0.66796875
 40
0.66796875
 40
0.671875
 40
0.671875
 40
0.67578125
 40
0.67578125
 40
0.6796875
 40
0.6796875
 40
0.68359375
 40
0.68359375
 40
0.6875
 40
0.6875
 40
0.69140625
 40
0.69140625
 40
0.6953125
 40
0.6953125
 40
0.69921875
 40
0.69921875
 40
0.703125
 40
0.703125
 40
0.70703125
 40
0.70703125
 40
0.7109375
 40
0.7109375
 40
0.71484375
 40
0.71484375
 40
0.71875
 40
0.71875
 40
0.72265625
 40
0.72265625
 40
0.7265625
 40
0.7265625
 40
0.73046875
 40
0.73046875
 40
0.734375
 40
0.734375
 40
0.73828125
 40
0.73828125
 40
0.7421875
 40
0.7421875
 40
0.74609375
 40
0.74609375
 40
0.7499999999999999
 40
0.7499999999999999
 40
0.7539062499999999
 40
0.7539062499999999
 40
0.7578124999999999
 40
0.7578124999999999
 40
0.7617187499999999
 40
0.7617187499999999
 40
0.7656249999999999
 40
0.7656249999999999
 40
0.7695312499999999
 40
0.7695312499999999
 40
0.7734374999999999
 40
0.7734374999999999
 40
0.7773437499999999
 40
0.7773437499999999
 40
0.7812499999999999
 40
0.7812499999999999
 40
0.7851562499999999
 40
0.7851562499999999
 40
0.7890624999999999
 40
0.7890624999999999
 40
0.7929687499999999
 40
0.7929687499999999
 40
0.7968749999999999
 40
0.7968749999999999
 40
0.8007812499999999
 40
0.8007812499999999
 40
0.8046874999999999
 40
0.8046874999999999
 40
0.8085937499999999
 40
0.8085937499999999
 40
0.8124999999999999
 40
0.8124999999999999
 40
0.8164062499999999
 40
0.8164062499999999
 40
0.8203124999999999
 40
0.8203124999999999
 40
0.8242187499999999
 40
0.8242187499999999
 40
0.8281249999999999
 40
0.8281249999999999
 40
0.8320312499999999
 40
0.8320312499999999
 40
0.8359374999999999
 40
0.8359374999999999
 40
0.8398437499999999
 40
0.8398437499999999
 40
0.8437499999999999
 40
0.8437499999999999
 40
0.8476562499999999
 40
0.8476562499999999
 40
0.8515624999999999
 40
0.8515624999999999
 40
0.8554687499999999
 40
0.8554687499999999
 40
0.8593749999999999
 40
0.8593749999999999
 40
0.8632812499999999
 40
0.8632812499999999
 40
0.8671874999999999
 40
0.8671874999999999
 40
0.8710937499999999
 40
0.8710937499999999
 40
0.8749999999999999
 40
0.8749999999999999
 40
0.8789062499999999
 40
0.8789062499999999
 40
0.8828124999999999
 40
0.8828124999999999
 40
0.8867187499999999
 40
0.8867187499999999
 40
0.8906249999999999
 40
0.8906249999999999
 40
0.8945312499999999
 40
0.8945312499999999
 40
0.8984374999999999
 40
0.8984374999999999
 40
0.9023437499999999
 40
0.9023437499999999
 40
0.9062499999999999
 40
0.9062499999999999
 40
0.9101562499999999
 40
0.9101562499999999
 40
0.9140624999999999
 40
0.9140624999999999
 40
0.9179687499999999
 40
0.9179687499999999
 40
0.9218749999999999
 40
0.9218749999999999
 40
0.9257812499999999
 40
0.9257812499999999
 40
0.9296874999999999
 40
0.9296874999999999
 40
0.9335937499999999
 40
0.9335937499999999
 40
0.9374999999999999
 40
0.9374999999999999
 40
0.9414062499999999
 40
0.9414062499999999
 40
0.9453124999999999
 40
0.9453124999999999
 40
0.9492187499999999
 40
0.9492187499999999
 40
0.9531249999999999
 40
0.9531249999999999
 40
0.9570312499999999
 40
0.9570312499999999
 40
0.9609374999999999
 40
0.9609374999999999
 40
0.9648437499999999
 40
0.9648437499999999
 40
0.9687499999999999
 40
0.9687499999999999
 40
0.9726562499999999
 40
0.9726562499999999
 40
0.9765624999999999
 40
0.9765624999999999
 40
0.9804687499999999
 40
0.9804687499999999
 40
0.9843749999999999
 40
0.9843749999999999
 40
0.9882812499999999
 40
0.9882812499999999
 40
0.9921874999999999
 40
0.9921874999999999
 40
0.9960937499999999
 40
0.9960937499999999
 40
1.0
 40
1.0
 40
1.0
 40
1.0
 10
254.6519039772672
 20
183.9109291580929
 30
-0.0000000000000005
 10
254.589970984602
 20
186.0347632756432
 30
-0.0000000000000005
 10
254.528416899259
 20
189.0783458716576
 30
-0.0000000000000005
 10
254.4333311548799
 20
194.4833035740851
 30
-0.0000000000000005
 10
254.4032431557196
 20
196.3819576808339
 30
-0.0000000000000005
 10
254.3415212231715
 20
200.3731720371864
 30
-0.0000000000000005
 10
254.3091277711317
 20
202.422134237959
 30
-0.0000000000000005
 10
254.2480010704115
 20
206.4958358826176
 30
-0.0000000000000005
 10
254.2172943261982
 20
208.5527744863207
 30
-0.0000000000000005
 10
254.1544091314368
 20
212.4459720273574
 30
-0.0000000000000005
 10
254.1238054411227
 20
214.3384091145184
 30
-0.0000000000000005
 10
254.0622606806303
 20
217.7985811156175
 30
-0.0000000000000005
 10
254.0301245824041
 20
219.3731304448601
 30
-0.0000000000000005
 10
253.9684851896499
 20
222.1710582668519
 30
-0.0000000000000005
 10
253.9383719840462
 20
223.3425050601209
 30
-0.0000000000000005
 10
253.8751130797352
 20
225.239791559672
 30
-0.0000000000000005
 10
253.8447658965651
 20
225.9485718371557
 30
0.0000000000000004
 10
253.7832876110771
 20
226.8263310644229
 30
0.0
 10
253.7505357887923
 20
227.0030848707757
 30
0.0
 10
253.6897406912303
 20
226.8088991179952
 30
0.0
 10
253.6589373173063
 20
226.4395511645825
 30
0.0000000000000004
 10
253.5956322188421
 20
225.1807263853349
 30
-0.0000000000000005
 10
253.5660000141022
 20
224.3067905746788
 30
-0.0000000000000005
 10
253.5036953711009
 20
222.0618337701834
 30
-0.0000000000000004
 10
253.4715982688838
 20
220.7271788884555
 30
-0.0000000000000004
 10
253.4107408022018
 20
217.6841612102676
 30
-0.0000000000000004
 10
253.379611737423
 20
215.9629704394417
 30
-0.0000000000000004
 10
253.316714174193
 20
212.3254038471859
 30
-0.0000000000000004
 10
253.286457734318
 20
210.3557423684746
 30
-0.0000000000000004
 10
253.2246033862465
 20
206.3595530511682
 30
-0.0000000000000004
 10
253.1924523960035
 20
204.3079745165688
 30
-0.0000000000000004
 10
253.1312773432923
 20
200.2094998089146
 30
-0.0000000000000004
 10
253.1006868850603
 20
198.2148872269129
 30
-0.0000000000000004
 10
253.0373221455279
 20
194.3344574621541
 30
-0.0000000000000004
 10
253.0074908376042
 20
192.4889050997184
 30
-0.0000000000000004
 10
252.9455463610117
 20
189.1132362205396
 30
-0.0000000000000004
 10
252.9130697067902
 20
187.5553919818656
 30
-0.0000000000000004
 10
252.8525011094069
 20
184.8985881720299
 30
-0.0000000000000004
 10
252.8210883995397
 20
183.761066487704
 30
-0.0000000000000004
 10
252.758038176831
 20
181.9970329795502
 30
-0.0000000000000004
 10
252.7286484707082
 20
181.3643048585208
 30
-0.0000000000000004
 10
252.6658106590076
 20
180.6178033598075
 30
0.0
 10
252.6342230191128
 20
180.5186709242571
 30
0.0
 10
252.5733730884613
 20
180.854962843027
 30
0.0000000000000001
 10
252.5418497471948
 20
181.2982553695136
 30
-0.0000000000000004
 10
252.4791216315116
 20
182.6832674733284
 30
-0.0000000000000004
 10
252.4490734630567
 20
183.645837370677
 30
-0.0000000000000004
 10
252.3868792483536
 20
185.9863957920295
 30
-0.0000000000000004
 10
252.3549516088794
 20
187.3862740374637
 30
-0.0000000000000004
 10
252.293986129131
 20
190.5359249161244
 30
-0.0000000000000004
 10
252.2629059303578
 20
192.257311809931
 30
-0.0000000000000004
 10
252.1996347778754
 20
195.9967736400437
 30
-0.0000000000000004
 10
252.1701557585112
 20
197.9580526327127
 30
-0.0000000000000004
 10
252.1077264705631
 20
201.9824315758951
 30
-0.0000000000000004
 10
252.0757350289936
 20
204.0630480274372
 30
-0.0000000000000004
 10
252.015160537751
 20
208.1110226105209
 30
-0.0000000000000004
 10
251.9831835688089
 20
210.137605297282
 30
-0.0000000000000004
 10
251.9205989260001
 20
213.9470510254288
 30
-0.0000000000000003
 10
251.8910751887889
 20
215.7523051745001
 30
-0.0000000000000003
 10
251.8280446617525
 20
219.073941360824
 30
-0.0000000000000003
 10
251.7969470872482
 20
220.5451631395649
 30
-0.0000000000000003
 10
251.7358822734766
 20
223.111698781228
 30
-0.0000000000000003
 10
251.7040183001855
 20
224.1796675001508
 30
-0.0000000000000003
 10
251.6416839242052
 20
225.8103937084597
 30
-0.0000000000000003
 10
251.6116298487556
 20
226.385263809308
 30
-0.0000000000000003
 10
251.5491103683403
 20
226.9807693336874
 30
-0.0000000000000001
 10
251.5175653860938
 20
227.0118317342804
 30
0.0
 10
251.4566011347393
 20
226.530402350848
 30
-0.0000000000000003
 10
251.4250400515127
 20
226.0288204418542
 30
-0.0000000000000003
 10
251.3621081024514
 20
224.4887365762173
 30
-0.0000000000000003
 10
251.3327397511143
 20
223.484279017188
 30
-0.0000000000000003
 10
251.2698517396795
 20
221.0211052801656
 30
-0.0000000000000003
 10
251.2384798840037
 20
219.5612753232662
 30
-0.0000000000000003
 10
251.177709392425
 20
216.3439156660269
 30
-0.0000000000000003
 10
251.1452382454624
 20
214.5410541238179
 30
-0.0000000000000003
 10
251.0833697503962
 20
210.7796676379548
 30
-0.0000000000000003
 10
251.0534469992443
 20
208.7856527723627
 30
-0.0000000000000003
 10
250.9902698396442
 20
204.7208428431133
 30
-0.0000000000000003
 10
250.9597209012283
 20
202.6865788502002
 30
-0.0000000000000003
 10
250.8982593580764
 20
198.6143410014903
 30
-0.0000000000000003
 10
250.8661450573721
 20
196.6341093850716
 30
-0.0000000000000003
 10
250.804447706342
 20
192.8775369359574
 30
-0.0000000000000003
 10
250.7741110117773
 20
191.0832046898305
 30
-0.0000000000000003
 10
250.7113253081836
 20
187.8811748506033
 30
-0.0000000000000003
 10
250.6802439503675
 20
186.4263932912633
 30
-0.0000000000000003
 10
250.6191185463059
 20
183.9864654703046
 30
-0.0000000000000003
 10
250.5869755739558
 20
182.9861746529591
 30
-0.0000000000000003
 10
250.5249790068462
 20
181.4740118108069
 30
-0.0000000000000003
 10
250.4952283960941
 20
180.9830768048464
 30
-0.0000000000000003
 10
250.4319529327489
 20
180.5246730645553
 30
0.0
 10
250.4012585189355
 20
180.5681124120858
 30
0.0
 10
250.3401446809854
 20
181.1873904687382
 30
-0.0000000000000003
 10
250.3074047534034
 20
181.7743301784754
 30
-0.0000000000000003
 10
250.2462533956254
 20
183.425467326073
 30
-0.0000000000000002
 10
250.2157525675824
 20
184.5085490199126
 30
-0.0000000000000002
 10
250.1525197006305
 20
187.0882602100023
 30
-0.0000000000000002
 10
250.1225004334055
 20
188.5674441940561
 30
-0.0000000000000002
 10
250.0605022210286
 20
191.9137724277562
 30
-0.0000000000000002
 10
250.0284439372322
 20
193.7132700719011
 30
-0.0000000000000002
 10
249.9672233924448
 20
197.5371932960815
 30
-0.0000000000000002
 10
249.9365078859802
 20
199.5618540465534
 30
-0.0000000000000002
 10
249.8735590569831
 20
203.6126858437173
 30
-0.0000000000000002
 10
249.8429445254744
 20
205.6960807825981
 30
-0.0000000000000002
 10
249.7815411334568
 20
209.7114126608605
 30
-0.0000000000000002
 10
249.7491636144641
 20
211.6799017619982
 30
-0.0000000000000002
 10
249.6878290793186
 20
215.3989472544304
 30
-0.0000000000000002
 10
249.6576137967567
 20
217.1144346418099
 30
-0.0000000000000002
 10
249.5940678692669
 20
220.2562652324289
 30
-0.0000000000000002
 10
249.5640313715035
 20
221.6400103786352
 30
-0.0000000000000002
 10
249.502470102118
 20
223.9635801526498
 30
-0.0000000000000002
 10
249.4698065521505
 20
224.9141111725975
 30
-0.0000000000000002
 10
249.4090670937608
 20
226.2764366662426
 30
-0.0000000000000002
 10
249.3779878046387
 20
226.7087856075328
 30
-0.0000000000000002
 10
249.3148337263708
 20
227.0205709776601
 30
0.0
 10
249.2851015195097
 20
226.908740559295
 30
-0.0000000000000002
 10
249.2227883246111
 20
226.1389377724949
 30
-0.0000000000000002
 10
249.1909421326612
 20
225.4969760009467
 30
-0.0000000000000002
 10
249.1299046230702
 20
223.707704590494
 30
-0.0000000000000002
 10
249.0988181392582
 20
222.5637085921321
 30
-0.0000000000000002
 10
249.035852993588
 20
219.8876183270582
 30
-0.0000000000000002
 10
249.0056312758421
 20
218.3208071216609
 30
-0.0000000000000002
 10
248.9438782383268
 20
214.9348466324487
 30
-0.0000000000000002
 10
248.9115672339077
 20
213.0756382042559
 30
-0.0000000000000002
 10
248.8506064057572
 20
209.1963100229971
 30
-0.0000000000000002
 10
248.8198946165214
 20
207.1990572303484
 30
-0.0000000000000002
 10
248.7562415147227
 20
203.0870623805666
 30
-0.0000000000000002
 10
248.7267651346303
 20
201.048935369875
 30
-0.0000000000000002
 10
248.6646961519068
 20
197.0516979804499
 30
-0.0000000000000001
 10
248.6323819472784
 20
195.0902523157761
 30
-0.0000000000000001
 10
248.5717888716471
 20
191.4631110350219
 30
-0.0000000000000001
 10
248.540155655685
 20
189.7458502637056
 30
-0.0000000000000001
 10
248.4772572237029
 20
186.7229458011716
 30
-0.0000000000000001
 10
248.4476205512129
 20
185.3899645130652
 30
-0.0000000000000001
 10
248.3850755507856
 20
183.1720255567748
 30
-0.0000000000000001
 10
248.3535806011465
 20
182.3079693504772
 30
-0.0000000000000001
 10
248.2924700143522
 20
181.0693302168893
 30
-0.0000000000000001
 10
248.2610461002308
 20
180.7140161404257
 30
-0.0000000000000001
 10
248.1982548423642
 20
180.5433324493551
 30
0.0000000000000001
 10
248.1682752454574
 20
180.7324103700909
 30
-0.0000000000000001
 10
248.1061457685494
 20
181.6327969414236
 30
-0.0000000000000001
 10
248.074125045273
 20
182.3556302740627
 30
-0.0000000000000001
 10
248.0132949785075
 20
184.2706182392128
 30
-0.0000000000000001
 10
247.9819786517843
 20
185.4559739139302
 30
-0.0000000000000001
 10
247.918634586006
 20
188.2724592460621
 30
-0.0000000000000001
 10
247.8894328168159
 20
189.8482331135725
 30
-0.0000000000000001
 10
247.8268402366192
 20
193.327599106348
 30
-0.0000000000000001
 10
247.7950746296056
 20
195.2191109912185
 30
-0.0000000000000001
 10
247.7344035067379
 20
199.1208723174873
 30
-0.0000000000000001
 10
247.7022659020956
 20
201.1812400864166
 30
-0.0000000000000001
 10
247.6398411659625
 20
205.2516249780583
 30
-0.0000000000000001
 10
247.6100970465656
 20
207.3089464527165
 30
-0.0000000000000001
 10
247.5473246215213
 20
211.284809070176
 30
-0.0000000000000001
 10
247.5163053494286
 20
213.1799229866156
 30
-0.0000000000000001
 10
247.4549047055985
 20
216.7815461929173
 30
-0.0000000000000001
 10
247.4232026901954
 20
218.4254258756208
 30
-0.0000000000000001
 10
247.3608186177963
 20
221.3559174000712
 30
-0.0000000000000001
 10
247.3308542978106
 20
222.6448788774465
 30
-0.0000000000000001
 10
247.2683661926947
 20
224.7227132192613
 30
-0.0000000000000001
 10
247.236782462115
 20
225.5412959238948
 30
-0.0000000000000001
 10
247.1758853547513
 20
226.6327321604262
 30
-0.0000000000000001
 10
247.1439021984654
 20
226.9188939977707
 30
-0.0000000000000001
 10
247.0813602450981
 20
226.944880604776
 30
-0.0000000000000001
 10
247.0520138007873
 20
226.6892110029621
 30
-0.0000000000000001
 10
246.9889267916407
 20
225.6432326832773
 30
0.0
 10
246.9578341474454
 20
224.8567687936398
 30
0.0
 10
246.8969022985943
 20
222.8229424718065
 30
0.0
 10
246.8643362133381
 20
221.552218960503
 30
0.0
 10
246.8026407578651
 20
218.6682526780273
 30
0.0
 10
246.7725131619207
 20
217.0161016858167
 30
0.0
 10
246.7095631732671
 20
213.4668741539031
 30
0.0
 10
246.6790248926966
 20
211.5791808931058
 30
0.0
 10
246.6172454016456
 20
207.5871085688062
 30
0.0
 10
246.5853309262654
 20
205.5666768919374
 30
0.0
 10
246.5235768327977
 20
201.4782045976824
 30
0.0
 10
246.4933530587768
 20
199.4252911729698
 30
0.0
 10
246.4305685366884
 20
195.5090371481636
 30
0.0
 10
246.3994916849313
 20
193.5946024238719
 30
0.0
 10
246.3383746646915
 20
190.1029810446917
 30
0.0
 10
246.3059048564387
 20
188.4858723620349
 30
0.0
 10
246.2442616251574
 20
185.6478355957946
 30
0.0
 10
246.2144939028269
 20
184.4432113423543
 30
0.0
 10
246.1509874058933
 20
182.4677884861848
 30
0.0
 10
246.1206160141904
 20
181.7305764099119
 30
0.0
 10
246.0592831920742
 20
180.7749772756559
 30
0.0
 10
246.0265540525797
 20
180.5597093818149
 30
0.0
 10
245.9655123487532
 20
180.6758824401088
 30
0.0
 10
245.934858312314
 20
181.009174497541
 30
0.0
 10
245.871825011399
 20
182.1893989130946
 30
0.0
 10
245.8415954421747
 20
183.0355083034464
 30
0.0
 10
245.7796599094717
 20
185.2128139041862
 30
0.0
 10
245.7476534448426
 20
186.5088752136513
 30
0.0
 10
245.6863141669662
 20
189.5120440598907
 30
0.0
 10
245.6557628636673
 20
191.1989430807686
 30
0.0
 10
245.5927883792661
 20
194.804999016238
 30
0.0
 10
245.5622116790116
 20
196.7634269502517
 30
0.0
 10
245.5007666239096
 20
200.7362456479024
 30
0.0
 10
245.4681675552896
 20
202.8037765862079
 30
0.0
 10
245.4071169393454
 20
206.8869184723254
 30
0.0
 10
245.3768654346366
 20
208.8903430385679
 30
0.0000000000000001
 10
245.313060950427
 20
212.8186652866004
 30
0.0000000000000001
 10
245.2833818049029
 20
214.6573236133714
 30
0.0000000000000001
 10
245.2215509073747
 20
218.0861675034145
 30
0.0000000000000001
 10
245.1889973066518
 20
219.6629645969227
 30
0.0000000000000001
 10
245.1283079234258
 20
222.378523514289
 30
0.0000000000000001
 10
245.0971289877616
 20
223.5529088547221
 30
0.0000000000000001
 10
245.0341499934963
 20
225.3815866256608
 30
0.0000000000000001
 10
245.0041700520778
 20
226.0583093051172
 30
0.0000000000000001
 10
244.9419989379851
 20
226.875834528292
 30
0.0000000000000001
 10
244.9101667806057
 20
227.0160361097721
 30
0.0
 10
244.8489497184229
 20
226.755380478287
 30
0.0000000000000001
 10
244.8180817090656
 20
226.3536978716446
 30
0.0000000000000001
 10
244.7550678438636
 20
225.0395114934302
 30
0.0000000000000001
 10
244.7249081472714
 20
224.1130549996018
 30
0.0000000000000001
 10
244.6630715498973
 20
221.8389543432418
 30
0.0000000000000001
 10
244.6306336337168
 20
220.4583742885914
 30
0.0000000000000001
 10
244.5698948399378
 20
217.3711658652122
 30
0.0000000000000001
 10
244.5389378485044
 20
215.6586205232048
 30
0.0000000000000001
 10
244.4754301159713
 20
211.9507622881129
 30
0.0000000000000001
 10
244.4460992456572
 20
210.0166031428031
 30
0.0000000000000001
 10
244.3837170778302
 20
205.9901011484185
 30
0.0000000000000001
 10
244.3516049636367
 20
203.9247493516617
 30
0.0000000000000001
 10
244.2910059928642
 20
199.8660515660346
 30
0.0000000000000001
 10
244.2593285810389
 20
197.8276877420657
 30
0.0000000000000001
 10
244.1965839057883
 20
193.9988854030229
 30
0.0000000000000001
 10
244.1667177949195
 20
192.1577889970079
 30
0.0000000000000001
 10
244.1042783637349
 20
188.8079805478623
 30
0.0000000000000001
 10
244.072812269817
 20
187.3080813096481
 30
0.0000000000000001
 10
244.0114621034892
 20
184.6667289061963
 30
0.0000000000000001
 10
243.9803142096329
 20
183.5794758963991
 30
0.0000000000000001
 10
243.9174555837806
 20
181.8731272066097
 30
0.0000000000000001
 10
243.8875535009991
 20
181.2630418598625
 30
0.0000000000000001
 10
243.825306382312
 20
180.5906135594739
 30
-0.0000000000000001
 10
243.7932433428099
 20
180.5204010489922
 30
0.0
 10
243.7325795979499
 20
180.9232076274446
 30
0.0000000000000002
 10
243.7009488399121
 20
181.3942275364448
 30
0.0000000000000002
 10
243.6379745519749
 20
182.8537159674432
 30
0.0000000000000002
 10
243.6087422989031
 20
183.8213745989767
 30
0.0000000000000002
 10
243.5458003959177
 20
186.2338989662129
 30
0.0000000000000002
 10
243.5143215443613
 20
187.6532070393625
 30
0.0000000000000002
 10
243.4535914768975
 20
190.8278556065428
 30
0.0000000000000002
 10
243.4214672255375
 20
192.6094080632427
 30
0.0000000000000002
 10
243.3591783288743
 20
196.3357274559428
 30
0.0000000000000002
 10
243.3292151392791
 20
198.3341519869344
 30
0.0000000000000002
 10
243.2665204640562
 20
202.3713926428187
 30
0.0000000000000002
 10
243.2353985709697
 20
204.4168306415161
 30
0.0000000000000002
 10
243.1739980361795
 20
208.5063214101511
 30
0.0000000000000002
 10
243.1424715596046
 20
210.4780093212865
 30
0.0000000000000002
 10
243.0800067568171
 20
214.2778827115613
 30
0.0000000000000002
 10
243.0501268308684
 20
216.0808519700376
 30
0.0000000000000002
 10
242.9874947060411
 20
219.3326087164116
 30
0.0000000000000002
 10
242.9559434501625
 20
220.8182043469317
 30
0.0000000000000002
 10
242.895162012323
 20
223.3145256887716
 30
0.0000000000000002
 10
242.8629273697148
 20
224.3586986922574
 30
0.0000000000000002
 10
242.8007359728678
 20
225.9343092201069
 30
0.0000000000000002
 10
242.7712912476494
 20
226.465200249056
 30
0.0000000000000002
 10
242.7078267674554
 20
227.0029651407469
 30
0.0
 10
242.6770972504355
 20
226.9978741591726
 30
0.0
 10
242.6160558518119
 20
226.4540895768884
 30
0.0000000000000002
 10
242.5835693663865
 20
225.906427162284
 30
0.0000000000000002
 10
242.5219824118907
 20
224.3274300839282
 30
0.0000000000000002
 10
242.4916457834304
 20
223.272302426557
 30
0.0000000000000002
 10
242.4287538298744
 20
220.7617446848496
 30
0.0000000000000002
 10
242.3979911409612
 20
219.2921299174857
 30
0.0000000000000002
 10
242.3365097523248
 20
216.0056714929538
 30
0.0000000000000002
 10
242.304617258704
 20
214.2306860895702
 30
0.0000000000000002
 10
242.2427319644409
 20
210.4174755604175
 30
0.0000000000000002
 10
242.2126138800119
 20
208.418621803834
 30
0.0000000000000002
 10
242.1496667756442
 20
204.3696967451076
 30
0.0000000000000002
 10
242.1186872612665
 20
202.2855258288138
 30
0.0000000000000003
 10
242.0576394468012
 20
198.263350894922
 30
0.0000000000000003
 10
242.0250143757239
 20
196.2678277595014
 30
0.0000000000000003
 10
241.9636320300602
 20
192.5331244744192
 30
0.0000000000000003
 10
241.933641190398
 20
190.7896324274644
 30
0.0000000000000003
 10
241.8699306530434
 20
187.587889083584
 30
0.0000000000000003
 10
241.8398880972928
 20
186.1909033616631
 30
0.0000000000000003
 10
241.7783973049445
 20
183.7958603476549
 30
0.0000000000000003
 10
241.7458431962209
 20
182.81610273082
 30
0.0000000000000003
 10
241.6848171340786
 20
181.3799073103484
 30
0.0000000000000003
 10
241.6540004990071
 20
180.9082153393753
 30
0.0000000000000003
 10
241.5910132773043
 20
180.5197748083404
 30
0.0
 10
241.5606171711934
 20
180.5945465708319
 30
0.0000000000000001
 10
241.4989336946472
 20
181.2844041378787
 30
0.0000000000000003
 10
241.4669673559181
 20
181.8871179112951
 30
0.0000000000000003
 10
241.4054039331184
 20
183.6160916694279
 30
0.0000000000000003
 10
241.3750070204443
 20
184.7159626806886
 30
0.0000000000000003
 10
241.311859539224
 20
187.3391853603319
 30
0.0000000000000003
 10
241.2814346311323
 20
188.8761263339649
 30
0.0000000000000003
 10
241.2200158711493
 20
192.2162688646128
 30
0.0000000000000003
 10
241.1873500379974
 20
194.0685103458041
 30
0.0000000000000003
 10
241.1264669207964
 20
197.9088309587997
 30
0.0000000000000003
 10
241.0957904204045
 20
199.918683432755
 30
0.0000000000000003
 10
241.0322269993885
 20
204.0141704517597
 30
0.0000000000000003
 10
241.002656036503
 20
206.0454003969001
 30
0.0000000000000003
 10
240.9406208979373
 20
210.0749034801411
 30
0.0000000000000003
 10
240.9083265889453
 20
212.0336474297368
 30
0.0000000000000003
 10
240.847567563161
 20
215.7001980699977
 30
0.0000000000000003
 10
240.8162769845126
 20
217.4400619271377
 30
0.0000000000000003
 10
240.7533397551606
 20
220.5097129752339
 30
0.0000000000000003
 10
240.7232395280007
 20
221.8834980209455
 30
0.0000000000000003
 10
240.6612794931793
 20
224.1558287872271
 30
0.0000000000000003
 10
240.629458093014
 20
225.0584108261913
 30
0.0000000000000003
 10
240.568001214416
 20
226.3766310911529
 30
0.0000000000000003
 10
240.5373052337007
 20
226.764898133601
 30
-0.0000000000000001
 10
240.4741166592861
 20
227.0138456549831
 30
0.0
 10
240.4441519698691
 20
226.8643601236975
 30
-0.0000000000000001
 10
240.3823019070763
 20
226.039941421656
 30
0.0000000000000004
 10
240.3498719141018
 20
225.3514619903301
 30
0.0000000000000004
 10
240.2892178861539
 20
223.5105467741065
 30
0.0000000000000004
 10
240.2578802724352
 20
222.3425475406688
 30
0.0000000000000004
 10
240.194639985674
 20
219.5987042266314
 30
0.0000000000000004
 10
240.1653690713056
 20
218.0497081347464
 30
0.0000000000000004
 10
240.1027387402277
 20
214.5937369985045
 30
0.0000000000000004
 10
240.0709599169414
 20
212.7372293855174
 30
0.0000000000000004
 10
240.010212992335
 20
208.8500018851012
 30
0.0000000000000004
 10
239.9784797281825
 20
206.799910081664
 30
0.0000000000000004
 10
239.9157802451761
 20
202.7353467673176
 30
0.0000000000000004
 10
239.8858283810706
 20
200.6612855583028
 30
0.0000000000000004
 10
239.8235632745866
 20
196.6825284873476
 30
0.0000000000000004
 10
239.7919183055762
 20
194.7569350964318
 30
0.0000000000000004
 10
239.7306817835915
 20
191.1229158716865
 30
0.0000000000000004
 10
239.6995140962702
 20
189.4662064720442
 30
0.0000000000000004
 10
239.6364885278007
 20
186.4702542063352
 30
0.0000000000000004
 10
239.6068122454688
 20
185.1604039251553
 30
0.0000000000000004
 10
239.5445148786426
 20
183.0136381368581
 30
0.0000000000000004
 10
239.5125222553223
 20
182.158400027175
 30
0.0000000000000004
 10
239.4518701218869
 20
180.9942058653581
 30
0.0000000000000004
 10
239.4199205361201
 20
180.6672149263876
 30
0.0
 10
239.3572203294699
 20
180.5641989226787
 30
0.0
 10
239.3280013684818
 20
180.7790790320663
 30
0.0
 10
239.2647701729173
 20
181.7565162509791
 30
0.0000000000000004
 10
239.2336889330618
 20
182.498175836001
 30
0.0000000000000004
 10
239.1727391623132
 20
184.4702727727806
 30
0.0000000000000004
 10
239.1406198785676
 20
185.7046664370133
 30
0.0000000000000004
 10
239.0783876504939
 20
188.5332264775562
 30
0.0000000000000004
 10
239.048361070094
 20
190.1679165860607
 30
0.0000000000000004
 10
238.9858076016848
 20
193.6677865025297
 30
0.0000000000000004
 10
238.9544920022597
 20
195.5642733294903
 30
0.0000000000000004
 10
238.8932710235296
 20
199.5127536082982
 30
0.0000000000000004
 10
238.8616457690543
 20
201.5269156158176
 30
0.0000000000000005
 10
238.7990322706166
 20
205.6356644937759
 30
0.0000000000000005
 10
238.7693949855665
 20
207.6742337467435
 30
0.0000000000000005
 10
238.7066788658918
 20
211.6185495707992
 30
0.0000000000000005
 10
238.6752495987412
 20
213.5457104236951
 30
0.0000000000000005
 10
238.6144153403936
 20
217.073286654831
 30
0.0000000000000005
 10
238.5819280919902
 20
218.7254524900606
 30
0.0000000000000005
 10
238.5200236760303
 20
221.607546545126
 30
0.0000000000000005
 10
238.4903495170892
 20
222.8525421635622
 30
0.0000000000000005
 10
238.426969522347
 20
224.8958388806883
 30
0.0000000000000005
 10
238.3964649394145
 20
225.6635631424503
 30
-0.0000000000000004
 10
238.3351384393106
 20
226.6982279298879
 30
0.0
 10
238.3027348902746
 20
226.9504801537418
 30
0.0
 10
238.2411994365897
 20
226.9121713723617
 30
0.0
 10
238.2108219783651
 20
226.617002539428
 30
-0.0000000000000004
 10
238.1480414136996
 20
225.5138597310911
 30
0.0000000000000005
 10
238.1171294685104
 20
224.6945723188864
 30
0.0000000000000005
 10
238.0557663624674
 20
222.5940226021025
 30
0.0000000000000005
 10
238.0237921870733
 20
221.32954568292
 30
0.0000000000000005
 10
237.9617277617382
 20
218.3620351067356
 30
0.0000000000000005
 10
237.9318862805459
 20
216.7173318298273
 30
0.0000000000000005
 10
237.8688247607046
 20
213.1381253694917
 30
0.0000000000000005
 10
237.838008817235
 20
211.2004133789443
 30
0.0000000000000005
 10
237.7768518353004
 20
207.2458928490952
 30
0.0000000000000005
 10
237.7440810532273
 20
205.1727300145641
 30
0.0000000000000005
 10
237.6829198947104
 20
201.0994368496441
 30
0.0000000000000005
 10
237.6526144486706
 20
199.0641808074394
 30
0.0000000000000005
 10
237.5892196041821
 20
195.1355792339357
 30
0.0000000000000005
 10
237.5592449420456
 20
193.2816246057521
 30
0.0000000000000005
 10
237.497410001987
 20
189.7950361250839
 30
0.0000000000000005
 10
237.4650446623518
 20
188.2075749696474
 30
0.0000000000000005
 10
237.4040088195248
 20
185.4298015590016
 30
0.0000000000000005
 10
237.3732024139
 20
184.2241217313627
 30
0.0000000000000005
 10
237.3102999649615
 20
182.3284194735782
 30
0.0000000000000005
 10
237.2797882649169
 20
181.6100878222632
 30
-0.0000000000000003
 10
237.2181718213413
 20
180.7203426458792
 30
0.0000000000000001
 10
237.1860214046976
 20
180.5393650509784
 30
0.0000000000000001
 10
237.1244984295187
 20
180.7238511564591
 30
0.0000000000000001
 10
237.0942787894425
 20
181.0836856401983
 30
-0.0000000000000003
 10
237.0309903230881
 20
182.3287916465818
 30
0.0000000000000006
 10
237.0007611594244
 20
183.214970090628
 30
0.0000000000000006
 10
236.93918455088
 20
185.425506505723
 30
0.0000000000000006
 10
236.906472498326
 20
186.7796359556123
 30
0.0000000000000006
 10
236.8457482111988
 20
189.8084432715119
 30
0.0000000000000006
 10
236.8148130498063
 20
191.5177201259446
 30
0.0000000000000006
 10
236.7515399930102
 20
195.1720239221564
 30
0.0000000000000006
 10
236.7219917957202
 20
197.0932621293794
 30
0.0000000000000006
 10
236.659560039237
 20
201.1274229454081
 30
0.0000000000000006
 10
236.6275549420071
 20
203.1671780224415
 30
0.0000000000000006
 10
236.5667275276774
 20
207.2418170721687
 30
0.0000000000000006
 10
236.5355004981436
 20
209.2820287149798
 30
0.0000000000000006
 10
236.4726247591894
 20
213.1350923473153
 30
0.0000000000000006
 10
236.4424331253855
 20
215.0032500980889
 30
0.0000000000000006
 10
236.3804979738556
 20
218.3857840035763
 30
0.0000000000000006
 10
236.3483908369647
 20
219.9285966708343
 30
0.0000000000000006
 10
236.2872725882283
 20
222.6174424286241
 30
0.0000000000000006
 10
236.2565717496034
 20
223.7355056121696
 30
0.0000000000000006
 10
236.1932202354782
 20
225.5197149796971
 30
0.0000000000000006
 10
236.1634742831831
 20
226.1613605301702
 30
-0.0000000000000003
 10
236.1014251566556
 20
226.9115636144729
 30
0.0000000000000002
 10
236.069039878386
 20
227.0208308703321
 30
0.0
 10
236.008487592532
 20
226.6961470033895
 30
0.0000000000000002
 10
235.9769486194051
 20
226.2590799914339
 30
-0.0000000000000003
 10
235.9139762881217
 20
224.8785007300596
 30
0.0000000000000006
 10
235.8845904517737
 20
223.9432321183795
 30
0.0000000000000006
 10
235.8216939253861
 20
221.5845163051889
 30
0.0000000000000006
 10
235.7902067700301
 20
220.208625604053
 30
0.0000000000000006
 10
235.7293349204612
 20
217.0725384912357
 30
0.0000000000000006
 10
235.6977210618925
 20
215.3208160938675
 30
0.0000000000000006
 10
235.6350634760005
 20
211.6248168749237
 30
0.0000000000000006
 10
235.6050358570783
 20
209.6319718027642
 30
0.0000000000000006
 10
235.5427619101358
 20
205.6169661113298
 30
0.0000000000000007
 10
235.5109185250733
 20
203.5495621834884
 30
0.0000000000000007
 10
235.4499605924605
 20
199.4743096566961
 30
0.0000000000000007
 10
235.418770990628
 20
197.4929964473451
 30
0.0000000000000007
 10
235.3555661519874
 20
193.6446603481813
 30
0.0000000000000007
 10
235.3261222857605
 20
191.8425418226191
 30
0.0000000000000007
 10
235.2635921270819
 20
188.5368929943685
 30
0.0000000000000007
 10
235.231726615893
 20
187.0277190119342
 30
0.0000000000000007
 10
235.1711234344353
 20
184.4717935694613
 30
0.0000000000000007
 10
235.1390313812653
 20
183.3881731026823
 30
0.0000000000000007
 10
235.0765796207639
 20
181.7469252712879
 30
-0.0000000000000002
 10
235.0470038006954
 20
181.1731974436258
 30
-0.0000000000000002
 10
234.9839227062511
 20
180.5608880141083
 30
0.0
 10
234.9529464071795
 20
180.5258874868471
 30
0.0
 10
234.8918168484212
 20
180.9949345300296
 30
-0.0000000000000002
 10
234.8598755476255
 20
181.5012070420808
 30
-0.0000000000000002
 10
234.7976698857398
 20
183.0100792590988
 30
0.0000000000000007
 10
234.7675752440055
 20
184.0318322276873
 30
0.0000000000000007
 10
234.7049872026436
 20
186.4764830545391
 30
0.0000000000000007
 10
234.6735491831702
 20
187.9316372083645
 30
0.0000000000000007
 10
234.6125535349304
 20
191.1560450872736
 30
0.0000000000000007
 10
234.5808594753812
 20
192.9136071995976
 30
0.0000000000000007
 10
234.5181171591733
 20
196.7178358091321
 30
0.0000000000000007
 10
234.4886857330498
 20
198.6828255881102
 30
0.0000000000000007
 10
234.4257108257017
 20
202.7351018262395
 30
0.0000000000000007
 10
234.3944821985106
 20
204.8098804974461
 30
0.0000000000000007
 10
234.3336476505644
 20
208.8440254627391
 30
0.0000000000000007
 10
234.301083261601
 20
210.8569252707642
 30
0.0000000000000007
 10
234.2394012744769
 20
214.6122637160978
 30
0.0000000000000007
 10
234.2093592353377
 20
216.3960842953178
 30
0.0000000000000007
 10
234.1461499019165
 20
219.6273563846305
 30
0.0000000000000007
 10
234.1157255257228
 20
221.0536137797107
 30
0.0000000000000007
 10
234.054165864346
 20
223.5233337722291
 30
0.0000000000000007
 10
234.0220189386204
 20
224.5266703534018
 30
0.0000000000000007
 10
233.960462896128
 20
226.0385627893588
 30
-0.0000000000000001
 10
233.9300436138313
 20
226.5480601947716
 30
-0.0000000000000001
 10
233.8669344829402
 20
227.0142048133678
 30
0.0
 10
233.8359826546331
 20
226.9757673521659
 30
0.0000000000000001
 10
233.7747000590681
 20
226.3606171678355
 30
-0.0000000000000001
 10
233.7419857470936
 20
225.7761348894894
 30
-0.0000000000000001
 10
233.6807819902473
 20
224.1289126722504
 30
0.0000000000000008
 10
233.6503834689163
 20
223.0510268948227
 30
0.0000000000000008
 10
233.5870705455068
 20
220.4719585208555
 30
0.0000000000000008
 10
233.5570346967294
 20
218.9944652689558
 30
0.0000000000000008
 10
233.4951806919693
 20
215.6582064061117
 30
0.0000000000000008
 10
233.4629886844152
 20
213.8523495549651
 30
0.0000000000000008
 10
233.4018110952304
 20
210.0343107976936
 30
0.0000000000000008
 10
233.371066669344
 20
208.0069629835193
 30
0.0000000000000008
 10
233.3081303312827
 20
203.9571749845993
 30
0.0000000000000008
 10
233.2775203170996
 20
201.8754846232243
 30
0.0000000000000008
 10
233.2160882226543
 20
197.8561742957956
 30
0.0000000000000008
 10
233.1838145474467
 20
195.8936189547674
 30
0.0000000000000008
 10
233.1223568413382
 20
192.1658630556549
 30
0.0000000000000008
 10
233.0921639025642
 20
190.4493500800448
 30
0.0000000000000008
 10
233.0287244616689
 20
187.3091762076204
 30
0.0000000000000008
 10
232.9985607170196
 20
185.9186357355827
 30
0.0000000000000008
 10
232.9370634564465
 20
183.5925292311775
 30
0.0000000000000008
 10
232.9043682405494
 20
182.6387525101869
 30
0.0000000000000008
 10
232.8436048076181
 20
181.2714101928449
 30
-0.0000000000000001
 10
232.8126059076165
 20
180.837014303566
 30
-0.0000000000000001
 10
232.749379637501
 20
180.5196324761744
 30
0.0
 10
232.719766722024
 20
180.6279551524971
 30
-0.0000000000000001
 10
232.6573474596966
 20
181.3936522423188
 30
-0.0000000000000001
 10
232.6254790149379
 20
182.0340738353787
 30
0.0000000000000008
 10
232.5645124827943
 20
183.816164831389
 30
0.0000000000000008
 10
232.5333752117557
 20
184.960462120097
 30
0.0000000000000008
 10
232.4704296524151
 20
187.6316585284194
 30
0.0000000000000008
 10
232.4401968904201
 20
189.1963416290599
 30
0.0000000000000008
 10
232.3784319647681
 20
192.5812055073434
 30
0.0000000000000008
 10
232.3461903007864
 20
194.4341045073549
 30
0.0000000000000008
 10
232.2851358930489
 20
198.3172944988566
 30
0.0000000000000009
 10
232.2544541999997
 20
200.3137496664313
 30
0.0000000000000009
 10
232.1909140326742
 20
204.4174520391563
 30
0.0000000000000009
 10
232.1612948912275
 20
206.4641899276423
 30
0.0000000000000009
 10
232.0993073703663
 20
210.4585401669149
 30
0.0000000000000009
 10
232.066929033144
 20
212.4238001277157
 30
0.0000000000000009
 10
232.0063381305659
 20
216.0529632266851
 30
0.0000000000000009
 10
231.97476235921
 20
217.7700334232962
 30
0.0000000000000009
 10
231.9117977955881
 20
220.7989496933624
 30
0.0000000000000009
 10
231.8822670041343
 20
222.1293108143276
 30
0.0000000000000009
 10
231.8196318205444
 20
224.3559207900391
 30
0.0000000000000009
 10
231.7881137223357
 20
225.2217147647202
 30
0.0000000000000009
 10
231.7271010897179
 20
226.4636168455403
 30
0.0
 10
231.6955393722465
 20
226.8249660971185
 30
0.0
 10
231.6322484956449
 20
226.9984146699251
 30
0.0
 10
231.602634180939
 20
226.8106695740529
 30
0.0
 10
231.5404339484992
 20
225.9114193090392
 30
0.0
 10
231.5083078162499
 20
225.1861808994683
 30
-0.0000000000000009
 10
231.4476933486307
 20
223.2797084802405
 30
-0.0000000000000009
 10
231.415854546375
 20
222.0737605770352
 30
-0.0000000000000009
 10
231.3530417833016
 20
219.2811255031935
 30
0.0000000000000009
 10
231.3237927598377
 20
217.7058411699583
 30
0.0000000000000009
 10
231.2606840481552
 20
214.1977151072046
 30
0.0000000000000009
 10
231.2294797841581
 20
212.3397429593596
 30
0.0000000000000009
 10
231.1685450741916
 20
208.4214014101027
 30
0.0000000000000009
 10
231.1365865425371
 20
206.372119361335
 30
0.0000000000000009
 10
231.0741770389306
 20
202.3035746776008
 30
0.0000000000000009
 10
231.0441848001236
 20
200.2300604413166
 30
0.0000000000000009
 10
230.9817469590489
 20
196.2746958023428
 30
0.0000000000000009
 10
230.9502389302828
 20
194.3496800402281
 30
0.0000000000000009
 10
230.8891168513279
 20
190.7647244781714
 30
0.0000000000000009
 10
230.8576194023839
 20
189.1293565962672
 30
0.0000000000000009
 10
230.8261896926332
 20
187.6528034913807
 30
0.0000000000000009
  0
SPLINE
  5
110
330
1F
100
AcDbEntity
  8
1
  6
CONTINUOUS
 62
   252
100
AcDbSpline
210
0.0
220
0.0
230
1.0
 70
    24
 71
     1
 72
     4
 73
     2
 74
     0
 42
0.000000001
 43
0.0000000001
 40
0.0
 40
0.0
 40
1.0
 40
1.0
 10
253.9809833037969
 20
184.9072441559421
 30
-0.0000000000000005
 10
254.6519039772672
 20
183.9109291580929
 30
-0.0000000000000005
  0
SPLINE
  5
111
330
1F
100
AcDbEntity
  8
1
  6
CONTINUOUS
 62
   252
100
AcDbSpline
210
0.0
220
0.0
230
1.0
 70
     8
 71
     3
 72
   512
 73
   508
 74
     0
 42
0.000000001
 43
0.0000000001
 40
0.0
 40
0.0
 40
0.0
 40
0.0
 40
0.0078125
 40
0.0078125
 40
0.01171875
 40
0.01171875
 40
0.015625
 40
0.015625
 40
0.01953125
 40
0.01953125
 40
0.0234375
 40
0.0234375
 40
0.02734375
 40
0.02734375
 40
0.03125
 40
0.03125
 40
0.03515625
 40
0.03515625
 40
0.0390625
 40
0.0390625
 40
0.04296875
 40
0.04296875
 40
0.046875
 40
0.046875
 40
0.05078125
 40
0.05078125
 40
0.0546875
 40
0.0546875
 40
0.05859375
 40
0.05859375
 40
0.0625
 40
0.0625
 40
0.06640625
 40
0.06640625
 40
0.0703125
 40
0.0703125
 40
0.07421875
 40
0.07421875
 40
0.078125
 40
0.078125
 40
0.0859375
 40
0.0859375
 40
0.08984375
 40
0.08984375
 40
0.09375
 40
0.09375
 40
0.09765625
 40
0.09765625
 40
0.1015625
 40
0.1015625
 40
0.10546875
 40
0.10546875
 40
0.109375
 40
0.109375
 40
0.11328125
 40
0.11328125
 40
0.1171875
 40
0.1171875
 40
0.12109375
 40
0.12109375
 40
0.125
 40
0.125
 40
0.12890625
 40
0.12890625
 40
0.1328125
 40
0.1328125
 40
0.13671875
 40
0.13671875
 40
0.140625
 40
0.140625
 40
0.14453125
 40
0.14453125
 40
0.1484375
 40
0.1484375
 40
0.15234375
 40
0.15234375
 40
0.15625
 40
0.15625
 40
0.16015625
 40
0.16015625
 40
0.1640625
 40
0.1640625
 40
0.16796875
 40
0.16796875
 40
0.171875
 40
0.171875
 40
0.17578125
 40
0.17578125
 40
0.1796875
 40
0.1796875
 40
0.18359375
 40
0.18359375
 40
0.1875
 40
0.1875
 40
0.19140625
 40
0.19140625
 40
0.1953125
 40
0.1953125
 40
0.19921875
 40
0.19921875
 40
0.203125
 40
0.203125
 40
0.20703125
 40
0.20703125
 40
0.2109375
 40
0.2109375
 40
0.21484375
 40
0.21484375
 40
0.21875
 40
0.21875
 40
0.22265625
 40
0.22265625
 40
0.2265625
 40
0.2265625
 40
0.23046875
 40
0.23046875
 40
0.234375
 40
0.234375
 40
0.23828125
 40
0.23828125
 40
0.2421875
 40
0.2421875
 40
0.24609375
 40
0.24609375
 40
0.25
 40
0.25
 40
0.25390625
 40
0.25390625
 40
0.2578125
 40
0.2578125
 40
0.26171875
 40
0.26171875
 40
0.265625
 40
0.265625
 40
0.26953125
 40
0.26953125
 40
0.2734375
 40
0.2734375
 40
0.27734375
 40
0.27734375
 40
0.28125
 40
0.28125
 40
0.28515625
 40
0.28515625
 40
0.2890625
 40
0.2890625
 40
0.29296875
 40
0.29296875
 40
0.296875
 40
0.296875
 40
0.30078125
 40
0.30078125
 40
0.3046875
 40
0.3046875
 40
0.30859375
 40
0.30859375
 40
0.3125
 40
0.3125
 40
0.31640625
 40
0.31640625
 40
0.3203125
 40
0.3203125
 40
0.32421875
 40
0.32421875
 40
0.328125
 40
0.328125
 40
0.33203125
 40
0.33203125
 40
0.3359375
 40
0.3359375
 40
0.33984375
 40
0.33984375
 40
0.34375
 40
0.34375
 40
0.34765625
 40
0.34765625
 40
0.3515625
 40
0.3515625
 40
0.35546875
 40
0.35546875
 40
0.359375
 40
0.359375
 40
0.36328125
 40
0.36328125
 40
0.3671875
 40
0.3671875
 40
0.37109375
 40
0.37109375
 40
0.375
 40
0.375
 40
0.37890625
 40
0.37890625
 40
0.3828125
 40
0.3828125
 40
0.38671875
 40
0.38671875
 40
0.390625
 40
0.390625
 40
0.39453125
 40
0.39453125
 40
0.3984375
 40
0.3984375
 40
0.40234375
 40
0.40234375
 40
0.40625
 40
0.40625
 40
0.41015625
 40
0.41015625
 40
0.4140625
 40
0.4140625
 40
0.41796875
 40
0.41796875
 40
0.421875
 40
0.421875
 40
0.42578125
 40
0.42578125
 40
0.4296875
 40
0.4296875
 40
0.43359375
 40
0.43359375
 40
0.4375
 40
0.4375
 40
0.44140625
 40
0.44140625
 40
0.4453125
 40
0.4453125
 40
0.44921875
 40
0.44921875
 40
0.453125
 40
0.453125
 40
0.45703125
 40
0.45703125
 40
0.4609375
 40
0.4609375
 40
0.46484375
 40
0.46484375
 40
0.46875
 40
0.46875
 40
0.47265625
 40
0.47265625
 40
0.4765625
 40
0.4765625
 40
0.48046875
 40
0.48046875
 40
0.484375
 40
0.484375
 40
0.48828125
 40
0.48828125
 40
0.4921875
 40
0.4921875
 40
0.49609375
 40
0.49609375
 40
0.5
 40
0.5
 40
0.50390625
 40
0.50390625
 40
0.5078125
 40
0.5078125
 40
0.51171875
 40
0.51171875
 40
0.515625
 40
0.515625
 40
0.51953125
 40
0.51953125
 40
0.5234375
 40
0.5234375
 40
0.52734375
 40
0.52734375
 40
0.53125
 40
0.53125
 40
0.53515625
 40
0.53515625
 40
0.5390625
 40
0.5390625
 40
0.54296875
 40
0.54296875
 40
0.546875
 40
0.546875
 40
0.55078125
 40
0.55078125
 40
0.5546875
 40
0.5546875
 40
0.55859375
 40
0.55859375
 40
0.5625
 40
0.5625
 40
0.56640625
 40
0.56640625
 40
0.5703125
 40
0.5703125
 40
0.57421875
 40
0.57421875
 40
0.578125
 40
0.578125
 40
0.58203125
 40
0.58203125
 40
0.5859375
 40
0.5859375
 40
0.58984375
 40
0.58984375
 40
0.59375
 40
0.59375
 40
0.59765625
 40
0.59765625
 40
0.6015625
 40
0.6015625
 40
0.60546875
 40
0.60546875
 40
0.609375
 40
0.609375
 40
0.61328125
 40
0.61328125
 40
0.6171875
 40
0.6171875
 40
0.62109375
 40
0.62109375
 40
0.625
 40
0.625
 40
0.62890625
 40
0.62890625
 40
0.6328125
 40
0.6328125
 40
0.63671875
 40
0.63671875
 40
0.640625
 40
0.640625
 40
0.64453125
 40
0.64453125
 40
0.6484375
 40
0.6484375
 40
0.65234375
 40
0.65234375
 40
0.65625
 40
0.65625
 40
0.66015625
 40
0.66015625
 40
0.6640625
 40
0.6640625
 40
0.66796875
 40
0.66796875
 40
0.671875
 40
0.671875
 40
0.67578125
 40
0.67578125
 40
0.6796875
 40
0.6796875
 40
0.68359375
 40
0.68359375
 40
0.6875
 40
0.6875
 40
0.69140625
 40
0.69140625
 40
0.6953125
 40
0.6953125
 40
0.69921875
 40
0.69921875
 40
0.703125
 40
0.703125
 40
0.70703125
 40
0.70703125
 40
0.7109375
 40
0.7109375
 40
0.71484375
 40
0.71484375
 40
0.71875
 40
0.71875
 40
0.72265625
 40
0.72265625
 40
0.7265625
 40
0.7265625
 40
0.73046875
 40
0.73046875
 40
0.734375
 40
0.734375
 40
0.73828125
 40
0.73828125
 40
0.7421875
 40
0.7421875
 40
0.74609375
 40
0.74609375
 40
0.75
 40
0.75
 40
0.75390625
 40
0.75390625
 40
0.7578125
 40
0.7578125
 40
0.76171875
 40
0.76171875
 40
0.765625
 40
0.765625
 40
0.76953125
 40
0.76953125
 40
0.7734375
 40
0.7734375
 40
0.77734375
 40
0.77734375
 40
0.78125
 40
0.78125
 40
0.78515625
 40
0.78515625
 40
0.7890625
 40
0.7890625
 40
0.79296875
 40
0.79296875
 40
0.796875
 40
0.796875
 40
0.80078125
 40
0.80078125
 40
0.8046875
 40
0.8046875
 40
0.80859375
 40
0.80859375
 40
0.8125
 40
0.8125
 40
0.81640625
 40
0.81640625
 40
0.8203125
 40
0.8203125
 40
0.82421875
 40
0.82421875
 40
0.828125
 40
0.828125
 40
0.83203125
 40
0.83203125
 40
0.8359375
 40
0.8359375
 40
0.83984375
 40
0.83984375
 40
0.84375
 40
0.84375
 40
0.84765625
 40
0.84765625
 40
0.8515625
 40
0.8515625
 40
0.85546875
 40
0.85546875
 40
0.859375
 40
0.859375
 40
0.86328125
 40
0.86328125
 40
0.8671875
 40
0.8671875
 40
0.87109375
 40
0.87109375
 40
0.875
 40
0.875
 40
0.87890625
 40
0.87890625
 40
0.8828125
 40
0.8828125
 40
0.88671875
 40
0.88671875
 40
0.890625
 40
0.890625
 40
0.89453125
 40
0.89453125
 40
0.8984375
 40
0.8984375
 40
0.90234375
 40
0.90234375
 40
0.90625
 40
0.90625
 40
0.91015625
 40
0.91015625
 40
0.9140625
 40
0.9140625
 40
0.91796875
 40
0.91796875
 40
0.921875
 40
0.921875
 40
0.92578125
 40
0.92578125
 40
0.9296875
 40
0.9296875
 40
0.93359375
 40
0.93359375
 40
0.9375
 40
0.9375
 40
0.94140625
 40
0.94140625
 40
0.9453125
 40
0.9453125
 40
0.94921875
 40
0.94921875
 40
0.953125
 40
0.953125
 40
0.95703125
 40
0.95703125
 40
0.9609375
 40
0.9609375
 40
0.96484375
 40
0.96484375
 40
0.96875
 40
0.96875
 40
0.97265625
 40
0.97265625
 40
0.9765625
 40
0.9765625
 40
0.98046875
 40
0.98046875
 40
0.984375
 40
0.984375
 40
0.98828125
 40
0.98828125
 40
0.9921875
 40
0.9921875
 40
1.0
 40
1.0
 40
1.0
 40
1.0
 10
230.8261896926331
 20
223.7462817099613
 30
-0.0000000000000008
 10
230.8911697398165
 20
222.0188707157681
 30
-0.0000000000000008
 10
230.9562561454239
 20
219.2528934292515
 30
0.0000000000000009
 10
231.0545298997079
 20
214.1168807548818
 30
0.0000000000000009
 10
231.0876139935159
 20
212.2795309294209
 30
0.0000000000000009
 10
231.1522118858862
 20
208.350025891364
 30
0.0000000000000009
 10
231.1851734758767
 20
206.3361406182941
 30
0.0000000000000009
 10
231.25106803843
 20
202.2528993349041
 30
0.0000000000000009
 10
231.282477457809
 20
200.1947542776662
 30
0.0000000000000009
 10
231.3482791649291
 20
196.2583515553996
 30
0.0000000000000009
 10
231.3812576909863
 20
194.3335276739535
 30
0.0000000000000009
 10
231.4454327909216
 20
190.8332213475809
 30
0.0000000000000009
 10
231.4797325829849
 20
189.2068361283916
 30
0.0000000000000009
 10
231.5442021232062
 20
186.4021988346923
 30
-0.0000000000000009
 10
231.5760815080747
 20
185.2078061375728
 30
-0.0000000000000009
 10
231.6428054431036
 20
183.3121382345656
 30
-0.0000000000000009
 10
231.6740040989005
 20
182.6316502658228
 30
0.0
 10
231.7395358305005
 20
181.8066252533735
 30
0.0
 10
231.7731512584109
 20
181.6790279250094
 30
0.0
 10
231.8371215462705
 20
181.9886960038397
 30
0.0
 10
231.8703462935529
 20
182.4334189518503
 30
0.0
 10
231.9361686225766
 20
183.845138053216
 30
0.0000000000000009
 10
231.9677900803423
 20
184.8336015318746
 30
0.0000000000000009
 10
232.0334612012144
 20
187.2405092879053
 30
0.0000000000000009
 10
232.0665628630393
 20
188.687407206065
 30
0.0000000000000009
 10
232.1307992851779
 20
191.9152095455703
 30
0.0000000000000009
 10
232.1643857588231
 20
193.6884402546769
 30
0.0000000000000009
 10
232.2297639195779
 20
197.5064704051557
 30
0.0000000000000009
 10
232.2610628911966
 20
199.4801006964773
 30
0.0000000000000009
 10
232.3276889924452
 20
203.5549926489199
 30
0.0000000000000009
 10
232.3595719052408
 20
205.6140552938184
 30
0.0000000000000008
 10
232.4243007203229
 20
209.6245549447366
 30
0.0000000000000008
 10
232.4585214067889
 20
211.603195054041
 30
0.0000000000000008
 10
232.5223734578346
 20
215.2550475916254
 30
0.0000000000000008
 10
232.5554661427364
 20
216.9822010026173
 30
0.0000000000000008
 10
232.6215549414644
 20
220.0061029937262
 30
0.0000000000000008
 10
232.6529051737971
 20
221.3364759653435
 30
0.0000000000000008
 10
232.718671969242
 20
223.505333841455
 30
0.0000000000000008
 10
232.7513958093085
 20
224.336403514068
 30
0.0000000000000008
 10
232.8485934310224
 20
226.050837040024
 30
-0.0000000000000001
 10
232.9132154772867
 20
226.0578062546127
 30
-0.0000000000000001
 10
233.0135963221654
 20
224.3627892314882
 30
0.0000000000000008
 10
233.0459964043108
 20
223.5166949429119
 30
0.0000000000000008
 10
233.1106467121223
 20
221.3607441573222
 30
0.0000000000000008
 10
233.1449484889238
 20
220.025859405067
 30
0.0000000000000008
 10
233.2090365448694
 20
217.0007626437154
 30
0.0000000000000008
 10
233.2414178394128
 20
215.2991414021495
 30
0.0000000000000008
 10
233.3080648259248
 20
211.6174245244586
 30
0.0000000000000008
 10
233.3389606542091
 20
209.6865666697683
 30
0.0000000000000008
 10
233.4049063869504
 20
205.6441179953453
 30
0.0000000000000008
 10
233.4381149630119
 20
203.5961753190767
 30
0.0000000000000008
 10
233.5021238003529
 20
199.5373267166649
 30
0.0000000000000008
 10
233.5358013228253
 20
197.5203457052177
 30
0.0000000000000008
 10
233.6011566462812
 20
193.7429441131967
 30
0.0000000000000008
 10
233.6328979136388
 20
191.9317546622484
 30
0.0000000000000008
 10
233.6988477318174
 20
188.7134568421411
 30
0.0000000000000008
 10
233.7314609456175
 20
187.262535711322
 30
0.0000000000000008
 10
233.7959571083634
 20
184.84317316554
 30
0.0000000000000008
 10
233.8297202858467
 20
183.8686406864001
 30
0.0000000000000008
 10
233.8945702112696
 20
182.4350172150566
 30
-0.0000000000000001
 10
233.9263308717856
 20
181.9977964501113
 30
-0.0000000000000001
 10
233.9930260181238
 20
181.6775028072699
 30
0.0
 10
234.0244920002172
 20
181.8046141938504
 30
-0.0000000000000001
 10
234.089613993301
 20
182.6147505921225
 30
-0.0000000000000001
 10
234.1235396585928
 20
183.3083196767904
 30
0.0000000000000007
 10
234.1873277878548
 20
185.18110828296
 30
0.0000000000000007
 10
234.2209028382223
 20
186.3886877565606
 30
0.0000000000000007
 10
234.2866312038824
 20
189.1847178273802
 30
0.0000000000000007
 10
234.3179705326667
 20
190.8004187617432
 30
0.0000000000000007
 10
234.3840488983283
 20
194.3175928772614
 30
0.0000000000000007
 10
234.4163167752824
 20
196.194268969301
 30
0.0000000000000007
 10
234.4813247328323
 20
200.1806537636867
 30
0.0000000000000007
 10
234.514861732595
 20
202.1997660829155
 30
0.0000000000000007
 10
234.5796498010195
 20
206.2887239563393
 30
0.0000000000000007
 10
234.6116381240707
 20
208.3287491826204
 30
0.0000000000000007
 10
234.6778251777934
 20
212.2169611783558
 30
0.0000000000000007
 10
234.7099260076623
 20
214.102424886478
 30
0.0000000000000007
 10
234.7747344112988
 20
217.5049988005193
 30
0.0000000000000007
 10
234.8088887509031
 20
219.0730345825806
 30
0.0000000000000007
 10
234.8727863263642
 20
221.7383325180407
 30
0.0000000000000007
 10
234.9056669609117
 20
222.8592142403223
 30
0.0000000000000007
 10
234.9720340279397
 20
224.5849152620265
 30
-0.0000000000000002
 10
235.0028115119849
 20
225.17878396116
 30
-0.0000000000000002
 10
235.0691670139149
 20
225.8214922306965
 30
0.0
 10
235.1018711501357
 20
225.8556873202854
 30
0.0
 10
235.1660705853923
 20
225.3614233993659
 30
-0.0000000000000002
 10
235.2000628053223
 20
224.8260433123893
 30
-0.0000000000000002
 10
235.264849545536
 20
223.2424915808225
 30
0.0000000000000007
 10
235.2969092804968
 20
222.1717520232194
 30
0.0000000000000007
 10
235.3630082767471
 20
219.6197742002576
 30
0.0000000000000007
 10
235.3952511968836
 20
218.1040191002305
 30
0.0000000000000007
 10
235.4599905312047
 20
214.7699424632352
 30
0.0000000000000007
 10
235.4937796412441
 20
212.9451538791543
 30
0.0000000000000007
 10
235.5582924495058
 20
209.0689630871132
 30
0.0000000000000007
 10
235.5904653203842
 20
207.0757226819206
 30
0.0000000000000007
 10
235.657145509066
 20
202.979094288068
 30
0.0000000000000006
 10
235.6882998152415
 20
200.932599380007
 30
0.0000000000000006
 10
235.7537950436609
 20
196.9548702963022
 30
0.0000000000000006
 10
235.7873346774219
 20
195.0103084942909
 30
0.0000000000000006
 10
235.851204362032
 20
191.4423934275508
 30
0.0000000000000006
 10
235.8851850504484
 20
189.7691024846319
 30
0.0000000000000006
 10
235.9503917069335
 20
186.8733165275674
 30
0.0000000000000006
 10
235.9819715563823
 20
185.6131578032694
 30
0.0000000000000006
 10
236.0482103486323
 20
183.6064096030456
 30
0.0000000000000006
 10
236.0801611096417
 20
182.8573930833119
 30
-0.0000000000000003
 10
236.1453364104947
 20
181.8974405927089
 30
0.0000000000000002
 10
236.1789124406089
 20
181.7031333933164
 30
-0.0000000000000001
 10
236.2434000557627
 20
181.8774689206326
 30
0.0000000000000002
 10
236.2757221393557
 20
182.2519069176751
 30
-0.0000000000000003
 10
236.3419440813609
 20
183.5369742551433
 30
0.0000000000000006
 10
236.3737286527886
 20
184.4625314098337
 30
0.0000000000000006
 10
236.4388661758522
 20
186.756549095199
 30
0.0000000000000006
 10
236.4727477283403
 20
188.1595012090419
 30
0.0000000000000006
 10
236.5365954181106
 20
191.2927201006683
 30
0.0000000000000006
 10
236.5699596363716
 20
193.0498339000393
 30
0.0000000000000006
 10
236.6358885918319
 20
196.795305656654
 30
0.0000000000000006
 10
236.6667189393668
 20
198.7512843871293
 30
0.0000000000000006
 10
236.7334476469446
 20
202.8331334584352
 30
0.0000000000000006
 10
236.7656055522699
 20
204.8694734240136
 30
0.0000000000000006
 10
236.8300857044899
 20
208.9150028846195
 30
0.0000000000000006
 10
236.8642055649491
 20
210.9028433072365
 30
0.0000000000000006
 10
236.9285369122374
 20
214.616413751451
 30
0.0000000000000006
 10
236.9609793148419
 20
216.3818696375135
 30
0.0000000000000006
 10
237.0271357767041
 20
219.4917101955015
 30
0.0000000000000006
 10
237.0590572494531
 20
220.882385965938
 30
0.0000000000000006
 10
237.1240738011116
 20
223.1579490623531
 30
0.0000000000000006
 10
237.1577369575406
 20
224.0606520675336
 30
0.0000000000000006
 10
237.2220694510195
 20
225.3271888119775
 30
-0.0000000000000003
 10
237.2546576623037
 20
225.6818955679155
 30
0.0000000000000001
 10
237.3211766866606
 20
225.8301558376555
 30
0.0000000000000001
 10
237.3521556158231
 20
225.617520472495
 30
0.0000000000000001
 10
237.418004877799
 20
224.6388658409208
 30
-0.0000000000000003
 10
237.4510930055805
 20
223.86513592116
 30
0.0000000000000005
 10
237.5151466716035
 20
221.8418593733589
 30
0.0000000000000005
 10
237.5494511667107
 20
220.5632446860988
 30
0.0000000000000005
 10
237.6140360575102
 20
217.6477624234229
 30
0.0000000000000005
 10
237.646028388595
 20
215.9733611719079
 30
0.0000000000000005
 10
237.7123518296369
 20
212.3785047437621
 30
0.0000000000000005
 10
237.7440087394157
 20
210.457763857764
 30
0.0000000000000005
 10
237.8094007369781
 20
206.443157599758
 30
0.0000000000000005
 10
237.8428490282415
 20
204.4166387387443
 30
0.0000000000000005
 10
237.9072068089054
 20
200.3253587604842
 30
0.0000000000000005
 10
237.9398644469898
 20
198.310519094563
 30
0.0000000000000005
 10
238.0059936449859
 20
194.4716307370031
 30
0.0000000000000005
 10
238.0375712766461
 20
192.6281954397532
 30
0.0000000000000005
 10
238.1030322122929
 20
189.3216558675419
 30
0.0000000000000005
 10
238.1365506804139
 20
187.8107686404979
 30
0.0000000000000005
 10
238.2004672601207
 20
185.2797955353485
 30
0.0000000000000005
 10
238.2342864645866
 20
184.2284683711691
 30
0.0000000000000005
 10
238.2995989306191
 20
182.6640420839029
 30
-0.0000000000000004
 10
238.3307468489486
 20
182.1504979709647
 30
-0.0000000000000004
 10
238.3976691922539
 20
181.6791718178275
 30
0.0
 10
238.4293378579598
 20
181.730663849398
 30
0.0
 10
238.4941665571728
 20
182.3963025029404
 30
-0.0000000000000004
 10
238.5282148147889
 20
183.0133566949021
 30
-0.0000000000000004
 10
238.592271807059
 20
184.7542985673317
 30
0.0000000000000005
 10
238.6251070360365
 20
185.8984840989671
 30
0.0000000000000005
 10
238.6912071099383
 20
188.5803316889894
 30
0.0000000000000005
 10
238.7228928780095
 20
190.1579020765226
 30
0.0000000000000005
 10
238.7881975432081
 20
193.5829206632766
 30
0.0000000000000005
 10
238.8216194718835
 20
195.4552525872671
 30
0.0000000000000005
 10
238.8859060842464
 20
199.3749029031309
 30
0.0000000000000004
 10
238.9189009996674
 20
201.3831209373846
 30
0.0000000000000004
 10
238.9850901491304
 20
205.4978644753393
 30
0.0000000000000004
 10
239.0160670985136
 20
207.5231142177109
 30
0.0000000000000004
 10
239.0822279927801
 20
211.4664675436547
 30
0.0000000000000004
 10
239.11483569504
 20
213.3727798754249
 30
0.0000000000000004
 10
239.1791536872609
 20
216.8577798435561
 30
0.0000000000000004
 10
239.2135698620321
 20
218.4771852699106
 30
0.0000000000000004
 10
239.2777070347046
 20
221.2490348970986
 30
0.0000000000000004
 10
239.3101419823238
 20
222.442154015276
 30
0.0000000000000004
 10
239.3764519292019
 20
224.2945062197756
 30
0.0000000000000004
 10
239.4078754149269
 20
224.9665905652677
 30
0.0000000000000004
 10
239.4735097315483
 20
225.7547219634691
 30
0.0
 10
239.5066993286954
 20
225.8651268024436
 30
0.0
 10
239.5710778546904
 20
225.5177582209697
 30
0.0
 10
239.604059935977
 20
225.0603696872469
 30
0.0000000000000004
 10
239.6699467847686
 20
223.612114379476
 30
0.0000000000000004
 10
239.7014630371922
 20
222.6109087151401
 30
0.0000000000000004
 10
239.7672187104167
 20
220.1775310275103
 30
0.0000000000000004
 10
239.8003205604356
 20
218.7097994490928
 30
0.0000000000000004
 10
239.8644026296833
 20
215.4731040707911
 30
0.0000000000000004
 10
239.8985422885212
 20
213.6650044901681
 30
0.0000000000000004
 10
239.9632417857659
 20
209.8613273116953
 30
0.0000000000000004
 10
239.9948821873782
 20
207.873250698499
 30
0.0000000000000004
 10
240.0618101454338
 20
203.7783565152004
 30
0.0000000000000004
 10
240.0930853933082
 20
201.7480899028681
 30
0.0000000000000004
 10
240.1583077779835
 20
197.7216076734162
 30
0.0000000000000004
 10
240.1921195300952
 20
195.7682080622607
 30
0.0000000000000004
 10
240.2560634201855
 20
192.1237956572475
 30
0.0000000000000004
 10
240.2892887752279
 20
190.408806179809
 30
0.0000000000000004
 10
240.355196857833
 20
187.4116809925652
 30
0.0000000000000004
 10
240.3867692110006
 20
186.08529421855
 30
0.0000000000000004
 10
240.4523497823098
 20
183.9562094377838
 30
0.0000000000000004
 10
240.4854520661064
 20
183.1285638156738
 30
0.0000000000000004
 10
240.5498045546483
 20
182.0298386932392
 30
-0.0000000000000001
 10
240.5831771959649
 20
181.7581581021887
 30
-0.0000000000000001
 10
240.6488631763233
 20
181.7833664545975
 30
-0.0000000000000001
 10
240.6800393384798
 20
182.0799938982329
 30
0.0000000000000003
 10
240.7464462523508
 20
183.2265094136264
 30
0.0000000000000003
 10
240.7785814343783
 20
184.0778532754876
 30
0.0000000000000003
 10
240.8432216782647
 20
186.2490064223489
 30
0.0000000000000003
 10
240.8775605856194
 20
187.5951853444381
 30
0.0000000000000003
 10
240.9414261483718
 20
190.6258957180544
 30
0.0000000000000003
 10
240.9743105476623
 20
192.3546746782306
 30
0.0000000000000003
 10
241.0404869337647
 20
196.0218943144891
 30
0.0000000000000003
 10
241.0717741624408
 20
197.9816245299829
 30
0.0000000000000003
 10
241.1376528058547
 20
202.018661679388
 30
0.0000000000000003
 10
241.1704892069925
 20
204.049824944699
 30
0.0000000000000003
 10
241.2350182745449
 20
208.1377012503007
 30
0.0000000000000003
 10
241.2683008423323
 20
210.1219058139172
 30
0.0000000000000003
 10
241.3337741803105
 20
213.9059518872451
 30
0.0000000000000003
 10
241.3654104585922
 20
215.702472141402
 30
0.0000000000000003
 10
241.4314092785067
 20
218.9083139065102
 30
0.0000000000000003
 10
241.4640779413083
 20
220.3578592058008
 30
0.0000000000000003
 10
241.5283996342825
 20
222.7512709128465
 30
0.0000000000000003
 10
241.5626479388996
 20
223.7296476196168
 30
0.0000000000000003
 10
241.6269251787066
 20
225.1314199552354
 30
0.0000000000000003
 10
241.6590722830094
 20
225.563898528353
 30
-0.0000000000000002
 10
241.7258981354281
 20
225.8612913898193
 30
0.0
 10
241.7568630527275
 20
225.7257838665889
 30
-0.0000000000000002
 10
241.8225012280692
 20
224.8887630223748
 30
0.0000000000000003
 10
241.8559467341998
 20
224.1923761108643
 30
0.0000000000000003
 10
241.9199183014174
 20
222.2960606010363
 30
0.0000000000000003
 10
241.9535181904124
 20
221.0817170800133
 30
0.0000000000000003
 10
242.0190773924917
 20
218.2737457141474
 30
0.0000000000000003
 10
242.050694703399
 20
216.638499435201
 30
0.0000000000000003
 10
242.1165159778939
 20
213.1275692488604
 30
0.0000000000000003
 10
242.149257185713
 20
211.2125782305698
 30
0.0000000000000002
 10
242.2137643992982
 20
207.2551804887477
 30
0.0000000000000002
 10
242.2474283340829
 20
205.2292725846325
 30
0.0000000000000002
 10
242.3125324355838
 20
201.1134197138339
 30
0.0000000000000002
 10
242.3440747643959
 20
199.1090891242533
 30
0.0000000000000002
 10
242.410638925742
 20
195.2057802147858
 30
0.0000000000000002
 10
242.4423464793074
 20
193.3427471465721
 30
0.0000000000000002
 10
242.5073442062044
 20
189.9456767946643
 30
0.0000000000000002
 10
242.5414520222593
 20
188.3845019817788
 30
0.0000000000000002
 10
242.6052016760207
 20
185.7403412785837
 30
0.0000000000000002
 10
242.6385295674589
 20
184.6178330267771
 30
0.0000000000000002
 10
242.7044309125298
 20
182.9218785332202
 30
0.0000000000000002
 10
242.7357152569732
 20
182.3294135155947
 30
0.0000000000000002
 10
242.801816799755
 20
181.7130712181062
 30
0.0
 10
242.834242444281
 20
181.6867267781298
 30
0.0
 10
242.8990303873827
 20
182.2078151236901
 30
0.0000000000000002
 10
242.9325427839764
 20
182.7460119087886
 30
0.0000000000000002
 10
242.9974815229019
 20
184.3560720263025
 30
0.0000000000000002
 10
243.029417407443
 20
185.429824460103
 30
0.0000000000000002
 10
243.0955849823881
 20
187.9993242917074
 30
0.0000000000000002
 10
243.127840943439
 20
189.5278827983558
 30
0.0000000000000002
 10
243.1924537070333
 20
192.8633721849963
 30
0.0000000000000002
 10
243.22663381049
 20
194.717753159111
 30
0.0000000000000002
 10
243.2906587725707
 20
198.5740749509432
 30
0.0000000000000002
 10
243.3233142403656
 20
200.5920855365564
 30
0.0000000000000002
 10
243.3899084409543
 20
204.6879960462466
 30
0.0000000000000002
 10
243.4206832348456
 20
206.7124785994005
 30
0.0000000000000002
 10
243.4867359904528
 20
210.7141616453517
 30
0.0000000000000002
 10
243.5197213818667
 20
212.6279418093875
 30
0.0000000000000002
 10
243.5838403160793
 20
216.1978881345802
 30
0.0000000000000002
 10
243.617786285757
 20
217.8578960504203
 30
0.0000000000000002
 10
243.682818972925
 20
220.7381041651853
 30
0.0000000000000002
 10
243.714675114808
 20
221.9964487316655
 30
0.0000000000000002
 10
243.7806790643551
 20
223.9764563101209
 30
0.0000000000000001
 10
243.8130547679588
 20
224.7261716746733
 30
0.0000000000000001
 10
243.8777824860005
 20
225.6564422239608
 30
0.0000000000000001
 10
243.9115503086441
 20
225.8439693028922
 30
0.0
 10
243.9762260031299
 20
225.6453530141501
 30
0.0000000000000001
 10
244.0081731385972
 20
225.2658943346337
 30
0.0000000000000001
 10
244.0747827355853
 20
223.952255020214
 30
0.0000000000000001
 10
244.1061445912617
 20
223.0262054180705
 30
0.0000000000000001
 10
244.1715121261345
 20
220.7098627123456
 30
0.0000000000000001
 10
244.2052707970221
 20
219.2998909678324
 30
0.0000000000000001
 10
244.2690392598025
 20
216.1582311881239
 30
0.0000000000000001
 10
244.3027918216062
 20
214.3796217179454
 30
0.0000000000000001
 10
244.3682558129663
 20
210.6453665509372
 30
0.0000000000000001
 10
244.3997062063156
 20
208.6518673487213
 30
0.0000000000000001
 10
244.465986025991
 20
204.5981535782669
 30
0.0000000000000001
 10
244.4979943479413
 20
202.564256943538
 30
0.0000000000000001
 10
244.5630998122688
 20
198.4872784778525
 30
0.0000000000000001
 10
244.5966471220484
 20
196.53818433893
 30
0.0000000000000001
 10
244.6612134933139
 20
192.814503450357
 30
0.0000000000000001
 10
244.6934850785445
 20
191.0695916021012
 30
0.0000000000000001
 10
244.7597243965622
 20
187.9690660593181
 30
0.0000000000000001
 10
244.7916251756016
 20
186.5847868832778
 30
0.0000000000000001
 10
244.8565576121817
 20
184.3320984677758
 30
0.0000000000000001
 10
244.8905282178755
 20
183.4297287497924
 30
0.0000000000000001
 10
244.9544496060939
 20
182.19191027628
 30
0.0000000000000001
 10
244.9876023813899
 20
181.8425967348946
 30
0.0000000000000001
 10
245.0538142026763
 20
181.7183506492239
 30
0.0000000000000001
 10
245.0845557896845
 20
181.9376713922296
 30
0.0000000000000001
 10
245.1509983786902
 20
182.9460052698042
 30
0.0000000000000001
 10
245.1834662573915
 20
183.7190079810117
 30
0.0000000000000001
 10
245.2478306127695
 20
185.7685994740811
 30
0.0000000000000001
 10
245.2820025115525
 20
187.0494961698617
 30
0.0000000000000001
 10
245.3464804957165
 20
189.9797839353909
 30
0.0000000000000001
 10
245.3787135001439
 20
191.6683144863499
 30
0.0000000000000001
 10
245.4448195045936
 20
195.2601017871076
 30
0.0
 10
245.4768621863651
 20
197.2126982018412
 30
0.0
 10
245.5418530242317
 20
201.2021510260347
 30
0.0
 10
245.5755553350679
 20
203.248612277792
 30
0.0
 10
245.6399708518972
 20
207.3439718017223
 30
0.0
 10
245.6723315490781
 20
209.3321584557434
 30
0.0
 10
245.7388519222093
 20
213.1897419488984
 30
0.0
 10
245.7699869887627
 20
215.0046307755362
 30
0.0
 10
245.8357135998471
 20
218.3087885954356
 30
0.0
 10
245.8690413725169
 20
219.8076358280706
 30
0.0
 10
245.9329418785757
 20
222.3204216037979
 30
0.0
 10
245.9670816848802
 20
223.3690705820225
 30
0.0
 10
246.0319375221902
 20
224.9067067298544
 30
0.0
 10
246.0637517469133
 20
225.4172420539871
 30
0.0
 10
246.1301423270284
 20
225.861903723648
 30
0.0
 10
246.1618384637359
 20
225.8028110600018
 30
0.0
 10
246.2271352057103
 20
225.1100672519896
 30
0.0
 10
246.2606265201006
 20
224.4921744185607
 30
0.0
 10
246.3249980766969
 20
222.7217807046149
 30
0.0
 10
246.3576119914899
 20
221.5789186670649
 30
0.0
 10
246.4238036692675
 20
218.8766035202549
 30
0.0
 10
246.4554436882536
 20
217.2914436575273
 30
0.0
 10
246.5207014614044
 20
213.8618819471937
 30
0.0
 10
246.5543572863191
 20
211.9661147835317
 30
0.0
 10
246.6183020751523
 20
208.062709424093
 30
0.0
 10
246.6519282869817
 20
206.0202378514337
 30
0.0
 10
246.7175865343733
 20
201.9290092803689
 30
0.0
 10
246.7484879760565
 20
199.9130881089429
 30
0.0
 10
246.8152719565178
 20
195.9419844198814
 30
0.0
 10
246.847201885208
 20
194.0728625157469
 30
0.0
 10
246.9118876005556
 20
190.582673661525
 30
0.0
 10
246.9460707231709
 20
188.981926292013
 30
0.0
 10
247.0101830298447
 20
186.2227914538961
 30
0.0
 10
247.0428102093814
 20
185.035935746959
 30
-0.0000000000000001
 10
247.1089153548039
 20
183.2075256569294
 30
-0.0000000000000001
 10
247.1406942060318
 20
182.5382535572552
 30
-0.0000000000000001
 10
247.2059675850377
 20
181.7769980305255
 30
-0.0000000000000001
 10
247.2394718682307
 20
181.6751201696703
 30
0.0
 10
247.3037731577804
 20
182.045600726441
 30
-0.0000000000000001
 10
247.3365444101702
 20
182.5073346821111
 30
-0.0000000000000001
 10
247.4028183208586
 20
183.9872820196024
 30
-0.0000000000000001
 10
247.4338823080715
 20
184.9847716926548
 30
-0.0000000000000001
 10
247.4999341186953
 20
187.4435404292319
 30
-0.0000000000000001
 10
247.532785958283
 20
188.9132413947152
 30
-0.0000000000000001
 10
247.5969098285064
 20
192.1615191680341
 30
-0.0000000000000001
 10
247.6312627259243
 20
193.9852037443614
 30
-0.0000000000000001
 10
247.6955966217072
 20
197.781150037813
 30
-0.0000000000000001
 10
247.7278538480047
 20
199.8030740938535
 30
-0.0000000000000001
 10
247.7942651415334
 20
203.8677425543518
 30
-0.0000000000000001
 10
247.8256938667575
 20
205.9125660840002
 30
-0.0000000000000001
 10
247.8912194356292
 20
209.9477546653394
 30
-0.0000000000000001
 10
247.9245094895157
 20
211.8706275367497
 30
-0.0000000000000001
 10
247.9888440310322
 20
215.5284042616141
 30
-0.0000000000000001
 10
248.0217939951285
 20
217.2172324964668
 30
-0.0000000000000001
 10
248.0877965988307
 20
220.2078653122837
 30
-0.0000000000000001
 10
248.1193069357854
 20
221.5232366105851
 30
-0.0000000000000001
 10
248.1848727385046
 20
223.6321128313238
 30
-0.0000000000000001
 10
248.2181448600624
 20
224.4557623064082
 30
-0.0000000000000001
 10
248.2822179171259
 20
225.5284120352753
 30
-0.0000000000000001
 10
248.3162500745362
 20
225.7928531649684
 30
0.0000000000000001
 10
248.3812281278481
 20
225.7448082051908
 30
-0.0000000000000001
 10
248.4125304936765
 20
225.4411083868238
 30
-0.0000000000000001
 10
248.4794894257367
 20
224.2632736772358
 30
-0.0000000000000001
 10
248.5109464504808
 20
223.4158940012091
 30
-0.0000000000000001
 10
248.576006933931
 20
221.2152054756109
 30
-0.0000000000000001
 10
248.6100200481766
 20
219.8716633085101
 30
-0.0000000000000001
 10
248.6739378191996
 20
216.8229432136146
 30
-0.0000000000000002
 10
248.7069628947746
 20
215.0857493092961
 30
-0.0000000000000002
 10
248.7729423392846
 20
211.4181864980009
 30
-0.0000000000000002
 10
248.8045629480881
 20
209.4331902000925
 30
-0.0000000000000002
 10
248.870115128566
 20
205.41735844179
 30
-0.0000000000000002
 10
248.9033260388101
 20
203.3560035380787
 30
-0.0000000000000002
 10
248.9676364349614
 20
199.2867099563947
 30
-0.0000000000000002
 10
249.0008034706426
 20
197.3173813093168
 30
-0.0000000000000002
 10
249.0666514513803
 20
193.5112208628547
 30
-0.0000000000000002
 10
249.0978365715187
 20
191.7491578752348
 30
-0.0000000000000002
 10
249.1641565347533
 20
188.5428672557559
 30
-0.0000000000000002
 10
249.1965244303657
 20
187.1101816915711
 30
-0.0000000000000002
 10
249.2609407105638
 20
184.7323921472995
 30
-0.0000000000000002
 10
249.2953044720753
 20
183.760517521328
 30
-0.0000000000000002
 10
249.3593000011389
 20
182.383045213059
 30
-0.0000000000000002
 10
249.3920117223684
 20
181.9563676350477
 30
-0.0000000000000002
 10
249.4583315794559
 20
181.6832006315254
 30
0.0
 10
249.4895749809115
 20
181.8293514270425
 30
-0.0000000000000002
 10
249.5553431851274
 20
182.6900340440252
 30
-0.0000000000000002
 10
249.5883226123013
 20
183.38741510365
 30
-0.0000000000000002
 10
249.6527574243971
 20
185.3165858068675
 30
-0.0000000000000002
 10
249.6860242785326
 20
186.5247920832726
 30
-0.0000000000000002
 10
249.7516747203549
 20
189.3565455346611
 30
-0.0000000000000002
 10
249.7832227460312
 20
190.9938205200998
 30
-0.0000000000000002
 10
249.8490563312341
 20
194.5126913346175
 30
-0.0000000000000002
 10
249.8819124208509
 20
196.4447737759129
 30
-0.0000000000000002
 10
249.946196201335
 20
200.3897011889259
 30
-0.0000000000000002
 10
249.9804260649001
 20
202.4510903511918
 30
-0.0000000000000002
 10
250.0448850295638
 20
206.5319737655253
 30
-0.0000000000000002
 10
250.0766938118518
 20
208.5451245153157
 30
-0.0000000000000002
 10
250.1436032334012
 20
212.4613333859195
 30
-0.0000000000000002
 10
250.1747157272044
 20
214.2908544558997
 30
-0.0000000000000002
 10
250.2401815022859
 20
217.6960075743368
 30
-0.0000000000000002
 10
250.2738785053998
 20
219.2334644020203
 30
-0.0000000000000002
 10
250.3377527102326
 20
221.8674129034393
 30
-0.0000000000000003
 10
250.3711665230276
 20
222.9796534168511
 30
-0.0000000000000003
 10
250.4368739333269
 20
224.6540226848561
 30
-0.0000000000000003
 10
250.4684778600363
 20
225.2407033847606
 30
-0.0000000000000003
 10
250.5342820369752
 20
225.8324660546048
 30
0.0
 10
250.5671415667493
 20
225.847604877215
 30
0.0
 10
250.6315615277637
 20
225.3068562226242
 30
-0.0000000000000003
 10
250.6650270898702
 20
224.763453460101
 30
-0.0000000000000003
 10
250.7303990433704
 20
223.1180919766718
 30
-0.0000000000000003
 10
250.7618531607199
 20
222.0527810752303
 30
-0.0000000000000003
 10
250.8283610973041
 20
219.4544267209382
 30
-0.0000000000000003
 10
250.8602742581526
 20
217.9293418153894
 30
-0.0000000000000003
 10
250.9250294220075
 20
214.5788319429492
 30
-0.0000000000000003
 10
250.9592363665321
 20
212.7150159815371
 30
-0.0000000000000003
 10
251.0230568719942
 20
208.8627568221521
 30
-0.0000000000000003
 10
251.0562218408553
 20
206.8178469992602
 30
-0.0000000000000003
 10
251.1223165039902
 20
202.7479175408498
 30
-0.0000000000000003
 10
251.1534934784944
 20
200.6979678069759
 30
-0.0000000000000003
 10
251.2194945452749
 20
196.7098918967902
 30
-0.0000000000000003
 10
251.2520904229534
 20
194.8158505970155
 30
-0.0000000000000003
 10
251.3167415846395
 20
191.2295208537357
 30
-0.0000000000000003
 10
251.3502909054167
 20
189.601022669651
 30
-0.0000000000000003
 10
251.4154099408966
 20
186.7248206270054
 30
-0.0000000000000003
 10
251.4471962945025
 20
185.4817032249364
 30
-0.0000000000000003
 10
251.5132345679648
 20
183.5196572036316
 30
-0.0000000000000003
 10
251.5456790137926
 20
182.7770907866045
 30
-0.0000000000000003
 10
251.6102333239215
 20
181.8707402862852
 30
0.0000000000000001
 10
251.6444670006484
 20
181.6924886853224
 30
0.0
 10
251.7085875524215
 20
181.9118967785984
 30
0.0000000000000001
 10
251.7409106461338
 20
182.3029596977003
 30
-0.0000000000000003
 10
251.8076516974974
 20
183.6422262020488
 30
-0.0000000000000003
 10
251.8385230132309
 20
184.5650897073543
 30
-0.0000000000000003
 10
251.904401425216
 20
186.9146153989453
 30
-0.0000000000000003
 10
251.9376720940662
 20
188.3165941685218
 30
-0.0000000000000004
 10
252.0016328869868
 20
191.4797940252515
 30
-0.0000000000000004
 10
252.0354133935668
 20
193.2608131798626
 30
-0.0000000000000004
 10
252.1006814560344
 20
196.9990399782253
 30
-0.0000000000000004
 10
252.1324456935986
 20
199.0110966683629
 30
-0.0000000000000004
 10
252.1984521542598
 20
203.0476438906926
 30
-0.0000000000000004
 10
252.2309396864726
 20
205.1181992498111
 30
-0.0000000000000004
 10
252.2955466088457
 20
209.1559084755604
 30
-0.0000000000000004
 10
252.3291809323124
 20
211.1079756878547
 30
-0.0000000000000004
 10
252.3941116154029
 20
214.8480592497547
 30
-0.0000000000000004
 10
252.4259327967376
 20
216.5574520453896
 30
-0.0000000000000004
 10
252.4925254999021
 20
219.660945255474
 30
-0.0000000000000004
 10
252.5240504409694
 20
221.0239127980864
 30
-0.0000000000000004
 10
252.5891681564956
 20
223.2631469159212
 30
-0.0000000000000004
 10
252.6230858274953
 20
224.1556704138152
 30
-0.0000000000000004
 10
252.6868738249592
 20
225.3712122015558
 30
-0.0000000000000004
 10
252.7204779569093
 20
225.7124871491681
 30
0.0
 10
252.7861926254686
 20
225.8144235121166
 30
0.0
 10
252.8174582629098
 20
225.5807631476847
 30
0.0
 10
252.8836590583706
 20
224.5544524820777
 30
-0.0000000000000004
 10
252.9158353027219
 20
223.7785308044628
 30
-0.0000000000000004
 10
252.9807970600484
 20
221.6922218255571
 30
-0.0000000000000004
 10
253.0144638618109
 20
220.4227571350365
 30
-0.0000000000000004
 10
253.0791113182146
 20
217.4650168409406
 30
-0.0000000000000004
 10
253.1112300888667
 20
215.7803593184759
 30
-0.0000000000000004
 10
253.1773872665098
 20
212.1769863063493
 30
-0.0000000000000004
 10
253.2094611869071
 20
210.2138186076162
 30
-0.0000000000000004
 10
253.27432301288
 20
206.2329342598258
 30
-0.0000000000000004
 10
253.3084023049478
 20
204.1582217462814
 30
-0.0000000000000004
 10
253.3723440227073
 20
200.0933249360918
 30
-0.0000000000000004
 10
253.4051766937975
 20
198.0848808878242
 30
-0.0000000000000004
 10
253.4716089942349
 20
194.2361535156904
 30
-0.0000000000000004
 10
253.5023790763594
 20
192.4450259333579
 30
-0.0000000000000004
 10
253.5686540601515
 20
189.1301778704658
 30
-0.0000000000000005
 10
253.6013729912762
 20
187.6628666752991
 30
-0.0000000000000005
 10
253.6652186290448
 20
185.1681641160337
 30
-0.0000000000000005
 10
253.699448524457
 20
184.1268775680309
 30
-0.0000000000000005
 10
253.7639567643946
 20
182.6103266945046
 30
0.0000000000000004
 10
253.795743766269
 20
182.1077949155407
 30
0.0000000000000004
 10
253.8622352277939
 20
181.6773604421128
 30
0.0
 10
253.8937354735984
 20
181.7433484268082
 30
0.0
 10
253.9591976562381
 20
182.4516575561336
 30
0.0000000000000004
 10
253.9926788159684
 20
183.0775723756595
 30
0.0000000000000004
 10
254.0569356878964
 20
184.8589609547282
 30
-0.0000000000000005
 10
254.089705364587
 20
186.0108147625523
 30
-0.0000000000000005
 10
254.1558258931192
 20
188.7225846169334
 30
-0.0000000000000005
 10
254.1874634516718
 20
190.3138051708486
 30
-0.0000000000000005
 10
254.2527792004734
 20
193.7515144715417
 30
-0.0000000000000005
 10
254.2863367220192
 20
195.6485772549257
 30
-0.0000000000000005
 10
254.3503479900058
 20
199.5589486932192
 30
-0.0000000000000005
 10
254.3839504954464
 20
201.5969611630779
 30
-0.0000000000000005
 10
254.4495986964993
 20
205.6939852432953
 30
-0.0000000000000005
 10
254.4805430978781
 20
207.7084463072129
 30
-0.0000000000000005
 10
254.5472381381012
 20
211.6684080900338
 30
-0.0000000000000005
 10
254.5792242954045
 20
213.5419423218481
 30
-0.0000000000000005
 10
254.6438875514947
 20
217.0204644767982
 30
-0.0000000000000005
 10
254.6781309683278
 20
218.6197521003291
 30
-0.0000000000000005
 10
254.742163731232
 20
221.3666267285028
 30
-0.0000000000000005
 10
254.7748725921609
 20
222.5476537377131
 30
-0.0000000000000005
 10
254.8409813036977
 20
224.3630554018943
 30
-0.0000000000000005
 10
254.8726697913099
 20
225.0243250794841
 30
0.0000000000000004
 10
254.9380588269636
 20
225.7716000078375
 30
-0.0000000000000001
 10
254.9713980968068
 20
225.8659363588364
 30
0.0
 10
255.0358086991357
 20
225.4802123754331
 30
0.0000000000000003
 10
255.0686491388702
 20
225.0105143077136
 30
0.0000000000000003
 10
255.1347402663015
 20
223.5192872199726
 30
-0.0000000000000005
 10
255.165938280984
 20
222.5121521471363
 30
-0.0000000000000005
 10
255.2319699850465
 20
220.0438080372571
 30
-0.0000000000000006
 10
255.2647968363656
 20
218.5666057837942
 30
-0.0000000000000006
 10
255.3289478285067
 20
215.3101765758156
 30
-0.0000000000000006
 10
255.3633100904352
 20
213.4832100385804
 30
-0.0000000000000006
 10
255.427601168072
 20
209.6803699550543
 30
-0.0000000000000006
 10
255.459864385887
 20
207.6606602287636
 30
-0.0000000000000006
 10
255.52635021704
 20
203.5903073583764
 30
-0.0000000000000006
 10
255.5575993614039
 20
201.5535273619357
 30
-0.0000000000000006
 10
255.6232983938185
 20
197.5139381059552
 30
-0.0000000000000006
 10
255.6565468456698
 20
195.593430949867
 30
-0.0000000000000006
 10
255.7529017153342
 20
190.1246293157527
 30
-0.0000000000000006
 10
255.8180052080327
 20
187.0290019865196
 30
-0.0000000000000006
 10
255.8845760632873
 20
184.907244155942
 30
-0.0000000000000006
  0
SPLINE
  5
112
330
1F
100
AcDbEntity
  8
1
  6
CONTINUOUS
 62
   252
100
AcDbSpline
210
0.0
220
0.0
230
1.0
 70
    24
 71
     3
 72
    20
 73
    16
 74
     0
 42
0.000000001
 43
0.0000000001
 40
0.0
 40
0.0
 40
0.0
 40
0.0
 40
0.1249999999999999
 40
0.1249999999999999
 40
0.2499999999999998
 40
0.2499999999999998
 40
0.3749999999999998
 40
0.3749999999999998
 40
0.4999999999999998
 40
0.4999999999999998
 40
0.6249999999999998
 40
0.6249999999999998
 40
0.7499999999999998
 40
0.7499999999999998
 40
1.0
 40
1.0
 40
1.0
 40
1.0
 10
230.8261896926332
 20
223.7458349968879
 30
-0.0000000000000008
 10
230.8261896926331
 20
223.0320061834621
 30
-0.0000000000000008
 10
230.8261896926332
 20
222.1273827524259
 30
-0.0000000000000008
 10
230.8261896926332
 20
219.9652237963456
 30
-0.0000000000000008
 10
230.8261896926332
 20
218.6906729635805
 30
0.0000000000000009
 10
230.8261896926333
 20
215.9082563366461
 30
0.0000000000000009
 10
230.8261896926332
 20
214.3703985296068
 30
0.0000000000000009
 10
230.8261896926332
 20
211.1118209683373
 30
0.0000000000000009
 10
230.8261896926332
 20
209.4145030875251
 30
0.0000000000000009
 10
230.8261896926333
 20
205.8876593188604
 30
0.0000000000000009
 10
230.8261896926332
 20
204.0788581447701
 30
0.0000000000000009
 10
230.8261896926332
 20
200.5082083938482
 30
0.0000000000000009
 10
230.8261896926332
 20
198.7038354108732
 30
0.0000000000000009
 10
230.8261896926334
 20
193.5311693897585
 30
0.0000000000000009
 10
230.8261896926332
 20
190.3154201306089
 30
0.0000000000000009
 10
230.8261896926332
 20
187.6528034913807
 30
0.0000000000000009
  0
SPLINE
  5
113
330
1F
100
AcDbEntity
  8
1
  6
CONTINUOUS
 62
   252
100
AcDbSpline
210
0.0
220
0.0
230
1.0
 70
    24
 71
     3
 72
    22
 73
    18
 74
     0
 42
0.000000001
 43
0.0000000001
 40
0.0
 40
0.0
 40
0.0
 40
0.0
 40
0.1249999999999999
 40
0.1249999999999999
 40
0.2499999999999999
 40
0.2499999999999999
 40
0.3749999999999999
 40
0.3749999999999999
 40
0.4999999999999999
 40
0.4999999999999999
 40
0.6249999999999999
 40
0.6249999999999999
 40
0.75
 40
0.75
 40
0.875
 40
0.875
 40
1.0
 40
1.0
 40
1.0
 40
1.0
 10
230.8261896926332
 20
187.6528034913779
 30
0.0000000000000009
 10
230.8261896926332
 20
188.9848309081331
 30
0.0000000000000009
 10
230.8261896926332
 20
190.4650347410491
 30
0.0000000000000009
 10
230.8261896926334
 20
193.5940833812597
 30
0.0000000000000009
 10
230.8261896926332
 20
195.2446171804905
 30
0.0000000000000009
 10
230.8261896926333
 20
198.7249860885759
 30
0.0000000000000009
 10
230.8261896926332
 20
200.4998006525049
 30
0.0000000000000009
 10
230.8261896926332
 20
204.0732162783177
 30
0.0000000000000009
 10
230.8261896926332
 20
205.8970962245095
 30
0.0000000000000009
 10
230.8261896926331
 20
209.4023446189728
 30
0.0000000000000009
 10
230.8261896926331
 20
211.1135821153941
 30
0.0000000000000009
 10
230.8261896926332
 20
214.3842971419657
 30
0.0000000000000009
 10
230.8261896926332
 20
215.8981119182819
 30
0.0000000000000009
 10
230.8261896926331
 20
218.6898180547389
 30
0.0000000000000009
 10
230.8261896926332
 20
219.9616048389491
 30
-0.0000000000000008
 10
230.8261896926332
 20
222.1192420844638
 30
-0.0000000000000008
 10
230.826189692633
 20
223.036023795856
 30
-0.0000000000000008
 10
230.8261896926331
 20
223.7462817099611
 30
-0.0000000000000008
  0
SPLINE
  5
114
330
1F
100
AcDbEntity
  8
1
  6
CONTINUOUS
 62
   252
100
AcDbSpline
210
0.0
220
0.0
230
1.0
 70
     8
 71
     3
 72
    21
 73
    17
 74
     0
 42
0.000000001
 43
0.0000000001
 40
0.0
 40
0.0
 40
0.0
 40
0.0
 40
0.068447672404248
 40
0.1404443798001344
 40
0.2124958259693243
 40
0.2847110839372624
 40
0.3571881640825069
 40
0.4300086156323683
 40
0.5032332449049893
 40
0.5768993554105799
 40
0.6510198699745791
 40
0.7255845280739006
 40
0.8005630663735301
 40
0.8759099548144015
 40
0.9515699861044281
 40
1.0
 40
1.0
 40
1.0
 40
1.0
 10
111.4563996202287
 20
378.3371113994052
 30
0.0
 10
111.2648187401757
 20
378.1561609277643
 30
0.0
 10
110.8866974767437
 20
377.7710240947442
 30
-0.0000000000000009
 10
110.3607075453024
 20
377.1432602070163
 30
0.0
 10
109.8746701781804
 20
376.4636135803891
 30
-0.0000000000000009
 10
109.4391638126804
 20
375.743974503074
 30
0.0
 10
109.0554061669549
 20
374.9866728289037
 30
0.0
 10
108.7246799043323
 20
374.1938179011257
 30
0.0
 10
108.4481950748022
 20
373.3677229347642
 30
0.0000000000000009
 10
108.2270973290397
 20
372.5108594440044
 30
0.0
 10
108.0624162806888
 20
371.6259254843729
 30
0.0000000000000009
 10
107.9550166077733
 20
370.7158599309987
 30
0.0000000000000009
 10
107.9055450391878
 20
369.7838413183548
 30
-0.0000000000000009
 10
107.9143859280777
 20
368.8332598324954
 30
0.0000000000000009
 10
107.9734865546835
 20
367.9846197046397
 30
0.0000000000000009
 10
108.0361224505537
 20
367.4529800835022
 30
-0.0000000000000003
 10
108.0644672144185
 20
367.2450720935343
 30
-0.0000000000000006
  0
SPLINE
  5
115
330
1F
100
AcDbEntity
  8
1
  6
CONTINUOUS
 62
   252
100
AcDbSpline
210
0.0
220
0.0
230
1.0
 70
     8
 71
     3
 72
    21
 73
    17
 74
     0
 42
0.000000001
 43
0.0000000001
 40
0.0
 40
0.0
 40
0.0
 40
0.0
 40
0.041320123609108
 40
0.117531265977473
 40
0.193573629278619
 40
0.269382306917715
 40
0.3448893070498414
 40
0.4200287570274769
 40
0.4947431599033115
 40
0.5689898985581459
 40
0.6427469785769351
 40
0.7160170635694989
 40
0.7888291807450971
 40
0.8612379353660806
 40
0.9333204972592618
 40
1.0
 40
1.0
 40
1.0
 40
1.0
 10
125.907358439532
 20
348.320463034439
 30
0.0000000000000006
 10
126.0837567641548
 20
348.2857486122462
 30
0.0000000000000008
 10
126.5851106715877
 20
348.1951858084109
 30
0.0000000000000011
 10
127.4079103073185
 20
348.0847524031588
 30
0.0
 10
128.3697627440685
 20
348.0147765993787
 30
0.0000000000000009
 10
129.3180346720028
 20
348.0057150997593
 30
0.0000000000000009
 10
130.248841106316
 20
348.0577044447057
 30
0.0
 10
131.1583301865442
 20
348.1705015543745
 30
0.0000000000000009
 10
132.0427565396702
 20
348.3434740332348
 30
0.0
 10
132.8985524282265
 20
348.5756157191094
 30
-0.0000000000000009
 10
133.7224008984425
 20
348.8655792112555
 30
0.0000000000000018
 10
134.511245543509
 20
349.2117533348009
 30
0.0000000000000009
 10
135.2624378659137
 20
349.6122580376986
 30
-0.0000000000000009
 10
135.9732582327386
 20
350.0652885429498
 30
0.0
 10
136.6266388811297
 20
350.556143825818
 30
-0.0000000000000009
 10
137.0278924074355
 20
350.9107488782678
 30
-0.0000000000000009
 10
137.2145766233024
 20
351.0885409972749
 30
0.0
  0
SPLINE
  5
116
330
1F
100
AcDbEntity
  8
1
  6
CONTINUOUS
 62
   252
100
AcDbSpline
210
0.0
220
0.0
230
1.0
 70
     8
 71
     3
 72
    22
 73
    18
 74
     0
 42
0.000000001
 43
0.0000000001
 40
0.0
 40
0.0
 40
0.0
 40
0.0
 40
0.0926323785683458
 40
0.0926323785683458
 40
0.2311201491753656
 40
0.2311201491753656
 40
0.3696079197823853
 40
0.3696079197823853
 40
0.5080956903894049
 40
0.5080956903894049
 40
0.6465834609964248
 40
0.6465834609964248
 40
0.7850712316034446
 40
0.7850712316034446
 40
0.9235590022104642
 40
0.9235590022104642
 40
1.0
 40
1.0
 40
1.0
 40
1.0
 10
55.24706434310548
 20
283.6593608491307
 30
-0.0000000000000086
 10
54.89175357586905
 20
283.3247031881638
 30
-0.0000000000000071
 10
54.49181780700277
 20
283.0347885871011
 30
-0.0000000000000059
 10
53.40809098436447
 20
282.4450720694277
 30
0.0000000000000089
 10
52.67710477779197
 20
282.2053739245163
 30
-0.0000000000000036
 10
51.09081327012501
 20
281.9726106795733
 30
0.0
 10
50.2568118761162
 20
281.9797038327961
 30
-0.0000000000000036
 10
48.50920386482709
 20
282.2422378816994
 30
-0.0000000000000071
 10
47.61629510108587
 20
282.4971202578048
 30
0.0000000000000036
 10
45.84672781833662
 20
283.2327080008368
 30
0.0
 10
44.9593667282285
 20
283.7213225475677
 30
0.0000000000000036
 10
43.29129603687924
 20
284.8777761148712
 30
-0.0000000000000107
 10
42.48525392647388
 20
285.5622238821259
 30
0.0000000000000071
 10
41.03402621499698
 20
287.0602595664715
 30
-0.0000000000000107
 10
40.37723944232067
 20
287.8822958109982
 30
-0.0000000000000178
 10
39.49920127260749
 20
289.2323183972371
 30
0.0000000000000015
 10
39.21832040778011
 20
289.7207187570133
 30
-0.0000000000000008
 10
38.96887031588806
 20
290.2173727713464
 30
-0.000000000000004
  0
SPLINE
  5
117
330
1F
100
AcDbEntity
  8
1
  6
CONTINUOUS
 62
   252
100
AcDbSpline
210
0.0
220
0.0
230
1.0
 70
     8
 71
     3
 72
    24
 73
    20
 74
     0
 42
0.000000001
 43
0.0000000001
 40
0.0
 40
0.0
 40
0.0
 40
0.0
 40
0.0429329557814024
 40
0.0429329557814024
 40
0.1635311232309731
 40
0.1635311232309731
 40
0.2841292906805438
 40
0.2841292906805438
 40
0.4047274581301142
 40
0.4047274581301142
 40
0.5253256255796849
 40
0.5253256255796849
 40
0.6459237930292555
 40
0.6459237930292555
 40
0.7665219604788264
 40
0.7665219604788264
 40
0.8871201279283971
 40
0.8871201279283971
 40
1.0
 40
1.0
 40
1.0
 40
1.0
 10
43.53755512424021
 20
301.6182480938278
 30
-0.0000000000000034
 10
43.50060108053672
 20
301.3518773712349
 30
-0.0000000000000057
 10
43.47669429084954
 20
301.0792388199138
 30
-0.0000000000000072
 10
43.43651186271544
 20
300.0210394176545
 30
0.0
 10
43.51081443341539
 20
299.2161999216357
 30
-0.0000000000000107
 10
43.86515900893653
 20
297.5556716148121
 30
-0.0000000000000036
 10
44.1443351800667
 20
296.7161388002721
 30
0.0
 10
44.88391251401902
 20
295.0758392805498
 30
-0.0000000000000071
 10
45.35283994475576
 20
294.2588206302542
 30
0.0000000000000036
 10
46.4292168651269
 20
292.7344980255758
 30
-0.0000000000000036
 10
47.04944682674939
 20
292.008122969244
 30
-0.0000000000000071
 10
48.39922855616784
 20
290.6911811191526
 30
-0.0000000000000213
 10
49.119616157557
 20
290.1063166318939
 30
-0.0000000000000107
 10
50.65316978400107
 20
289.086267052704
 30
-0.0000000000000107
 10
51.44416375219757
 20
288.6664394335992
 30
-0.0000000000000142
 10
53.03958756165961
 20
288.0202484295389
 30
-0.0000000000000071
 10
53.85432063356087
 20
287.7931188039892
 30
0.0
 10
55.36610746241032
 20
287.5631980097863
 30
0.0000000000000069
 10
56.08658878922451
 20
287.5435519280022
 30
0.0000000000000009
 10
56.7636055432237
 20
287.6174537323051
 30
-0.0000000000000036
  0
SPLINE
  5
118
330
1F
100
AcDbEntity
  8
1
  6
CONTINUOUS
 62
   252
100
AcDbSpline
210
0.0
220
0.0
230
1.0
 70
     8
 71
     3
 72
    26
 73
    22
 74
     0
 42
0.000000001
 43
0.0000000001
 40
0.0
 40
0.0
 40
0.0
 40
0.0
 40
0.0165213400224268
 40
0.0165213400224268
 40
0.1312528684662677
 40
0.1312528684662677
 40
0.2459843969101085
 40
0.2459843969101085
 40
0.3607159253539493
 40
0.3607159253539493
 40
0.4754474537977902
 40
0.4754474537977902
 40
0.590178982241631
 40
0.590178982241631
 40
0.7049105106854718
 40
0.7049105106854718
 40
0.8196420391293127
 40
0.8196420391293127
 40
0.9343735675731535
 40
0.9343735675731535
 40
1.0
 40
1.0
 40
1.0
 40
1.0
 10
43.05073349557575
 20
301.5592258492902
 30
-0.0000000000000018
 10
43.02935610525991
 20
301.4545362863346
 30
-0.000000000000002
 10
43.01012616021775
 20
301.3488071930225
 30
-0.000000000000002
 10
42.87469129096608
 20
300.5013683121606
 30
0.0
 10
42.85933059498795
 20
299.7222547238906
 30
-0.0000000000000071
 10
43.03882100459547
 20
298.0854123209378
 30
0.0
 10
43.23083448508305
 20
297.2558741725668
 30
-0.0000000000000071
 10
43.80959514011614
 20
295.5956084263826
 30
0.0000000000000036
 10
44.20141218683669
 20
294.7600608388078
 30
0.0000000000000107
 10
45.14028516271286
 20
293.1743465258143
 30
0.0000000000000036
 10
45.70102346690767
 20
292.4017289319418
 30
-0.0000000000000142
 10
46.94353623915059
 20
290.9849416998832
 30
-0.0000000000000213
 10
47.62302492245231
 20
290.3376541849991
 30
-0.0000000000000071
 10
49.09635677599152
 20
289.1748320212015
 30
-0.0000000000000036
 10
49.86047816675689
 20
288.6830273270324
 30
0.0000000000000071
 10
51.43999859082005
 20
287.8717846466224
 30
-0.0000000000000036
 10
52.25351905222073
 20
287.5573594284466
 30
0.0
 10
53.8417257601395
 20
287.1422647681528
 30
-0.0000000000000036
 10
54.6381042457886
 20
287.0357722399444
 30
-0.0000000000000142
 10
55.81715662292797
 20
287.0384242174449
 30
-0.000000000000003
 10
56.23417230327404
 20
287.0739470742392
 30
-0.0000000000000025
 10
56.63614792335282
 20
287.1439595966611
 30
-0.0000000000000029
  0
SPLINE
  5
119
330
1F
100
AcDbEntity
  8
1
  6
CONTINUOUS
 62
   252
100
AcDbSpline
210
0.0
220
0.0
230
1.0
 70
     8
 71
     3
 72
    26
 73
    22
 74
     0
 42
0.000000001
 43
0.0000000001
 40
0.0
 40
0.0
 40
0.0
 40
0.0
 40
0.1030117786292972
 40
0.1030117786292972
 40
0.2121344309578544
 40
0.2121344309578544
 40
0.3212570832864116
 40
0.3212570832864116
 40
0.4303797356149687
 40
0.4303797356149687
 40
0.5395023879435259
 40
0.5395023879435259
 40
0.6486250402720839
 40
0.6486250402720839
 40
0.757747692600641
 40
0.757747692600641
 40
0.8668703449291981
 40
0.8668703449291981
 40
0.9759929972577552
 40
0.9759929972577552
 40
1.0
 40
1.0
 40
1.0
 40
1.0
 10
42.59692482286437
 20
301.5021842000186
 30
-0.000000000000005
 10
42.41515386667984
 20
300.8420968991189
 30
-0.0000000000000032
 10
42.32191314405223
 20
300.1220972839806
 30
-0.0000000000000002
 10
42.325164473709
 20
298.5920100711025
 30
-0.0000000000000071
 10
42.42960861951579
 20
297.7772925209136
 30
-0.0000000000000036
 10
42.84668858003104
 20
296.1031488954176
 30
0.0000000000000036
 10
43.15135168326915
 20
295.2759658661222
 30
-0.0000000000000107
 10
43.94763518845942
 20
293.6403417659298
 30
-0.0000000000000036
 10
44.43989403926745
 20
292.8363303397978
 30
0.0000000000000107
 10
45.56046837486782
 20
291.3385612982601
 30
-0.0000000000000071
 10
46.20482042304883
 20
290.6244591854485
 30
-0.0000000000000071
 10
47.58106061044101
 20
289.3527595131064
 30
0.0
 10
48.32099153181283
 20
288.785447031907
 30
0.0000000000000071
 10
49.8722365347289
 20
287.8175484057504
 30
-0.0000000000000107
 10
50.66117631687609
 20
287.4285385162638
 30
0.0000000000000107
 10
52.26588652668306
 20
286.8386723752944
 30
-0.0000000000000107
 10
53.07208482692319
 20
286.6445151042406
 30
-0.0000000000000178
 10
54.6208660245646
 20
286.4690359815228
 30
0.0000000000000036
 10
55.38229812738502
 20
286.4873939099061
 30
0.0000000000000071
 10
56.23642238098686
 20
286.6380263532122
 30
0.0000000000000028
 10
56.38818414009779
 20
286.6702753815559
 30
0.0000000000000022
 10
56.53742723482841
 20
286.7075475313368
 30
0.000000000000002
  0
SPLINE
  5
11A
330
1F
100
AcDbEntity
  8
1
  6
CONTINUOUS
 62
   252
100
AcDbSpline
210
0.0
220
0.0
230
1.0
 70
     8
 71
     3
 72
    26
 73
    22
 74
     0
 42
0.000000001
 43
0.0000000001
 40
0.0
 40
0.0
 40
0.0
 40
0.0
 40
0.074958138391855
 40
0.074958138391855
 40
0.1796482540271483
 40
0.1796482540271483
 40
0.2843383696624417
 40
0.2843383696624417
 40
0.389028485297735
 40
0.389028485297735
 40
0.4937186009330284
 40
0.4937186009330284
 40
0.5984087165683217
 40
0.5984087165683217
 40
0.703098832203615
 40
0.703098832203615
 40
0.8077889478389084
 40
0.8077889478389084
 40
0.9124790634742017
 40
0.9124790634742017
 40
1.0
 40
1.0
 40
1.0
 40
1.0
 10
42.15332387825887
 20
301.3693999865894
 30
-0.0000000000000027
 10
41.9866284246
 20
300.8825228031274
 30
-0.0000000000000052
 10
41.87104870310329
 20
300.3634617524209
 30
-0.0000000000000107
 10
41.7231673746079
 20
299.0738315919691
 30
-0.0000000000000107
 10
41.74120896912612
 20
298.2649761024635
 30
-0.0000000000000107
 10
41.98318184474502
 20
296.6319449784046
 30
-0.0000000000000071
 10
42.20608378133571
 20
295.7956635765777
 30
0.0
 10
42.84980217301789
 20
294.1281174684426
 30
0.0000000000000071
 10
43.26053220170201
 20
293.317512133576
 30
-0.0000000000000036
 10
44.2569033595539
 20
291.7410270262385
 30
0.0
 10
44.83823296226897
 20
290.9877724281131
 30
-0.0000000000000036
 10
46.11615693267446
 20
289.6100993515938
 30
-0.0000000000000036
 10
46.82811025452725
 20
288.9702894319482
 30
-0.0000000000000071
 10
48.30841268758887
 20
287.8710456893415
 30
-0.0000000000000071
 10
49.09202141704479
 20
287.3981278709231
 30
-0.0000000000000142
 10
50.6859632491546
 20
286.6436199734557
 30
-0.0000000000000036
 10
51.48340994296476
 20
286.3662469740148
 30
-0.0000000000000071
 10
53.07863422406853
 20
286.0116580167273
 30
0.0
 10
53.85750348701156
 20
285.9400983419525
 30
-0.0000000000000071
 10
55.21252633249297
 20
286.002973967164
 30
-0.0000000000000006
 10
55.80917891345285
 20
286.1076756815427
 30
0.0000000000000024
 10
56.35902128350935
 20
286.2824856273999
 30
-0.000000000000004
  0
SPLINE
  5
11B
330
1F
100
AcDbEntity
  8
1
  6
CONTINUOUS
 62
   252
100
AcDbSpline
210
0.0
220
0.0
230
1.0
 70
     8
 71
     3
 72
    28
 73
    24
 74
     0
 42
0.000000001
 43
0.0000000001
 40
0.0
 40
0.0
 40
0.0
 40
0.0
 40
0.0512409879885066
 40
0.0512409879885066
 40
0.1513210527683798
 40
0.1513210527683798
 40
0.251401117548253
 40
0.251401117548253
 40
0.3514811823281261
 40
0.3514811823281261
 40
0.4515612471079993
 40
0.4515612471079993
 40
0.5516413118878726
 40
0.5516413118878726
 40
0.6517213766677457
 40
0.6517213766677457
 40
0.7518014414476188
 40
0.7518014414476188
 40
0.851881506227492
 40
0.851881506227492
 40
0.9519615710073652
 40
0.9519615710073652
 40
1.0
 40
1.0
 40
1.0
 40
1.0
 10
41.7503280492165
 20
301.2672152185096
 30
-0.0000000000000072
 10
41.60986880493304
 20
300.9358516491462
 30
-0.0000000000000063
 10
41.49522807249684
 20
300.5873138653972
 30
-0.0000000000000053
 10
41.23237940101288
 20
299.5071293026426
 30
-0.0000000000000107
 10
41.16165627617876
 20
298.7370382327753
 30
0.0
 10
41.22882977494279
 20
297.1469928203742
 30
0.0
 10
41.36879095549353
 20
296.3086842050467
 30
-0.0000000000000071
 10
41.84272048545764
 20
294.6514129147137
 30
0.0
 10
42.18114046779724
 20
293.8139212572484
 30
0.0
 10
43.03539876755524
 20
292.188172343136
 30
-0.0000000000000036
 10
43.54249804281804
 20
291.4107647893694
 30
-0.0000000000000142
 10
44.71903480382868
 20
289.9284559195636
 30
-0.0000000000000213
 10
45.37458002738809
 20
289.2426308225211
 30
0.0
 10
46.78148927431936
 20
288.0141101931076
 30
-0.0000000000000071
 10
47.54533004028075
 20
287.464325946004
 30
-0.0000000000000071
 10
49.09700568176727
 20
286.5604185502411
 30
0.0
 10
49.90522263099373
 20
286.1930262268047
 30
0.0000000000000036
 10
51.50779099254233
 20
285.6674820043613
 30
0.0
 10
52.29639738059186
 20
285.5075112152724
 30
-0.0000000000000036
 10
53.84628781760661
 20
285.3962545906945
 30
0.0
 10
54.58070151878007
 20
285.448283141001
 30
-0.0000000000000018
 10
55.59521482228256
 20
285.6786603318321
 30
0.0000000000000061
 10
55.91349344457256
 20
285.7781522692188
 30
0.0000000000000038
 10
56.21696952346468
 20
285.9006618054026
 30
0.0000000000000003
  0
SPLINE
  5
11C
330
1F
100
AcDbEntity
  8
1
  6
CONTINUOUS
 62
   252
100
AcDbSpline
210
0.0
220
0.0
230
1.0
 70
     8
 71
     3
 72
    30
 73
    26
 74
     0
 42
0.000000001
 43
0.0000000001
 40
0.0
 40
0.0
 40
0.0
 40
0.0
 40
0.027360302803267
 40
0.027360302803267
 40
0.1236994150017112
 40
0.1236994150017112
 40
0.2200385272001556
 40
0.2200385272001556
 40
0.3163776393985998
 40
0.3163776393985998
 40
0.4127167515970441
 40
0.4127167515970441
 40
0.5090558637954884
 40
0.5090558637954884
 40
0.6053949759939327
 40
0.6053949759939327
 40
0.7017340881923769
 40
0.7017340881923769
 40
0.7980732003908213
 40
0.7980732003908213
 40
0.8944123125892656
 40
0.8944123125892656
 40
0.9907514247877099
 40
0.9907514247877099
 40
1.0
 40
1.0
 40
1.0
 40
1.0
 10
41.35389572556506
 20
301.1017600143613
 30
-0.0000000000000026
 10
41.26462348951215
 20
300.9242582755614
 30
-0.0000000000000036
 10
41.18313362413624
 20
300.741040904107
 30
-0.0000000000000051
 10
40.85169414623891
 20
299.8894120388453
 30
-0.0000000000000142
 10
40.69480020702839
 20
299.1719092924701
 30
-0.0000000000000036
 10
40.58545817289811
 20
297.6269162179801
 30
0.0
 10
40.63662920533061
 20
296.8204286550529
 30
-0.0000000000000142
 10
40.94121670193546
 20
295.1765820444287
 30
-0.0000000000000107
 10
41.19935157314899
 20
294.3279664334357
 30
-0.0000000000000036
 10
41.89523623462787
 20
292.6828062058352
 30
-0.0000000000000036
 10
42.34137928250612
 20
291.8629936991969
 30
-0.0000000000000142
 10
43.38599029786867
 20
290.3132913656142
 30
-0.0000000000000071
 10
43.97955446040372
 20
289.5866198618426
 30
-0.0000000000000142
 10
45.31087517184304
 20
288.2303550152954
 30
-0.0000000000000036
 10
46.02377696949981
 20
287.6265896189649
 30
-0.0000000000000107
 10
47.53021888772876
 20
286.5747471631029
 30
-0.0000000000000107
 10
48.3273244940719
 20
286.1269668309961
 30
0.0000000000000036
 10
49.91599728577825
 20
285.4369652901079
 30
0.0
 10
50.73097045856805
 20
285.1853419638934
 30
-0.0000000000000107
 10
52.30677235112324
 20
284.8983240861191
 30
-0.0000000000000178
 10
53.07067563952586
 20
284.8587160332145
 30
-0.0000000000000107
 10
54.53776550337605
 20
284.995095802458
 30
-0.000000000000016
 10
55.21280668312085
 20
285.1675557012678
 30
-0.0000000000000124
 10
55.88949987741806
 20
285.4674764295231
 30
-0.0000000000000115
 10
55.94819701315765
 20
285.494703837892
 30
-0.0000000000000114
 10
56.00629374707056
 20
285.5228693059599
 30
-0.0000000000000115
  0
SPLINE
  5
11D
330
1F
100
AcDbEntity
  8
1
  6
CONTINUOUS
 62
   252
100
AcDbSpline
210
0.0
220
0.0
230
1.0
 70
     8
 71
     3
 72
    30
 73
    26
 74
     0
 42
0.000000001
 43
0.0000000001
 40
0.0
 40
0.0
 40
0.0
 40
0.0
 40
0.0063056203112047
 40
0.0063056203112047
 40
0.0990355926790434
 40
0.0990355926790434
 40
0.1917655650468821
 40
0.1917655650468821
 40
0.2844955374147208
 40
0.2844955374147208
 40
0.3772255097825594
 40
0.3772255097825594
 40
0.4699554821503981
 40
0.4699554821503981
 40
0.5626854545182368
 40
0.5626854545182368
 40
0.6554154268860755
 40
0.6554154268860755
 40
0.7481453992539141
 40
0.7481453992539141
 40
0.8408753716217529
 40
0.8408753716217529
 40
0.9336053439895916
 40
0.9336053439895916
 40
1.0
 40
1.0
 40
1.0
 40
1.0
 10
40.99175583647283
 20
300.9430215158152
 30
-0.0000000000000082
 10
40.96781113182846
 20
300.9027569120173
 30
-0.0000000000000074
 10
40.94432827136501
 20
300.8621811069614
 30
-0.0000000000000064
 10
40.58289201144458
 20
300.2201771477585
 30
0.0000000000000107
 10
40.33647120831824
 20
299.5378498641646
 30
-0.0000000000000142
 10
40.05423112081225
 20
298.0797777453291
 30
-0.0000000000000071
 10
40.01549996365453
 20
297.3087748530922
 30
-0.0000000000000071
 10
40.14893002329119
 20
295.6808390110396
 30
-0.0000000000000178
 10
40.31815201756379
 20
294.8561940599946
 30
-0.0000000000000036
 10
40.85391707335641
 20
293.1936592167975
 30
-0.0000000000000036
 10
41.2246639018622
 20
292.3552321531031
 30
-0.0000000000000036
 10
42.12609703933345
 20
290.7565695187265
 30
0.0
 10
42.66999059693698
 20
289.973583558314
 30
-0.0000000000000142
 10
43.88219185642449
 20
288.5335426781593
 30
0.0
 10
44.55138223131382
 20
287.8699938321677
 30
0.0000000000000071
 10
46.00305544738414
 20
286.6747153661681
 30
-0.0000000000000036
 10
46.75994983916652
 20
286.164075123718
 30
-0.0000000000000107
 10
48.33255149541792
 20
285.3112861294143
 30
-0.0000000000000036
 10
49.14374185214957
 20
284.9750563691813
 30
-0.0000000000000071
 10
50.73575911901612
 20
284.514436246571
 30
-0.0000000000000071
 10
51.5375284188382
 20
284.3841876102168
 30
0.0
 10
53.05201089303582
 20
284.3404103810782
 30
0.0
 10
53.77739364528114
 20
284.424441734265
 30
-0.0000000000000142
 10
54.93175512466345
 20
284.7495335739339
 30
0.0000000000000071
 10
55.37809227266774
 20
284.9357867728803
 30
0.0000000000000042
 10
55.78951398893297
 20
285.1725180801826
 30
0.0000000000000012
  0
SPLINE
  5
11E
330
1F
100
AcDbEntity
  8
1
  6
CONTINUOUS
 62
   252
100
AcDbSpline
210
0.0
220
0.0
230
1.0
 70
     8
 71
     3
 72
    30
 73
    26
 74
     0
 42
0.000000001
 43
0.0000000001
 40
0.0
 40
0.0
 40
0.0
 40
0.0
 40
0.0751610659723108
 40
0.0751610659723108
 40
0.1646385172459183
 40
0.1646385172459183
 40
0.2541159685195258
 40
0.2541159685195258
 40
0.3435934197931333
 40
0.3435934197931333
 40
0.4330708710667409
 40
0.4330708710667409
 40
0.5225483223403484
 40
0.5225483223403484
 40
0.6120257736139559
 40
0.6120257736139559
 40
0.7015032248875634
 40
0.7015032248875634
 40
0.790980676161171
 40
0.790980676161171
 40
0.8804581274347786
 40
0.8804581274347786
 40
0.969935578708386
 40
0.969935578708386
 40
1.0
 40
1.0
 40
1.0
 40
1.0
 10
40.64169915685475
 20
300.7475030606913
 30
0.0000000000000012
 10
40.31454772369022
 20
300.2728029305584
 30
0.0
 10
40.05105244606946
 20
299.740162659968
 30
-0.0000000000000166
 10
39.63536662107724
 20
298.4921042312407
 30
-0.0000000000000036
 10
39.50731829522172
 20
297.7411948828029
 30
-0.0000000000000036
 10
39.46425964268865
 20
296.1836158721504
 30
-0.0000000000000036
 10
39.54615587160718
 20
295.3717518780468
 30
-0.0000000000000107
 10
39.91777621670197
 20
293.7038256443956
 30
-0.0000000000000036
 10
40.20069347277339
 20
292.8756343137157
 30
-0.0000000000000071
 10
40.95728157716203
 20
291.2306581503916
 30
-0.0000000000000142
 10
41.43019213556252
 20
290.420782556081
 30
0.0
 10
42.51762033489725
 20
288.903026017703
 30
-0.0000000000000036
 10
43.14760091683891
 20
288.1759251983328
 30
0.0
 10
44.49936866138265
 20
286.8750405047749
 30
0.0000000000000036
 10
45.23147857554189
 20
286.2890537550892
 30
-0.0000000000000036
 10
46.76786435156274
 20
285.2839236038487
 30
-0.0000000000000107
 10
47.55319426980493
 20
284.8742413686499
 30
-0.0000000000000107
 10
49.15788373056186
 20
284.2395971766534
 30
-0.0000000000000071
 10
49.9649438532015
 20
284.0226840313908
 30
-0.0000000000000036
 10
51.5246760902424
 20
283.8004690374589
 30
-0.0000000000000071
 10
52.29423693252193
 20
283.7946785500611
 30
0.0000000000000071
 10
53.71548373443765
 20
283.9949781285169
 30
0.0000000000000071
 10
54.38366519110705
 20
284.2011575122517
 30
-0.0000000000000142
 10
55.18192943231543
 20
284.6094764295501
 30
-0.0000000000000059
 10
55.37400257381795
 20
284.7226489616199
 30
-0.0000000000000053
 10
55.55732698234105
 20
284.8462949341683
 30
-0.0000000000000053
  0
SPLINE
  5
11F
330
1F
100
AcDbEntity
  8
1
  6
CONTINUOUS
 62
   252
100
AcDbSpline
210
0.0
220
0.0
230
1.0
 70
     8
 71
     3
 72
    30
 73
    26
 74
     0
 42
0.000000001
 43
0.0000000001
 40
0.0
 40
0.0
 40
0.0
 40
0.0
 40
0.0531877279532782
 40
0.0531877279532782
 40
0.1412469036934315
 40
0.1412469036934315
 40
0.2293060794335849
 40
0.2293060794335849
 40
0.3173652551737383
 40
0.3173652551737383
 40
0.4054244309138917
 40
0.4054244309138917
 40
0.4934836066540451
 40
0.4934836066540451
 40
0.5815427823941985
 40
0.5815427823941985
 40
0.6696019581343519
 40
0.6696019581343519
 40
0.7576611338745052
 40
0.7576611338745052
 40
0.8457203096146585
 40
0.8457203096146585
 40
0.933779485354812
 40
0.933779485354812
 40
1.0
 40
1.0
 40
1.0
 40
1.0
 10
40.29761501537648
 20
300.515852226746
 30
-0.0000000000000059
 10
40.04319736853326
 20
300.1942912029471
 30
-0.000000000000004
 10
39.8222423561955
 20
299.8440747737757
 30
-0.0000000000000014
 10
39.32378341435979
 20
298.8388789499875
 30
0.0000000000000071
 10
39.11018397732339
 20
298.138708684936
 30
0.0
 10
38.89198388565661
 20
296.6559006253948
 30
-0.0000000000000071
 10
38.88632713212927
 20
295.8542539374033
 30
-0.0000000000000036
 10
39.08259884844083
 20
294.2310652816295
 30
-0.0000000000000071
 10
39.28367060549756
 20
293.3945454460091
 30
0.0
 10
39.88381956330394
 20
291.7256357670985
 30
0.0000000000000107
 10
40.27461698700131
 20
290.9106378969233
 30
-0.0000000000000178
 10
41.23537314836857
 20
289.3177536517329
 30
-0.0000000000000036
 10
41.79904811833156
 20
288.5554543923323
 30
-0.0000000000000107
 10
43.04939937220743
 20
287.151666886357
 30
-0.0000000000000071
 10
43.74961792286192
 20
286.4963621629602
 30
-0.0000000000000036
 10
45.2114852083325
 20
285.3623753571338
 30
-0.0000000000000036
 10
45.99041252333272
 20
284.8691103850226
 30
-0.0000000000000071
 10
47.57652241676189
 20
284.0734269692873
 30
0.0
 10
48.37364118684465
 20
283.7736453807515
 30
-0.0000000000000142
 10
49.97619330957539
 20
283.3724648171938
 30
-0.0000000000000142
 10
50.75907177797403
 20
283.2776343103408
 30
-0.0000000000000178
 10
52.25260145196658
 20
283.2989288571059
 30
-0.0000000000000071
 10
52.97265851965085
 20
283.4183063830918
 30
-0.0000000000000142
 10
54.10813898290851
 20
283.8023758221815
 30
0.0000000000000014
 10
54.56531517426032
 20
284.0268178232782
 30
-0.000000000000005
 10
54.97901268761665
 20
284.3044150970595
 30
-0.000000000000009
  0
SPLINE
  5
120
330
1F
100
AcDbEntity
  8
1
  6
CONTINUOUS
 62
   252
100
AcDbSpline
210
0.0
220
0.0
230
1.0
 70
     8
 71
     3
 72
    32
 73
    28
 74
     0
 42
0.000000001
 43
0.0000000001
 40
0.0
 40
0.0
 40
0.0
 40
0.0
 40
0.0166045495445213
 40
0.0166045495445213
 40
0.1013215961881191
 40
0.1013215961881191
 40
0.1860386428317168
 40
0.1860386428317168
 40
0.2707556894753146
 40
0.2707556894753146
 40
0.3554727361189124
 40
0.3554727361189124
 40
0.4401897827625101
 40
0.4401897827625101
 40
0.5249068294061079
 40
0.5249068294061079
 40
0.6096238760497058
 40
0.6096238760497058
 40
0.6943409226933035
 40
0.6943409226933035
 40
0.7790579693369013
 40
0.7790579693369013
 40
0.8637750159804991
 40
0.8637750159804991
 40
0.9484920626240969
 40
0.9484920626240969
 40
1.0
 40
1.0
 40
1.0
 40
1.0
 10
39.74825973127638
 20
300.0031982617319
 30
-0.0000000000000045
 10
39.66471406673102
 20
299.8987018429722
 30
-0.0000000000000047
 10
39.58455538496177
 20
299.7909786341215
 30
-0.000000000000005
 10
39.11692125922106
 20
299.1146289151952
 30
-0.0000000000000071
 10
38.82335941427351
 20
298.4809338218066
 30
-0.0000000000000107
 10
38.43013132966583
 20
297.0758998395079
 30
-0.0000000000000071
 10
38.33635644639556
 20
296.3172260651
 30
-0.0000000000000142
 10
38.35730471320919
 20
294.7405286580471
 30
-0.0000000000000142
 10
38.47382378191058
 20
293.9070873019428
 30
-0.0000000000000178
 10
38.90518529768057
 20
292.2471780621785
 30
-0.0000000000000142
 10
39.2251543442465
 20
291.4019984972922
 30
-0.0000000000000071
 10
40.03904008976844
 20
289.7707620942452
 30
0.0000000000000071
 10
40.53929889329201
 20
288.9699364042633
 30
0.0000000000000036
 10
41.68033821604205
 20
287.4745538414008
 30
-0.0000000000000071
 10
42.31550095704002
 20
286.7825154103332
 30
-0.0000000000000142
 10
43.71640134924996
 20
285.5107862038505
 30
-0.0000000000000142
 10
44.45748795254021
 20
284.955168878884
 30
-0.0000000000000213
 10
46.00267412122884
 20
284.0109387598937
 30
-0.0000000000000107
 10
46.81109210857883
 20
283.6223502813289
 30
0.0
 10
48.4057710709622
 20
283.0565647043682
 30
-0.0000000000000036
 10
49.21497562907477
 20
282.8711914528327
 30
-0.0000000000000142
 10
50.76283908680105
 20
282.7169043836179
 30
-0.0000000000000178
 10
51.5044904822083
 20
282.7445790869912
 30
-0.0000000000000178
 10
52.91187483253352
 20
283.0152742654239
 30
-0.0000000000000107
 10
53.54954233013333
 20
283.2520595050182
 30
-0.0000000000000036
 10
54.47190205636463
 20
283.7920210713123
 30
-0.0000000000000093
 10
54.79521640185533
 20
284.0336078562225
 30
-0.0000000000000029
 10
55.08713960577893
 20
284.3069852935406
 30
-0.0000000000000006
  0
SPLINE
  5
121
330
1F
100
AcDbEntity
  8
1
  6
CONTINUOUS
 62
   252
100
AcDbSpline
210
0.0
220
0.0
230
1.0
 70
     8
 71
     3
 72
    14
 73
    10
 74
     0
 42
0.000000001
 43
0.0000000001
 40
0.0
 40
0.0
 40
0.0
 40
0.0
 40
0.0439770622042903
 40
0.0439770622042903
 40
0.282982796653216
 40
0.282982796653216
 40
0.5219885311021417
 40
0.5219885311021417
 40
1.0
 40
1.0
 40
1.0
 40
1.0
 10
39.74062510126682
 20
300.0736380832879
 30
-0.0000000000000058
 10
39.6498090427885
 20
299.988726899093
 30
-0.0000000000000063
 10
39.5617953232133
 20
299.9008440480172
 30
-0.0000000000000072
 10
39.01383800371261
 20
299.3166274720917
 30
-0.0000000000000178
 10
38.63205363738511
 20
298.7288969812277
 30
0.0
 10
38.07720693302961
 20
297.4386735761153
 30
0.0
 10
37.89541841806111
 20
296.7211375791154
 30
-0.0000000000000036
 10
37.66673248034498
 20
294.427855160628
 30
-0.0000000000000107
 10
37.93825523188904
 20
292.7406700204182
 30
-0.0000000000000107
 10
38.60720586133906
 20
291.0676345629386
 30
-0.0000000000000071
  0
SPLINE
  5
122
330
1F
100
AcDbEntity
  8
1
  6
CONTINUOUS
 62
   252
100
AcDbSpline
210
0.0
220
0.0
230
1.0
 70
     8
 71
     3
 72
    50
 73
    46
 74
     0
 42
0.000000001
 43
0.0000000001
 40
0.0
 40
0.0
 40
0.0
 40
0.0
 40
0.0865501130653002
 40
0.0865501130653002
 40
0.1298251695979502
 40
0.1298251695979502
 40
0.1731002261306003
 40
0.1731002261306003
 40
0.2163752826632503
 40
0.2163752826632503
 40
0.2596503391959004
 40
0.2596503391959004
 40
0.3029253957285505
 40
0.3029253957285505
 40
0.3462004522612006
 40
0.3462004522612006
 40
0.3894755087938507
 40
0.3894755087938507
 40
0.4327505653265007
 40
0.4327505653265007
 40
0.4760256218591508
 40
0.4760256218591508
 40
0.5193006783918009
 40
0.5193006783918009
 40
0.562575734924451
 40
0.562575734924451
 40
0.6058507914571011
 40
0.6058507914571011
 40
0.6491258479897511
 40
0.6491258479897511
 40
0.6924009045224012
 40
0.6924009045224012
 40
0.7356759610550513
 40
0.7356759610550513
 40
0.7789510175877014
 40
0.7789510175877014
 40
0.8222260741203514
 40
0.8222260741203514
 40
0.8655011306530015
 40
0.8655011306530015
 40
0.9520512437183015
 40
0.9520512437183015
 40
0.9953263002509516
 40
0.9953263002509516
 40
1.0
 40
1.0
 40
1.0
 40
1.0
 10
38.60701433469239
 20
298.669038518709
 30
-0.0000000000000107
 10
39.36435166758346
 20
299.9769506223542
 30
0.0000000000000071
 10
40.56699798522874
 20
300.9079430575667
 30
0.0
 10
42.79432596727425
 20
301.5721143872691
 30
0.0000000000000036
 10
43.59059401888838
 20
301.6711044618947
 30
0.0000000000000036
 10
45.2919730754482
 20
301.6197580434904
 30
-0.0000000000000071
 10
46.16389856194643
 20
301.470282800195
 30
0.0000000000000036
 10
47.9315250555583
 20
300.9321894492063
 30
-0.0000000000000142
 10
48.82202747536962
 20
300.5414094632484
 30
0.0
 10
50.52667356842581
 20
299.5619134972412
 30
0.0000000000000036
 10
51.36041865505544
 20
298.9597061543353
 30
-0.0000000000000071
 10
52.87767151966156
 20
297.613614614107
 30
-0.0000000000000036
 10
53.58380197834503
 20
296.8513934924177
 30
-0.0000000000000071
 10
54.80286495001245
 20
295.2390977599642
 30
-0.0000000000000071
 10
55.32315749826407
 20
294.3837999259262
 30
-0.0000000000000107
 10
56.1530829971075
 20
292.6240668474219
 30
0.0000000000000071
 10
56.4528655947135
 20
291.7430716587023
 30
-0.0000000000000071
 10
56.82345004944605
 20
289.9806831570512
 30
-0.0000000000000018
 10
56.88680445014049
 20
289.1261455913348
 30
0.0
 10
56.77049157747111
 20
287.5100431559626
 30
0.0
 10
56.58836518228655
 20
286.7461258783735
 30
0.0000000000000053
 10
56.00002826547689
 20
285.3955665928647
 30
-0.0000000000000107
 10
55.58436259823986
 20
284.790183902837
 30
-0.0000000000000124
 10
54.56930316789179
 20
283.8047630584743
 30
0.0000000000000089
 10
53.95746613561996
 20
283.4107046630268
 30
-0.0000000000000107
 10
52.59008198302495
 20
282.8655068331456
 30
0.0
 10
51.83845563773252
 20
282.7123391474124
 30
0.0
 10
50.2183071087391
 20
282.6539093294735
 30
0.0
 10
49.38017169637249
 20
282.7486558022142
 30
0.0000000000000036
 10
47.6502156083878
 20
283.1848450088885
 30
-0.0000000000000178
 10
46.7756015942401
 20
283.5239959890861
 30
-0.0000000000000142
 10
45.07276540492936
 20
284.4171365942294
 30
-0.0000000000000071
 10
44.23323365576687
 20
284.9796406667843
 30
-0.0000000000000071
 10
42.68394060202404
 20
286.2623048037952
 30
-0.0000000000000071
 10
41.95194270920995
 20
287.0022983265434
 30
0.0
 10
40.67245662971136
 20
288.5813857950978
 30
0.0
 10
40.11012870458428
 20
289.4351793202709
 30
-0.0000000000000107
 10
39.19715693031578
 20
291.1960590458977
 30
-0.0000000000000071
 10
38.84925688620357
 20
292.0899140899023
 30
-0.0000000000000036
 10
38.13920345805247
 20
294.8126010992387
 30
0.0000000000000036
 10
38.15283931620368
 20
296.5626928978486
 30
-0.0000000000000071
 10
38.90539462865764
 20
298.7924568616119
 30
-0.0000000000000142
 10
39.27648941449729
 20
299.460053797277
 30
0.0000000000000036
 10
39.79779638044066
 20
300.0847401239159
 30
-0.0000000000000024
 10
39.84990033755456
 20
300.1445544193708
 30
-0.0000000000000029
 10
39.9032508273954
 20
300.203257004267
 30
-0.0000000000000034
  0
SPLINE
  5
123
330
1F
100
AcDbEntity
  8
1
  6
CONTINUOUS
 62
   252
100
AcDbSpline
210
0.0
220
0.0
230
1.0
 70
     8
 71
     3
 72
    30
 73
    26
 74
     0
 42
0.000000001
 43
0.0000000001
 40
0.0
 40
0.0
 40
0.0
 40
0.0
 40
0.0212053383791388
 40
0.0212053383791388
 40
0.1142112914051553
 40
0.1142112914051553
 40
0.2072172444311717
 40
0.2072172444311717
 40
0.3002231974571881
 40
0.3002231974571881
 40
0.3932291504832046
 40
0.3932291504832046
 40
0.486235103509221
 40
0.486235103509221
 40
0.5792410565352374
 40
0.5792410565352374
 40
0.6722470095612538
 40
0.6722470095612538
 40
0.7652529625872703
 40
0.7652529625872703
 40
0.8582589156132866
 40
0.8582589156132866
 40
0.9512648686393032
 40
0.9512648686393032
 40
1.0
 40
1.0
 40
1.0
 40
1.0
 10
55.29733122836569
 20
284.524416092255
 30
-0.0000000000000197
 10
55.17150796721342
 20
284.4217674774328
 30
-0.0000000000000202
 10
55.04102774018038
 20
284.3248570985404
 30
-0.0000000000000198
 10
54.31535383485161
 20
283.8360504651064
 30
-0.0000000000000089
 10
53.63068975002864
 20
283.5459665649236
 30
-0.0000000000000107
 10
52.13971230807981
 20
283.2149039643561
 30
-0.0000000000000107
 10
51.3433949145557
 20
283.1716029235971
 30
-0.0000000000000036
 10
49.65096969349302
 20
283.3362582630138
 30
-0.0000000000000036
 10
48.79390975052794
 20
283.5408345854572
 30
-0.0000000000000142
 10
47.05745011863257
 20
284.1879030160496
 30
0.0000000000000036
 10
46.19102544694354
 20
284.6295315785786
 30
-0.0000000000000213
 10
44.54099478603894
 20
285.7074035089913
 30
0.0000000000000036
 10
43.74086676069427
 20
286.3551510107782
 30
0.0000000000000071
 10
42.29869705473556
 20
287.7826426328225
 30
-0.0000000000000142
 10
41.63519339092263
 20
288.5836317770763
 30
0.0000000000000036
 10
40.50889384431443
 20
290.2567948373613
 30
0.0000000000000071
 10
40.03677824406119
 20
291.1411451012082
 30
0.0
 10
39.3139628222011
 20
292.9398081433569
 30
-0.0000000000000036
 10
39.06726116049856
 20
293.8351218149876
 30
-0.0000000000000071
 10
38.80877207533244
 20
295.6198875289724
 30
0.0000000000000036
 10
38.80252412125938
 20
296.4750898783096
 30
-0.0000000000000213
 10
39.03095319754129
 20
298.0897895637964
 30
-0.0000000000000107
 10
39.26923994255196
 20
298.8460158287041
 30
-0.0000000000000071
 10
39.79929363010717
 20
299.8593622437257
 30
-0.0000000000000071
 10
40.01436011927762
 20
300.1870880073225
 30
-0.0000000000000042
 10
40.25774539192292
 20
300.4884425237386
 30
-0.0000000000000019
  0
SPLINE
  5
124
330
1F
100
AcDbEntity
  8
1
  6
CONTINUOUS
 62
   252
100
AcDbSpline
210
0.0
220
0.0
230
1.0
 70
     8
 71
     3
 72
    28
 73
    24
 74
     0
 42
0.000000001
 43
0.0000000001
 40
0.0
 40
0.0
 40
0.0
 40
0.0
 40
0.0432098873124342
 40
0.0432098873124342
 40
0.139660503932105
 40
0.139660503932105
 40
0.2361111205517758
 40
0.2361111205517758
 40
0.3325617371714465
 40
0.3325617371714465
 40
0.4290123537911174
 40
0.4290123537911174
 40
0.5254629704107882
 40
0.5254629704107882
 40
0.621913587030459
 40
0.621913587030459
 40
0.7183642036501299
 40
0.7183642036501299
 40
0.8148148202698006
 40
0.8148148202698006
 40
0.9112654368894714
 40
0.9112654368894714
 40
1.0
 40
1.0
 40
1.0
 40
1.0
 10
55.49948416282894
 20
284.7875384753215
 30
-0.0000000000000104
 10
55.2341013834407
 20
284.6064792642578
 30
-0.0000000000000097
 10
54.95105255979612
 20
284.4474799865834
 30
-0.0000000000000086
 10
53.99035383552849
 20
284.0131003523474
 30
-0.0000000000000124
 10
53.24558038355143
 20
283.8288938677126
 30
0.0000000000000071
 10
51.65668270004686
 20
283.7115801182069
 30
-0.0000000000000107
 10
50.82599477940602
 20
283.7754338459864
 30
-0.0000000000000142
 10
49.09308224657743
 20
284.155671190168
 30
-0.0000000000000071
 10
48.22828124205948
 20
284.4635111832173
 30
0.0000000000000036
 10
46.51036217775712
 20
285.3069785775947
 30
0.0000000000000071
 10
45.6668598895284
 20
285.8422185175012
 30
0.0
 10
44.09122879956419
 20
287.0836887903331
 30
-0.0000000000000036
 10
43.34264157230406
 20
287.8052484216002
 30
-0.0000000000000036
 10
42.0263270424308
 20
289.3530143081015
 30
-0.0000000000000107
 10
41.43829145599444
 20
290.2010414248769
 30
0.0000000000000071
 10
40.47937719733061
 20
291.9416351853545
 30
-0.0000000000000107
 10
40.10100625239822
 20
292.8435902829791
 30
0.0
 10
39.57453250055588
 20
294.6509501489062
 30
-0.0000000000000107
 10
39.43083648178759
 20
295.5355337722099
 30
-0.0000000000000036
 10
39.38438229339788
 20
297.2663482742773
 30
-0.0000000000000178
 10
39.48351821786949
 20
298.0826210270607
 30
0.0
 10
39.9025911311673
 20
299.529168680918
 30
0.0000000000000034
 10
40.20663963349093
 20
300.1682734115427
 30
0.0000000000000035
 10
40.59816297169738
 20
300.7237135580647
 30
0.0000000000000036
  0
SPLINE
  5
125
330
1F
100
AcDbEntity
  8
1
  6
CONTINUOUS
 62
   252
100
AcDbSpline
210
0.0
220
0.0
230
1.0
 70
     8
 71
     3
 72
    28
 73
    24
 74
     0
 42
0.000000001
 43
0.0000000001
 40
0.0
 40
0.0
 40
0.0
 40
0.0
 40
0.0714856070310174
 40
0.0714856070310174
 40
0.1713258639287368
 40
0.1713258639287368
 40
0.2711661208264562
 40
0.2711661208264562
 40
0.3710063777241757
 40
0.3710063777241757
 40
0.4708466346218951
 40
0.4708466346218951
 40
0.5706868915196145
 40
0.5706868915196145
 40
0.670527148417334
 40
0.670527148417334
 40
0.7703674053150534
 40
0.7703674053150534
 40
0.8702076622127728
 40
0.8702076622127728
 40
0.9700479191104923
 40
0.9700479191104923
 40
1.0
 40
1.0
 40
1.0
 40
1.0
 10
55.76775633247642
 20
285.1324710681543
 30
-0.0000000000000051
 10
55.32335083791738
 20
284.870484534799
 30
-0.0000000000000008
 10
54.83318686133618
 20
284.6648031508765
 30
0.0000000000000051
 10
53.58765831321585
 20
284.3268152865387
 30
-0.0000000000000071
 10
52.79350034373287
 20
284.2505078448145
 30
-0.0000000000000142
 10
51.12950172976858
 20
284.3488460652777
 30
0.0
 10
50.27697322290553
 20
284.5199288743166
 30
-0.0000000000000071
 10
48.52981850367377
 20
285.1093250366002
 30
-0.0000000000000142
 10
47.66946859471824
 20
285.5166317429812
 30
-0.0000000000000036
 10
45.99578955406503
 20
286.5446713106641
 30
-0.0000000000000142
 10
45.18685314692276
 20
287.1651471865233
 30
0.0
 10
43.70921740452991
 20
288.5527289416597
 30
-0.0000000000000142
 10
43.02375654396911
 20
289.3380359359209
 30
-0.0000000000000036
 10
41.85183497229534
 20
290.9830130645736
 30
0.0000000000000071
 10
41.34863319204937
 20
291.8663162816872
 30
0.0000000000000071
 10
40.57150182951185
 20
293.6493453086901
 30
-0.0000000000000036
 10
40.29143166865418
 20
294.5550143660504
 30
-0.0000000000000071
 10
39.97040740806539
 20
296.3458092692878
 30
-0.0000000000000107
 10
39.93160967730113
 20
297.2065803321202
 30
0.0000000000000071
 10
40.09710396709801
 20
298.8581172075524
 30
-0.0000000000000178
 10
40.30169225349623
 20
299.6242592701241
 30
-0.0000000000000249
 10
40.71631660085124
 20
300.5193224861295
 30
-0.0000000000000133
 10
40.82265777185081
 20
300.7190427593873
 30
-0.0000000000000121
 10
40.93896390106354
 20
300.9110027865409
 30
-0.0000000000000116
  0
SPLINE
  5
126
330
1F
100
AcDbEntity
  8
1
  6
CONTINUOUS
 62
   252
100
AcDbSpline
210
0.0
220
0.0
230
1.0
 70
     8
 71
     3
 72
    26
 73
    22
 74
     0
 42
0.000000001
 43
0.0000000001
 40
0.0
 40
0.0
 40
0.0
 40
0.0
 40
0.0995437658447885
 40
0.0995437658447885
 40
0.2032351802561265
 40
0.2032351802561265
 40
0.3069265946674645
 40
0.3069265946674645
 40
0.4106180090788026
 40
0.4106180090788026
 40
0.5143094234901405
 40
0.5143094234901405
 40
0.6180008379014786
 40
0.6180008379014786
 40
0.7216922523128166
 40
0.7216922523128166
 40
0.8253836667241546
 40
0.8253836667241546
 40
0.9290750811354926
 40
0.9290750811354926
 40
1.0
 40
1.0
 40
1.0
 40
1.0
 10
55.97346077004968
 20
285.4712882083646
 30
-0.0000000000000142
 10
55.35069419817284
 20
285.163020531553
 30
-0.0000000000000206
 10
54.64553175147727
 20
284.958615002905
 30
-0.0000000000000124
 10
53.12135365297677
 20
284.7803586223447
 30
-0.0000000000000107
 10
52.28917482810771
 20
284.8123071873276
 30
-0.0000000000000107
 10
50.57525657108579
 20
285.126224238669
 30
0.0000000000000036
 10
49.71284960010455
 20
285.4015673420074
 30
-0.0000000000000071
 10
47.97678705916258
 20
286.1910947460365
 30
0.0000000000000036
 10
47.13462824085691
 20
286.6932767204352
 30
0.0000000000000107
 10
45.52907474887412
 20
287.8903772055904
 30
-0.0000000000000071
 10
44.76696140990143
 20
288.587414460581
 30
0.0000000000000071
 10
43.409446148989
 20
290.1014782874288
 30
0.0
 10
42.79636267334165
 20
290.938253315502
 30
-0.0000000000000036
 10
41.7867424887956
 20
292.6572790945056
 30
-0.0000000000000071
 10
41.37607724010493
 20
293.5632474544969
 30
-0.0000000000000107
 10
40.79160749300433
 20
295.3622607060433
 30
-0.0000000000000107
 10
40.61445360887554
 20
296.2591482878498
 30
0.0
 10
40.50413828015427
 20
298.007505465405
 30
-0.0000000000000142
 10
40.5702023106886
 20
298.8313473851792
 30
-0.0000000000000107
 10
40.88658801151632
 20
300.1359934627076
 30
0.0000000000000103
 10
41.07091127862772
 20
300.6329463009097
 30
0.0000000000000047
 10
41.3072960640011
 20
301.0904514649458
 30
-0.0000000000000009
  0
SPLINE
  5
127
330
1F
100
AcDbEntity
  8
1
  6
CONTINUOUS
 62
   252
100
AcDbSpline
210
0.0
220
0.0
230
1.0
 70
     8
 71
     3
 72
    28
 73
    24
 74
     0
 42
0.000000001
 43
0.0000000001
 40
0.0
 40
0.0
 40
0.0
 40
0.0
 40
0.0228448123151342
 40
0.0228448123151342
 40
0.1306034312823402
 40
0.1306034312823402
 40
0.2383620502495462
 40
0.2383620502495462
 40
0.3461206692167522
 40
0.3461206692167522
 40
0.4538792881839582
 40
0.4538792881839582
 40
0.5616379071511642
 40
0.5616379071511642
 40
0.6693965261183703
 40
0.6693965261183703
 40
0.7771551450855763
 40
0.7771551450855763
 40
0.8849137640527823
 40
0.8849137640527823
 40
0.9926723830199882
 40
0.9926723830199882
 40
1.0
 40
1.0
 40
1.0
 40
1.0
 10
56.17688193072208
 20
285.842140304307
 30
-0.0000000000000078
 10
56.03284800005164
 20
285.7826441239505
 30
-0.0000000000000089
 10
55.88570304617032
 20
285.7285617282803
 30
-0.0000000000000099
 10
55.02914772918393
 20
285.4516662762178
 30
-0.0000000000000142
 10
54.24288120481857
 20
285.3419336751017
 30
0.0000000000000071
 10
52.60596716255093
 20
285.3744088717984
 30
-0.0000000000000178
 10
51.74915281174874
 20
285.5147239980944
 30
-0.0000000000000071
 10
50.0101768853127
 20
286.0400372001133
 30
-0.0000000000000036
 10
49.15010390194936
 20
286.4152680383416
 30
-0.0000000000000142
 10
47.45138838172294
 20
287.3940537368873
 30
-0.0000000000000107
 10
46.63934732764489
 20
287.983621905639
 30
-0.0000000000000178
 10
45.12523992787923
 20
289.3322563050029
 30
-0.0000000000000142
 10
44.42224993430592
 20
290.0966566788198
 30
0.0
 10
43.20410041356646
 20
291.7147317913675
 30
-0.0000000000000071
 10
42.67278455652522
 20
292.5910206943244
 30
-0.0000000000000107
 10
41.8408426867756
 20
294.3596863229889
 30
-0.0000000000000071
 10
41.5277334571163
 20
295.2742263182696
 30
-0.0000000000000107
 10
41.14553431770538
 20
297.0638774825055
 30
-0.0000000000000036
 10
41.07381944663388
 20
297.9391875215064
 30
-0.0000000000000036
 10
41.17561316304381
 20
299.6190442255168
 30
-0.0000000000000036
 10
41.34652306248456
 20
300.3947918905214
 30
-0.0000000000000036
 10
41.65643185431807
 20
301.1558674446982
 30
-0.0000000000000017
 10
41.67669540071235
 20
301.2039496873485
 30
-0.0000000000000016
 10
41.69748565656981
 20
301.2516497769731
 30
-0.0000000000000016
  0
SPLINE
  5
128
330
1F
100
AcDbEntity
  8
1
  6
CONTINUOUS
 62
   252
100
AcDbSpline
210
0.0
220
0.0
230
1.0
 70
     8
 71
     3
 72
    26
 73
    22
 74
     0
 42
0.000000001
 43
0.0000000001
 40
0.0
 40
0.0
 40
0.0
 40
0.0
 40
0.0504277528761677
 40
0.0504277528761677
 40
0.1629896607213614
 40
0.1629896607213614
 40
0.275551568566555
 40
0.275551568566555
 40
0.3881134764117487
 40
0.3881134764117487
 40
0.5006753842569424
 40
0.5006753842569424
 40
0.6132372921021361
 40
0.6132372921021361
 40
0.7257991999473298
 40
0.7257991999473298
 40
0.8383611077925234
 40
0.8383611077925234
 40
0.950923015637717
 40
0.950923015637717
 40
1.0
 40
1.0
 40
1.0
 40
1.0
 10
56.33380367100796
 20
286.2262799927537
 30
-0.0000000000000124
 10
56.01554509790392
 20
286.1214951196271
 30
-0.0000000000000122
 10
55.68359821511234
 20
286.0406895121835
 30
-0.0000000000000119
 10
54.58097471111324
 20
285.8621956771747
 30
-0.0000000000000107
 10
53.75204881679235
 20
285.8614597622902
 30
0.0000000000000036
 10
52.05830378479944
 20
286.1090292288142
 30
0.0000000000000071
 10
51.18956060967272
 20
286.3552782970521
 30
-0.0000000000000036
 10
49.45026045465906
 20
287.0842666025782
 30
-0.0000000000000107
 10
48.6061571799206
 20
287.5548853084316
 30
0.0
 10
46.96934412687038
 20
288.7083364159537
 30
-0.0000000000000071
 10
46.19922639176537
 20
289.3767181357468
 30
-0.0000000000000107
 10
44.79948844497542
 20
290.8580436212335
 30
-0.0000000000000107
 10
44.16543649440946
 20
291.6781176347821
 30
-0.0000000000000071
 10
43.10452675071932
 20
293.376823822955
 30
0.0
 10
42.66370460324506
 20
294.2805866805451
 30
-0.0000000000000107
 10
42.02113257020755
 20
296.0727427211014
 30
-0.0000000000000036
 10
41.81042649761357
 20
296.982831338584
 30
0.0
 10
41.6368582154135
 20
298.7375827055351
 30
0.0
 10
41.6703477498323
 20
299.5778196494584
 30
0.0
 10
41.89566253368934
 20
300.7177665532308
 30
0.0
 10
41.98624384637326
 20
301.0491903051394
 30
-0.000000000000002
 10
42.09880048364811
 20
301.3659836070686
 30
-0.0000000000000045
  0
SPLINE
  5
129
330
1F
100
AcDbEntity
  8
1
  6
CONTINUOUS
 62
   252
100
AcDbSpline
210
0.0
220
0.0
230
1.0
 70
     8
 71
     3
 72
    24
 73
    20
 74
     0
 42
0.000000001
 43
0.0000000001
 40
0.0
 40
0.0
 40
0.0
 40
0.0
 40
0.0825903141907922
 40
0.0825903141907922
 40
0.1999061266672525
 40
0.1999061266672525
 40
0.3172219391437128
 40
0.3172219391437128
 40
0.4345377516201731
 40
0.4345377516201731
 40
0.5518535640966333
 40
0.5518535640966333
 40
0.6691693765730936
 40
0.6691693765730936
 40
0.7864851890495538
 40
0.7864851890495538
 40
0.9038010015260141
 40
0.9038010015260141
 40
1.0
 40
1.0
 40
1.0
 40
1.0
 10
56.51919810317492
 20
286.6493089037098
 30
-0.0000000000000055
 10
56.0026093848367
 20
286.5155973745981
 30
-0.0000000000000076
 10
55.45162007303374
 20
286.4412960692529
 30
-0.0000000000000076
 10
54.0790918275175
 20
286.4131258819619
 30
0.0
 10
53.2204971433321
 20
286.5218817277035
 30
-0.0000000000000107
 10
51.49486908252648
 20
286.9815123928464
 30
-0.0000000000000036
 10
50.62624319988757
 20
287.3289788676262
 30
-0.0000000000000036
 10
48.91302668220865
 20
288.2524420840841
 30
0.0
 10
48.09716553578045
 20
288.8115335618673
 30
-0.0000000000000107
 10
46.54545662734568
 20
290.1221887689996
 30
0.0000000000000036
 10
45.82985380361525
 20
290.8608284967708
 30
0.0000000000000071
 10
44.56460959185787
 20
292.4530908154661
 30
0.0000000000000071
 10
44.00875476767612
 20
293.3167075290901
 30
-0.0000000000000071
 10
43.12144821103281
 20
295.0721987947906
 30
0.0000000000000107
 10
42.77687059461475
 20
295.9895240925273
 30
-0.0000000000000036
 10
42.33345847542743
 20
297.7794195041199
 30
-0.0000000000000142
 10
42.22883497670563
 20
298.6724748732485
 30
-0.0000000000000107
 10
42.26279124314986
 20
300.2138181980357
 30
-0.000000000000001
 10
42.35851295047108
 20
300.8723740102833
 30
-0.0000000000000026
 10
42.53644418349035
 20
301.4929475763716
 30
-0.0000000000000072
  0
SPLINE
  5
12A
330
1F
100
AcDbEntity
  8
1
  6
CONTINUOUS
 62
   252
100
AcDbSpline
210
0.0
220
0.0
230
1.0
 70
     8
 71
     3
 72
    24
 73
    20
 74
     0
 42
0.000000001
 43
0.0000000001
 40
0.0
 40
0.0
 40
0.0
 40
0.0
 40
0.1144548661789202
 40
0.1144548661789202
 40
0.2377898429225748
 40
0.2377898429225748
 40
0.3611248196662293
 40
0.3611248196662293
 40
0.4844597964098838
 40
0.4844597964098838
 40
0.6077947731535384
 40
0.6077947731535384
 40
0.7311297498971928
 40
0.7311297498971928
 40
0.8544647266408474
 40
0.8544647266408474
 40
0.977799703384502
 40
0.977799703384502
 40
1.0
 40
1.0
 40
1.0
 40
1.0
 10
56.61804769493302
 20
287.0809314236461
 30
-0.0000000000000118
 10
55.91624559927618
 20
286.9527529245051
 30
-0.0000000000000151
 10
55.15418944978395
 20
286.9296538508514
 30
0.0000000000000012
 10
53.53964671374094
 20
287.1047402799267
 30
-0.0000000000000142
 10
52.66463896160575
 20
287.321697114632
 30
-0.0000000000000213
 10
50.93155656424076
 20
287.9863731029372
 30
-0.0000000000000107
 10
50.07660804280791
 20
288.4302732859146
 30
-0.0000000000000036
 10
48.41475964842282
 20
289.5354596940619
 30
-0.0000000000000071
 10
47.63836258394908
 20
290.1742500007155
 30
-0.0000000000000178
 10
46.19525616063773
 20
291.6238195948363
 30
0.0000000000000036
 10
45.54474546651058
 20
292.4219533700228
 30
-0.0000000000000142
 10
44.43188086681551
 20
294.1015664836244
 30
0.0
 10
43.96360731327257
 20
294.9970782351169
 30
-0.0000000000000142
 10
43.26263050394975
 20
296.7836780399267
 30
0.0000000000000036
 10
43.01922327211305
 20
297.7010096452938
 30
-0.0000000000000036
 10
42.78243510542925
 20
299.4634156866083
 30
-0.0000000000000142
 10
42.78439743308036
 20
300.3256974333153
 30
-0.0000000000000071
 10
42.93096285689771
 20
301.2747231503285
 30
-0.0000000000000071
 10
42.95712350366671
 20
301.4173011808682
 30
-0.0000000000000071
 10
42.98709993235954
 20
301.5576787482887
 30
-0.0000000000000071
  0
SPLINE
  5
12B
330
1F
100
AcDbEntity
  8
1
  6
CONTINUOUS
 62
   252
100
AcDbSpline
210
0.0
220
0.0
230
1.0
 70
     8
 71
     3
 72
    24
 73
    20
 74
     0
 42
0.000000001
 43
0.0000000001
 40
0.0
 40
0.0
 40
0.0
 40
0.0
 40
0.0217616681141626
 40
0.0217616681141626
 40
0.1512953458933206
 40
0.1512953458933206
 40
0.2808290236724786
 40
0.2808290236724786
 40
0.4103627014516366
 40
0.4103627014516366
 40
0.5398963792307946
 40
0.5398963792307946
 40
0.6694300570099526
 40
0.6694300570099526
 40
0.7989637347891106
 40
0.7989637347891106
 40
0.9284974125682688
 40
0.9284974125682688
 40
1.0
 40
1.0
 40
1.0
 40
1.0
 10
56.73681490004169
 20
287.549661920444
 30
-0.000000000000001
 10
56.60596549745019
 20
287.5343181081258
 30
-0.0000000000000009
 10
56.47381902145614
 20
287.522489784575
 30
-0.0000000000000006
 10
55.54761747390978
 20
287.4650160062632
 30
0.0000000000000036
 10
54.69312656764762
 20
287.5409337993513
 30
-0.0000000000000036
 10
52.97945124584191
 20
287.9353617176587
 30
-0.0000000000000142
 10
52.10006530818562
 20
288.2563082864247
 30
0.0000000000000071
 10
50.3855317532696
 20
289.1173534561493
 30
-0.0000000000000071
 10
49.55724219907084
 20
289.6511905568313
 30
-0.0000000000000036
 10
47.97039788154287
 20
290.9218409434912
 30
0.0
 10
47.24568769814714
 20
291.6318160928333
 30
-0.0000000000000142
 10
45.93220679338527
 20
293.1992479128969
 30
-0.0000000000000142
 10
45.35594900468689
 20
294.0447541132912
 30
-0.0000000000000071
 10
44.41263669127883
 20
295.7882448406612
 30
-0.0000000000000036
 10
44.03869564742234
 20
296.702308484631
 30
0.0000000000000036
 10
43.53394573244577
 20
298.493768693818
 30
0.0000000000000036
 10
43.39626989742212
 20
299.3986064186036
 30
0.0000000000000036
 10
43.37547317838315
 20
300.7248326552645
 30
-0.0000000000000102
 10
43.40513573045074
 20
301.1856935357603
 30
-0.000000000000007
 10
43.47163566106385
 20
301.6301428855153
 30
-0.0000000000000043
  0
SPLINE
  5
12C
330
1F
100
AcDbEntity
  8
1
  6
CONTINUOUS
 62
   252
100
AcDbSpline
210
0.0
220
0.0
230
1.0
 70
     8
 71
     3
 72
    22
 73
    18
 74
     0
 42
0.000000001
 43
0.0000000001
 40
0.0
 40
0.0
 40
0.0
 40
0.0
 40
0.0527183052718882
 40
0.0527183052718882
 40
0.190005511256034
 40
0.190005511256034
 40
0.3272927172401797
 40
0.3272927172401797
 40
0.4645799232243255
 40
0.4645799232243255
 40
0.6018671292084712
 40
0.6018671292084712
 40
0.7391543351926169
 40
0.7391543351926169
 40
0.8764415411767627
 40
0.8764415411767627
 40
1.0
 40
1.0
 40
1.0
 40
1.0
 10
56.80096600790469
 20
288.0444469528118
 30
-0.0000000000000012
 10
56.49257493965315
 20
288.0295685073336
 30
0.0000000000000001
 10
56.17757080099982
 20
288.0329067737765
 30
0.0000000000000021
 10
55.02878760854905
 20
288.1116365667955
 30
0.0000000000000107
 10
54.16364114405059
 20
288.2930733999439
 30
-0.0000000000000036
 10
52.42394442181701
 20
288.8956112566975
 30
0.0000000000000036
 10
51.56821174768246
 20
289.3072596326408
 30
-0.0000000000000036
 10
49.8875492978034
 20
290.3557150461264
 30
-0.0000000000000071
 10
49.09250649395537
 20
290.9741523630913
 30
-0.0000000000000213
 10
47.61773690944863
 20
292.3766048479678
 30
0.0000000000000071
 10
46.94085704407592
 20
293.1623430790192
 30
0.0
 10
45.77961655569803
 20
294.8140376663414
 30
0.0000000000000071
 10
45.28166968801782
 20
295.7022704116636
 30
-0.0000000000000071
 10
44.52032897157798
 20
297.48240224023
 30
-0.0000000000000107
 10
44.24496373250342
 20
298.3981681067131
 30
-0.0000000000000071
 10
43.95657198478919
 20
300.0871150863543
 30
0.0000000000000064
 10
43.91709667374717
 20
300.8688748195995
 30
-0.0000000000000074
 10
43.9768874099142
 20
301.6168550216285
 30
-0.0000000000000089
  0
SPLINE
  5
12D
330
1F
100
AcDbEntity
  8
1
  6
CONTINUOUS
 62
   252
100
AcDbSpline
210
0.0
220
0.0
230
1.0
 70
     8
 71
     3
 72
    20
 73
    16
 74
     0
 42
0.000000001
 43
0.0000000001
 40
0.0
 40
0.0
 40
0.0
 40
0.0
 40
0.1249999999999999
 40
0.1249999999999999
 40
0.2499999999999998
 40
0.2499999999999998
 40
0.3749999999999998
 40
0.3749999999999998
 40
0.4999999999999998
 40
0.4999999999999998
 40
0.6249999999999998
 40
0.6249999999999998
 40
0.7499999999999998
 40
0.7499999999999998
 40
1.0
 40
1.0
 40
1.0
 40
1.0
 10
38.60720586134253
 20
291.0676345629295
 30
0.0000000000000036
 10
38.91325744018373
 20
290.2773462093407
 30
0.0000000000000036
 10
39.30111153645743
 20
289.5075523497451
 30
-0.0000000000000107
 10
40.22812954100986
 20
288.0156278279366
 30
0.0
 10
40.77458870228843
 20
287.2891030628618
 30
-0.0000000000000071
 10
41.96753998927906
 20
285.9584646580921
 30
-0.0000000000000071
 10
42.62689108442306
 20
285.3371526433568
 30
-0.0000000000000142
 10
44.02399468776014
 20
284.2328381826157
 30
-0.0000000000000036
 10
44.75171372550107
 20
283.7559039018868
 30
-0.0000000000000036
 10
46.26383551636279
 20
282.9482239013519
 30
0.0
 10
47.03935262176423
 20
282.6249425581682
 30
-0.0000000000000036
 10
48.57025607257064
 20
282.1623721504287
 30
-0.0000000000000036
 10
49.34387460669456
 20
282.0174068538324
 30
0.0
 10
51.56163686678436
 20
281.8647901024496
 30
-0.0000000000000107
 10
52.94037798707739
 20
282.1363624640363
 30
-0.0000000000000036
 10
54.08196545308874
 20
282.7576615660969
 30
-0.0000000000000018
  0
SPLINE
  5
12E
330
1F
100
AcDbEntity
  8
1
  6
CONTINUOUS
 62
   252
100
AcDbSpline
210
0.0
220
0.0
230
1.0
 70
     8
 71
     3
 72
    22
 73
    18
 74
     0
 42
0.000000001
 43
0.0000000001
 40
0.0
 40
0.0
 40
0.0
 40
0.0
 40
0.1249999999999999
 40
0.1249999999999999
 40
0.2499999999999999
 40
0.2499999999999999
 40
0.3749999999999999
 40
0.3749999999999999
 40
0.4999999999999999
 40
0.4999999999999999
 40
0.6249999999999999
 40
0.6249999999999999
 40
0.75
 40
0.75
 40
0.875
 40
0.875
 40
1.0
 40
1.0
 40
1.0
 40
1.0
 10
54.08196545308993
 20
296.4747304973193
 30
-0.0000000000000107
 10
53.51086340972856
 20
297.1732247660995
 30
-0.0000000000000107
 10
52.87623125205958
 20
297.8284924101023
 30
-0.0000000000000107
 10
51.53466271546407
 20
299.0040376623317
 30
-0.0000000000000107
 10
50.82700218721913
 20
299.5267719457972
 30
-0.0000000000000107
 10
49.33480632844258
 20
300.4366570848163
 30
-0.0000000000000036
 10
48.5738608619322
 20
300.8099052422378
 30
-0.0000000000000107
 10
47.04177155204962
 20
301.3874508524158
 30
0.0
 10
46.25978947644539
 20
301.5918301750552
 30
-0.0000000000000071
 10
44.75692662588659
 20
301.8093647676663
 30
-0.0000000000000071
 10
44.02323960218894
 20
301.8273659991707
 30
-0.0000000000000178
 10
42.62093210353552
 20
301.6702157139936
 30
0.0000000000000036
 10
41.97188937277041
 20
301.4990705877413
 30
-0.0000000000000036
 10
40.77495524143026
 20
300.9770951699541
 30
-0.0000000000000071
 10
40.22968115619283
 20
300.6219661692533
 30
0.0000000000000071
 10
39.30460181905144
 20
299.7622004595577
 30
-0.0000000000000107
 10
38.91153490308067
 20
299.2487347490775
 30
-0.0000000000000071
 10
38.60701433469247
 20
298.6690385187092
 30
-0.0000000000000107
  0
MTEXT
  5
12F
102
{ACAD_REACTORS
330
196
102
}
330
1F
100
AcDbEntity
  8
TOP
  6
CONTINUOUS
 62
    80
100
AcDbMText
 10
466.273488
 20
404.91959
 30
0.0
 40
3.0
 41
0.0
 71
     7
 72
     5
  1
\W01.036;\fsimplex.shx,bigfont.shx;CODE NO.\P
  7
DEFAULT
1001
ACAD
1000
MTEXTBEGIN
1070
    73
1070
     2
1070
    44
1040
1.204819
1000
MTEXTEND
  0
MTEXT
  5
133
102
{ACAD_REACTORS
330
196
102
}
330
1F
100
AcDbEntity
  8
TOP
  6
CONTINUOUS
 62
    80
100
AcDbMText
 10
552.446516
 20
3.5
 30
0.0
 40
3.0
 41
0.0
 71
     7
 72
     5
  1
\W00.513;\fsimplex.shx,bigfont.shx;9\P
  7
DEFAULT
1001
ACAD
1000
MTEXTBEGIN
1070
    73
1070
     2
1070
    44
1040
1.204819
1000
MTEXTEND
  0
MTEXT
  5
134
102
{ACAD_REACTORS
330
196
102
}
330
1F
100
AcDbEntity
  8
TOP
  6
CONTINUOUS
 62
    80
100
AcDbMText
 10
421.072206
 20
404.73648
 30
0.0
 40
3.0
 41
0.0
 71
     7
 72
     5
  1
\W01.040;\fsimplex.shx,bigfont.shx;PART NAME\P
  7
DEFAULT
1001
ACAD
1000
MTEXTBEGIN
1070
    73
1070
     2
1070
    44
1040
1.204819
1000
MTEXTEND
  0
MTEXT
  5
135
102
{ACAD_REACTORS
330
196
102
}
330
1F
100
AcDbEntity
  8
TOP
  6
CONTINUOUS
 62
    80
100
AcDbMText
 10
424.513217
 20
27.116896
 30
0.0
 40
2.4
 41
0.0
 71
     7
 72
     5
  1
\W00.963;\fsimplex.shx,bigfont.shx;DIRECTORY\P
  7
DEFAULT
1001
ACAD
1000
MTEXTBEGIN
1070
    73
1070
     2
1070
    44
1040
1.204819
1000
MTEXTEND
  0
MTEXT
  5
136
330
1F
100
AcDbEntity
  8
TOP
  6
CONTINUOUS
 62
     2
100
AcDbMText
 10
550.446501
 20
40.722136
 30
0.0
 40
3.5
 41
0.0
 71
     8
 72
     5
  1
\W01.279;\fsimplex.shx,bigfont.shx;ASSY-CEILING\P
  7
DEFAULT
1001
ACAD
1000
MTEXTBEGIN
1070
    73
1070
     2
1070
    44
1040
1.204819
1000
MTEXTEND
  0
MTEXT
  5
137
330
1F
100
AcDbEntity
  8
TOP
  6
CONTINUOUS
 62
    80
100
AcDbMText
 10
407.536217
 20
399.198685
 30
0.0
 40
3.5
 41
0.0
 71
     7
 72
     5
  1
\W01.000;\fsimplex.shx,bigfont.shx; \P
  7
DEFAULT
1001
ACAD
1000
MTEXTBEGIN
1070
    73
1070
     2
1070
    44
1040
1.204819
1000
MTEXTEND
  0
MTEXT
  5
138
330
1F
100
AcDbEntity
  8
TOP
  6
CONTINUOUS
 62
    53
100
AcDbMText
 10
534.371577
 20
25.98964
 30
0.0
 40
3.5
 41
0.0
 71
     7
 72
     5
  1
\W01.089;\fsimplex.shx;SBP-300CM\fsimplex.shx,bigfont.shx;\P
  7
DEFAULT
1001
ACAD
1000
MTEXTBEGIN
1070
    73
1070
     2
1070
    44
1040
1.204819
1000
MTEXTEND
  0
MTEXT
  5
139
102
{ACAD_REACTORS
330
196
102
}
330
1F
100
AcDbEntity
  8
TOP
  6
CONTINUOUS
 62
    80
100
AcDbMText
 10
17.530746
 20
18.884417
 30
0.0
 40
4.167172
 41
0.0
 71
     7
 72
     5
  1
\W01.000;\fsimplex.shx,bigfont.shx;CHANGE\P
  7
DEFAULT
 11
1.186823893889355E-6
 21
0.9999999999992957
 31
0.0
1001
ACAD
1000
MTEXTBEGIN
1070
    73
1070
     2
1070
    44
1040
1.204819
1000
MTEXTEND
  0
MTEXT
  5
13A
102
{ACAD_REACTORS
330
196
102
}
330
1F
100
AcDbEntity
  8
TOP
  6
CONTINUOUS
 62
    80
100
AcDbMText
 10
406.702755
 20
404.8212
 30
0.0
 40
3.0
 41
0.0
 71
     7
 72
     5
  1
\W00.808;\fsimplex.shx,bigfont.shx;NO\P
  7
DEFAULT
1001
ACAD
1000
MTEXTBEGIN
1070
    73
1070
     2
1070
    44
1040
1.204819
1000
MTEXTEND
  0
MTEXT
  5
13B
102
{ACAD_REACTORS
330
196
102
}
330
1F
100
AcDbEntity
  8
TOP
  6
CONTINUOUS
 62
    80
100
AcDbMText
 10
509.428628
 20
404.91959
 30
0.0
 40
3.0
 41
0.0
 71
     7
 72
     5
  1
\W00.942;\fsimplex.shx,bigfont.shx;COLOR\P
  7
DEFAULT
1001
ACAD
1000
MTEXTBEGIN
1070
    73
1070
     2
1070
    44
1040
1.204819
1000
MTEXTEND
  0
MTEXT
  5
13C
102
{ACAD_REACTORS
330
196
102
}
330
1F
100
AcDbEntity
  8
TOP
  6
CONTINUOUS
 62
    80
100
AcDbMText
 10
543.143262
 20
405.040207
 30
0.0
 40
2.799999
 41
0.0
 71
     7
 72
     5
  1
\W00.949;\fsimplex.shx,bigfont.shx;Q'TY\P
  7
DEFAULT
1001
ACAD
1000
MTEXTBEGIN
1070
    73
1070
     2
1070
    44
1040
1.204819
1000
MTEXTEND
  0
MTEXT
  5
13D
102
{ACAD_REACTORS
330
196
102
}
330
1F
100
AcDbEntity
  8
TOP
  6
CONTINUOUS
 62
    80
100
AcDbMText
 10
560.54019
 20
404.91959
 30
0.0
 40
3.0
 41
0.0
 71
     7
 72
     5
  1
\W01.003;\fsimplex.shx,bigfont.shx;REMARK\P
  7
DEFAULT
1001
ACAD
1000
MTEXTBEGIN
1070
    73
1070
     2
1070
    44
1040
1.204819
1000
MTEXTEND
  0
MTEXT
  5
13E
102
{ACAD_REACTORS
330
196
102
}
330
1F
100
AcDbEntity
  8
TOP
  6
CONTINUOUS
 62
    80
100
AcDbMText
 10
8.499999
 20
38.968128
 30
0.0
 40
3.0
 41
0.0
 71
     7
 72
     5
  1
\W00.869;\fsimplex.shx,bigfont.shx;A\P
  7
DEFAULT
 11
1.186823894333445E-6
 21
0.9999999999992957
 31
0.0
1001
ACAD
1000
MTEXTBEGIN
1070
    73
1070
     2
1070
    44
1040
1.204819
1000
MTEXTEND
  0
MTEXT
  5
13F
102
{ACAD_REACTORS
330
196
102
}
330
1F
100
AcDbEntity
  8
TOP
  6
CONTINUOUS
 62
    80
100
AcDbMText
 10
8.500976
 20
112.917513
 30
0.0
 40
3.0
 41
0.0
 71
     7
 72
     5
  1
\W00.820;\fsimplex.shx,bigfont.shx;B\P
  7
DEFAULT
 11
1.186823894333445E-6
 21
0.9999999999992957
 31
0.0
1001
ACAD
1000
MTEXTBEGIN
1070
    73
1070
     2
1070
    44
1040
1.204819
1000
MTEXTEND
  0
MTEXT
  5
140
102
{ACAD_REACTORS
330
196
102
}
330
1F
100
AcDbEntity
  8
TOP
  6
CONTINUOUS
 62
    80
100
AcDbMText
 10
8.500976
 20
182.074013
 30
0.0
 40
3.0
 41
0.0
 71
     7
 72
     5
  1
\W00.820;\fsimplex.shx,bigfont.shx;C\P
  7
DEFAULT
 11
1.186823894333445E-6
 21
0.9999999999992957
 31
0.0
1001
ACAD
1000
MTEXTBEGIN
1070
    73
1070
     2
1070
    44
1040
1.204819
1000
MTEXTEND
  0
MTEXT
  5
141
102
{ACAD_REACTORS
330
196
102
}
330
1F
100
AcDbEntity
  8
TOP
  6
CONTINUOUS
 62
    80
100
AcDbMText
 10
8.500976
 20
252.599883
 30
0.0
 40
3.0
 41
0.0
 71
     7
 72
     5
  1
\W00.820;\fsimplex.shx,bigfont.shx;D\P
  7
DEFAULT
 11
1.186823894333445E-6
 21
0.9999999999992957
 31
0.0
1001
ACAD
1000
MTEXTBEGIN
1070
    73
1070
     2
1070
    44
1040
1.204819
1000
MTEXTEND
  0
MTEXT
  5
142
102
{ACAD_REACTORS
330
196
102
}
330
1F
100
AcDbEntity
  8
TOP
  6
CONTINUOUS
 62
    80
100
AcDbMText
 10
8.500976
 20
314.909503
 30
0.0
 40
3.0
 41
0.0
 71
     7
 72
     5
  1
\W00.869;\fsimplex.shx,bigfont.shx;E\P
  7
DEFAULT
 11
1.186823894333445E-6
 21
0.9999999999992957
 31
0.0
1001
ACAD
1000
MTEXTBEGIN
1070
    73
1070
     2
1070
    44
1040
1.204819
1000
MTEXTEND
  0
MTEXT
  5
143
102
{ACAD_REACTORS
330
196
102
}
330
1F
100
AcDbEntity
  8
TOP
  6
CONTINUOUS
 62
    80
100
AcDbMText
 10
8.500976
 20
375.847003
 30
0.0
 40
3.0
 41
0.0
 71
     7
 72
     5
  1
\W00.869;\fsimplex.shx,bigfont.shx;F\P
  7
DEFAULT
 11
1.186823894333445E-6
 21
0.9999999999992957
 31
0.0
1001
ACAD
1000
MTEXTBEGIN
1070
    73
1070
     2
1070
    44
1040
1.204819
1000
MTEXTEND
  0
MTEXT
  5
144
102
{ACAD_REACTORS
330
196
102
}
330
1F
100
AcDbEntity
  8
TOP
  6
CONTINUOUS
 62
    80
100
AcDbMText
 10
232.564566
 20
3.5
 30
0.0
 40
3.0
 41
0.0
 71
     7
 72
     5
  1
\W00.547;\fsimplex.shx,bigfont.shx;4\P
  7
DEFAULT
1001
ACAD
1000
MTEXTBEGIN
1070
    73
1070
     2
1070
    44
1040
1.204819
1000
MTEXTEND
  0
MTEXT
  5
145
102
{ACAD_REACTORS
330
196
102
}
330
1F
100
AcDbEntity
  8
TOP
  6
CONTINUOUS
 62
    80
100
AcDbMText
 10
297.073021
 20
3.5
 30
0.0
 40
3.0
 41
0.0
 71
     7
 72
     5
  1
\W00.521;\fsimplex.shx,bigfont.shx;5\P
  7
DEFAULT
1001
ACAD
1000
MTEXTBEGIN
1070
    73
1070
     2
1070
    44
1040
1.204819
1000
MTEXTEND
  0
MTEXT
  5
146
102
{ACAD_REACTORS
330
196
102
}
330
1F
100
AcDbEntity
  8
TOP
  6
CONTINUOUS
 62
    80
100
AcDbMText
 10
361.581766
 20
3.5
 30
0.0
 40
3.0
 41
0.0
 71
     7
 72
     5
  1
\W00.483;\fsimplex.shx,bigfont.shx;6\P
  7
DEFAULT
1001
ACAD
1000
MTEXTBEGIN
1070
    73
1070
     2
1070
    44
1040
1.204819
1000
MTEXTEND
  0
MTEXT
  5
147
102
{ACAD_REACTORS
330
196
102
}
330
1F
100
AcDbEntity
  8
TOP
  6
CONTINUOUS
 62
    80
100
AcDbMText
 10
421.691421
 20
3.5
 30
0.0
 40
3.0
 41
0.0
 71
     7
 72
     5
  1
\W00.521;\fsimplex.shx,bigfont.shx;7\P
  7
DEFAULT
1001
ACAD
1000
MTEXTBEGIN
1070
    73
1070
     2
1070
    44
1040
1.204819
1000
MTEXTEND
  0
MTEXT
  5
148
102
{ACAD_REACTORS
330
196
102
}
330
1F
100
AcDbEntity
  8
TOP
  6
CONTINUOUS
 62
    80
100
AcDbMText
 10
488.280051
 20
3.5
 30
0.0
 40
3.0
 41
0.0
 71
     7
 72
     5
  1
\W00.521;\fsimplex.shx,bigfont.shx;8\P
  7
DEFAULT
1001
ACAD
1000
MTEXTBEGIN
1070
    73
1070
     2
1070
    44
1040
1.204819
1000
MTEXTEND
  0
MTEXT
  5
149
102
{ACAD_REACTORS
330
196
102
}
330
1F
100
AcDbEntity
  8
TOP
  6
CONTINUOUS
 62
    80
100
AcDbMText
 10
198.375432
 20
408.99991
 30
0.0
 40
6.0
 41
0.0
 71
     7
 72
     5
  1
\W00.429;\fsimplex.shx,bigfont.shx;*\P
  7
DEFAULT
1001
ACAD
1000
MTEXTBEGIN
1070
    73
1070
     2
1070
    44
1040
1.204819
1000
MTEXTEND
  0
MTEXT
  5
14A
102
{ACAD_REACTORS
330
196
102
}
330
1F
100
AcDbEntity
  8
TOP
  6
CONTINUOUS
 62
    80
100
AcDbMText
 10
4.376422
 20
281.99991
 30
0.0
 40
6.0
 41
0.0
 71
     7
 72
     5
  1
\W00.429;\fsimplex.shx,bigfont.shx;*\P
  7
DEFAULT
1001
ACAD
1000
MTEXTBEGIN
1070
    73
1070
     2
1070
    44
1040
1.204819
1000
MTEXTEND
  0
MTEXT
  5
14B
102
{ACAD_REACTORS
330
196
102
}
330
1F
100
AcDbEntity
  8
TOP
  6
CONTINUOUS
 62
    80
100
AcDbMText
 10
198.375432
 20
1.0
 30
0.0
 40
6.0
 41
0.0
 71
     7
 72
     5
  1
\W00.429;\fsimplex.shx,bigfont.shx;*\P
  7
DEFAULT
1001
ACAD
1000
MTEXTBEGIN
1070
    73
1070
     2
1070
    44
1040
1.204819
1000
MTEXTEND
  0
MTEXT
  5
14C
102
{ACAD_REACTORS
330
196
102
}
330
1F
100
AcDbEntity
  8
TOP
  6
CONTINUOUS
 62
    80
100
AcDbMText
 10
586.374752
 20
281.99991
 30
0.0
 40
6.0
 41
0.0
 71
     7
 72
     5
  1
\W00.429;\fsimplex.shx,bigfont.shx;*\P
  7
DEFAULT
1001
ACAD
1000
MTEXTBEGIN
1070
    73
1070
     2
1070
    44
1040
1.204819
1000
MTEXTEND
  0
MTEXT
  5
14D
102
{ACAD_REACTORS
330
196
102
}
330
1F
100
AcDbEntity
  8
TOP
  6
CONTINUOUS
 62
    80
100
AcDbMText
 10
388.916825
 20
2.666667
 30
0.0
 40
4.0
 41
0.0
 71
     7
 72
     5
  1
\W00.429;\fsimplex.shx,bigfont.shx;*\P
  7
DEFAULT
1001
ACAD
1000
MTEXTBEGIN
1070
    73
1070
     2
1070
    44
1040
1.204819
1000
MTEXTEND
  0
MTEXT
  5
14E
102
{ACAD_REACTORS
330
196
102
}
330
1F
100
AcDbEntity
  8
TOP
  6
CONTINUOUS
 62
    80
100
AcDbMText
 10
388.375232
 20
408.99991
 30
0.0
 40
6.0
 41
0.0
 71
     7
 72
     5
  1
\W00.429;\fsimplex.shx,bigfont.shx;*\P
  7
DEFAULT
1001
ACAD
1000
MTEXTBEGIN
1070
    73
1070
     2
1070
    44
1040
1.204819
1000
MTEXTEND
  0
MTEXT
  5
14F
102
{ACAD_REACTORS
330
196
102
}
330
1F
100
AcDbEntity
  8
TOP
  6
CONTINUOUS
 62
    80
100
AcDbMText
 10
410.936053
 20
43.99522
 30
0.0
 40
2.4
 41
0.0
 71
     7
 72
     5
  1
\W01.053;\fsimplex.shx,bigfont.shx;UNIT\P
  7
DEFAULT
1001
ACAD
1000
MTEXTBEGIN
1070
    73
1070
     2
1070
    44
1040
1.204819
1000
MTEXTEND
  0
MTEXT
  5
150
102
{ACAD_REACTORS
330
196
102
}
330
1F
100
AcDbEntity
  8
TOP
  6
CONTINUOUS
 62
    80
100
AcDbMText
 10
409.683572
 20
34.594121
 30
0.0
 40
2.4
 41
0.0
 71
     7
 72
     5
  1
\W00.991;\fsimplex.shx,bigfont.shx;SCALE\P
  7
DEFAULT
1001
ACAD
1000
MTEXTBEGIN
1070
    73
1070
     2
1070
    44
1040
1.204819
1000
MTEXTEND
  0
MTEXT
  5
151
102
{ACAD_REACTORS
330
196
102
}
330
1F
100
AcDbEntity
  8
TOP
  6
CONTINUOUS
 62
    80
100
AcDbMText
 10
438.179624
 20
46.312162
 30
0.0
 40
2.5
 41
0.0
 71
     7
 72
     5
  1
\W01.076;\fsimplex.shx,bigfont.shx;DESIGN\P
  7
DEFAULT
1001
ACAD
1000
MTEXTBEGIN
1070
    73
1070
     2
1070
    44
1040
1.204819
1000
MTEXTEND
  0
MTEXT
  5
152
102
{ACAD_REACTORS
330
196
102
}
330
1F
100
AcDbEntity
  8
TOP
  6
CONTINUOUS
 62
    80
100
AcDbMText
 10
462.852995
 20
46.312162
 30
0.0
 40
2.5
 41
0.0
 71
     7
 72
     5
  1
\W00.997;\fsimplex.shx,bigfont.shx;CHECK\P
  7
DEFAULT
1001
ACAD
1000
MTEXTBEGIN
1070
    73
1070
     2
1070
    44
1040
1.204819
1000
MTEXTEND
  0
MTEXT
  5
153
102
{ACAD_REACTORS
330
196
102
}
330
1F
100
AcDbEntity
  8
TOP
  6
CONTINUOUS
 62
    80
100
AcDbMText
 10
505.91909
 20
35.921769
 30
0.0
 40
2.8
 41
0.0
 71
     7
 72
     5
  1
\W00.949;\fsimplex.shx,bigfont.shx;PART\P
  7
DEFAULT
1001
ACAD
1000
MTEXTBEGIN
1070
    73
1070
     2
1070
    44
1040
1.204819
1000
MTEXTEND
  0
MTEXT
  5
154
102
{ACAD_REACTORS
330
196
102
}
330
1F
100
AcDbEntity
  8
TOP
  6
CONTINUOUS
 62
    80
100
AcDbMText
 10
505.966055
 20
31.411782
 30
0.0
 40
2.8
 41
0.0
 71
     7
 72
     5
  1
\W00.956;\fsimplex.shx,bigfont.shx;NAME\P
  7
DEFAULT
1001
ACAD
1000
MTEXTBEGIN
1070
    73
1070
     2
1070
    44
1040
1.204819
1000
MTEXTEND
  0
MTEXT
  5
155
102
{ACAD_REACTORS
330
196
102
}
330
1F
100
AcDbEntity
  8
TOP
  6
CONTINUOUS
 62
    80
100
AcDbMText
 10
505.783322
 20
14.959857
 30
0.0
 40
2.8
 41
0.0
 71
     7
 72
     5
  1
\W00.968;\fsimplex.shx,bigfont.shx;CODE\P
  7
DEFAULT
1001
ACAD
1000
MTEXTBEGIN
1070
    73
1070
     2
1070
    44
1040
1.204819
1000
MTEXTEND
  0
MTEXT
  5
156
102
{ACAD_REACTORS
330
196
102
}
330
1F
100
AcDbEntity
  8
TOP
  6
CONTINUOUS
 62
    80
100
AcDbMText
 10
505.802525
 20
10.894517
 30
0.0
 40
2.8
 41
0.0
 71
     7
 72
     5
  1
\W00.561;\fsimplex.shx,bigfont.shx; NO\P
  7
DEFAULT
1001
ACAD
1000
MTEXTBEGIN
1070
    73
1070
     2
1070
    44
1040
1.204819
1000
MTEXTEND
  0
MTEXT
  5
157
102
{ACAD_REACTORS
330
196
102
}
330
1F
100
AcDbEntity
  8
TOP
  6
CONTINUOUS
 62
    80
100
AcDbMText
 10
482.863021
 20
46.312162
 30
0.0
 40
2.5
 41
0.0
 71
     7
 72
     5
  1
\W01.050;\fsimplex.shx,bigfont.shx;APPROVAL\P
  7
DEFAULT
1001
ACAD
1000
MTEXTBEGIN
1070
    73
1070
     2
1070
    44
1040
1.204819
1000
MTEXTEND
  0
MTEXT
  5
158
102
{ACAD_REACTORS
330
196
102
}
330
1F
100
AcDbEntity
  8
TOP
  6
CONTINUOUS
 62
    80
100
AcDbMText
 10
416.883904
 20
11.282879
 30
0.0
 40
4.5
 41
0.0
 71
     7
 72
     5
  1
\W00.886;\fsimplex.shx,bigfont.shx;SAMSUNG TECHWIN CO.\P
  7
DEFAULT
1001
ACAD
1000
MTEXTBEGIN
1070
    73
1070
     2
1070
    44
1040
1.204819
1000
MTEXTEND
  0
MTEXT
  5
159
102
{ACAD_REACTORS
330
196
102
}
330
1F
100
AcDbEntity
  8
TOP
  6
CONTINUOUS
 62
    80
100
AcDbMText
 10
424.572526
 20
43.401512
 30
0.0
 40
3.8
 41
0.0
 71
     7
 72
     5
  1
\W00.850;\fsimplex.shx,bigfont.shx;mm\P
  7
DEFAULT
1001
ACAD
1000
MTEXTBEGIN
1070
    73
1070
     2
1070
    44
1040
1.204819
1000
MTEXTEND
  0
MTEXT
  5
15A
102
{ACAD_REACTORS
330
196
102
}
330
1F
100
AcDbEntity
  8
TOP
  6
CONTINUOUS
 62
    80
100
AcDbMText
 10
412.201526
 20
27.163736
 30
0.0
 40
2.5
 41
0.0
 71
     7
 72
     5
  1
\W00.880;\fsimplex.shx,bigfont.shx;NODE\P
  7
DEFAULT
1001
ACAD
1000
MTEXTBEGIN
1070
    73
1070
     2
1070
    44
1040
1.204819
1000
MTEXTEND
  0
MTEXT
  5
15B
102
{ACAD_REACTORS
330
196
102
}
330
1F
100
AcDbEntity
  8
TOP
  6
CONTINUOUS
 62
    80
100
AcDbMText
 10
462.67818
 20
27.163427
 30
0.0
 40
2.5
 41
0.0
 71
     7
 72
     5
  1
\W00.962;\fsimplex.shx,bigfont.shx;FILE NAME\P
  7
DEFAULT
1001
ACAD
1000
MTEXTBEGIN
1070
    73
1070
     2
1070
    44
1040
1.204819
1000
MTEXTEND
  0
MTEXT
  5
15C
102
{ACAD_REACTORS
330
196
102
}
330
1F
100
AcDbEntity
  8
TOP
  6
CONTINUOUS
 62
    80
100
AcDbMText
 10
12.258283
 20
52.928576
 30
0.0
 40
2.5
 41
0.0
 71
     7
 72
     5
  1
\W00.889;\fsimplex.shx,bigfont.shx;This parts should not contain any substances which are specified in OQA-2049\P
  7
DEFAULT
1001
ACAD
1000
MTEXTBEGIN
1070
    73
1070
     2
1070
    44
1040
1.204819
1000
MTEXTEND
  0
MTEXT
  5
15D
330
1F
100
AcDbEntity
  8
TOP
  6
CONTINUOUS
 62
    53
100
AcDbMText
 10
422.864879
 20
33.781939
 30
0.0
 40
3.0
 41
0.0
 71
     7
 72
     5
  1
\W01.268;\fsimplex.shx;1/1\fsimplex.shx,bigfont.shx;\P
  7
DEFAULT
1001
ACAD
1000
MTEXTBEGIN
1070
    73
1070
     2
1070
    44
1040
1.204819
1000
MTEXTEND
  0
LINE
  5
15E
330
1F
100
AcDbEntity
  8
TOP
  6
CENTER
 62
     1
100
AcDbLine
 10
31.024216
 20
203.770351
 30
0.0
 11
171.024216
 21
203.770351
 31
0.0
  0
LINE
  5
15F
330
1F
100
AcDbEntity
  8
TOP
  6
CENTER
 62
     1
100
AcDbLine
 10
101.024216
 20
133.770351
 30
0.0
 11
101.024216
 21
273.770351
 31
0.0
  0
INSERT
  5
165
330
1F
100
AcDbEntity
  8
TOP
  6
CONTINUOUS
 62
     1
100
AcDbBlockReference
  2
LABLE3D_1
 10
0.0
 20
0.0
 30
0.0
  0
LINE
  5
168
330
1F
100
AcDbEntity
  8
TOP
  6
CENTER
 62
     7
100
AcDbLine
 10
140.524216
 20
203.770351
 30
0.0
 11
161.524216
 21
203.770351
 31
0.0
  0
LINE
  5
169
330
1F
100
AcDbEntity
  8
TOP
  6
CENTER
 62
     7
100
AcDbLine
 10
101.024216
 20
143.270351
 30
0.0
 11
101.024216
 21
264.270351
 31
0.0
  0
ARC
  5
16A
330
1F
100
AcDbEntity
  8
TOP
  6
CENTER
 62
     7
100
AcDbCircle
 10
101.024216
 20
203.770351
 30
0.0
 40
49.99999999999997
100
AcDbArc
 50
88.281127
 51
86.562253
  0
MTEXT
  5
16B
102
{ACAD_REACTORS
330
195
102
}
330
1F
100
AcDbEntity
  8
TOP
  6
CONTINUOUS
 62
     1
100
AcDbMText
 10
146.705039
 20
145.465649
 30
0.0
 40
6.0
 41
0.0
 71
     7
 72
     5
  1
\W02.471;\fsimplex.shx,bigfont.shx;%%c\P
  7
DEFAULT
 11
0.5887464683671506
 21
-0.8083177568167161
 31
0.0
1001
ACAD
1000
MTEXTBEGIN
1070
    44
1040
0.903614
1000
MTEXTEND
  0
MTEXT
  5
16C
102
{ACAD_REACTORS
330
195
102
}
330
1F
100
AcDbEntity
  8
TOP
  6
CONTINUOUS
 62
     1
100
AcDbMText
 10
153.741356
 20
135.744974
 30
0.0
 40
6.0
 41
0.0
 71
     7
 72
     5
  1
\W00.933;\fsimplex.shx,bigfont.shx;100\P
  7
DEFAULT
 11
0.5887464683671506
 21
-0.8083177568167161
 31
0.0
1001
ACAD
1000
MTEXTBEGIN
1070
    44
1040
0.903614
1000
MTEXTEND
  0
LINE
  5
16D
102
{ACAD_REACTORS
330
170
102
}
330
1F
100
AcDbEntity
  8
1
  6
CONTINUOUS
 62
     7
 60
     1
100
AcDbLine
 10
71.586893
 20
244.186239
 30
0.0
 11
76.194567
 21
240.119468
 31
0.0
  0
LINE
  5
16E
102
{ACAD_REACTORS
330
170
102
}
330
1F
100
AcDbEntity
  8
1
  6
CONTINUOUS
 62
     7
 60
     1
100
AcDbLine
 10
76.194567
 20
240.119468
 30
0.0
 11
74.044176
 21
238.553196
 31
0.0
  0
LINE
  5
16F
102
{ACAD_REACTORS
330
170
102
}
330
1F
100
AcDbEntity
  8
1
  6
CONTINUOUS
 62
     7
 60
     1
100
AcDbLine
 10
74.044176
 20
238.553196
 30
0.0
 11
71.586893
 21
244.186239
 31
0.0
  0
HATCH
  5
170
102
{ACAD_REACTORS
330
195
102
}
330
1F
100
AcDbEntity
  8
TOP
  6
CONTINUOUS
 62
     7
100
AcDbHatch
 10
0.0
 20
0.0
 30
0.0
210
0.0
220
0.0
230
1.0
  2
ANSI31
 70
     0
 71
     1
 91
        1
 92
        0
 93
        3
 72
     1
 10
71.58689259006583
 20
244.1862386686212
 11
76.19456691809283
 21
240.1194677752611
 72
     1
 10
76.19456691809283
 20
240.1194677752611
 11
74.04417588244469
 21
238.5531964801807
 72
     1
 10
74.04417588244469
 20
238.5531964801807
 11
71.58689259006583
 21
244.1862386686212
 97
        3
330
16D
330
16E
330
16F
 75
     0
 76
     0
 52
45.0
 41
0.001
 77
     0
 78
     1
 53
44.99999999999991
 43
0.0
 44
0.0
 45
-0.0007071067811865
 46
0.0007071067811865
 79
     0
 98
        0
  0
LINE
  5
171
102
{ACAD_REACTORS
330
174
102
}
330
1F
100
AcDbEntity
  8
1
  6
CONTINUOUS
 62
     7
 60
     1
100
AcDbLine
 10
130.461539
 20
163.354463
 30
0.0
 11
125.853865
 21
167.421234
 31
0.0
  0
LINE
  5
172
102
{ACAD_REACTORS
330
174
102
}
330
1F
100
AcDbEntity
  8
1
  6
CONTINUOUS
 62
     7
 60
     1
100
AcDbLine
 10
125.853865
 20
167.421234
 30
0.0
 11
128.004256
 21
168.987505
 31
0.0
  0
LINE
  5
173
102
{ACAD_REACTORS
330
174
102
}
330
1F
100
AcDbEntity
  8
1
  6
CONTINUOUS
 62
     7
 60
     1
100
AcDbLine
 10
128.004256
 20
168.987505
 30
0.0
 11
130.461539
 21
163.354463
 31
0.0
  0
HATCH
  5
174
102
{ACAD_REACTORS
330
195
102
}
330
1F
100
AcDbEntity
  8
TOP
  6
CONTINUOUS
 62
     7
100
AcDbHatch
 10
0.0
 20
0.0
 30
0.0
210
0.0
220
0.0
230
1.0
  2
ANSI31
 70
     0
 71
     1
 91
        1
 92
        0
 93
        3
 72
     1
 10
130.4615394267813
 20
163.35446298695
 11
125.8538650987543
 21
167.42123388031
 72
     1
 10
125.8538650987543
 20
167.42123388031
 11
128.0042561344025
 21
168.9875051753905
 72
     1
 10
128.0042561344025
 20
168.9875051753905
 11
130.4615394267813
 21
163.35446298695
 97
        3
330
171
330
172
330
173
 75
     0
 76
     0
 52
45.0
 41
0.001
 77
     0
 78
     1
 53
44.99999999999989
 43
0.0
 44
0.0
 45
-0.0007071067811865
 46
0.0007071067811865
 79
     0
 98
        0
  0
DIMENSION
  5
17E
330
1F
100
AcDbEntity
  8
TOP
  6
CONTINUOUS
 62
     1
100
AcDbDimension
  2
DIMNDRAFT3D1
 10
104.014097
 20
149.154009
 30
0.0
 11
135.068705
 21
109.483981
 31
0.0
 70
    35
 53
302.930054
  3
STANDARD
100
AcDbDiametricDimension
 15
98.034335
 25
158.386692
 35
0.0
 40
0.0
1001
ACAD
1000
DSTYLE
1002
{
1070
    75
1070
     1
1070
    76
1070
     1
1070
   271
1070
     2
1070
   272
1070
     2
1070
    77
1070
     1
1070
    73
1070
     0
1070
   171
1070
     3
1070
   274
1070
     4
1070
   177
1070
     1
1070
   176
1070
     1
1070
   178
1070
     1
1070
    78
1070
     8
1070
    48
1040
-0.005
1070
    41
1041
6.0
1070
   147
1041
1.5
1070
    42
1041
0.3
1070
    44
1041
2.0
1070
   140
1041
6.0
1070
     6
1000
_CLOSEDFILLED_TYPE
1070
     7
1000
_CLOSEDFILLED_TYPE
1002
}
  0
DIMENSION
  5
188
330
1F
100
AcDbEntity
  8
TOP
  6
CONTINUOUS
 62
     1
100
AcDbDimension
  2
DIMNDRAFT3D2
 10
536.32619
 20
285.937971
 30
0.0
 11
368.72044
 21
286.937971
 31
0.0
 70
    32
  1
\C1 <> 
  3
STANDARD
100
AcDbAlignedDimension
 13
230.82619
 23
204.071351
 33
0.0
 14
536.32619
 24
269.070351
 34
0.0
100
AcDbRotatedDimension
1001
ACAD
1000
DSTYLE
1002
{
1070
   271
1070
     2
1070
   272
1070
     2
1070
    77
1070
     1
1070
    73
1070
     0
1070
   171
1070
     3
1070
   274
1070
     4
1070
   177
1070
     1
1070
   176
1070
     1
1070
   178
1070
     1
1070
    78
1070
     8
1070
    48
1040
-0.005
1070
    41
1041
6.0
1070
   147
1041
1.5
1070
    42
1041
0.3
1070
    44
1041
2.0
1070
   140
1041
6.0
1070
     6
1000
_CLOSEDFILLED_TYPE
1070
     7
1000
_CLOSEDFILLED_TYPE
1002
}
  0
DIMENSION
  5
193
330
1F
100
AcDbEntity
  8
TOP
  6
CONTINUOUS
 62
     1
100
AcDbDimension
  2
DIMNDRAFT3D3
 10
564.436428
 20
138.770351
 30
0.0
 11
557.936428
 21
203.640851
 31
0.0
 70
    32
  1
\C1;\H12.00;%%c\H6.00;\C1 <> 
 53
90.0
  3
STANDARD
100
AcDbAlignedDimension
 13
536.62619
 23
268.770351
 33
0.0
 14
536.62619
 24
138.770351
 34
0.0
 50
90.0
100
AcDbRotatedDimension
1001
ACAD
1000
DSTYLE
1002
{
1070
   271
1070
     2
1070
   272
1070
     2
1070
    77
1070
     1
1070
    73
1070
     0
1070
   171
1070
     3
1070
   274
1070
     4
1070
   177
1070
     1
1070
   176
1070
     1
1070
   178
1070
     1
1070
    78
1070
     8
1070
    48
1040
-0.005
1070
    41
1041
6.0
1070
   147
1041
1.5
1070
    42
1041
0.3
1070
    44
1041
2.0
1070
   140
1041
6.0
1070
     6
1000
_CLOSEDFILLED_TYPE
1070
     7
1000
_CLOSEDFILLED_TYPE
1002
}
  0
ENDSEC
  0
SECTION
  2
OBJECTS
  0
DICTIONARY
  5
C
330
0
100
AcDbDictionary
  3
ACAD_GROUP
350
D
  3
ACAD_LAYOUT
350
1A
  3
ACAD_MLEADERSTYLE
350
1C8
  3
ACAD_MLINESTYLE
350
17
  3
ACAD_PLOTSETTINGS
350
19
  3
ACAD_TABLESTYLE
350
1C7
  3
ACAD_VISUALSTYLE
350
2A
  3
ACDBHEADERROUNDTRIPXREC
350
1A7
  0
DICTIONARY
  5
D
102
{ACAD_REACTORS
330
C
102
}
330
C
100
AcDbDictionary
  3
A2
350
196
  3
CENTERLINE
350
194
  3
DIMENSION
350
195
  0
DICTIONARY
  5
1A
102
{ACAD_REACTORS
330
C
102
}
330
C
100
AcDbDictionary
  0
DICTIONARY
  5
1C8
102
{ACAD_REACTORS
330
C
102
}
330
C
100
AcDbDictionary
  0
DICTIONARY
  5
17
102
{ACAD_REACTORS
330
C
102
}
330
C
100
AcDbDictionary
  3
STANDARD
350
18
  0
DICTIONARY
  5
19
102
{ACAD_REACTORS
330
C
102
}
330
C
100
AcDbDictionary
  0
DICTIONARY
  5
1C7
102
{ACAD_REACTORS
330
C
102
}
330
C
100
AcDbDictionary
  0
DICTIONARY
  5
2A
102
{ACAD_REACTORS
330
C
102
}
330
C
100
AcDbDictionary
  3
2DWIREFRAME
350
2F
  3
3D_HIDDEN
350
31
  3
3DWIREFRAME
350
30
  3
BASIC
350
32
  3
BRIGHTEN
350
36
  3
COLORCHANGE
350
3A
  3
CONCEPTUAL
350
34
  3
DIM
350
35
  3
FACEPATTERN
350
39
  3
FLAT
350
2B
  3
FLATWITHEDGES
350
2C
  3
GOURAUD
350
2D
  3
GOURAUDWITHEDGES
350
2E
  3
LINEPATTERN
350
38
  3
REALISTIC
350
33
  3
THICKEN
350
37
  0
DICTIONARY
  5
1A7
102
{ACAD_REACTORS
330
C
102
}
330
C
100
AcDbDictionary
  3
CEPSNTYPE
350
1B0
  3
DIMSTYLEDATA
350
1C6
  3
FINGERPRINTGUID
350
1B1
  3
HYPERLINKBASE
350
1AA
  3
INSUNITS
350
1AF
  3
LAYOUTDICT
350
1AC
  3
LWETCUNION
350
1AE
  3
PLOTSETDICT
350
1AD
  3
PSVPSCALE
350
1B3
  3
PUCSBASE
350
1B6
  3
PUCSORGBACK
350
1BC
  3
PUCSORGBOTTOM
350
1B8
  3
PUCSORGFRONT
350
1BB
  3
PUCSORGLEFT
350
1B9
  3
PUCSORGRIGHT
350
1BA
  3
PUCSORGTOP
350
1B7
  3
PUCSORTHOREF
350
1B4
  3
PUCSORTHOVIEW
350
1B5
  3
STYLESHEET
350
1AB
  3
TSTACKALIGN
350
1A8
  3
TSTACKSIZE
350
1A9
  3
UCSBASE
350
1BF
  3
UCSORGBACK
350
1C5
  3
UCSORGBOTTOM
350
1C1
  3
UCSORGFRONT
350
1C4
  3
UCSORGLEFT
350
1C2
  3
UCSORGRIGHT
350
1C3
  3
UCSORGTOP
350
1C0
  3
UCSORTHOREF
350
1BD
  3
UCSORTHOVIEW
350
1BE
  3
VERSIONGUID
350
1B2
  0
GROUP
  5
196
102
{ACAD_REACTORS
330
D
102
}
330
D
100
AcDbGroup
300

 70
     0
 71
     1
340
90
340
92
340
93
340
94
340
95
340
96
340
97
340
98
340
99
340
9A
340
9B
340
9C
340
9D
340
9E
340
9F
340
A0
340
A1
340
A2
340
A3
340
A4
340
A5
340
A6
340
A7
340
A8
340
A9
340
AA
340
AB
340
AC
340
AD
340
AE
340
AF
340
B0
340
B1
340
B2
340
B3
340
B4
340
B5
340
B6
340
B7
340
B8
340
B9
340
BA
340
BB
340
BC
340
BD
340
BE
340
BF
340
C0
340
C1
340
C2
340
C3
340
C4
340
C5
340
C6
340
C7
340
C8
340
C9
340
CA
340
139
340
13A
340
134
340
12F
340
13B
340
13C
340
13D
340
13E
340
13F
340
140
340
141
340
142
340
143
340
144
340
145
340
146
340
147
340
148
340
133
340
149
340
14A
340
14B
340
14C
340
14D
340
14E
340
14F
340
150
340
151
340
152
340
153
340
154
340
155
340
156
340
157
340
158
340
159
340
15A
340
135
340
15B
340
15C
  0
GROUP
  5
194
102
{ACAD_REACTORS
330
D
102
}
330
D
100
AcDbGroup
300

 70
     0
 71
     1
340
D3
  0
GROUP
  5
195
102
{ACAD_REACTORS
330
D
102
}
330
D
100
AcDbGroup
300

 70
     0
 71
     1
340
D4
340
16B
340
16C
340
170
340
174
  0
MLINESTYLE
  5
18
102
{ACAD_REACTORS
330
17
102
}
330
17
100
AcDbMlineStyle
  2
Standard
 70
     0
  3

 62
   256
 51
90.0
 52
90.0
 71
     2
 49
0.5
 62
   256
  6
BYLAYER
 49
-0.5
 62
   256
  6
BYLAYER
  0
VISUALSTYLE
  5
2F
102
{ACAD_REACTORS
330
2A
102
}
330
2A
100
AcDbVisualStyle
  2
2dWireframe
 70
     4
 71
     0
 72
     2
 73
     0
 90
        0
 40
-0.6
 41
-30.0
 62
     5
 63
     7
 74
     1
 91
        4
 64
     7
 65
   257
 75
     1
175
     1
 42
1.0
 92
        0
 66
   257
 43
1.0
 76
     1
 77
     6
 78
     2
 67
     7
 79
     5
170
     0
171
     0
290
     0
174
     0
 93
        1
 44
0.0
173
     0
291
     0
 45
0.0
1001
ACAD
1000
AcDbSavedByObjectVersion
1070
     0
  0
VISUALSTYLE
  5
31
102
{ACAD_REACTORS
330
2A
102
}
330
2A
100
AcDbVisualStyle
  2
3D Hidden
 70
     6
 71
     1
 72
     2
 73
     2
 90
        0
 40
-0.6
 41
-30.0
 62
     5
 63
     7
 74
     2
 91
        2
 64
     7
 65
   257
 75
     2
175
     1
 42
40.0
 92
        0
 66
   257
 43
1.0
 76
     1
 77
     6
 78
     2
 67
     7
 79
     3
170
     0
171
     0
290
     0
174
     0
 93
        1
 44
0.0
173
     0
291
     0
 45
0.0
1001
ACAD
1000
AcDbSavedByObjectVersion
1070
     0
  0
VISUALSTYLE
  5
30
102
{ACAD_REACTORS
330
2A
102
}
330
2A
100
AcDbVisualStyle
  2
3dWireframe
 70
     5
 71
     0
 72
     2
 73
     0
 90
        0
 40
-0.6
 41
-30.0
 62
     5
 63
     7
 74
     1
 91
        4
 64
     7
 65
   257
 75
     1
175
     1
 42
1.0
 92
        0
 66
   257
 43
1.0
 76
     1
 77
     6
 78
     2
 67
     7
 79
     5
170
     0
171
     0
290
     0
174
     0
 93
        1
 44
0.0
173
     0
291
     0
 45
0.0
1001
ACAD
1000
AcDbSavedByObjectVersion
1070
     0
  0
VISUALSTYLE
  5
32
102
{ACAD_REACTORS
330
2A
102
}
330
2A
100
AcDbVisualStyle
  2
Basic
 70
     7
 71
     1
 72
     0
 73
     1
 90
        0
 40
-0.6
 41
-30.0
 62
     5
 63
     7
 74
     0
 91
        4
 64
     7
 65
   257
 75
     1
175
     1
 42
1.0
 92
        8
 66
     7
 43
1.0
 76
     1
 77
     6
 78
     2
 67
     7
 79
     5
170
     0
171
     0
290
     0
174
     0
 93
        1
 44
0.0
173
     0
291
     1
 45
0.0
1001
ACAD
1000
AcDbSavedByObjectVersion
1070
     0
  0
VISUALSTYLE
  5
36
102
{ACAD_REACTORS
330
2A
102
}
330
2A
100
AcDbVisualStyle
  2
Brighten
 70
    12
 71
     2
 72
     2
 73
     0
 90
        0
 40
-0.6
 41
-30.0
 62
     5
 63
     7
 74
     1
 91
        4
 64
     7
 65
   257
 75
     1
175
     1
 42
1.0
 92
        8
 66
     7
 43
1.0
 76
     1
 77
     6
 78
     2
 67
     7
 79
     5
170
     0
171
     0
290
     0
174
     0
 93
        1
 44
50.0
173
     0
291
     1
 45
0.0
1001
ACAD
1000
AcDbSavedByObjectVersion
1070
     0
  0
VISUALSTYLE
  5
3A
102
{ACAD_REACTORS
330
2A
102
}
330
2A
100
AcDbVisualStyle
  2
ColorChange
 70
    16
 71
     2
 72
     2
 73
     3
 90
        0
 40
-0.6
 41
-30.0
 62
     5
 63
     8
 74
     1
 91
        4
 64
     7
 65
   257
 75
     1
175
     1
 42
1.0
 92
        8
 66
     8
 43
1.0
 76
     1
 77
     6
 78
     2
 67
     7
 79
     5
170
     0
171
     0
290
     0
174
     0
 93
        1
 44
0.0
173
     0
291
     1
 45
0.0
1001
ACAD
1000
AcDbSavedByObjectVersion
1070
     0
  0
VISUALSTYLE
  5
34
102
{ACAD_REACTORS
330
2A
102
}
330
2A
100
AcDbVisualStyle
  2
Conceptual
 70
     9
 71
     3
 72
     2
 73
     0
 90
        0
 40
-0.6
 41
-30.0
 62
     5
 63
     7
 74
     2
 91
        2
 64
     7
 65
   257
 75
     1
175
     1
 42
40.0
 92
        8
 66
     7
 43
1.0
 76
     1
 77
     6
 78
     2
 67
     7
 79
     3
170
     0
171
     0
290
     0
174
     0
 93
        1
 44
0.0
173
     0
291
     0
 45
0.0
1001
ACAD
1000
AcDbSavedByObjectVersion
1070
     0
  0
VISUALSTYLE
  5
35
102
{ACAD_REACTORS
330
2A
102
}
330
2A
100
AcDbVisualStyle
  2
Dim
 70
    11
 71
     2
 72
     2
 73
     0
 90
        0
 40
-0.6
 41
-30.0
 62
     5
 63
     7
 74
     1
 91
        4
 64
     7
 65
   257
 75
     1
175
     1
 42
1.0
 92
        8
 66
     7
 43
1.0
 76
     1
 77
     6
 78
     2
 67
     7
 79
     5
170
     0
171
     0
290
     0
174
     0
 93
        1
 44
-50.0
173
     0
291
     1
 45
0.0
1001
ACAD
1000
AcDbSavedByObjectVersion
1070
     0
  0
VISUALSTYLE
  5
39
102
{ACAD_REACTORS
330
2A
102
}
330
2A
100
AcDbVisualStyle
  2
Facepattern
 70
    15
 71
     2
 72
     2
 73
     0
 90
        0
 40
-0.6
 41
-30.0
 62
     5
 63
     7
 74
     1
 91
        4
 64
     7
 65
   257
 75
     1
175
     1
 42
1.0
 92
        8
 66
     7
 43
1.0
 76
     1
 77
     6
 78
     2
 67
     7
 79
     5
170
     0
171
     0
290
     0
174
     0
 93
        1
 44
0.0
173
     0
291
     1
 45
0.0
1001
ACAD
1000
AcDbSavedByObjectVersion
1070
     0
  0
VISUALSTYLE
  5
2B
102
{ACAD_REACTORS
330
2A
102
}
330
2A
100
AcDbVisualStyle
  2
Flat
 70
     0
 71
     2
 72
     1
 73
     1
 90
        2
 40
-0.6
 41
30.0
 62
     5
 63
     7
 74
     0
 91
        4
 64
     7
 65
   257
 75
     1
175
     1
 42
1.0
 92
        8
 66
     7
 43
1.0
 76
     1
 77
     6
 78
     2
 67
     7
 79
     5
170
     0
171
     0
290
     0
174
     0
 93
       13
 44
0.0
173
     0
291
     1
 45
0.0
1001
ACAD
1000
AcDbSavedByObjectVersion
1070
     0
  0
VISUALSTYLE
  5
2C
102
{ACAD_REACTORS
330
2A
102
}
330
2A
100
AcDbVisualStyle
  2
FlatWithEdges
 70
     1
 71
     2
 72
     1
 73
     1
 90
        2
 40
-0.6
 41
30.0
 62
     5
 63
     7
 74
     1
 91
        4
 64
     7
 65
   257
 75
     1
175
     1
 42
1.0
 92
        0
 66
   257
 43
1.0
 76
     1
 77
     6
 78
     2
 67
     7
 79
     5
170
     0
171
     0
290
     0
174
     0
 93
       13
 44
0.0
173
     0
291
     1
 45
0.0
1001
ACAD
1000
AcDbSavedByObjectVersion
1070
     0
  0
VISUALSTYLE
  5
2D
102
{ACAD_REACTORS
330
2A
102
}
330
2A
100
AcDbVisualStyle
  2
Gouraud
 70
     2
 71
     2
 72
     2
 73
     1
 90
        2
 40
-0.6
 41
30.0
 62
     5
 63
     7
 74
     0
 91
        4
 64
     7
 65
   257
 75
     1
175
     1
 42
1.0
 92
        0
 66
     7
 43
1.0
 76
     1
 77
     6
 78
     2
 67
     7
 79
     5
170
     0
171
     0
290
     0
174
     0
 93
       13
 44
0.0
173
     0
291
     1
 45
0.0
1001
ACAD
1000
AcDbSavedByObjectVersion
1070
     0
  0
VISUALSTYLE
  5
2E
102
{ACAD_REACTORS
330
2A
102
}
330
2A
100
AcDbVisualStyle
  2
GouraudWithEdges
 70
     3
 71
     2
 72
     2
 73
     1
 90
        2
 40
-0.6
 41
30.0
 62
     5
 63
     7
 74
     1
 91
        4
 64
     7
 65
   257
 75
     1
175
     1
 42
1.0
 92
        0
 66
   257
 43
1.0
 76
     1
 77
     6
 78
     2
 67
     7
 79
     5
170
     0
171
     0
290
     0
174
     0
 93
       13
 44
0.0
173
     0
291
     1
 45
0.0
1001
ACAD
1000
AcDbSavedByObjectVersion
1070
     0
  0
VISUALSTYLE
  5
38
102
{ACAD_REACTORS
330
2A
102
}
330
2A
100
AcDbVisualStyle
  2
Linepattern
 70
    14
 71
     2
 72
     2
 73
     0
 90
        0
 40
-0.6
 41
-30.0
 62
     5
 63
     7
 74
     1
 91
        4
 64
     7
 65
   257
 75
     7
175
     7
 42
1.0
 92
        8
 66
     7
 43
1.0
 76
     1
 77
     6
 78
     2
 67
     7
 79
     5
170
     0
171
     0
290
     0
174
     0
 93
        1
 44
0.0
173
     0
291
     1
 45
0.0
1001
ACAD
1000
AcDbSavedByObjectVersion
1070
     0
  0
VISUALSTYLE
  5
33
102
{ACAD_REACTORS
330
2A
102
}
330
2A
100
AcDbVisualStyle
  2
Realistic
 70
     8
 71
     2
 72
     2
 73
     0
 90
        0
 40
-0.6
 41
-30.0
 62
     5
 63
     7
 74
     1
 91
        0
 64
     7
 65
   257
 75
     1
175
     1
 42
1.0
 92
        8
 66
     8
 43
1.0
 76
     1
 77
     6
 78
     2
 67
     7
 79
     5
170
     0
171
     0
290
     0
174
     0
 93
       13
 44
0.0
173
     0
291
     0
 45
0.0
1001
ACAD
1000
AcDbSavedByObjectVersion
1070
     0
  0
VISUALSTYLE
  5
37
102
{ACAD_REACTORS
330
2A
102
}
330
2A
100
AcDbVisualStyle
  2
Thicken
 70
    13
 71
     2
 72
     2
 73
     0
 90
        0
 40
-0.6
 41
-30.0
 62
     5
 63
     7
 74
     1
 91
        4
 64
     7
 65
   257
 75
     1
175
     1
 42
1.0
 92
       12
 66
     7
 43
1.0
 76
     1
 77
     6
 78
     2
 67
     7
 79
     5
170
     0
171
     0
290
     0
174
     0
 93
        1
 44
0.0
173
     0
291
     1
 45
0.0
1001
ACAD
1000
AcDbSavedByObjectVersion
1070
     0
  0
XRECORD
  5
1B0
102
{ACAD_REACTORS
330
1A7
102
}
330
1A7
100
AcDbXrecord
 90
        0
  0
XRECORD
  5
1C6
102
{ACAD_REACTORS
330
1A7
102
}
330
1A7
100
AcDbXrecord
1000
DSTYLE
1002
{
1070
   171
 70
     2
1070
   143
 40
25.4
1070
   274
 70
     2
1070
    41
 40
0.18
1070
   141
 40
0.09
1070
   271
 70
     4
1070
    43
 40
0.38
1070
   278
 70
    46
1070
    44
 40
0.18
1070
    42
 40
0.0625
1070
   147
 40
0.09
1070
    77
 70
     0
1070
   272
 70
     4
1070
    73
 70
     1
1070
   172
 70
     0
1070
    74
 70
     1
1070
   283
 70
     1
1070
   340
340
11
1070
   140
 40
0.18
1070
   284
 70
     0
1070
    78
 70
     0
1002
}
  0
XRECORD
  5
1B1
102
{ACAD_REACTORS
330
1A7
102
}
330
1A7
100
AcDbXrecord
  1
{83F0E5AF-36D5-460E-AAC4-7338E4D79869}
  0
XRECORD
  5
1AA
102
{ACAD_REACTORS
330
1A7
102
}
330
1A7
100
AcDbXrecord
  1

  0
XRECORD
  5
1AF
102
{ACAD_REACTORS
330
1A7
102
}
330
1A7
100
AcDbXrecord
 90
        4
  0
XRECORD
  5
1AC
102
{ACAD_REACTORS
330
1A7
102
}
330
1A7
100
AcDbXrecord
340
1A
  0
XRECORD
  5
1AE
102
{ACAD_REACTORS
330
1A7
102
}
330
1A7
100
AcDbXrecord
 90
    10781
  0
XRECORD
  5
1AD
102
{ACAD_REACTORS
330
1A7
102
}
330
1A7
100
AcDbXrecord
340
19
  0
XRECORD
  5
1B3
102
{ACAD_REACTORS
330
1A7
102
}
330
1A7
100
AcDbXrecord
 40
0.0
  0
XRECORD
  5
1B6
102
{ACAD_REACTORS
330
1A7
102
}
330
1A7
100
AcDbXrecord
340
0
  0
XRECORD
  5
1BC
102
{ACAD_REACTORS
330
1A7
102
}
330
1A7
100
AcDbXrecord
 10
0.0
 20
0.0
 30
0.0
  0
XRECORD
  5
1B8
102
{ACAD_REACTORS
330
1A7
102
}
330
1A7
100
AcDbXrecord
 10
0.0
 20
0.0
 30
0.0
  0
XRECORD
  5
1BB
102
{ACAD_REACTORS
330
1A7
102
}
330
1A7
100
AcDbXrecord
 10
0.0
 20
0.0
 30
0.0
  0
XRECORD
  5
1B9
102
{ACAD_REACTORS
330
1A7
102
}
330
1A7
100
AcDbXrecord
 10
0.0
 20
0.0
 30
0.0
  0
XRECORD
  5
1BA
102
{ACAD_REACTORS
330
1A7
102
}
330
1A7
100
AcDbXrecord
 10
0.0
 20
0.0
 30
0.0
  0
XRECORD
  5
1B7
102
{ACAD_REACTORS
330
1A7
102
}
330
1A7
100
AcDbXrecord
 10
0.0
 20
0.0
 30
0.0
  0
XRECORD
  5
1B4
102
{ACAD_REACTORS
330
1A7
102
}
330
1A7
100
AcDbXrecord
340
0
  0
XRECORD
  5
1B5
102
{ACAD_REACTORS
330
1A7
102
}
330
1A7
100
AcDbXrecord
 70
     0
  0
XRECORD
  5
1AB
102
{ACAD_REACTORS
330
1A7
102
}
330
1A7
100
AcDbXrecord
  1

  0
XRECORD
  5
1A8
102
{ACAD_REACTORS
330
1A7
102
}
330
1A7
100
AcDbXrecord
 90
        1
  0
XRECORD
  5
1A9
102
{ACAD_REACTORS
330
1A7
102
}
330
1A7
100
AcDbXrecord
 90
       70
  0
XRECORD
  5
1BF
102
{ACAD_REACTORS
330
1A7
102
}
330
1A7
100
AcDbXrecord
340
0
  0
XRECORD
  5
1C5
102
{ACAD_REACTORS
330
1A7
102
}
330
1A7
100
AcDbXrecord
 10
0.0
 20
0.0
 30
0.0
  0
XRECORD
  5
1C1
102
{ACAD_REACTORS
330
1A7
102
}
330
1A7
100
AcDbXrecord
 10
0.0
 20
0.0
 30
0.0
  0
XRECORD
  5
1C4
102
{ACAD_REACTORS
330
1A7
102
}
330
1A7
100
AcDbXrecord
 10
0.0
 20
0.0
 30
0.0
  0
XRECORD
  5
1C2
102
{ACAD_REACTORS
330
1A7
102
}
330
1A7
100
AcDbXrecord
 10
0.0
 20
0.0
 30
0.0
  0
XRECORD
  5
1C3
102
{ACAD_REACTORS
330
1A7
102
}
330
1A7
100
AcDbXrecord
 10
0.0
 20
0.0
 30
0.0
  0
XRECORD
  5
1C0
102
{ACAD_REACTORS
330
1A7
102
}
330
1A7
100
AcDbXrecord
 10
0.0
 20
0.0
 30
0.0
  0
XRECORD
  5
1BD
102
{ACAD_REACTORS
330
1A7
102
}
330
1A7
100
AcDbXrecord
340
0
  0
XRECORD
  5
1BE
102
{ACAD_REACTORS
330
1A7
102
}
330
1A7
100
AcDbXrecord
 70
     0
  0
XRECORD
  5
1B2
102
{ACAD_REACTORS
330
1A7
102
}
330
1A7
100
AcDbXrecord
  1
{FAEB1C32-E019-11D5-929B-00C0DF256EC4}
  0
ENDSEC
  0
EOF
